osu file format v14

[General]
AudioFilename: 01 - White Flag_0.95.mp3
AudioLeadIn: 0
PreviewTime: -1
Countdown: 0
SampleSet: None
StackLeniency: 0.7
Mode: 3
LetterboxInBreaks: 0
SpecialStyle: 0
WidescreenStoryboard: 0

[Editor]
DistanceSpacing: 0.8
BeatDivisor: 2
GridSize: 32
TimelineZoom: 1

[Metadata]
Title:White Flag
TitleUnicode:White Flag
Artist:Dido
ArtistUnicode:Dido
Creator:rosepetal
Version:Beginner x0.95
Source:
Tags:
BeatmapID:1678703
BeatmapSetID:799544

[Difficulty]
HPDrainRate:5
CircleSize:4
OverallDifficulty:7
ApproachRate:5
SliderMultiplier:1.4
SliderTickRate:1

[Events]
//Background and Video events
//Break Periods
//Storyboard Layer 0 (Background)
//Storyboard Layer 1 (Fail)
//Storyboard Layer 2 (Pass)
//Storyboard Layer 3 (Foreground)
//Storyboard Sound Samples

[TimingPoints]
349,371.517027368421,4,1,0,100,1,0

[HitObjects]
448,192,1277,5,0,0:0:0:0:
448,192,1464,1,0,0:0:0:0:
448,192,1649,1,0,0:0:0:0:
448,192,1835,1,0,0:0:0:0:
448,192,2021,1,0,0:0:0:0:
448,192,2207,1,0,0:0:0:0:
448,192,2392,1,0,0:0:0:0:
64,192,2578,1,0,0:0:0:0:
64,192,2764,1,0,0:0:0:0:
64,192,2950,1,0,0:0:0:0:
64,192,3135,1,0,0:0:0:0:
64,192,3322,1,0,0:0:0:0:
64,192,3507,1,0,0:0:0:0:
64,192,3692,1,0,0:0:0:0:
64,192,3878,1,0,0:0:0:0:
64,192,4064,1,0,0:0:0:0:
64,192,4250,1,0,0:0:0:0:
64,192,4435,1,0,0:0:0:0:
64,192,4622,1,0,0:0:0:0:
448,192,4807,1,0,0:0:0:0:
448,192,4993,1,0,0:0:0:0:
448,192,5178,1,0,0:0:0:0:
448,192,5365,1,0,0:0:0:0:
448,192,5550,1,0,0:0:0:0:
448,192,5736,1,0,0:0:0:0:
448,192,5922,1,0,0:0:0:0:
448,192,6108,1,0,0:0:0:0:
448,192,6293,1,0,0:0:0:0:
192,192,7408,1,0,0:0:0:0:
192,192,7593,1,0,0:0:0:0:
192,192,7780,1,0,0:0:0:0:
192,192,7965,1,0,0:0:0:0:
192,192,8151,1,0,0:0:0:0:
192,192,8336,1,0,0:0:0:0:
192,192,8523,1,0,0:0:0:0:
192,192,8708,1,0,0:0:0:0:
192,192,8894,1,0,0:0:0:0:
192,192,9080,1,0,0:0:0:0:
320,192,9266,1,0,0:0:0:0:
320,192,9451,1,0,0:0:0:0:
320,192,9637,1,0,0:0:0:0:
320,192,9823,1,0,0:0:0:0:
320,192,10008,1,0,0:0:0:0:
320,192,10194,1,0,0:0:0:0:
448,192,10380,1,0,0:0:0:0:
448,192,10566,1,0,0:0:0:0:
448,192,10751,1,0,0:0:0:0:
448,192,10937,1,0,0:0:0:0:
448,192,11123,1,0,0:0:0:0:
448,192,11309,1,0,0:0:0:0:
448,192,11494,1,0,0:0:0:0:
448,192,11681,1,0,0:0:0:0:
448,192,11866,1,0,0:0:0:0:
64,192,13166,1,0,0:0:0:0:
448,192,13166,1,0,0:0:0:0:
192,192,13260,1,0,0:0:0:0:
320,192,13260,1,0,0:0:0:0:
64,192,13352,1,0,0:0:0:0:
448,192,13352,1,0,0:0:0:0:
192,192,13445,1,0,0:0:0:0:
320,192,13445,1,0,0:0:0:0:
64,192,13537,1,0,0:0:0:0:
448,192,13537,1,0,0:0:0:0:
192,192,13631,1,0,0:0:0:0:
320,192,13631,1,0,0:0:0:0:
64,192,13724,1,0,0:0:0:0:
448,192,13724,1,0,0:0:0:0:
320,192,13816,1,0,0:0:0:0:
448,192,13909,1,0,0:0:0:0:
320,192,14003,1,0,0:0:0:0:
448,192,14095,1,0,0:0:0:0:
320,192,14188,1,0,0:0:0:0:
192,192,14281,1,0,0:0:0:0:
64,192,14374,1,0,0:0:0:0:
192,192,14467,1,0,0:0:0:0:
320,192,14529,1,0,0:0:0:0:
448,192,14590,1,0,0:0:0:0:
64,192,14652,1,0,0:0:0:0:
192,192,14714,1,0,0:0:0:0:
320,192,14776,1,0,0:0:0:0:
448,192,14838,1,0,0:0:0:0:
64,192,14901,1,0,0:0:0:0:
192,192,14962,1,0,0:0:0:0:
320,192,15024,1,0,0:0:0:0:
448,192,15086,1,0,0:0:0:0:
64,192,15148,1,0,0:0:0:0:
192,192,15210,1,0,0:0:0:0:
320,192,15271,1,0,0:0:0:0:
448,192,15333,1,0,0:0:0:0:
64,192,15395,1,0,0:0:0:0:
192,192,15457,1,0,0:0:0:0:
320,192,15520,1,0,0:0:0:0:
448,192,15582,128,0,15953:0:0:0:0:
64,192,15953,1,0,0:0:0:0:
64,192,16138,1,0,0:0:0:0:
64,192,16324,1,0,0:0:0:0:
64,192,16510,1,0,0:0:0:0:
64,192,16695,1,0,0:0:0:0:
64,192,16882,1,0,0:0:0:0:
64,192,17067,1,0,0:0:0:0:
448,192,17067,1,0,0:0:0:0:
320,192,17161,1,0,0:0:0:0:
64,192,17253,1,0,0:0:0:0:
448,192,17253,1,0,0:0:0:0:
320,192,17346,1,0,0:0:0:0:
64,192,17438,1,0,0:0:0:0:
448,192,17438,1,0,0:0:0:0:
320,192,17532,1,0,0:0:0:0:
64,192,17625,1,0,0:0:0:0:
448,192,17625,1,0,0:0:0:0:
320,192,17717,1,0,0:0:0:0:
64,192,17810,1,0,0:0:0:0:
448,192,17810,1,0,0:0:0:0:
320,192,17903,1,0,0:0:0:0:
64,192,17996,1,0,0:0:0:0:
448,192,17996,1,0,0:0:0:0:
320,192,18089,1,0,0:0:0:0:
64,192,18182,1,0,0:0:0:0:
448,192,18182,1,0,0:0:0:0:
320,192,18274,1,0,0:0:0:0:
64,192,18368,1,0,0:0:0:0:
448,192,18368,1,0,0:0:0:0:
64,192,18925,1,0,0:0:0:0:
320,192,18925,1,0,0:0:0:0:
448,192,18925,1,0,0:0:0:0:
192,192,19017,1,0,0:0:0:0:
64,192,19111,1,0,0:0:0:0:
320,192,19111,1,0,0:0:0:0:
448,192,19111,1,0,0:0:0:0:
192,192,19204,1,0,0:0:0:0:
64,192,19296,1,0,0:0:0:0:
320,192,19296,1,0,0:0:0:0:
448,192,19296,1,0,0:0:0:0:
192,192,19389,1,0,0:0:0:0:
64,192,19482,1,0,0:0:0:0:
320,192,19482,1,0,0:0:0:0:
448,192,19482,1,0,0:0:0:0:
192,192,19575,1,0,0:0:0:0:
64,192,19668,1,0,0:0:0:0:
320,192,19668,1,0,0:0:0:0:
448,192,19668,1,0,0:0:0:0:
192,192,19853,1,0,0:0:0:0:
64,192,20040,1,0,0:0:0:0:
192,192,20040,1,0,0:0:0:0:
320,192,20040,1,0,0:0:0:0:
448,192,20040,1,0,0:0:0:0:
192,192,20225,1,0,0:0:0:0:
64,192,20411,1,0,0:0:0:0:
192,192,20411,1,0,0:0:0:0:
320,192,20411,1,0,0:0:0:0:
448,192,20411,1,0,0:0:0:0:
64,192,20596,1,0,0:0:0:0:
192,192,20596,1,0,0:0:0:0:
320,192,20596,1,0,0:0:0:0:
448,192,20596,1,0,0:0:0:0:
320,192,20783,1,0,0:0:0:0:
320,192,20968,1,0,0:0:0:0:
320,192,21154,1,0,0:0:0:0:
320,192,21340,1,0,0:0:0:0:
320,192,21526,1,0,0:0:0:0:
320,192,21711,1,0,0:0:0:0:
320,192,21897,1,0,0:0:0:0:
64,192,21990,1,0,0:0:0:0:
192,192,21990,1,0,0:0:0:0:
448,192,21990,1,0,0:0:0:0:
320,192,22083,1,0,0:0:0:0:
64,192,22175,1,0,0:0:0:0:
192,192,22175,1,0,0:0:0:0:
448,192,22175,1,0,0:0:0:0:
320,192,22269,1,0,0:0:0:0:
64,192,22362,1,0,0:0:0:0:
192,192,22362,1,0,0:0:0:0:
448,192,22362,1,0,0:0:0:0:
320,192,22454,1,0,0:0:0:0:
64,192,22547,1,0,0:0:0:0:
192,192,22547,1,0,0:0:0:0:
448,192,22547,1,0,0:0:0:0:
320,192,22640,1,0,0:0:0:0:
320,192,22826,1,0,0:0:0:0:
64,192,23011,1,0,0:0:0:0:
192,192,23011,1,0,0:0:0:0:
320,192,23011,1,0,0:0:0:0:
448,192,23011,1,0,0:0:0:0:
64,192,23197,1,0,0:0:0:0:
192,192,23197,1,0,0:0:0:0:
320,192,23197,1,0,0:0:0:0:
448,192,23197,1,0,0:0:0:0:
64,192,23383,1,0,0:0:0:0:
192,192,23383,1,0,0:0:0:0:
320,192,23383,1,0,0:0:0:0:
448,192,23383,1,0,0:0:0:0:
64,192,23569,1,0,0:0:0:0:
192,192,23569,1,0,0:0:0:0:
320,192,23569,1,0,0:0:0:0:
448,192,23569,1,0,0:0:0:0:
64,192,23754,1,0,0:0:0:0:
192,192,23754,1,0,0:0:0:0:
320,192,23754,1,0,0:0:0:0:
448,192,23754,1,0,0:0:0:0:
64,192,24126,1,0,0:0:0:0:
192,192,24172,1,0,0:0:0:0:
448,192,24218,1,0,0:0:0:0:
320,192,24266,1,0,0:0:0:0:
192,192,24312,1,0,0:0:0:0:
64,192,24358,1,0,0:0:0:0:
192,192,24405,1,0,0:0:0:0:
320,192,24451,1,0,0:0:0:0:
448,192,24497,1,0,0:0:0:0:
320,192,24544,1,0,0:0:0:0:
192,192,24590,1,0,0:0:0:0:
64,192,24637,1,0,0:0:0:0:
448,192,24637,1,0,0:0:0:0:
320,192,24684,1,0,0:0:0:0:
192,192,24730,1,0,0:0:0:0:
64,192,24776,1,0,0:0:0:0:
448,192,24776,1,0,0:0:0:0:
320,192,24823,1,0,0:0:0:0:
192,192,24869,1,0,0:0:0:0:
64,192,25055,1,0,0:0:0:0:
448,192,25055,1,0,0:0:0:0:
64,192,25241,1,0,0:0:0:0:
320,192,25241,1,0,0:0:0:0:
64,192,25427,1,0,0:0:0:0:
192,192,25427,1,0,0:0:0:0:
64,192,25612,1,0,0:0:0:0:
320,192,25612,1,0,0:0:0:0:
64,192,25797,1,0,0:0:0:0:
448,192,25797,1,0,0:0:0:0:
64,192,25984,1,0,0:0:0:0:
320,192,25984,1,0,0:0:0:0:
64,192,26169,1,0,0:0:0:0:
320,192,26169,1,0,0:0:0:0:
64,192,26355,1,0,0:0:0:0:
448,192,26355,1,0,0:0:0:0:
320,192,26417,1,0,0:0:0:0:
64,192,26480,1,0,0:0:0:0:
320,192,26541,1,0,0:0:0:0:
64,192,26603,1,0,0:0:0:0:
320,192,26665,1,0,0:0:0:0:
64,192,26727,1,0,0:0:0:0:
192,192,26727,1,0,0:0:0:0:
448,192,26727,1,0,0:0:0:0:
320,192,26789,1,0,0:0:0:0:
64,192,26850,1,0,0:0:0:0:
320,192,26912,1,0,0:0:0:0:
64,192,26974,1,0,0:0:0:0:
320,192,27036,1,0,0:0:0:0:
64,192,27098,1,0,0:0:0:0:
320,192,27161,1,0,0:0:0:0:
64,192,27222,1,0,0:0:0:0:
320,192,27284,1,0,0:0:0:0:
64,192,27346,1,0,0:0:0:0:
320,192,27408,1,0,0:0:0:0:
64,192,27470,1,0,0:0:0:0:
192,192,27655,1,0,0:0:0:0:
320,192,27655,1,0,0:0:0:0:
448,192,27655,1,0,0:0:0:0:
192,192,27842,1,0,0:0:0:0:
320,192,27842,1,0,0:0:0:0:
448,192,27842,1,0,0:0:0:0:
192,192,28027,1,0,0:0:0:0:
320,192,28027,1,0,0:0:0:0:
448,192,28027,1,0,0:0:0:0:
192,192,28213,1,0,0:0:0:0:
320,192,28213,1,0,0:0:0:0:
448,192,28213,1,0,0:0:0:0:
64,192,28398,1,0,0:0:0:0:
64,192,28585,1,0,0:0:0:0:
64,192,28770,1,0,0:0:0:0:
64,192,28955,1,0,0:0:0:0:
448,192,28955,1,0,0:0:0:0:
192,192,29049,1,0,0:0:0:0:
64,192,29142,1,0,0:0:0:0:
448,192,29142,1,0,0:0:0:0:
192,192,29234,1,0,0:0:0:0:
64,192,29327,1,0,0:0:0:0:
448,192,29327,1,0,0:0:0:0:
192,192,29421,1,0,0:0:0:0:
64,192,29513,1,0,0:0:0:0:
448,192,29513,1,0,0:0:0:0:
192,192,29606,1,0,0:0:0:0:
64,192,29698,1,0,0:0:0:0:
448,192,29698,1,0,0:0:0:0:
192,192,29792,1,0,0:0:0:0:
64,192,29885,1,0,0:0:0:0:
448,192,29885,1,0,0:0:0:0:
192,192,29977,1,0,0:0:0:0:
64,192,30070,1,0,0:0:0:0:
448,192,30070,1,0,0:0:0:0:
192,192,30164,1,0,0:0:0:0:
64,192,30256,1,0,0:0:0:0:
448,192,30256,1,0,0:0:0:0:
64,192,30628,1,0,0:0:0:0:
192,192,30628,1,0,0:0:0:0:
320,192,30628,1,0,0:0:0:0:
64,192,30813,1,0,0:0:0:0:
448,192,30813,1,0,0:0:0:0:
448,192,30906,1,0,0:0:0:0:
64,192,31000,1,0,0:0:0:0:
448,192,31000,1,0,0:0:0:0:
448,192,31092,1,0,0:0:0:0:
64,192,31185,1,0,0:0:0:0:
448,192,31185,128,0,33043:0:0:0:0:
64,192,31928,1,0,0:0:0:0:
320,192,32021,1,0,0:0:0:0:
192,192,32113,1,0,0:0:0:0:
64,192,32207,1,0,0:0:0:0:
320,192,32300,1,0,0:0:0:0:
192,192,32392,1,0,0:0:0:0:
64,192,32485,1,0,0:0:0:0:
320,192,32578,1,0,0:0:0:0:
192,192,32671,1,0,0:0:0:0:
64,192,32764,1,0,0:0:0:0:
320,192,32856,1,0,0:0:0:0:
192,192,32950,1,0,0:0:0:0:
64,192,33043,1,0,0:0:0:0:
64,192,33228,1,0,0:0:0:0:
64,192,33414,1,0,0:0:0:0:
64,192,33600,1,0,0:0:0:0:
64,192,33786,1,0,0:0:0:0:
192,192,33786,1,0,0:0:0:0:
448,192,33786,1,0,0:0:0:0:
320,192,33878,1,0,0:0:0:0:
192,192,33971,1,0,0:0:0:0:
448,192,33971,1,0,0:0:0:0:
320,192,34064,1,0,0:0:0:0:
192,192,34157,1,0,0:0:0:0:
448,192,34157,1,0,0:0:0:0:
320,192,34250,1,0,0:0:0:0:
192,192,34343,1,0,0:0:0:0:
448,192,34343,1,0,0:0:0:0:
320,192,34435,1,0,0:0:0:0:
192,192,34529,1,0,0:0:0:0:
448,192,34529,1,0,0:0:0:0:
320,192,34714,1,0,0:0:0:0:
64,192,34901,1,0,0:0:0:0:
192,192,34901,1,0,0:0:0:0:
320,192,34901,1,0,0:0:0:0:
448,192,34901,1,0,0:0:0:0:
64,192,35086,1,0,0:0:0:0:
192,192,35086,1,0,0:0:0:0:
320,192,35086,1,0,0:0:0:0:
448,192,35086,1,0,0:0:0:0:
64,192,35271,1,0,0:0:0:0:
192,192,35271,1,0,0:0:0:0:
320,192,35271,1,0,0:0:0:0:
448,192,35271,1,0,0:0:0:0:
64,192,35457,1,0,0:0:0:0:
192,192,35457,1,0,0:0:0:0:
320,192,35457,1,0,0:0:0:0:
448,192,35457,1,0,0:0:0:0:
64,192,35643,1,0,0:0:0:0:
192,192,35643,1,0,0:0:0:0:
320,192,35643,1,0,0:0:0:0:
448,192,35643,1,0,0:0:0:0:
64,192,35829,1,0,0:0:0:0:
192,192,35829,1,0,0:0:0:0:
320,192,35829,1,0,0:0:0:0:
448,192,35829,1,0,0:0:0:0:
448,192,36014,1,0,0:0:0:0:
320,192,36061,1,0,0:0:0:0:
64,192,36108,1,0,0:0:0:0:
192,192,36154,1,0,0:0:0:0:
320,192,36201,1,0,0:0:0:0:
448,192,36247,1,0,0:0:0:0:
320,192,36293,1,0,0:0:0:0:
64,192,36340,1,0,0:0:0:0:
192,192,36386,1,0,0:0:0:0:
192,192,36757,1,0,0:0:0:0:
448,192,36757,1,0,0:0:0:0:
320,192,36820,1,0,0:0:0:0:
448,192,36882,1,0,0:0:0:0:
320,192,36944,1,0,0:0:0:0:
192,192,37006,1,0,0:0:0:0:
64,192,37067,1,0,0:0:0:0:
192,192,37129,1,0,0:0:0:0:
448,192,37129,1,0,0:0:0:0:
320,192,37191,1,0,0:0:0:0:
448,192,37253,1,0,0:0:0:0:
320,192,37315,1,0,0:0:0:0:
192,192,37376,1,0,0:0:0:0:
64,192,37438,1,0,0:0:0:0:
192,192,37501,1,0,0:0:0:0:
448,192,37501,1,0,0:0:0:0:
64,192,37872,1,0,0:0:0:0:
448,192,37872,1,0,0:0:0:0:
192,192,37934,1,0,0:0:0:0:
64,192,37996,1,0,0:0:0:0:
192,192,38058,1,0,0:0:0:0:
64,192,38120,1,0,0:0:0:0:
192,192,38182,1,0,0:0:0:0:
64,192,38244,1,0,0:0:0:0:
448,192,38244,1,0,0:0:0:0:
320,192,38306,1,0,0:0:0:0:
448,192,38368,1,0,0:0:0:0:
320,192,38429,1,0,0:0:0:0:
448,192,38491,1,0,0:0:0:0:
320,192,38553,1,0,0:0:0:0:
64,192,38615,1,0,0:0:0:0:
448,192,38615,1,0,0:0:0:0:
192,192,38677,1,0,0:0:0:0:
320,192,38740,1,0,0:0:0:0:
192,192,38801,1,0,0:0:0:0:
320,192,38863,1,0,0:0:0:0:
192,192,38925,1,0,0:0:0:0:
64,192,38987,1,0,0:0:0:0:
448,192,38987,1,0,0:0:0:0:
192,192,39358,1,0,0:0:0:0:
320,192,39358,1,0,0:0:0:0:
448,192,39421,1,0,0:0:0:0:
320,192,39482,1,0,0:0:0:0:
192,192,39544,1,0,0:0:0:0:
320,192,39606,1,0,0:0:0:0:
192,192,39668,1,0,0:0:0:0:
64,192,39730,1,0,0:0:0:0:
448,192,39730,1,0,0:0:0:0:
192,192,39792,1,0,0:0:0:0:
448,192,39853,1,0,0:0:0:0:
192,192,39915,1,0,0:0:0:0:
448,192,39977,1,0,0:0:0:0:
320,192,40040,1,0,0:0:0:0:
192,192,40102,1,0,0:0:0:0:
448,192,40102,1,0,0:0:0:0:
64,192,40164,1,0,0:0:0:0:
320,192,40225,1,0,0:0:0:0:
64,192,40287,1,0,0:0:0:0:
320,192,40349,1,0,0:0:0:0:
192,192,40411,1,0,0:0:0:0:
64,192,40473,1,0,0:0:0:0:
320,192,40473,1,0,0:0:0:0:
320,192,40845,1,0,0:0:0:0:
448,192,40845,1,0,0:0:0:0:
192,192,40906,1,0,0:0:0:0:
64,192,40968,1,0,0:0:0:0:
192,192,41030,1,0,0:0:0:0:
320,192,41092,1,0,0:0:0:0:
448,192,41154,1,0,0:0:0:0:
64,192,41216,1,0,0:0:0:0:
192,192,41216,1,0,0:0:0:0:
320,192,41277,1,0,0:0:0:0:
192,192,41340,1,0,0:0:0:0:
320,192,41402,1,0,0:0:0:0:
64,192,41464,1,0,0:0:0:0:
192,192,41526,1,0,0:0:0:0:
320,192,41587,1,0,0:0:0:0:
448,192,41587,1,0,0:0:0:0:
64,192,41649,1,0,0:0:0:0:
448,192,41711,1,0,0:0:0:0:
192,192,41773,1,0,0:0:0:0:
448,192,41835,1,0,0:0:0:0:
320,192,41897,1,0,0:0:0:0:
64,192,41958,1,0,0:0:0:0:
192,192,41958,1,0,0:0:0:0:
192,192,42330,1,0,0:0:0:0:
448,192,42330,1,0,0:0:0:0:
64,192,42392,1,0,0:0:0:0:
320,192,42454,1,0,0:0:0:0:
64,192,42516,1,0,0:0:0:0:
320,192,42578,1,0,0:0:0:0:
64,192,42640,1,0,0:0:0:0:
320,192,42702,1,0,0:0:0:0:
448,192,42702,1,0,0:0:0:0:
192,192,42764,1,0,0:0:0:0:
320,192,42826,1,0,0:0:0:0:
192,192,42888,1,0,0:0:0:0:
320,192,42950,1,0,0:0:0:0:
448,192,43011,1,0,0:0:0:0:
64,192,43073,1,0,0:0:0:0:
320,192,43073,1,0,0:0:0:0:
192,192,43135,1,0,0:0:0:0:
448,192,43197,1,0,0:0:0:0:
192,192,43260,1,0,0:0:0:0:
448,192,43322,1,0,0:0:0:0:
320,192,43383,1,0,0:0:0:0:
64,192,43445,1,0,0:0:0:0:
192,192,43445,1,0,0:0:0:0:
448,192,43507,1,0,0:0:0:0:
64,192,43569,1,0,0:0:0:0:
448,192,43631,1,0,0:0:0:0:
64,192,43692,1,0,0:0:0:0:
192,192,43754,1,0,0:0:0:0:
64,192,43816,1,0,0:0:0:0:
448,192,43816,1,0,0:0:0:0:
192,192,44560,1,0,0:0:0:0:
320,192,44560,1,0,0:0:0:0:
448,192,44560,1,0,0:0:0:0:
64,192,44838,1,0,0:0:0:0:
192,192,45116,1,0,0:0:0:0:
320,192,45116,1,0,0:0:0:0:
448,192,45116,1,0,0:0:0:0:
64,192,45674,1,0,0:0:0:0:
192,192,45674,1,0,0:0:0:0:
320,192,45674,1,0,0:0:0:0:
448,192,45674,1,0,0:0:0:0:
64,192,46046,1,0,0:0:0:0:
192,192,46046,1,0,0:0:0:0:
320,192,46046,1,0,0:0:0:0:
448,192,46046,1,0,0:0:0:0:
64,192,46417,1,0,0:0:0:0:
64,192,46789,1,0,0:0:0:0:
192,192,46789,1,0,0:0:0:0:
64,192,46974,1,0,0:0:0:0:
192,192,46974,1,0,0:0:0:0:
320,192,46974,1,0,0:0:0:0:
64,192,47161,1,0,0:0:0:0:
192,192,47161,1,0,0:0:0:0:
320,192,47161,1,0,0:0:0:0:
448,192,47161,1,0,0:0:0:0:
64,192,47532,1,0,0:0:0:0:
192,192,47532,1,0,0:0:0:0:
320,192,47532,1,0,0:0:0:0:
448,192,47532,1,0,0:0:0:0:
64,192,47903,1,0,0:0:0:0:
448,192,47903,1,0,0:0:0:0:
192,192,47965,1,0,0:0:0:0:
320,192,48027,1,0,0:0:0:0:
448,192,48089,1,0,0:0:0:0:
320,192,48151,1,0,0:0:0:0:
64,192,48213,1,0,0:0:0:0:
192,192,48274,1,0,0:0:0:0:
448,192,48274,1,0,0:0:0:0:
64,192,48336,1,0,0:0:0:0:
192,192,48398,1,0,0:0:0:0:
320,192,48461,1,0,0:0:0:0:
192,192,48523,1,0,0:0:0:0:
320,192,48585,1,0,0:0:0:0:
64,192,48646,1,0,0:0:0:0:
448,192,48646,1,0,0:0:0:0:
192,192,48708,1,0,0:0:0:0:
320,192,48770,1,0,0:0:0:0:
448,192,48832,1,0,0:0:0:0:
64,192,48894,1,0,0:0:0:0:
320,192,48955,1,0,0:0:0:0:
192,192,49017,1,0,0:0:0:0:
448,192,49017,1,0,0:0:0:0:
320,192,49080,1,0,0:0:0:0:
192,192,49142,1,0,0:0:0:0:
64,192,49204,1,0,0:0:0:0:
448,192,49204,1,0,0:0:0:0:
320,192,49266,1,0,0:0:0:0:
192,192,49327,1,0,0:0:0:0:
64,192,49389,1,0,0:0:0:0:
448,192,49389,1,0,0:0:0:0:
320,192,49451,1,0,0:0:0:0:
192,192,49513,1,0,0:0:0:0:
64,192,49575,1,0,0:0:0:0:
448,192,49575,1,0,0:0:0:0:
320,192,49637,1,0,0:0:0:0:
192,192,49698,1,0,0:0:0:0:
64,192,49761,1,0,0:0:0:0:
448,192,49761,1,0,0:0:0:0:
320,192,49823,1,0,0:0:0:0:
192,192,49885,1,0,0:0:0:0:
320,192,49947,1,0,0:0:0:0:
448,192,50008,1,0,0:0:0:0:
192,192,50070,1,0,0:0:0:0:
64,192,50132,1,0,0:0:0:0:
320,192,50132,1,0,0:0:0:0:
448,192,50194,1,0,0:0:0:0:
192,192,50256,1,0,0:0:0:0:
448,192,50318,1,0,0:0:0:0:
192,192,50380,1,0,0:0:0:0:
320,192,50442,1,0,0:0:0:0:
64,192,50504,1,0,0:0:0:0:
448,192,50504,1,0,0:0:0:0:
192,192,50566,1,0,0:0:0:0:
64,192,50628,1,0,0:0:0:0:
320,192,50690,1,0,0:0:0:0:
448,192,50751,1,0,0:0:0:0:
192,192,50813,1,0,0:0:0:0:
64,192,50875,1,0,0:0:0:0:
320,192,50875,1,0,0:0:0:0:
64,192,51061,1,0,0:0:0:0:
448,192,51061,1,0,0:0:0:0:
64,192,51247,1,0,0:0:0:0:
448,192,51247,1,0,0:0:0:0:
320,192,51309,1,0,0:0:0:0:
64,192,51371,1,0,0:0:0:0:
448,192,51432,1,0,0:0:0:0:
320,192,51494,1,0,0:0:0:0:
64,192,51556,1,0,0:0:0:0:
192,192,51618,1,0,0:0:0:0:
448,192,51618,1,0,0:0:0:0:
320,192,51681,1,0,0:0:0:0:
64,192,51743,1,0,0:0:0:0:
320,192,51804,1,0,0:0:0:0:
192,192,51866,1,0,0:0:0:0:
448,192,51928,1,0,0:0:0:0:
64,192,51990,1,0,0:0:0:0:
320,192,51990,1,0,0:0:0:0:
192,192,52052,1,0,0:0:0:0:
320,192,52113,1,0,0:0:0:0:
448,192,52175,1,0,0:0:0:0:
64,192,52237,1,0,0:0:0:0:
192,192,52300,1,0,0:0:0:0:
64,192,52362,1,0,0:0:0:0:
448,192,52362,1,0,0:0:0:0:
320,192,52424,1,0,0:0:0:0:
448,192,52485,1,0,0:0:0:0:
192,192,52547,1,0,0:0:0:0:
64,192,52609,1,0,0:0:0:0:
448,192,52671,1,0,0:0:0:0:
192,192,52733,1,0,0:0:0:0:
320,192,52733,1,0,0:0:0:0:
64,192,52795,1,0,0:0:0:0:
448,192,52856,1,0,0:0:0:0:
192,192,52918,1,0,0:0:0:0:
320,192,52981,1,0,0:0:0:0:
192,192,53043,1,0,0:0:0:0:
64,192,53105,1,0,0:0:0:0:
448,192,53105,1,0,0:0:0:0:
320,192,53166,1,0,0:0:0:0:
448,192,53228,1,0,0:0:0:0:
192,192,53290,1,0,0:0:0:0:
64,192,53352,1,0,0:0:0:0:
320,192,53414,1,0,0:0:0:0:
192,192,53476,1,0,0:0:0:0:
448,192,53476,1,0,0:0:0:0:
64,192,53537,1,0,0:0:0:0:
320,192,53600,1,0,0:0:0:0:
192,192,53662,1,0,0:0:0:0:
448,192,53724,1,0,0:0:0:0:
192,192,53786,1,0,0:0:0:0:
64,192,53848,1,0,0:0:0:0:
320,192,53848,1,0,0:0:0:0:
64,192,54218,1,0,0:0:0:0:
448,192,54218,1,0,0:0:0:0:
64,192,54590,1,0,0:0:0:0:
448,192,54590,1,0,0:0:0:0:
320,192,54652,1,0,0:0:0:0:
192,192,54714,1,0,0:0:0:0:
64,192,54776,1,0,0:0:0:0:
320,192,54838,1,0,0:0:0:0:
64,192,54901,1,0,0:0:0:0:
192,192,54962,1,0,0:0:0:0:
448,192,54962,1,0,0:0:0:0:
320,192,55024,1,0,0:0:0:0:
192,192,55086,1,0,0:0:0:0:
448,192,55148,1,0,0:0:0:0:
192,192,55210,1,0,0:0:0:0:
448,192,55271,1,0,0:0:0:0:
64,192,55333,1,0,0:0:0:0:
320,192,55333,1,0,0:0:0:0:
192,192,55395,1,0,0:0:0:0:
320,192,55457,1,0,0:0:0:0:
448,192,55520,1,0,0:0:0:0:
64,192,55582,1,0,0:0:0:0:
192,192,55643,1,0,0:0:0:0:
64,192,55705,1,0,0:0:0:0:
448,192,55705,1,0,0:0:0:0:
320,192,55767,1,0,0:0:0:0:
192,192,55829,1,0,0:0:0:0:
64,192,55891,1,0,0:0:0:0:
448,192,55891,1,0,0:0:0:0:
320,192,55953,1,0,0:0:0:0:
192,192,56014,1,0,0:0:0:0:
64,192,56076,1,0,0:0:0:0:
192,192,56138,1,0,0:0:0:0:
320,192,56201,1,0,0:0:0:0:
64,192,56263,1,0,0:0:0:0:
448,192,56263,1,0,0:0:0:0:
320,192,56324,1,0,0:0:0:0:
192,192,56386,1,0,0:0:0:0:
64,192,56448,1,0,0:0:0:0:
192,192,56510,1,0,0:0:0:0:
320,192,56572,1,0,0:0:0:0:
64,192,56634,1,0,0:0:0:0:
448,192,56634,1,0,0:0:0:0:
320,192,56695,1,0,0:0:0:0:
192,192,56757,1,0,0:0:0:0:
64,192,56820,1,0,0:0:0:0:
192,192,56882,1,0,0:0:0:0:
320,192,56944,1,0,0:0:0:0:
64,192,57006,1,0,0:0:0:0:
448,192,57006,1,0,0:0:0:0:
64,192,57191,1,0,0:0:0:0:
448,192,57191,1,0,0:0:0:0:
192,192,57376,1,0,0:0:0:0:
320,192,57376,1,0,0:0:0:0:
64,192,57563,1,0,0:0:0:0:
192,192,57563,1,0,0:0:0:0:
320,192,57563,1,0,0:0:0:0:
448,192,57563,1,0,0:0:0:0:
448,192,57748,1,0,0:0:0:0:
448,192,57934,1,0,0:0:0:0:
320,192,58120,1,0,0:0:0:0:
320,192,58306,1,0,0:0:0:0:
192,192,58491,1,0,0:0:0:0:
192,192,58677,1,0,0:0:0:0:
64,192,58863,1,0,0:0:0:0:
448,192,58863,1,0,0:0:0:0:
64,192,59049,1,0,0:0:0:0:
64,192,59234,1,0,0:0:0:0:
64,192,59421,1,0,0:0:0:0:
448,192,59421,1,0,0:0:0:0:
192,192,59482,1,0,0:0:0:0:
448,192,59544,1,0,0:0:0:0:
320,192,59606,1,0,0:0:0:0:
64,192,59668,1,0,0:0:0:0:
320,192,59730,1,0,0:0:0:0:
192,192,59792,1,0,0:0:0:0:
448,192,59792,1,0,0:0:0:0:
64,192,59853,1,0,0:0:0:0:
320,192,59915,1,0,0:0:0:0:
192,192,59977,1,0,0:0:0:0:
64,192,60040,1,0,0:0:0:0:
192,192,60102,1,0,0:0:0:0:
320,192,60164,1,0,0:0:0:0:
448,192,60164,1,0,0:0:0:0:
64,192,60225,1,0,0:0:0:0:
192,192,60287,1,0,0:0:0:0:
448,192,60349,1,0,0:0:0:0:
192,192,60411,1,0,0:0:0:0:
448,192,60473,1,0,0:0:0:0:
64,192,60534,1,0,0:0:0:0:
192,192,60534,1,0,0:0:0:0:
320,192,60534,1,0,0:0:0:0:
448,192,60596,1,0,0:0:0:0:
64,192,60658,1,0,0:0:0:0:
192,192,60721,1,0,0:0:0:0:
320,192,60783,1,0,0:0:0:0:
192,192,60845,1,0,0:0:0:0:
64,192,60906,1,0,0:0:0:0:
448,192,60906,1,0,0:0:0:0:
320,192,60968,1,0,0:0:0:0:
64,192,61030,1,0,0:0:0:0:
320,192,61092,1,0,0:0:0:0:
64,192,61154,1,0,0:0:0:0:
448,192,61216,1,0,0:0:0:0:
64,192,61277,1,0,0:0:0:0:
192,192,61277,1,0,0:0:0:0:
320,192,61277,1,0,0:0:0:0:
448,192,61340,1,0,0:0:0:0:
320,192,61402,1,0,0:0:0:0:
192,192,61464,1,0,0:0:0:0:
64,192,61526,1,0,0:0:0:0:
320,192,61587,1,0,0:0:0:0:
192,192,61649,1,0,0:0:0:0:
448,192,61649,1,0,0:0:0:0:
64,192,61711,1,0,0:0:0:0:
192,192,61773,1,0,0:0:0:0:
64,192,61835,1,0,0:0:0:0:
192,192,61897,1,0,0:0:0:0:
320,192,61958,1,0,0:0:0:0:
64,192,62021,1,0,0:0:0:0:
448,192,62021,1,0,0:0:0:0:
320,192,62083,1,0,0:0:0:0:
448,192,62145,1,0,0:0:0:0:
320,192,62207,1,0,0:0:0:0:
448,192,62269,1,0,0:0:0:0:
192,192,62330,1,0,0:0:0:0:
64,192,62392,1,0,0:0:0:0:
320,192,62392,1,0,0:0:0:0:
448,192,62454,1,0,0:0:0:0:
192,192,62516,1,0,0:0:0:0:
448,192,62578,1,0,0:0:0:0:
192,192,62640,1,0,0:0:0:0:
320,192,62702,1,0,0:0:0:0:
64,192,62764,1,0,0:0:0:0:
448,192,62764,1,0,0:0:0:0:
192,192,62826,1,0,0:0:0:0:
320,192,62888,1,0,0:0:0:0:
64,192,62950,1,0,0:0:0:0:
192,192,63011,1,0,0:0:0:0:
320,192,63073,1,0,0:0:0:0:
64,192,63135,1,0,0:0:0:0:
448,192,63135,1,0,0:0:0:0:
192,192,63197,1,0,0:0:0:0:
320,192,63260,1,0,0:0:0:0:
448,192,63322,1,0,0:0:0:0:
320,192,63383,1,0,0:0:0:0:
192,192,63445,1,0,0:0:0:0:
64,192,63507,1,0,0:0:0:0:
448,192,63507,1,0,0:0:0:0:
192,192,63569,1,0,0:0:0:0:
320,192,63631,1,0,0:0:0:0:
448,192,63692,1,0,0:0:0:0:
320,192,63754,1,0,0:0:0:0:
192,192,63816,1,0,0:0:0:0:
64,192,63878,1,0,0:0:0:0:
448,192,63878,1,0,0:0:0:0:
192,192,63941,1,0,0:0:0:0:
320,192,64003,1,0,0:0:0:0:
448,192,64064,1,0,0:0:0:0:
320,192,64126,1,0,0:0:0:0:
64,192,64188,1,0,0:0:0:0:
192,192,64250,1,0,0:0:0:0:
448,192,64250,1,0,0:0:0:0:
320,192,64312,1,0,0:0:0:0:
64,192,64374,1,0,0:0:0:0:
320,192,64435,1,0,0:0:0:0:
64,192,64497,1,0,0:0:0:0:
192,192,64560,1,0,0:0:0:0:
64,192,64622,1,0,0:0:0:0:
448,192,64622,1,0,0:0:0:0:
192,192,64684,1,0,0:0:0:0:
320,192,64745,1,0,0:0:0:0:
64,192,64807,1,0,0:0:0:0:
448,192,64807,1,0,0:0:0:0:
192,192,64869,1,0,0:0:0:0:
320,192,64931,1,0,0:0:0:0:
64,192,64993,1,0,0:0:0:0:
448,192,64993,1,0,0:0:0:0:
192,192,65055,1,0,0:0:0:0:
320,192,65116,1,0,0:0:0:0:
64,192,65178,1,0,0:0:0:0:
448,192,65178,1,0,0:0:0:0:
192,192,65241,1,0,0:0:0:0:
320,192,65303,1,0,0:0:0:0:
448,192,65365,1,0,0:0:0:0:
64,192,65427,1,0,0:0:0:0:
192,192,65488,1,0,0:0:0:0:
320,192,65550,1,0,0:0:0:0:
448,192,65612,1,0,0:0:0:0:
192,192,65674,1,0,0:0:0:0:
64,192,65736,1,0,0:0:0:0:
320,192,65736,1,0,0:0:0:0:
448,192,65797,1,0,0:0:0:0:
192,192,65860,1,0,0:0:0:0:
320,192,65922,1,0,0:0:0:0:
64,192,65984,1,0,0:0:0:0:
320,192,66046,1,0,0:0:0:0:
64,192,66108,1,0,0:0:0:0:
448,192,66108,1,0,0:0:0:0:
192,192,66169,1,0,0:0:0:0:
448,192,66231,1,0,0:0:0:0:
192,192,66293,1,0,0:0:0:0:
320,192,66355,1,0,0:0:0:0:
64,192,66417,1,0,0:0:0:0:
192,192,66480,1,0,0:0:0:0:
448,192,66480,1,0,0:0:0:0:
320,192,66541,1,0,0:0:0:0:
64,192,66603,1,0,0:0:0:0:
320,192,66665,1,0,0:0:0:0:
64,192,66727,1,0,0:0:0:0:
192,192,66789,1,0,0:0:0:0:
64,192,66850,1,0,0:0:0:0:
448,192,66850,1,0,0:0:0:0:
320,192,66912,1,0,0:0:0:0:
448,192,66974,1,0,0:0:0:0:
192,192,67036,1,0,0:0:0:0:
64,192,67098,1,0,0:0:0:0:
192,192,67161,1,0,0:0:0:0:
320,192,67222,1,0,0:0:0:0:
448,192,67222,1,0,0:0:0:0:
64,192,67284,1,0,0:0:0:0:
448,192,67346,1,0,0:0:0:0:
192,192,67408,1,0,0:0:0:0:
320,192,67470,1,0,0:0:0:0:
64,192,67532,1,0,0:0:0:0:
192,192,67593,1,0,0:0:0:0:
448,192,67593,1,0,0:0:0:0:
320,192,67655,1,0,0:0:0:0:
64,192,67717,1,0,0:0:0:0:
448,192,67780,1,0,0:0:0:0:
192,192,67842,1,0,0:0:0:0:
320,192,67903,1,0,0:0:0:0:
64,192,67965,1,0,0:0:0:0:
192,192,67965,1,0,0:0:0:0:
448,192,68027,1,0,0:0:0:0:
320,192,68089,1,0,0:0:0:0:
448,192,68151,1,0,0:0:0:0:
64,192,68336,1,0,0:0:0:0:
320,192,68336,1,0,0:0:0:0:
64,192,68708,128,0,69451:0:0:0:0:
192,192,68708,1,0,0:0:0:0:
320,192,68708,128,0,69451:0:0:0:0:
192,192,69451,1,0,0:0:0:0:
448,192,69451,1,0,0:0:0:0:
320,192,69637,1,0,0:0:0:0:
192,192,69823,1,0,0:0:0:0:
448,192,69823,1,0,0:0:0:0:
192,192,70194,1,0,0:0:0:0:
320,192,70194,1,0,0:0:0:0:
448,192,70194,1,0,0:0:0:0:
64,192,70751,1,0,0:0:0:0:
320,192,70751,1,0,0:0:0:0:
64,192,70937,1,0,0:0:0:0:
192,192,70937,1,0,0:0:0:0:
320,192,70937,1,0,0:0:0:0:
64,192,71309,1,0,0:0:0:0:
192,192,71309,1,0,0:0:0:0:
320,192,71309,1,0,0:0:0:0:
448,192,71309,1,0,0:0:0:0:
64,192,71681,1,0,0:0:0:0:
192,192,71727,1,0,0:0:0:0:
320,192,71773,1,0,0:0:0:0:
448,192,71820,1,0,0:0:0:0:
320,192,71866,1,0,0:0:0:0:
64,192,71912,1,0,0:0:0:0:
192,192,71958,1,0,0:0:0:0:
320,192,72006,1,0,0:0:0:0:
448,192,72052,1,0,0:0:0:0:
64,192,72237,1,0,0:0:0:0:
192,192,72424,1,0,0:0:0:0:
448,192,72424,1,0,0:0:0:0:
320,192,72485,1,0,0:0:0:0:
64,192,72547,1,0,0:0:0:0:
448,192,72609,1,0,0:0:0:0:
192,192,72671,1,0,0:0:0:0:
64,192,72733,1,0,0:0:0:0:
320,192,72795,1,0,0:0:0:0:
448,192,72795,1,0,0:0:0:0:
192,192,72856,1,0,0:0:0:0:
320,192,72918,1,0,0:0:0:0:
448,192,72981,1,0,0:0:0:0:
192,192,73043,1,0,0:0:0:0:
448,192,73105,1,0,0:0:0:0:
64,192,73166,1,0,0:0:0:0:
320,192,73166,1,0,0:0:0:0:
192,192,73228,1,0,0:0:0:0:
64,192,73290,1,0,0:0:0:0:
320,192,73352,1,0,0:0:0:0:
448,192,73414,1,0,0:0:0:0:
320,192,73476,1,0,0:0:0:0:
64,192,73537,1,0,0:0:0:0:
192,192,73537,1,0,0:0:0:0:
448,192,73600,1,0,0:0:0:0:
64,192,73662,1,0,0:0:0:0:
320,192,73724,1,0,0:0:0:0:
192,192,73786,1,0,0:0:0:0:
320,192,73848,1,0,0:0:0:0:
64,192,73909,1,0,0:0:0:0:
448,192,73909,1,0,0:0:0:0:
192,192,73971,1,0,0:0:0:0:
320,192,74033,1,0,0:0:0:0:
448,192,74095,1,0,0:0:0:0:
64,192,74157,1,0,0:0:0:0:
192,192,74218,1,0,0:0:0:0:
64,192,74281,1,0,0:0:0:0:
320,192,74281,1,0,0:0:0:0:
448,192,74343,1,0,0:0:0:0:
320,192,74405,1,0,0:0:0:0:
192,192,74467,1,0,0:0:0:0:
64,192,74529,1,0,0:0:0:0:
192,192,74590,1,0,0:0:0:0:
64,192,74652,1,0,0:0:0:0:
448,192,74652,1,0,0:0:0:0:
320,192,74714,1,0,0:0:0:0:
192,192,74776,1,0,0:0:0:0:
320,192,74838,1,0,0:0:0:0:
192,192,74901,1,0,0:0:0:0:
64,192,74962,1,0,0:0:0:0:
192,192,75024,1,0,0:0:0:0:
448,192,75024,1,0,0:0:0:0:
320,192,75086,1,0,0:0:0:0:
64,192,75148,1,0,0:0:0:0:
320,192,75210,1,0,0:0:0:0:
64,192,75271,1,0,0:0:0:0:
448,192,75333,1,0,0:0:0:0:
192,192,75395,1,0,0:0:0:0:
320,192,75395,1,0,0:0:0:0:
448,192,75457,1,0,0:0:0:0:
64,192,75520,1,0,0:0:0:0:
448,192,75582,1,0,0:0:0:0:
64,192,75643,1,0,0:0:0:0:
320,192,75705,1,0,0:0:0:0:
64,192,75767,1,0,0:0:0:0:
448,192,75767,1,0,0:0:0:0:
192,192,75829,1,0,0:0:0:0:
64,192,75891,1,0,0:0:0:0:
192,192,75953,1,0,0:0:0:0:
64,192,76014,1,0,0:0:0:0:
320,192,76076,1,0,0:0:0:0:
64,192,76138,1,0,0:0:0:0:
448,192,76138,1,0,0:0:0:0:
320,192,76201,1,0,0:0:0:0:
448,192,76263,1,0,0:0:0:0:
320,192,76324,1,0,0:0:0:0:
448,192,76386,1,0,0:0:0:0:
64,192,76448,1,0,0:0:0:0:
192,192,76510,1,0,0:0:0:0:
320,192,76510,1,0,0:0:0:0:
448,192,76603,1,0,0:0:0:0:
320,192,76695,1,0,0:0:0:0:
448,192,76789,1,0,0:0:0:0:
320,192,76882,1,0,0:0:0:0:
448,192,76974,1,0,0:0:0:0:
320,192,77067,1,0,0:0:0:0:
448,192,77161,1,0,0:0:0:0:
320,192,77253,1,0,0:0:0:0:
448,192,77346,1,0,0:0:0:0:
320,192,77438,1,0,0:0:0:0:
192,192,77532,1,0,0:0:0:0:
64,192,77625,1,0,0:0:0:0:
448,192,77625,1,0,0:0:0:0:
320,192,77687,1,0,0:0:0:0:
192,192,77748,1,0,0:0:0:0:
320,192,77810,1,0,0:0:0:0:
192,192,77872,1,0,0:0:0:0:
320,192,77934,1,0,0:0:0:0:
64,192,77996,1,0,0:0:0:0:
448,192,77996,1,0,0:0:0:0:
192,192,78058,1,0,0:0:0:0:
64,192,78120,1,0,0:0:0:0:
192,192,78182,1,0,0:0:0:0:
64,192,78244,1,0,0:0:0:0:
192,192,78306,1,0,0:0:0:0:
64,192,78368,1,0,0:0:0:0:
448,192,78368,1,0,0:0:0:0:
320,192,78429,1,0,0:0:0:0:
448,192,78491,1,0,0:0:0:0:
320,192,78553,1,0,0:0:0:0:
448,192,78615,1,0,0:0:0:0:
320,192,78677,1,0,0:0:0:0:
64,192,78740,1,0,0:0:0:0:
448,192,78740,1,0,0:0:0:0:
192,192,78801,1,0,0:0:0:0:
64,192,78863,1,0,0:0:0:0:
320,192,78925,1,0,0:0:0:0:
448,192,78987,1,0,0:0:0:0:
192,192,79049,1,0,0:0:0:0:
64,192,79111,1,0,0:0:0:0:
448,192,79111,1,0,0:0:0:0:
320,192,79172,1,0,0:0:0:0:
448,192,79234,1,0,0:0:0:0:
64,192,79296,1,0,0:0:0:0:
192,192,79358,1,0,0:0:0:0:
320,192,79421,1,0,0:0:0:0:
64,192,79482,1,0,0:0:0:0:
448,192,79482,1,0,0:0:0:0:
192,192,79544,1,0,0:0:0:0:
448,192,79606,1,0,0:0:0:0:
192,192,79668,1,0,0:0:0:0:
448,192,79730,1,0,0:0:0:0:
192,192,79792,1,0,0:0:0:0:
64,192,79853,1,0,0:0:0:0:
448,192,79853,1,0,0:0:0:0:
320,192,79915,1,0,0:0:0:0:
64,192,79977,1,0,0:0:0:0:
320,192,80040,1,0,0:0:0:0:
64,192,80102,1,0,0:0:0:0:
320,192,80164,1,0,0:0:0:0:
64,192,80225,1,0,0:0:0:0:
448,192,80225,1,0,0:0:0:0:
192,192,80287,1,0,0:0:0:0:
320,192,80349,1,0,0:0:0:0:
64,192,80411,1,0,0:0:0:0:
448,192,80473,1,0,0:0:0:0:
192,192,80534,1,0,0:0:0:0:
64,192,80596,1,0,0:0:0:0:
448,192,80596,1,0,0:0:0:0:
320,192,80658,1,0,0:0:0:0:
448,192,80721,1,0,0:0:0:0:
192,192,80783,1,0,0:0:0:0:
64,192,80845,1,0,0:0:0:0:
320,192,80906,1,0,0:0:0:0:
64,192,80968,1,0,0:0:0:0:
448,192,80968,1,0,0:0:0:0:
192,192,81030,1,0,0:0:0:0:
64,192,81092,1,0,0:0:0:0:
448,192,81154,1,0,0:0:0:0:
320,192,81216,1,0,0:0:0:0:
192,192,81277,1,0,0:0:0:0:
64,192,81340,1,0,0:0:0:0:
448,192,81340,1,0,0:0:0:0:
320,192,81402,1,0,0:0:0:0:
64,192,81464,1,0,0:0:0:0:
448,192,81526,1,0,0:0:0:0:
192,192,81587,1,0,0:0:0:0:
320,192,81649,1,0,0:0:0:0:
64,192,81711,1,0,0:0:0:0:
448,192,81711,1,0,0:0:0:0:
192,192,81773,1,0,0:0:0:0:
448,192,81835,1,0,0:0:0:0:
64,192,81897,1,0,0:0:0:0:
320,192,81958,1,0,0:0:0:0:
192,192,82021,1,0,0:0:0:0:
64,192,82083,1,0,0:0:0:0:
448,192,82083,1,0,0:0:0:0:
64,192,82269,1,0,0:0:0:0:
192,192,82269,1,0,0:0:0:0:
320,192,82269,1,0,0:0:0:0:
448,192,82269,1,0,0:0:0:0:
64,192,82454,1,0,0:0:0:0:
448,192,82454,1,0,0:0:0:0:
192,192,82640,1,0,0:0:0:0:
320,192,82640,1,0,0:0:0:0:
64,192,82826,1,0,0:0:0:0:
448,192,82826,1,0,0:0:0:0:
192,192,83011,1,0,0:0:0:0:
320,192,83011,1,0,0:0:0:0:
64,192,83197,1,0,0:0:0:0:
448,192,83197,1,0,0:0:0:0:
320,192,83260,1,0,0:0:0:0:
64,192,83322,1,0,0:0:0:0:
192,192,83383,1,0,0:0:0:0:
320,192,83445,1,0,0:0:0:0:
64,192,83507,1,0,0:0:0:0:
192,192,83569,1,0,0:0:0:0:
448,192,83569,1,0,0:0:0:0:
320,192,83631,1,0,0:0:0:0:
448,192,83692,1,0,0:0:0:0:
64,192,83754,1,0,0:0:0:0:
320,192,83816,1,0,0:0:0:0:
192,192,83878,1,0,0:0:0:0:
320,192,83941,1,0,0:0:0:0:
448,192,83941,1,0,0:0:0:0:
64,192,84003,1,0,0:0:0:0:
320,192,84064,1,0,0:0:0:0:
192,192,84126,1,0,0:0:0:0:
448,192,84188,1,0,0:0:0:0:
64,192,84250,1,0,0:0:0:0:
192,192,84312,1,0,0:0:0:0:
320,192,84312,1,0,0:0:0:0:
448,192,84312,1,0,0:0:0:0:
64,192,84374,1,0,0:0:0:0:
192,192,84435,1,0,0:0:0:0:
320,192,84497,1,0,0:0:0:0:
448,192,84560,1,0,0:0:0:0:
192,192,84622,1,0,0:0:0:0:
64,192,84684,1,0,0:0:0:0:
320,192,84684,1,0,0:0:0:0:
448,192,84745,1,0,0:0:0:0:
320,192,84807,1,0,0:0:0:0:
448,192,84869,1,0,0:0:0:0:
64,192,84931,1,0,0:0:0:0:
448,192,84993,1,0,0:0:0:0:
64,192,85055,1,0,0:0:0:0:
192,192,85055,1,0,0:0:0:0:
320,192,85055,1,0,0:0:0:0:
448,192,85116,1,0,0:0:0:0:
64,192,85178,1,0,0:0:0:0:
192,192,85241,1,0,0:0:0:0:
320,192,85303,1,0,0:0:0:0:
64,192,85365,1,0,0:0:0:0:
192,192,85427,1,0,0:0:0:0:
448,192,85427,1,0,0:0:0:0:
320,192,85488,1,0,0:0:0:0:
192,192,85550,1,0,0:0:0:0:
64,192,85612,1,0,0:0:0:0:
448,192,85674,1,0,0:0:0:0:
64,192,85736,1,0,0:0:0:0:
192,192,85797,1,0,0:0:0:0:
320,192,85797,1,0,0:0:0:0:
448,192,85797,1,0,0:0:0:0:
64,192,85860,1,0,0:0:0:0:
448,192,85922,1,0,0:0:0:0:
320,192,85984,1,0,0:0:0:0:
192,192,86046,1,0,0:0:0:0:
448,192,86108,1,0,0:0:0:0:
64,192,86169,1,0,0:0:0:0:
320,192,86169,1,0,0:0:0:0:
192,192,86231,1,0,0:0:0:0:
320,192,86293,1,0,0:0:0:0:
64,192,86355,1,0,0:0:0:0:
448,192,86417,1,0,0:0:0:0:
320,192,86480,1,0,0:0:0:0:
192,192,86541,1,0,0:0:0:0:
448,192,86541,1,0,0:0:0:0:
64,192,86603,1,0,0:0:0:0:
192,192,86665,1,0,0:0:0:0:
64,192,86727,1,0,0:0:0:0:
448,192,86727,1,0,0:0:0:0:
320,192,86789,1,0,0:0:0:0:
192,192,86850,1,0,0:0:0:0:
64,192,86912,1,0,0:0:0:0:
192,192,86974,1,0,0:0:0:0:
320,192,87036,1,0,0:0:0:0:
64,192,87098,1,0,0:0:0:0:
448,192,87098,1,0,0:0:0:0:
320,192,87161,1,0,0:0:0:0:
192,192,87222,1,0,0:0:0:0:
64,192,87284,1,0,0:0:0:0:
192,192,87346,1,0,0:0:0:0:
320,192,87408,1,0,0:0:0:0:
64,192,87470,1,0,0:0:0:0:
448,192,87470,1,0,0:0:0:0:
320,192,87532,1,0,0:0:0:0:
192,192,87593,1,0,0:0:0:0:
64,192,87655,128,0,88027:0:0:0:0:
448,192,87655,128,0,88027:0:0:0:0:
192,192,88027,1,0,0:0:0:0:
320,192,88027,1,0,0:0:0:0:
64,192,88213,1,0,0:0:0:0:
448,192,88213,1,0,0:0:0:0:
192,192,88398,1,0,0:0:0:0:
320,192,88398,1,0,0:0:0:0:
64,192,88491,1,0,0:0:0:0:
192,192,88585,1,0,0:0:0:0:
64,192,88677,1,0,0:0:0:0:
192,192,88770,1,0,0:0:0:0:
64,192,88863,1,0,0:0:0:0:
192,192,88955,1,0,0:0:0:0:
64,192,89049,1,0,0:0:0:0:
192,192,89142,1,0,0:0:0:0:
64,192,89234,1,0,0:0:0:0:
192,192,89327,1,0,0:0:0:0:
64,192,89421,1,0,0:0:0:0:
192,192,89513,1,0,0:0:0:0:
448,192,89513,1,0,0:0:0:0:
320,192,89575,1,0,0:0:0:0:
64,192,89637,1,0,0:0:0:0:
192,192,89698,1,0,0:0:0:0:
320,192,89761,1,0,0:0:0:0:
192,192,89823,1,0,0:0:0:0:
64,192,89885,1,0,0:0:0:0:
448,192,89885,1,0,0:0:0:0:
320,192,89947,1,0,0:0:0:0:
192,192,90008,1,0,0:0:0:0:
448,192,90070,1,0,0:0:0:0:
320,192,90132,1,0,0:0:0:0:
192,192,90194,1,0,0:0:0:0:
64,192,90256,1,0,0:0:0:0:
448,192,90256,1,0,0:0:0:0:
320,192,90318,1,0,0:0:0:0:
192,192,90380,1,0,0:0:0:0:
64,192,90442,1,0,0:0:0:0:
448,192,90504,1,0,0:0:0:0:
192,192,90566,1,0,0:0:0:0:
64,192,90628,1,0,0:0:0:0:
320,192,90628,1,0,0:0:0:0:
64,192,91000,1,0,0:0:0:0:
448,192,91000,1,0,0:0:0:0:
64,192,91371,1,0,0:0:0:0:
448,192,91371,1,0,0:0:0:0:
64,192,91743,1,0,0:0:0:0:
448,192,91743,1,0,0:0:0:0:
320,192,91804,1,0,0:0:0:0:
192,192,91866,1,0,0:0:0:0:
64,192,91928,1,0,0:0:0:0:
448,192,91990,1,0,0:0:0:0:
64,192,92052,1,0,0:0:0:0:
192,192,92113,1,0,0:0:0:0:
320,192,92113,1,0,0:0:0:0:
448,192,92175,1,0,0:0:0:0:
64,192,92237,1,0,0:0:0:0:
192,192,92300,1,0,0:0:0:0:
320,192,92362,1,0,0:0:0:0:
448,192,92424,1,0,0:0:0:0:
192,192,92485,1,0,0:0:0:0:
320,192,92485,1,0,0:0:0:0:
64,192,92547,1,0,0:0:0:0:
192,192,92609,1,0,0:0:0:0:
320,192,92671,1,0,0:0:0:0:
448,192,92733,1,0,0:0:0:0:
192,192,92795,1,0,0:0:0:0:
64,192,92856,1,0,0:0:0:0:
448,192,92856,1,0,0:0:0:0:
64,192,93228,1,0,0:0:0:0:
448,192,93228,1,0,0:0:0:0:
192,192,93600,1,0,0:0:0:0:
448,192,93600,1,0,0:0:0:0:
320,192,93662,1,0,0:0:0:0:
64,192,93724,1,0,0:0:0:0:
192,192,93786,1,0,0:0:0:0:
320,192,93848,1,0,0:0:0:0:
448,192,93909,1,0,0:0:0:0:
64,192,93971,1,0,0:0:0:0:
320,192,93971,1,0,0:0:0:0:
192,192,94033,1,0,0:0:0:0:
320,192,94095,1,0,0:0:0:0:
448,192,94157,1,0,0:0:0:0:
64,192,94218,1,0,0:0:0:0:
192,192,94281,1,0,0:0:0:0:
64,192,94343,1,0,0:0:0:0:
448,192,94343,1,0,0:0:0:0:
320,192,94405,1,0,0:0:0:0:
448,192,94467,1,0,0:0:0:0:
192,192,94529,1,0,0:0:0:0:
64,192,94590,1,0,0:0:0:0:
320,192,94652,1,0,0:0:0:0:
64,192,94714,1,0,0:0:0:0:
448,192,94714,1,0,0:0:0:0:
