osu file format v14

[General]
AudioFilename: 01 - White Flag_0.9.mp3
AudioLeadIn: 0
PreviewTime: -1
Countdown: 0
SampleSet: None
StackLeniency: 0.7
Mode: 3
LetterboxInBreaks: 0
SpecialStyle: 0
WidescreenStoryboard: 0

[Editor]
DistanceSpacing: 0.8
BeatDivisor: 2
GridSize: 32
TimelineZoom: 1

[Metadata]
Title:White Flag
TitleUnicode:White Flag
Artist:Dido
ArtistUnicode:Dido
Creator:rosepetal
Version:Beginner x0.9
Source:
Tags:
BeatmapID:1678702
BeatmapSetID:799544

[Difficulty]
HPDrainRate:5
CircleSize:4
OverallDifficulty:7
ApproachRate:5
SliderMultiplier:1.4
SliderTickRate:1

[Events]
//Background and Video events
//Break Periods
//Storyboard Layer 0 (Background)
//Storyboard Layer 1 (Fail)
//Storyboard Layer 2 (Pass)
//Storyboard Layer 3 (Foreground)
//Storyboard Sound Samples

[TimingPoints]
368,392.156862222222,4,1,0,100,1,0

[HitObjects]
448,192,1348,5,0,0:0:0:0:
448,192,1545,1,0,0:0:0:0:
448,192,1741,1,0,0:0:0:0:
448,192,1937,1,0,0:0:0:0:
448,192,2133,1,0,0:0:0:0:
448,192,2330,1,0,0:0:0:0:
448,192,2525,1,0,0:0:0:0:
64,192,2722,1,0,0:0:0:0:
64,192,2917,1,0,0:0:0:0:
64,192,3114,1,0,0:0:0:0:
64,192,3310,1,0,0:0:0:0:
64,192,3506,1,0,0:0:0:0:
64,192,3702,1,0,0:0:0:0:
64,192,3897,1,0,0:0:0:0:
64,192,4094,1,0,0:0:0:0:
64,192,4290,1,0,0:0:0:0:
64,192,4486,1,0,0:0:0:0:
64,192,4682,1,0,0:0:0:0:
64,192,4878,1,0,0:0:0:0:
448,192,5074,1,0,0:0:0:0:
448,192,5271,1,0,0:0:0:0:
448,192,5466,1,0,0:0:0:0:
448,192,5663,1,0,0:0:0:0:
448,192,5858,1,0,0:0:0:0:
448,192,6055,1,0,0:0:0:0:
448,192,6251,1,0,0:0:0:0:
448,192,6447,1,0,0:0:0:0:
448,192,6643,1,0,0:0:0:0:
192,192,7820,1,0,0:0:0:0:
192,192,8015,1,0,0:0:0:0:
192,192,8212,1,0,0:0:0:0:
192,192,8407,1,0,0:0:0:0:
192,192,8604,1,0,0:0:0:0:
192,192,8800,1,0,0:0:0:0:
192,192,8996,1,0,0:0:0:0:
192,192,9192,1,0,0:0:0:0:
192,192,9388,1,0,0:0:0:0:
192,192,9584,1,0,0:0:0:0:
320,192,9781,1,0,0:0:0:0:
320,192,9976,1,0,0:0:0:0:
320,192,10173,1,0,0:0:0:0:
320,192,10368,1,0,0:0:0:0:
320,192,10564,1,0,0:0:0:0:
320,192,10761,1,0,0:0:0:0:
448,192,10956,1,0,0:0:0:0:
448,192,11153,1,0,0:0:0:0:
448,192,11348,1,0,0:0:0:0:
448,192,11545,1,0,0:0:0:0:
448,192,11741,1,0,0:0:0:0:
448,192,11937,1,0,0:0:0:0:
448,192,12133,1,0,0:0:0:0:
448,192,12330,1,0,0:0:0:0:
448,192,12525,1,0,0:0:0:0:
64,192,13897,1,0,0:0:0:0:
448,192,13897,1,0,0:0:0:0:
192,192,13996,1,0,0:0:0:0:
320,192,13996,1,0,0:0:0:0:
64,192,14094,1,0,0:0:0:0:
448,192,14094,1,0,0:0:0:0:
192,192,14192,1,0,0:0:0:0:
320,192,14192,1,0,0:0:0:0:
64,192,14290,1,0,0:0:0:0:
448,192,14290,1,0,0:0:0:0:
192,192,14388,1,0,0:0:0:0:
320,192,14388,1,0,0:0:0:0:
64,192,14486,1,0,0:0:0:0:
448,192,14486,1,0,0:0:0:0:
320,192,14584,1,0,0:0:0:0:
448,192,14682,1,0,0:0:0:0:
320,192,14781,1,0,0:0:0:0:
448,192,14878,1,0,0:0:0:0:
320,192,14976,1,0,0:0:0:0:
192,192,15074,1,0,0:0:0:0:
64,192,15173,1,0,0:0:0:0:
192,192,15271,1,0,0:0:0:0:
320,192,15336,1,0,0:0:0:0:
448,192,15401,1,0,0:0:0:0:
64,192,15466,1,0,0:0:0:0:
192,192,15532,1,0,0:0:0:0:
320,192,15597,1,0,0:0:0:0:
448,192,15663,1,0,0:0:0:0:
64,192,15728,1,0,0:0:0:0:
192,192,15793,1,0,0:0:0:0:
320,192,15858,1,0,0:0:0:0:
448,192,15924,1,0,0:0:0:0:
64,192,15990,1,0,0:0:0:0:
192,192,16055,1,0,0:0:0:0:
320,192,16120,1,0,0:0:0:0:
448,192,16185,1,0,0:0:0:0:
64,192,16251,1,0,0:0:0:0:
192,192,16316,1,0,0:0:0:0:
320,192,16382,1,0,0:0:0:0:
448,192,16447,128,0,16840:0:0:0:0:
64,192,16840,1,0,0:0:0:0:
64,192,17035,1,0,0:0:0:0:
64,192,17231,1,0,0:0:0:0:
64,192,17427,1,0,0:0:0:0:
64,192,17623,1,0,0:0:0:0:
64,192,17820,1,0,0:0:0:0:
64,192,18015,1,0,0:0:0:0:
448,192,18015,1,0,0:0:0:0:
320,192,18114,1,0,0:0:0:0:
64,192,18212,1,0,0:0:0:0:
448,192,18212,1,0,0:0:0:0:
320,192,18310,1,0,0:0:0:0:
64,192,18407,1,0,0:0:0:0:
448,192,18407,1,0,0:0:0:0:
320,192,18506,1,0,0:0:0:0:
64,192,18604,1,0,0:0:0:0:
448,192,18604,1,0,0:0:0:0:
320,192,18702,1,0,0:0:0:0:
64,192,18800,1,0,0:0:0:0:
448,192,18800,1,0,0:0:0:0:
320,192,18897,1,0,0:0:0:0:
64,192,18996,1,0,0:0:0:0:
448,192,18996,1,0,0:0:0:0:
320,192,19094,1,0,0:0:0:0:
64,192,19192,1,0,0:0:0:0:
448,192,19192,1,0,0:0:0:0:
320,192,19290,1,0,0:0:0:0:
64,192,19388,1,0,0:0:0:0:
448,192,19388,1,0,0:0:0:0:
64,192,19976,1,0,0:0:0:0:
320,192,19976,1,0,0:0:0:0:
448,192,19976,1,0,0:0:0:0:
192,192,20074,1,0,0:0:0:0:
64,192,20173,1,0,0:0:0:0:
320,192,20173,1,0,0:0:0:0:
448,192,20173,1,0,0:0:0:0:
192,192,20271,1,0,0:0:0:0:
64,192,20368,1,0,0:0:0:0:
320,192,20368,1,0,0:0:0:0:
448,192,20368,1,0,0:0:0:0:
192,192,20466,1,0,0:0:0:0:
64,192,20564,1,0,0:0:0:0:
320,192,20564,1,0,0:0:0:0:
448,192,20564,1,0,0:0:0:0:
192,192,20663,1,0,0:0:0:0:
64,192,20761,1,0,0:0:0:0:
320,192,20761,1,0,0:0:0:0:
448,192,20761,1,0,0:0:0:0:
192,192,20956,1,0,0:0:0:0:
64,192,21153,1,0,0:0:0:0:
192,192,21153,1,0,0:0:0:0:
320,192,21153,1,0,0:0:0:0:
448,192,21153,1,0,0:0:0:0:
192,192,21348,1,0,0:0:0:0:
64,192,21545,1,0,0:0:0:0:
192,192,21545,1,0,0:0:0:0:
320,192,21545,1,0,0:0:0:0:
448,192,21545,1,0,0:0:0:0:
64,192,21741,1,0,0:0:0:0:
192,192,21741,1,0,0:0:0:0:
320,192,21741,1,0,0:0:0:0:
448,192,21741,1,0,0:0:0:0:
320,192,21937,1,0,0:0:0:0:
320,192,22133,1,0,0:0:0:0:
320,192,22330,1,0,0:0:0:0:
320,192,22525,1,0,0:0:0:0:
320,192,22722,1,0,0:0:0:0:
320,192,22917,1,0,0:0:0:0:
320,192,23114,1,0,0:0:0:0:
64,192,23212,1,0,0:0:0:0:
192,192,23212,1,0,0:0:0:0:
448,192,23212,1,0,0:0:0:0:
320,192,23310,1,0,0:0:0:0:
64,192,23407,1,0,0:0:0:0:
192,192,23407,1,0,0:0:0:0:
448,192,23407,1,0,0:0:0:0:
320,192,23506,1,0,0:0:0:0:
64,192,23604,1,0,0:0:0:0:
192,192,23604,1,0,0:0:0:0:
448,192,23604,1,0,0:0:0:0:
320,192,23702,1,0,0:0:0:0:
64,192,23800,1,0,0:0:0:0:
192,192,23800,1,0,0:0:0:0:
448,192,23800,1,0,0:0:0:0:
320,192,23897,1,0,0:0:0:0:
320,192,24094,1,0,0:0:0:0:
64,192,24290,1,0,0:0:0:0:
192,192,24290,1,0,0:0:0:0:
320,192,24290,1,0,0:0:0:0:
448,192,24290,1,0,0:0:0:0:
64,192,24486,1,0,0:0:0:0:
192,192,24486,1,0,0:0:0:0:
320,192,24486,1,0,0:0:0:0:
448,192,24486,1,0,0:0:0:0:
64,192,24682,1,0,0:0:0:0:
192,192,24682,1,0,0:0:0:0:
320,192,24682,1,0,0:0:0:0:
448,192,24682,1,0,0:0:0:0:
64,192,24878,1,0,0:0:0:0:
192,192,24878,1,0,0:0:0:0:
320,192,24878,1,0,0:0:0:0:
448,192,24878,1,0,0:0:0:0:
64,192,25074,1,0,0:0:0:0:
192,192,25074,1,0,0:0:0:0:
320,192,25074,1,0,0:0:0:0:
448,192,25074,1,0,0:0:0:0:
64,192,25466,1,0,0:0:0:0:
192,192,25515,1,0,0:0:0:0:
448,192,25564,1,0,0:0:0:0:
320,192,25614,1,0,0:0:0:0:
192,192,25663,1,0,0:0:0:0:
64,192,25712,1,0,0:0:0:0:
192,192,25761,1,0,0:0:0:0:
320,192,25810,1,0,0:0:0:0:
448,192,25858,1,0,0:0:0:0:
320,192,25907,1,0,0:0:0:0:
192,192,25956,1,0,0:0:0:0:
64,192,26006,1,0,0:0:0:0:
448,192,26006,1,0,0:0:0:0:
320,192,26055,1,0,0:0:0:0:
192,192,26104,1,0,0:0:0:0:
64,192,26153,1,0,0:0:0:0:
448,192,26153,1,0,0:0:0:0:
320,192,26202,1,0,0:0:0:0:
192,192,26251,1,0,0:0:0:0:
64,192,26447,1,0,0:0:0:0:
448,192,26447,1,0,0:0:0:0:
64,192,26643,1,0,0:0:0:0:
320,192,26643,1,0,0:0:0:0:
64,192,26840,1,0,0:0:0:0:
192,192,26840,1,0,0:0:0:0:
64,192,27035,1,0,0:0:0:0:
320,192,27035,1,0,0:0:0:0:
64,192,27231,1,0,0:0:0:0:
448,192,27231,1,0,0:0:0:0:
64,192,27427,1,0,0:0:0:0:
320,192,27427,1,0,0:0:0:0:
64,192,27623,1,0,0:0:0:0:
320,192,27623,1,0,0:0:0:0:
64,192,27820,1,0,0:0:0:0:
448,192,27820,1,0,0:0:0:0:
320,192,27885,1,0,0:0:0:0:
64,192,27951,1,0,0:0:0:0:
320,192,28015,1,0,0:0:0:0:
64,192,28081,1,0,0:0:0:0:
320,192,28146,1,0,0:0:0:0:
64,192,28212,1,0,0:0:0:0:
192,192,28212,1,0,0:0:0:0:
448,192,28212,1,0,0:0:0:0:
320,192,28277,1,0,0:0:0:0:
64,192,28342,1,0,0:0:0:0:
320,192,28407,1,0,0:0:0:0:
64,192,28473,1,0,0:0:0:0:
320,192,28538,1,0,0:0:0:0:
64,192,28604,1,0,0:0:0:0:
320,192,28670,1,0,0:0:0:0:
64,192,28734,1,0,0:0:0:0:
320,192,28800,1,0,0:0:0:0:
64,192,28865,1,0,0:0:0:0:
320,192,28931,1,0,0:0:0:0:
64,192,28996,1,0,0:0:0:0:
192,192,29192,1,0,0:0:0:0:
320,192,29192,1,0,0:0:0:0:
448,192,29192,1,0,0:0:0:0:
192,192,29388,1,0,0:0:0:0:
320,192,29388,1,0,0:0:0:0:
448,192,29388,1,0,0:0:0:0:
192,192,29584,1,0,0:0:0:0:
320,192,29584,1,0,0:0:0:0:
448,192,29584,1,0,0:0:0:0:
192,192,29781,1,0,0:0:0:0:
320,192,29781,1,0,0:0:0:0:
448,192,29781,1,0,0:0:0:0:
64,192,29976,1,0,0:0:0:0:
64,192,30173,1,0,0:0:0:0:
64,192,30368,1,0,0:0:0:0:
64,192,30564,1,0,0:0:0:0:
448,192,30564,1,0,0:0:0:0:
192,192,30663,1,0,0:0:0:0:
64,192,30761,1,0,0:0:0:0:
448,192,30761,1,0,0:0:0:0:
192,192,30858,1,0,0:0:0:0:
64,192,30956,1,0,0:0:0:0:
448,192,30956,1,0,0:0:0:0:
192,192,31055,1,0,0:0:0:0:
64,192,31153,1,0,0:0:0:0:
448,192,31153,1,0,0:0:0:0:
192,192,31251,1,0,0:0:0:0:
64,192,31348,1,0,0:0:0:0:
448,192,31348,1,0,0:0:0:0:
192,192,31447,1,0,0:0:0:0:
64,192,31545,1,0,0:0:0:0:
448,192,31545,1,0,0:0:0:0:
192,192,31643,1,0,0:0:0:0:
64,192,31741,1,0,0:0:0:0:
448,192,31741,1,0,0:0:0:0:
192,192,31840,1,0,0:0:0:0:
64,192,31937,1,0,0:0:0:0:
448,192,31937,1,0,0:0:0:0:
64,192,32330,1,0,0:0:0:0:
192,192,32330,1,0,0:0:0:0:
320,192,32330,1,0,0:0:0:0:
64,192,32525,1,0,0:0:0:0:
448,192,32525,1,0,0:0:0:0:
448,192,32623,1,0,0:0:0:0:
64,192,32722,1,0,0:0:0:0:
448,192,32722,1,0,0:0:0:0:
448,192,32820,1,0,0:0:0:0:
64,192,32917,1,0,0:0:0:0:
448,192,32917,128,0,34878:0:0:0:0:
64,192,33702,1,0,0:0:0:0:
320,192,33800,1,0,0:0:0:0:
192,192,33897,1,0,0:0:0:0:
64,192,33996,1,0,0:0:0:0:
320,192,34094,1,0,0:0:0:0:
192,192,34192,1,0,0:0:0:0:
64,192,34290,1,0,0:0:0:0:
320,192,34388,1,0,0:0:0:0:
192,192,34486,1,0,0:0:0:0:
64,192,34584,1,0,0:0:0:0:
320,192,34682,1,0,0:0:0:0:
192,192,34781,1,0,0:0:0:0:
64,192,34878,1,0,0:0:0:0:
64,192,35074,1,0,0:0:0:0:
64,192,35271,1,0,0:0:0:0:
64,192,35466,1,0,0:0:0:0:
64,192,35663,1,0,0:0:0:0:
192,192,35663,1,0,0:0:0:0:
448,192,35663,1,0,0:0:0:0:
320,192,35761,1,0,0:0:0:0:
192,192,35858,1,0,0:0:0:0:
448,192,35858,1,0,0:0:0:0:
320,192,35956,1,0,0:0:0:0:
192,192,36055,1,0,0:0:0:0:
448,192,36055,1,0,0:0:0:0:
320,192,36153,1,0,0:0:0:0:
192,192,36251,1,0,0:0:0:0:
448,192,36251,1,0,0:0:0:0:
320,192,36348,1,0,0:0:0:0:
192,192,36447,1,0,0:0:0:0:
448,192,36447,1,0,0:0:0:0:
320,192,36643,1,0,0:0:0:0:
64,192,36840,1,0,0:0:0:0:
192,192,36840,1,0,0:0:0:0:
320,192,36840,1,0,0:0:0:0:
448,192,36840,1,0,0:0:0:0:
64,192,37035,1,0,0:0:0:0:
192,192,37035,1,0,0:0:0:0:
320,192,37035,1,0,0:0:0:0:
448,192,37035,1,0,0:0:0:0:
64,192,37231,1,0,0:0:0:0:
192,192,37231,1,0,0:0:0:0:
320,192,37231,1,0,0:0:0:0:
448,192,37231,1,0,0:0:0:0:
64,192,37427,1,0,0:0:0:0:
192,192,37427,1,0,0:0:0:0:
320,192,37427,1,0,0:0:0:0:
448,192,37427,1,0,0:0:0:0:
64,192,37623,1,0,0:0:0:0:
192,192,37623,1,0,0:0:0:0:
320,192,37623,1,0,0:0:0:0:
448,192,37623,1,0,0:0:0:0:
64,192,37820,1,0,0:0:0:0:
192,192,37820,1,0,0:0:0:0:
320,192,37820,1,0,0:0:0:0:
448,192,37820,1,0,0:0:0:0:
448,192,38015,1,0,0:0:0:0:
320,192,38064,1,0,0:0:0:0:
64,192,38114,1,0,0:0:0:0:
192,192,38163,1,0,0:0:0:0:
320,192,38212,1,0,0:0:0:0:
448,192,38261,1,0,0:0:0:0:
320,192,38310,1,0,0:0:0:0:
64,192,38358,1,0,0:0:0:0:
192,192,38407,1,0,0:0:0:0:
192,192,38800,1,0,0:0:0:0:
448,192,38800,1,0,0:0:0:0:
320,192,38865,1,0,0:0:0:0:
448,192,38931,1,0,0:0:0:0:
320,192,38996,1,0,0:0:0:0:
192,192,39062,1,0,0:0:0:0:
64,192,39126,1,0,0:0:0:0:
192,192,39192,1,0,0:0:0:0:
448,192,39192,1,0,0:0:0:0:
320,192,39257,1,0,0:0:0:0:
448,192,39323,1,0,0:0:0:0:
320,192,39388,1,0,0:0:0:0:
192,192,39453,1,0,0:0:0:0:
64,192,39518,1,0,0:0:0:0:
192,192,39584,1,0,0:0:0:0:
448,192,39584,1,0,0:0:0:0:
64,192,39976,1,0,0:0:0:0:
448,192,39976,1,0,0:0:0:0:
192,192,40042,1,0,0:0:0:0:
64,192,40107,1,0,0:0:0:0:
192,192,40173,1,0,0:0:0:0:
64,192,40237,1,0,0:0:0:0:
192,192,40303,1,0,0:0:0:0:
64,192,40368,1,0,0:0:0:0:
448,192,40368,1,0,0:0:0:0:
320,192,40434,1,0,0:0:0:0:
448,192,40500,1,0,0:0:0:0:
320,192,40564,1,0,0:0:0:0:
448,192,40630,1,0,0:0:0:0:
320,192,40695,1,0,0:0:0:0:
64,192,40761,1,0,0:0:0:0:
448,192,40761,1,0,0:0:0:0:
192,192,40826,1,0,0:0:0:0:
320,192,40892,1,0,0:0:0:0:
192,192,40956,1,0,0:0:0:0:
320,192,41022,1,0,0:0:0:0:
192,192,41087,1,0,0:0:0:0:
64,192,41153,1,0,0:0:0:0:
448,192,41153,1,0,0:0:0:0:
192,192,41545,1,0,0:0:0:0:
320,192,41545,1,0,0:0:0:0:
448,192,41611,1,0,0:0:0:0:
320,192,41675,1,0,0:0:0:0:
192,192,41741,1,0,0:0:0:0:
320,192,41806,1,0,0:0:0:0:
192,192,41872,1,0,0:0:0:0:
64,192,41937,1,0,0:0:0:0:
448,192,41937,1,0,0:0:0:0:
192,192,42003,1,0,0:0:0:0:
448,192,42067,1,0,0:0:0:0:
192,192,42133,1,0,0:0:0:0:
448,192,42198,1,0,0:0:0:0:
320,192,42264,1,0,0:0:0:0:
192,192,42330,1,0,0:0:0:0:
448,192,42330,1,0,0:0:0:0:
64,192,42395,1,0,0:0:0:0:
320,192,42460,1,0,0:0:0:0:
64,192,42525,1,0,0:0:0:0:
320,192,42591,1,0,0:0:0:0:
192,192,42656,1,0,0:0:0:0:
64,192,42722,1,0,0:0:0:0:
320,192,42722,1,0,0:0:0:0:
320,192,43114,1,0,0:0:0:0:
448,192,43114,1,0,0:0:0:0:
192,192,43178,1,0,0:0:0:0:
64,192,43244,1,0,0:0:0:0:
192,192,43310,1,0,0:0:0:0:
320,192,43375,1,0,0:0:0:0:
448,192,43441,1,0,0:0:0:0:
64,192,43506,1,0,0:0:0:0:
192,192,43506,1,0,0:0:0:0:
320,192,43571,1,0,0:0:0:0:
192,192,43636,1,0,0:0:0:0:
320,192,43702,1,0,0:0:0:0:
64,192,43767,1,0,0:0:0:0:
192,192,43833,1,0,0:0:0:0:
320,192,43897,1,0,0:0:0:0:
448,192,43897,1,0,0:0:0:0:
64,192,43963,1,0,0:0:0:0:
448,192,44028,1,0,0:0:0:0:
192,192,44094,1,0,0:0:0:0:
448,192,44160,1,0,0:0:0:0:
320,192,44225,1,0,0:0:0:0:
64,192,44290,1,0,0:0:0:0:
192,192,44290,1,0,0:0:0:0:
192,192,44682,1,0,0:0:0:0:
448,192,44682,1,0,0:0:0:0:
64,192,44747,1,0,0:0:0:0:
320,192,44813,1,0,0:0:0:0:
64,192,44878,1,0,0:0:0:0:
320,192,44944,1,0,0:0:0:0:
64,192,45008,1,0,0:0:0:0:
320,192,45074,1,0,0:0:0:0:
448,192,45074,1,0,0:0:0:0:
192,192,45140,1,0,0:0:0:0:
320,192,45205,1,0,0:0:0:0:
192,192,45271,1,0,0:0:0:0:
320,192,45336,1,0,0:0:0:0:
448,192,45401,1,0,0:0:0:0:
64,192,45466,1,0,0:0:0:0:
320,192,45466,1,0,0:0:0:0:
192,192,45532,1,0,0:0:0:0:
448,192,45597,1,0,0:0:0:0:
192,192,45663,1,0,0:0:0:0:
448,192,45728,1,0,0:0:0:0:
320,192,45793,1,0,0:0:0:0:
64,192,45858,1,0,0:0:0:0:
192,192,45858,1,0,0:0:0:0:
448,192,45924,1,0,0:0:0:0:
64,192,45990,1,0,0:0:0:0:
448,192,46055,1,0,0:0:0:0:
64,192,46120,1,0,0:0:0:0:
192,192,46185,1,0,0:0:0:0:
64,192,46251,1,0,0:0:0:0:
448,192,46251,1,0,0:0:0:0:
192,192,47035,1,0,0:0:0:0:
320,192,47035,1,0,0:0:0:0:
448,192,47035,1,0,0:0:0:0:
64,192,47330,1,0,0:0:0:0:
192,192,47623,1,0,0:0:0:0:
320,192,47623,1,0,0:0:0:0:
448,192,47623,1,0,0:0:0:0:
64,192,48212,1,0,0:0:0:0:
192,192,48212,1,0,0:0:0:0:
320,192,48212,1,0,0:0:0:0:
448,192,48212,1,0,0:0:0:0:
64,192,48604,1,0,0:0:0:0:
192,192,48604,1,0,0:0:0:0:
320,192,48604,1,0,0:0:0:0:
448,192,48604,1,0,0:0:0:0:
64,192,48996,1,0,0:0:0:0:
64,192,49388,1,0,0:0:0:0:
192,192,49388,1,0,0:0:0:0:
64,192,49584,1,0,0:0:0:0:
192,192,49584,1,0,0:0:0:0:
320,192,49584,1,0,0:0:0:0:
64,192,49781,1,0,0:0:0:0:
192,192,49781,1,0,0:0:0:0:
320,192,49781,1,0,0:0:0:0:
448,192,49781,1,0,0:0:0:0:
64,192,50173,1,0,0:0:0:0:
192,192,50173,1,0,0:0:0:0:
320,192,50173,1,0,0:0:0:0:
448,192,50173,1,0,0:0:0:0:
64,192,50564,1,0,0:0:0:0:
448,192,50564,1,0,0:0:0:0:
192,192,50630,1,0,0:0:0:0:
320,192,50695,1,0,0:0:0:0:
448,192,50761,1,0,0:0:0:0:
320,192,50826,1,0,0:0:0:0:
64,192,50892,1,0,0:0:0:0:
192,192,50956,1,0,0:0:0:0:
448,192,50956,1,0,0:0:0:0:
64,192,51022,1,0,0:0:0:0:
192,192,51087,1,0,0:0:0:0:
320,192,51153,1,0,0:0:0:0:
192,192,51218,1,0,0:0:0:0:
320,192,51284,1,0,0:0:0:0:
64,192,51348,1,0,0:0:0:0:
448,192,51348,1,0,0:0:0:0:
192,192,51414,1,0,0:0:0:0:
320,192,51480,1,0,0:0:0:0:
448,192,51545,1,0,0:0:0:0:
64,192,51611,1,0,0:0:0:0:
320,192,51675,1,0,0:0:0:0:
192,192,51741,1,0,0:0:0:0:
448,192,51741,1,0,0:0:0:0:
320,192,51806,1,0,0:0:0:0:
192,192,51872,1,0,0:0:0:0:
64,192,51937,1,0,0:0:0:0:
448,192,51937,1,0,0:0:0:0:
320,192,52003,1,0,0:0:0:0:
192,192,52067,1,0,0:0:0:0:
64,192,52133,1,0,0:0:0:0:
448,192,52133,1,0,0:0:0:0:
320,192,52198,1,0,0:0:0:0:
192,192,52264,1,0,0:0:0:0:
64,192,52330,1,0,0:0:0:0:
448,192,52330,1,0,0:0:0:0:
320,192,52395,1,0,0:0:0:0:
192,192,52460,1,0,0:0:0:0:
64,192,52525,1,0,0:0:0:0:
448,192,52525,1,0,0:0:0:0:
320,192,52591,1,0,0:0:0:0:
192,192,52656,1,0,0:0:0:0:
320,192,52722,1,0,0:0:0:0:
448,192,52786,1,0,0:0:0:0:
192,192,52852,1,0,0:0:0:0:
64,192,52917,1,0,0:0:0:0:
320,192,52917,1,0,0:0:0:0:
448,192,52983,1,0,0:0:0:0:
192,192,53048,1,0,0:0:0:0:
448,192,53114,1,0,0:0:0:0:
192,192,53178,1,0,0:0:0:0:
320,192,53244,1,0,0:0:0:0:
64,192,53310,1,0,0:0:0:0:
448,192,53310,1,0,0:0:0:0:
192,192,53375,1,0,0:0:0:0:
64,192,53441,1,0,0:0:0:0:
320,192,53506,1,0,0:0:0:0:
448,192,53571,1,0,0:0:0:0:
192,192,53636,1,0,0:0:0:0:
64,192,53702,1,0,0:0:0:0:
320,192,53702,1,0,0:0:0:0:
64,192,53897,1,0,0:0:0:0:
448,192,53897,1,0,0:0:0:0:
64,192,54094,1,0,0:0:0:0:
448,192,54094,1,0,0:0:0:0:
320,192,54160,1,0,0:0:0:0:
64,192,54225,1,0,0:0:0:0:
448,192,54290,1,0,0:0:0:0:
320,192,54355,1,0,0:0:0:0:
64,192,54421,1,0,0:0:0:0:
192,192,54486,1,0,0:0:0:0:
448,192,54486,1,0,0:0:0:0:
320,192,54552,1,0,0:0:0:0:
64,192,54617,1,0,0:0:0:0:
320,192,54682,1,0,0:0:0:0:
192,192,54747,1,0,0:0:0:0:
448,192,54813,1,0,0:0:0:0:
64,192,54878,1,0,0:0:0:0:
320,192,54878,1,0,0:0:0:0:
192,192,54944,1,0,0:0:0:0:
320,192,55008,1,0,0:0:0:0:
448,192,55074,1,0,0:0:0:0:
64,192,55140,1,0,0:0:0:0:
192,192,55205,1,0,0:0:0:0:
64,192,55271,1,0,0:0:0:0:
448,192,55271,1,0,0:0:0:0:
320,192,55336,1,0,0:0:0:0:
448,192,55401,1,0,0:0:0:0:
192,192,55466,1,0,0:0:0:0:
64,192,55532,1,0,0:0:0:0:
448,192,55597,1,0,0:0:0:0:
192,192,55663,1,0,0:0:0:0:
320,192,55663,1,0,0:0:0:0:
64,192,55728,1,0,0:0:0:0:
448,192,55793,1,0,0:0:0:0:
192,192,55858,1,0,0:0:0:0:
320,192,55924,1,0,0:0:0:0:
192,192,55990,1,0,0:0:0:0:
64,192,56055,1,0,0:0:0:0:
448,192,56055,1,0,0:0:0:0:
320,192,56120,1,0,0:0:0:0:
448,192,56185,1,0,0:0:0:0:
192,192,56251,1,0,0:0:0:0:
64,192,56316,1,0,0:0:0:0:
320,192,56382,1,0,0:0:0:0:
192,192,56447,1,0,0:0:0:0:
448,192,56447,1,0,0:0:0:0:
64,192,56512,1,0,0:0:0:0:
320,192,56577,1,0,0:0:0:0:
192,192,56643,1,0,0:0:0:0:
448,192,56708,1,0,0:0:0:0:
192,192,56774,1,0,0:0:0:0:
64,192,56840,1,0,0:0:0:0:
320,192,56840,1,0,0:0:0:0:
64,192,57231,1,0,0:0:0:0:
448,192,57231,1,0,0:0:0:0:
64,192,57623,1,0,0:0:0:0:
448,192,57623,1,0,0:0:0:0:
320,192,57688,1,0,0:0:0:0:
192,192,57754,1,0,0:0:0:0:
64,192,57820,1,0,0:0:0:0:
320,192,57885,1,0,0:0:0:0:
64,192,57951,1,0,0:0:0:0:
192,192,58015,1,0,0:0:0:0:
448,192,58015,1,0,0:0:0:0:
320,192,58081,1,0,0:0:0:0:
192,192,58146,1,0,0:0:0:0:
448,192,58212,1,0,0:0:0:0:
192,192,58277,1,0,0:0:0:0:
448,192,58342,1,0,0:0:0:0:
64,192,58407,1,0,0:0:0:0:
320,192,58407,1,0,0:0:0:0:
192,192,58473,1,0,0:0:0:0:
320,192,58538,1,0,0:0:0:0:
448,192,58604,1,0,0:0:0:0:
64,192,58670,1,0,0:0:0:0:
192,192,58734,1,0,0:0:0:0:
64,192,58800,1,0,0:0:0:0:
448,192,58800,1,0,0:0:0:0:
320,192,58865,1,0,0:0:0:0:
192,192,58931,1,0,0:0:0:0:
64,192,58996,1,0,0:0:0:0:
448,192,58996,1,0,0:0:0:0:
320,192,59062,1,0,0:0:0:0:
192,192,59126,1,0,0:0:0:0:
64,192,59192,1,0,0:0:0:0:
192,192,59257,1,0,0:0:0:0:
320,192,59323,1,0,0:0:0:0:
64,192,59388,1,0,0:0:0:0:
448,192,59388,1,0,0:0:0:0:
320,192,59453,1,0,0:0:0:0:
192,192,59518,1,0,0:0:0:0:
64,192,59584,1,0,0:0:0:0:
192,192,59650,1,0,0:0:0:0:
320,192,59715,1,0,0:0:0:0:
64,192,59781,1,0,0:0:0:0:
448,192,59781,1,0,0:0:0:0:
320,192,59845,1,0,0:0:0:0:
192,192,59911,1,0,0:0:0:0:
64,192,59976,1,0,0:0:0:0:
192,192,60042,1,0,0:0:0:0:
320,192,60107,1,0,0:0:0:0:
64,192,60173,1,0,0:0:0:0:
448,192,60173,1,0,0:0:0:0:
64,192,60368,1,0,0:0:0:0:
448,192,60368,1,0,0:0:0:0:
192,192,60564,1,0,0:0:0:0:
320,192,60564,1,0,0:0:0:0:
64,192,60761,1,0,0:0:0:0:
192,192,60761,1,0,0:0:0:0:
320,192,60761,1,0,0:0:0:0:
448,192,60761,1,0,0:0:0:0:
448,192,60956,1,0,0:0:0:0:
448,192,61153,1,0,0:0:0:0:
320,192,61348,1,0,0:0:0:0:
320,192,61545,1,0,0:0:0:0:
192,192,61741,1,0,0:0:0:0:
192,192,61937,1,0,0:0:0:0:
64,192,62133,1,0,0:0:0:0:
448,192,62133,1,0,0:0:0:0:
64,192,62330,1,0,0:0:0:0:
64,192,62525,1,0,0:0:0:0:
64,192,62722,1,0,0:0:0:0:
448,192,62722,1,0,0:0:0:0:
192,192,62786,1,0,0:0:0:0:
448,192,62852,1,0,0:0:0:0:
320,192,62917,1,0,0:0:0:0:
64,192,62983,1,0,0:0:0:0:
320,192,63048,1,0,0:0:0:0:
192,192,63114,1,0,0:0:0:0:
448,192,63114,1,0,0:0:0:0:
64,192,63178,1,0,0:0:0:0:
320,192,63244,1,0,0:0:0:0:
192,192,63310,1,0,0:0:0:0:
64,192,63375,1,0,0:0:0:0:
192,192,63441,1,0,0:0:0:0:
320,192,63506,1,0,0:0:0:0:
448,192,63506,1,0,0:0:0:0:
64,192,63571,1,0,0:0:0:0:
192,192,63636,1,0,0:0:0:0:
448,192,63702,1,0,0:0:0:0:
192,192,63767,1,0,0:0:0:0:
448,192,63833,1,0,0:0:0:0:
64,192,63897,1,0,0:0:0:0:
192,192,63897,1,0,0:0:0:0:
320,192,63897,1,0,0:0:0:0:
448,192,63963,1,0,0:0:0:0:
64,192,64028,1,0,0:0:0:0:
192,192,64094,1,0,0:0:0:0:
320,192,64160,1,0,0:0:0:0:
192,192,64225,1,0,0:0:0:0:
64,192,64290,1,0,0:0:0:0:
448,192,64290,1,0,0:0:0:0:
320,192,64355,1,0,0:0:0:0:
64,192,64421,1,0,0:0:0:0:
320,192,64486,1,0,0:0:0:0:
64,192,64552,1,0,0:0:0:0:
448,192,64617,1,0,0:0:0:0:
64,192,64682,1,0,0:0:0:0:
192,192,64682,1,0,0:0:0:0:
320,192,64682,1,0,0:0:0:0:
448,192,64747,1,0,0:0:0:0:
320,192,64813,1,0,0:0:0:0:
192,192,64878,1,0,0:0:0:0:
64,192,64944,1,0,0:0:0:0:
320,192,65008,1,0,0:0:0:0:
192,192,65074,1,0,0:0:0:0:
448,192,65074,1,0,0:0:0:0:
64,192,65140,1,0,0:0:0:0:
192,192,65205,1,0,0:0:0:0:
64,192,65271,1,0,0:0:0:0:
192,192,65336,1,0,0:0:0:0:
320,192,65401,1,0,0:0:0:0:
64,192,65466,1,0,0:0:0:0:
448,192,65466,1,0,0:0:0:0:
320,192,65532,1,0,0:0:0:0:
448,192,65597,1,0,0:0:0:0:
320,192,65663,1,0,0:0:0:0:
448,192,65728,1,0,0:0:0:0:
192,192,65793,1,0,0:0:0:0:
64,192,65858,1,0,0:0:0:0:
320,192,65858,1,0,0:0:0:0:
448,192,65924,1,0,0:0:0:0:
192,192,65990,1,0,0:0:0:0:
448,192,66055,1,0,0:0:0:0:
192,192,66120,1,0,0:0:0:0:
320,192,66185,1,0,0:0:0:0:
64,192,66251,1,0,0:0:0:0:
448,192,66251,1,0,0:0:0:0:
192,192,66316,1,0,0:0:0:0:
320,192,66382,1,0,0:0:0:0:
64,192,66447,1,0,0:0:0:0:
192,192,66512,1,0,0:0:0:0:
320,192,66577,1,0,0:0:0:0:
64,192,66643,1,0,0:0:0:0:
448,192,66643,1,0,0:0:0:0:
192,192,66708,1,0,0:0:0:0:
320,192,66774,1,0,0:0:0:0:
448,192,66840,1,0,0:0:0:0:
320,192,66904,1,0,0:0:0:0:
192,192,66970,1,0,0:0:0:0:
64,192,67035,1,0,0:0:0:0:
448,192,67035,1,0,0:0:0:0:
192,192,67101,1,0,0:0:0:0:
320,192,67166,1,0,0:0:0:0:
448,192,67231,1,0,0:0:0:0:
320,192,67296,1,0,0:0:0:0:
192,192,67362,1,0,0:0:0:0:
64,192,67427,1,0,0:0:0:0:
448,192,67427,1,0,0:0:0:0:
192,192,67493,1,0,0:0:0:0:
320,192,67558,1,0,0:0:0:0:
448,192,67623,1,0,0:0:0:0:
320,192,67688,1,0,0:0:0:0:
64,192,67754,1,0,0:0:0:0:
192,192,67820,1,0,0:0:0:0:
448,192,67820,1,0,0:0:0:0:
320,192,67885,1,0,0:0:0:0:
64,192,67951,1,0,0:0:0:0:
320,192,68015,1,0,0:0:0:0:
64,192,68081,1,0,0:0:0:0:
192,192,68146,1,0,0:0:0:0:
64,192,68212,1,0,0:0:0:0:
448,192,68212,1,0,0:0:0:0:
192,192,68277,1,0,0:0:0:0:
320,192,68342,1,0,0:0:0:0:
64,192,68407,1,0,0:0:0:0:
448,192,68407,1,0,0:0:0:0:
192,192,68473,1,0,0:0:0:0:
320,192,68538,1,0,0:0:0:0:
64,192,68604,1,0,0:0:0:0:
448,192,68604,1,0,0:0:0:0:
192,192,68670,1,0,0:0:0:0:
320,192,68734,1,0,0:0:0:0:
64,192,68800,1,0,0:0:0:0:
448,192,68800,1,0,0:0:0:0:
192,192,68865,1,0,0:0:0:0:
320,192,68931,1,0,0:0:0:0:
448,192,68996,1,0,0:0:0:0:
64,192,69062,1,0,0:0:0:0:
192,192,69126,1,0,0:0:0:0:
320,192,69192,1,0,0:0:0:0:
448,192,69257,1,0,0:0:0:0:
192,192,69323,1,0,0:0:0:0:
64,192,69388,1,0,0:0:0:0:
320,192,69388,1,0,0:0:0:0:
448,192,69453,1,0,0:0:0:0:
192,192,69518,1,0,0:0:0:0:
320,192,69584,1,0,0:0:0:0:
64,192,69650,1,0,0:0:0:0:
320,192,69715,1,0,0:0:0:0:
64,192,69781,1,0,0:0:0:0:
448,192,69781,1,0,0:0:0:0:
192,192,69845,1,0,0:0:0:0:
448,192,69911,1,0,0:0:0:0:
192,192,69976,1,0,0:0:0:0:
320,192,70042,1,0,0:0:0:0:
64,192,70107,1,0,0:0:0:0:
192,192,70173,1,0,0:0:0:0:
448,192,70173,1,0,0:0:0:0:
320,192,70237,1,0,0:0:0:0:
64,192,70303,1,0,0:0:0:0:
320,192,70368,1,0,0:0:0:0:
64,192,70434,1,0,0:0:0:0:
192,192,70500,1,0,0:0:0:0:
64,192,70564,1,0,0:0:0:0:
448,192,70564,1,0,0:0:0:0:
320,192,70630,1,0,0:0:0:0:
448,192,70695,1,0,0:0:0:0:
192,192,70761,1,0,0:0:0:0:
64,192,70826,1,0,0:0:0:0:
192,192,70892,1,0,0:0:0:0:
320,192,70956,1,0,0:0:0:0:
448,192,70956,1,0,0:0:0:0:
64,192,71022,1,0,0:0:0:0:
448,192,71087,1,0,0:0:0:0:
192,192,71153,1,0,0:0:0:0:
320,192,71218,1,0,0:0:0:0:
64,192,71284,1,0,0:0:0:0:
192,192,71348,1,0,0:0:0:0:
448,192,71348,1,0,0:0:0:0:
320,192,71414,1,0,0:0:0:0:
64,192,71480,1,0,0:0:0:0:
448,192,71545,1,0,0:0:0:0:
192,192,71611,1,0,0:0:0:0:
320,192,71675,1,0,0:0:0:0:
64,192,71741,1,0,0:0:0:0:
192,192,71741,1,0,0:0:0:0:
448,192,71806,1,0,0:0:0:0:
320,192,71872,1,0,0:0:0:0:
448,192,71937,1,0,0:0:0:0:
64,192,72133,1,0,0:0:0:0:
320,192,72133,1,0,0:0:0:0:
64,192,72525,128,0,73310:0:0:0:0:
192,192,72525,1,0,0:0:0:0:
320,192,72525,128,0,73310:0:0:0:0:
192,192,73310,1,0,0:0:0:0:
448,192,73310,1,0,0:0:0:0:
320,192,73506,1,0,0:0:0:0:
192,192,73702,1,0,0:0:0:0:
448,192,73702,1,0,0:0:0:0:
192,192,74094,1,0,0:0:0:0:
320,192,74094,1,0,0:0:0:0:
448,192,74094,1,0,0:0:0:0:
64,192,74682,1,0,0:0:0:0:
320,192,74682,1,0,0:0:0:0:
64,192,74878,1,0,0:0:0:0:
192,192,74878,1,0,0:0:0:0:
320,192,74878,1,0,0:0:0:0:
64,192,75271,1,0,0:0:0:0:
192,192,75271,1,0,0:0:0:0:
320,192,75271,1,0,0:0:0:0:
448,192,75271,1,0,0:0:0:0:
64,192,75663,1,0,0:0:0:0:
192,192,75712,1,0,0:0:0:0:
320,192,75761,1,0,0:0:0:0:
448,192,75810,1,0,0:0:0:0:
320,192,75858,1,0,0:0:0:0:
64,192,75907,1,0,0:0:0:0:
192,192,75956,1,0,0:0:0:0:
320,192,76006,1,0,0:0:0:0:
448,192,76055,1,0,0:0:0:0:
64,192,76251,1,0,0:0:0:0:
192,192,76447,1,0,0:0:0:0:
448,192,76447,1,0,0:0:0:0:
320,192,76512,1,0,0:0:0:0:
64,192,76577,1,0,0:0:0:0:
448,192,76643,1,0,0:0:0:0:
192,192,76708,1,0,0:0:0:0:
64,192,76774,1,0,0:0:0:0:
320,192,76840,1,0,0:0:0:0:
448,192,76840,1,0,0:0:0:0:
192,192,76904,1,0,0:0:0:0:
320,192,76970,1,0,0:0:0:0:
448,192,77035,1,0,0:0:0:0:
192,192,77101,1,0,0:0:0:0:
448,192,77166,1,0,0:0:0:0:
64,192,77231,1,0,0:0:0:0:
320,192,77231,1,0,0:0:0:0:
192,192,77296,1,0,0:0:0:0:
64,192,77362,1,0,0:0:0:0:
320,192,77427,1,0,0:0:0:0:
448,192,77493,1,0,0:0:0:0:
320,192,77558,1,0,0:0:0:0:
64,192,77623,1,0,0:0:0:0:
192,192,77623,1,0,0:0:0:0:
448,192,77688,1,0,0:0:0:0:
64,192,77754,1,0,0:0:0:0:
320,192,77820,1,0,0:0:0:0:
192,192,77885,1,0,0:0:0:0:
320,192,77951,1,0,0:0:0:0:
64,192,78015,1,0,0:0:0:0:
448,192,78015,1,0,0:0:0:0:
192,192,78081,1,0,0:0:0:0:
320,192,78146,1,0,0:0:0:0:
448,192,78212,1,0,0:0:0:0:
64,192,78277,1,0,0:0:0:0:
192,192,78342,1,0,0:0:0:0:
64,192,78407,1,0,0:0:0:0:
320,192,78407,1,0,0:0:0:0:
448,192,78473,1,0,0:0:0:0:
320,192,78538,1,0,0:0:0:0:
192,192,78604,1,0,0:0:0:0:
64,192,78670,1,0,0:0:0:0:
192,192,78734,1,0,0:0:0:0:
64,192,78800,1,0,0:0:0:0:
448,192,78800,1,0,0:0:0:0:
320,192,78865,1,0,0:0:0:0:
192,192,78931,1,0,0:0:0:0:
320,192,78996,1,0,0:0:0:0:
192,192,79062,1,0,0:0:0:0:
64,192,79126,1,0,0:0:0:0:
192,192,79192,1,0,0:0:0:0:
448,192,79192,1,0,0:0:0:0:
320,192,79257,1,0,0:0:0:0:
64,192,79323,1,0,0:0:0:0:
320,192,79388,1,0,0:0:0:0:
64,192,79453,1,0,0:0:0:0:
448,192,79518,1,0,0:0:0:0:
192,192,79584,1,0,0:0:0:0:
320,192,79584,1,0,0:0:0:0:
448,192,79650,1,0,0:0:0:0:
64,192,79715,1,0,0:0:0:0:
448,192,79781,1,0,0:0:0:0:
64,192,79845,1,0,0:0:0:0:
320,192,79911,1,0,0:0:0:0:
64,192,79976,1,0,0:0:0:0:
448,192,79976,1,0,0:0:0:0:
192,192,80042,1,0,0:0:0:0:
64,192,80107,1,0,0:0:0:0:
192,192,80173,1,0,0:0:0:0:
64,192,80237,1,0,0:0:0:0:
320,192,80303,1,0,0:0:0:0:
64,192,80368,1,0,0:0:0:0:
448,192,80368,1,0,0:0:0:0:
320,192,80434,1,0,0:0:0:0:
448,192,80500,1,0,0:0:0:0:
320,192,80564,1,0,0:0:0:0:
448,192,80630,1,0,0:0:0:0:
64,192,80695,1,0,0:0:0:0:
192,192,80761,1,0,0:0:0:0:
320,192,80761,1,0,0:0:0:0:
448,192,80858,1,0,0:0:0:0:
320,192,80956,1,0,0:0:0:0:
448,192,81055,1,0,0:0:0:0:
320,192,81153,1,0,0:0:0:0:
448,192,81251,1,0,0:0:0:0:
320,192,81348,1,0,0:0:0:0:
448,192,81447,1,0,0:0:0:0:
320,192,81545,1,0,0:0:0:0:
448,192,81643,1,0,0:0:0:0:
320,192,81741,1,0,0:0:0:0:
192,192,81840,1,0,0:0:0:0:
64,192,81937,1,0,0:0:0:0:
448,192,81937,1,0,0:0:0:0:
320,192,82003,1,0,0:0:0:0:
192,192,82067,1,0,0:0:0:0:
320,192,82133,1,0,0:0:0:0:
192,192,82198,1,0,0:0:0:0:
320,192,82264,1,0,0:0:0:0:
64,192,82330,1,0,0:0:0:0:
448,192,82330,1,0,0:0:0:0:
192,192,82395,1,0,0:0:0:0:
64,192,82460,1,0,0:0:0:0:
192,192,82525,1,0,0:0:0:0:
64,192,82591,1,0,0:0:0:0:
192,192,82656,1,0,0:0:0:0:
64,192,82722,1,0,0:0:0:0:
448,192,82722,1,0,0:0:0:0:
320,192,82786,1,0,0:0:0:0:
448,192,82852,1,0,0:0:0:0:
320,192,82917,1,0,0:0:0:0:
448,192,82983,1,0,0:0:0:0:
320,192,83048,1,0,0:0:0:0:
64,192,83114,1,0,0:0:0:0:
448,192,83114,1,0,0:0:0:0:
192,192,83178,1,0,0:0:0:0:
64,192,83244,1,0,0:0:0:0:
320,192,83310,1,0,0:0:0:0:
448,192,83375,1,0,0:0:0:0:
192,192,83441,1,0,0:0:0:0:
64,192,83506,1,0,0:0:0:0:
448,192,83506,1,0,0:0:0:0:
320,192,83571,1,0,0:0:0:0:
448,192,83636,1,0,0:0:0:0:
64,192,83702,1,0,0:0:0:0:
192,192,83767,1,0,0:0:0:0:
320,192,83833,1,0,0:0:0:0:
64,192,83897,1,0,0:0:0:0:
448,192,83897,1,0,0:0:0:0:
192,192,83963,1,0,0:0:0:0:
448,192,84028,1,0,0:0:0:0:
192,192,84094,1,0,0:0:0:0:
448,192,84160,1,0,0:0:0:0:
192,192,84225,1,0,0:0:0:0:
64,192,84290,1,0,0:0:0:0:
448,192,84290,1,0,0:0:0:0:
320,192,84355,1,0,0:0:0:0:
64,192,84421,1,0,0:0:0:0:
320,192,84486,1,0,0:0:0:0:
64,192,84552,1,0,0:0:0:0:
320,192,84617,1,0,0:0:0:0:
64,192,84682,1,0,0:0:0:0:
448,192,84682,1,0,0:0:0:0:
192,192,84747,1,0,0:0:0:0:
320,192,84813,1,0,0:0:0:0:
64,192,84878,1,0,0:0:0:0:
448,192,84944,1,0,0:0:0:0:
192,192,85008,1,0,0:0:0:0:
64,192,85074,1,0,0:0:0:0:
448,192,85074,1,0,0:0:0:0:
320,192,85140,1,0,0:0:0:0:
448,192,85205,1,0,0:0:0:0:
192,192,85271,1,0,0:0:0:0:
64,192,85336,1,0,0:0:0:0:
320,192,85401,1,0,0:0:0:0:
64,192,85466,1,0,0:0:0:0:
448,192,85466,1,0,0:0:0:0:
192,192,85532,1,0,0:0:0:0:
64,192,85597,1,0,0:0:0:0:
448,192,85663,1,0,0:0:0:0:
320,192,85728,1,0,0:0:0:0:
192,192,85793,1,0,0:0:0:0:
64,192,85858,1,0,0:0:0:0:
448,192,85858,1,0,0:0:0:0:
320,192,85924,1,0,0:0:0:0:
64,192,85990,1,0,0:0:0:0:
448,192,86055,1,0,0:0:0:0:
192,192,86120,1,0,0:0:0:0:
320,192,86185,1,0,0:0:0:0:
64,192,86251,1,0,0:0:0:0:
448,192,86251,1,0,0:0:0:0:
192,192,86316,1,0,0:0:0:0:
448,192,86382,1,0,0:0:0:0:
64,192,86447,1,0,0:0:0:0:
320,192,86512,1,0,0:0:0:0:
192,192,86577,1,0,0:0:0:0:
64,192,86643,1,0,0:0:0:0:
448,192,86643,1,0,0:0:0:0:
64,192,86840,1,0,0:0:0:0:
192,192,86840,1,0,0:0:0:0:
320,192,86840,1,0,0:0:0:0:
448,192,86840,1,0,0:0:0:0:
64,192,87035,1,0,0:0:0:0:
448,192,87035,1,0,0:0:0:0:
192,192,87231,1,0,0:0:0:0:
320,192,87231,1,0,0:0:0:0:
64,192,87427,1,0,0:0:0:0:
448,192,87427,1,0,0:0:0:0:
192,192,87623,1,0,0:0:0:0:
320,192,87623,1,0,0:0:0:0:
64,192,87820,1,0,0:0:0:0:
448,192,87820,1,0,0:0:0:0:
320,192,87885,1,0,0:0:0:0:
64,192,87951,1,0,0:0:0:0:
192,192,88015,1,0,0:0:0:0:
320,192,88081,1,0,0:0:0:0:
64,192,88146,1,0,0:0:0:0:
192,192,88212,1,0,0:0:0:0:
448,192,88212,1,0,0:0:0:0:
320,192,88277,1,0,0:0:0:0:
448,192,88342,1,0,0:0:0:0:
64,192,88407,1,0,0:0:0:0:
320,192,88473,1,0,0:0:0:0:
192,192,88538,1,0,0:0:0:0:
320,192,88604,1,0,0:0:0:0:
448,192,88604,1,0,0:0:0:0:
64,192,88670,1,0,0:0:0:0:
320,192,88734,1,0,0:0:0:0:
192,192,88800,1,0,0:0:0:0:
448,192,88865,1,0,0:0:0:0:
64,192,88931,1,0,0:0:0:0:
192,192,88996,1,0,0:0:0:0:
320,192,88996,1,0,0:0:0:0:
448,192,88996,1,0,0:0:0:0:
64,192,89062,1,0,0:0:0:0:
192,192,89126,1,0,0:0:0:0:
320,192,89192,1,0,0:0:0:0:
448,192,89257,1,0,0:0:0:0:
192,192,89323,1,0,0:0:0:0:
64,192,89388,1,0,0:0:0:0:
320,192,89388,1,0,0:0:0:0:
448,192,89453,1,0,0:0:0:0:
320,192,89518,1,0,0:0:0:0:
448,192,89584,1,0,0:0:0:0:
64,192,89650,1,0,0:0:0:0:
448,192,89715,1,0,0:0:0:0:
64,192,89781,1,0,0:0:0:0:
192,192,89781,1,0,0:0:0:0:
320,192,89781,1,0,0:0:0:0:
448,192,89845,1,0,0:0:0:0:
64,192,89911,1,0,0:0:0:0:
192,192,89976,1,0,0:0:0:0:
320,192,90042,1,0,0:0:0:0:
64,192,90107,1,0,0:0:0:0:
192,192,90173,1,0,0:0:0:0:
448,192,90173,1,0,0:0:0:0:
320,192,90237,1,0,0:0:0:0:
192,192,90303,1,0,0:0:0:0:
64,192,90368,1,0,0:0:0:0:
448,192,90434,1,0,0:0:0:0:
64,192,90500,1,0,0:0:0:0:
192,192,90564,1,0,0:0:0:0:
320,192,90564,1,0,0:0:0:0:
448,192,90564,1,0,0:0:0:0:
64,192,90630,1,0,0:0:0:0:
448,192,90695,1,0,0:0:0:0:
320,192,90761,1,0,0:0:0:0:
192,192,90826,1,0,0:0:0:0:
448,192,90892,1,0,0:0:0:0:
64,192,90956,1,0,0:0:0:0:
320,192,90956,1,0,0:0:0:0:
192,192,91022,1,0,0:0:0:0:
320,192,91087,1,0,0:0:0:0:
64,192,91153,1,0,0:0:0:0:
448,192,91218,1,0,0:0:0:0:
320,192,91284,1,0,0:0:0:0:
192,192,91348,1,0,0:0:0:0:
448,192,91348,1,0,0:0:0:0:
64,192,91414,1,0,0:0:0:0:
192,192,91480,1,0,0:0:0:0:
64,192,91545,1,0,0:0:0:0:
448,192,91545,1,0,0:0:0:0:
320,192,91611,1,0,0:0:0:0:
192,192,91675,1,0,0:0:0:0:
64,192,91741,1,0,0:0:0:0:
192,192,91806,1,0,0:0:0:0:
320,192,91872,1,0,0:0:0:0:
64,192,91937,1,0,0:0:0:0:
448,192,91937,1,0,0:0:0:0:
320,192,92003,1,0,0:0:0:0:
192,192,92067,1,0,0:0:0:0:
64,192,92133,1,0,0:0:0:0:
192,192,92198,1,0,0:0:0:0:
320,192,92264,1,0,0:0:0:0:
64,192,92330,1,0,0:0:0:0:
448,192,92330,1,0,0:0:0:0:
320,192,92395,1,0,0:0:0:0:
192,192,92460,1,0,0:0:0:0:
64,192,92525,128,0,92917:0:0:0:0:
448,192,92525,128,0,92917:0:0:0:0:
192,192,92917,1,0,0:0:0:0:
320,192,92917,1,0,0:0:0:0:
64,192,93114,1,0,0:0:0:0:
448,192,93114,1,0,0:0:0:0:
192,192,93310,1,0,0:0:0:0:
320,192,93310,1,0,0:0:0:0:
64,192,93407,1,0,0:0:0:0:
192,192,93506,1,0,0:0:0:0:
64,192,93604,1,0,0:0:0:0:
192,192,93702,1,0,0:0:0:0:
64,192,93800,1,0,0:0:0:0:
192,192,93897,1,0,0:0:0:0:
64,192,93996,1,0,0:0:0:0:
192,192,94094,1,0,0:0:0:0:
64,192,94192,1,0,0:0:0:0:
192,192,94290,1,0,0:0:0:0:
64,192,94388,1,0,0:0:0:0:
192,192,94486,1,0,0:0:0:0:
448,192,94486,1,0,0:0:0:0:
320,192,94552,1,0,0:0:0:0:
64,192,94617,1,0,0:0:0:0:
192,192,94682,1,0,0:0:0:0:
320,192,94747,1,0,0:0:0:0:
192,192,94813,1,0,0:0:0:0:
64,192,94878,1,0,0:0:0:0:
448,192,94878,1,0,0:0:0:0:
320,192,94944,1,0,0:0:0:0:
192,192,95008,1,0,0:0:0:0:
448,192,95074,1,0,0:0:0:0:
320,192,95140,1,0,0:0:0:0:
192,192,95205,1,0,0:0:0:0:
64,192,95271,1,0,0:0:0:0:
448,192,95271,1,0,0:0:0:0:
320,192,95336,1,0,0:0:0:0:
192,192,95401,1,0,0:0:0:0:
64,192,95466,1,0,0:0:0:0:
448,192,95532,1,0,0:0:0:0:
192,192,95597,1,0,0:0:0:0:
64,192,95663,1,0,0:0:0:0:
320,192,95663,1,0,0:0:0:0:
64,192,96055,1,0,0:0:0:0:
448,192,96055,1,0,0:0:0:0:
64,192,96447,1,0,0:0:0:0:
448,192,96447,1,0,0:0:0:0:
64,192,96840,1,0,0:0:0:0:
448,192,96840,1,0,0:0:0:0:
320,192,96904,1,0,0:0:0:0:
192,192,96970,1,0,0:0:0:0:
64,192,97035,1,0,0:0:0:0:
448,192,97101,1,0,0:0:0:0:
64,192,97166,1,0,0:0:0:0:
192,192,97231,1,0,0:0:0:0:
320,192,97231,1,0,0:0:0:0:
448,192,97296,1,0,0:0:0:0:
64,192,97362,1,0,0:0:0:0:
192,192,97427,1,0,0:0:0:0:
320,192,97493,1,0,0:0:0:0:
448,192,97558,1,0,0:0:0:0:
192,192,97623,1,0,0:0:0:0:
320,192,97623,1,0,0:0:0:0:
64,192,97688,1,0,0:0:0:0:
192,192,97754,1,0,0:0:0:0:
320,192,97820,1,0,0:0:0:0:
448,192,97885,1,0,0:0:0:0:
192,192,97951,1,0,0:0:0:0:
64,192,98015,1,0,0:0:0:0:
448,192,98015,1,0,0:0:0:0:
64,192,98407,1,0,0:0:0:0:
448,192,98407,1,0,0:0:0:0:
192,192,98800,1,0,0:0:0:0:
448,192,98800,1,0,0:0:0:0:
320,192,98865,1,0,0:0:0:0:
64,192,98931,1,0,0:0:0:0:
192,192,98996,1,0,0:0:0:0:
320,192,99062,1,0,0:0:0:0:
448,192,99126,1,0,0:0:0:0:
64,192,99192,1,0,0:0:0:0:
320,192,99192,1,0,0:0:0:0:
192,192,99257,1,0,0:0:0:0:
320,192,99323,1,0,0:0:0:0:
448,192,99388,1,0,0:0:0:0:
64,192,99453,1,0,0:0:0:0:
192,192,99518,1,0,0:0:0:0:
64,192,99584,1,0,0:0:0:0:
448,192,99584,1,0,0:0:0:0:
320,192,99650,1,0,0:0:0:0:
448,192,99715,1,0,0:0:0:0:
192,192,99781,1,0,0:0:0:0:
64,192,99845,1,0,0:0:0:0:
320,192,99911,1,0,0:0:0:0:
64,192,99976,1,0,0:0:0:0:
448,192,99976,1,0,0:0:0:0:
