osu file format v14

[General]
AudioFilename: audio.mp3
AudioLeadIn: 0
PreviewTime: 59178
Countdown: 0
SampleSet: Soft
StackLeniency: 0.4
Mode: 0
LetterboxInBreaks: 0
EpilepsyWarning: 1
WidescreenStoryboard: 1

[Editor]
Bookmarks: 25384,36678,47972,59266,104443,115737,138325,149619,160913,206090
DistanceSpacing: 0.8
BeatDivisor: 4
GridSize: 32
TimelineZoom: 1.7

[Metadata]
Title:Treason
TitleUnicode:Treason
Artist:Dictate
ArtistUnicode:Dictate
Creator:Realazy
Version:The Senate
Source:
Tags:enkrypton lowcombofc lcfc kalibe toybot pishifat neurofunk neuro featured artist fa mappers guild
BeatmapID:1775314
BeatmapSetID:848976

[Difficulty]
HPDrainRate:6
CircleSize:4
OverallDifficulty:8.7
ApproachRate:9.2
SliderMultiplier:2.1
SliderTickRate:1

[Events]
//Background and Video events
0,0,"treason.png",0,0
//Break Periods
2,37384,47402
2,104643,115167
2,139031,149049
//Storyboard Layer 0 (Background)
Sprite,Background,Centre,"treason.png",320,240 F,0,0,,0
Sprite,Background,Centre,"sb\desat.png",320,240 S,0,0,,0.4444444 F,0,0,59266,1
Sprite,Background,Centre,"sb\pixel.png",320,240 C,0,0,,0,0,0 V,0,0,,1920,1080 F,0,0,25384,1
Sprite,Background,Centre,"sb\pixel.png",320,240 C,0,0,,0,0,0 V,0,0,,1920,1080 F,0,25384,25736,0.2,0.5 F,0,25384,25737,1,0.5 F,0,26795,27148,0.2,0.5 F,0,28207,28560,0.2,0.5 F,0,29619,29972,0.2,0.5 F,0,31031,31384,0.2,0.5 F,0,32442,32795,0.2,0.5 F,0,33854,34207,0.2,0.5 F,0,35266,35619,0.2,0.5 F,0,35619,36678,0.5,1 F,0,36678,37031,1,0.5 F,0,37031,47972,0.5
Sprite,Background,Centre,"sb\pixel.png",320,240 C,0,0,,0,0,0 V,0,0,,1920,1080 F,0,47972,48678,0.5,0.3 F,0,48678,56443,0.3,0
Sprite,Background,Centre,"sb\normal.png",320,240 F,0,0,,0 S,0,0,,0.4444444 F,0,59266,103737,1 F,0,103737,104443,1,0
Sprite,Background,Centre,"sb\light.png",320,240 F,0,0,,0 S,0,0,,0.4444444 F,0,59266,59596,1,0 F,0,61737,62067,1,0 F,0,62090,62420,1,0 F,0,64560,64890,1,0 F,0,64913,65243,1,0 F,0,67384,67714,1,0 F,0,67736,68066,1,0 F,0,70559,70889,1,0 F,0,73031,73361,1,0 F,0,73382,73712,1,0 F,0,75854,76184,1,0 F,0,76205,76535,1,0 F,0,78678,79008,1,0 F,0,79028,79358,1,0 F,0,81851,82181,1,0 F,0,84325,84655,1,0 F,0,84674,85004,1,0 F,0,87148,87478,1,0 F,0,87497,87827,1,0 F,0,89972,90302,1,0 F,0,90320,90650,1,0 F,0,93143,93473,1,0 F,0,95619,95949,1,0 F,0,95966,96296,1,0 F,0,98443,98773,1,0 F,0,98789,99119,1,0 F,0,101266,101596,1,0 F,0,101612,101942,1,0
Sprite,Background,Centre,"sb\zoomlight.png",320,240 F,0,0,,0 S,0,0,,0.4444444 F,0,60325,60655,1,0 F,0,63148,63478,1,0 F,0,65971,66301,1,0 F,0,68794,69124,1,0 F,0,71617,71947,1,0 F,0,74440,74770,1,0 F,0,77263,77593,1,0 F,0,80086,80416,1,0 F,0,82909,83239,1,0 F,0,85732,86062,1,0 F,0,88555,88885,1,0 F,0,91378,91708,1,0 F,0,94201,94531,1,0 F,0,97024,97354,1,0 F,0,99847,100177,1,0 F,0,102670,103000,1,0
Sprite,Background,Centre,"sb\desat.png",320,240 S,0,0,,0.4444444 F,0,115736,,0 F,0,115737,160913,1
Sprite,Background,Centre,"sb\pixel.png",320,240 C,0,0,,0,0,0 V,0,0,,1920,1080 F,0,115736,,0 F,0,115737,116443,1,0.5 F,0,117148,117500,0.2,0.5 F,0,118559,118912,0.2,0.5 F,0,119971,120324,0.2,0.5 F,0,121383,121736,0.2,0.5 F,0,122795,123147,0.2,0.5 F,0,124206,124559,0.2,0.5 F,0,125618,125971,0.2,0.5 F,0,127030,127383,0.2,0.5 F,0,128442,128795,0.2,0.5 F,0,129853,130206,0.2,0.5 F,0,131265,131618,0.2,0.5 F,0,132677,133030,0.2,0.5 F,0,134089,134442,0.2,0.5 F,0,135500,135853,0.2,0.5 F,0,136912,137265,0.2,0.5 F,0,138325,138501,0.5,0.8 F,0,138501,149619,0.8
Sprite,Background,Centre,"sb\pixel.png",320,240 C,0,0,,0,0,0 V,0,0,,1920,1080 F,0,149619,,0 F,0,149619,149795,0.8,0.5 F,0,149795,158090,0.5 F,0,158090,160913,0.5,0.3
Sprite,Background,Centre,"sb\normal.png",320,240 F,0,0,,0 S,0,0,,0.4444444 F,0,160913,205384,1 F,0,205384,206090,1,0
Sprite,Background,Centre,"sb\light.png",320,240 F,0,0,,0 S,0,0,,0.4444444 F,0,160913,161266,1,0 F,0,163384,163737,1,0 F,0,163737,164090,1,0 F,0,166207,166560,1,0 F,0,166560,166913,1,0 F,0,169031,169384,1,0 F,0,169383,169736,1,0 F,0,172206,172559,1,0 F,0,174678,175031,1,0 F,0,175029,175382,1,0 F,0,177501,177854,1,0 F,0,177852,178205,1,0 F,0,180325,180678,1,0 F,0,180675,181028,1,0 F,0,183498,183851,1,0 F,0,185972,186325,1,0 F,0,186321,186674,1,0 F,0,188795,189148,1,0 F,0,189144,189497,1,0 F,0,191619,191972,1,0 F,0,191967,192320,1,0 F,0,194790,195143,1,0 F,0,197266,197619,1,0 F,0,197613,197966,1,0 F,0,200090,200443,1,0 F,0,200436,200789,1,0 F,0,202913,203266,1,0 F,0,203259,203612,1,0
Sprite,Background,Centre,"sb\zoomlight.png",320,240 F,0,0,,0 S,0,0,,0.4444444 F,0,161972,162325,1,0 F,0,164795,165148,1,0 F,0,167618,167971,1,0 F,0,170441,170794,1,0 F,0,173264,173617,1,0 F,0,176087,176440,1,0 F,0,178910,179263,1,0 F,0,181733,182086,1,0 F,0,184556,184909,1,0 F,0,187379,187732,1,0 F,0,190202,190555,1,0 F,0,193025,193378,1,0 F,0,195848,196201,1,0 F,0,198671,199024,1,0 F,0,201494,201847,1,0 F,0,204317,204670,1,0
Sprite,Background,Centre,"sb\w\2795\0054.png",66.75,131.5 S,0,2795,,0.5 F,19,2796,3096,0,1 F,0,5619,22560,1 F,0,22560,25384,1,0
Sprite,Background,Centre,"sb\w\2795\0072.png",88.25,131.5 S,0,2795,,0.5 F,19,2798,3098,0,1 F,0,5619,22560,1 F,0,22560,25384,1,0
Sprite,Background,Centre,"sb\w\2795\0065.png",109.75,131.5 S,0,2795,,0.5 F,19,2805,3105,0,1 F,0,5619,22560,1 F,0,22560,25384,1,0
Sprite,Background,Centre,"sb\w\2795\0061.png",129.25,131.5 S,0,2795,,0.5 F,19,2817,3117,0,1 F,0,5619,22560,1 F,0,22560,25384,1,0
Sprite,Background,Centre,"sb\w\2795\0073.png",148.75,131.5 S,0,2795,,0.5 F,19,2834,3134,0,1 F,0,5619,22560,1 F,0,22560,25384,1,0
Sprite,Background,Centre,"sb\w\2795\006f.png",170.25,131.5 S,0,2795,,0.5 F,19,2856,3156,0,1 F,0,5619,22560,1 F,0,22560,25384,1,0
Sprite,Background,Centre,"sb\w\2795\006e.png",192.5,131.5 S,0,2795,,0.5 F,19,2883,3183,0,1 F,0,5619,22560,1 F,0,22560,25384,1,0
Sprite,Background,Centre,"sb\pixel.png",0,0 F,0,2795,,1 MY,0,2795,,129 V,0,2795,,12,21 MX,19,2795,3215,56,210 F,0,3215,3568,0 F,0,3568,3921,1 F,0,3921,4274,0 F,0,4274,4627,1 F,0,4627,4980,0 F,0,4980,5333,1
Sprite,Background,Centre,"sb\w\5619\0044.png",64.5,158 S,0,5619,,0.5 F,19,5620,5920,0,1 F,0,8162,22560,1 F,0,22560,25384,1,0
Sprite,Background,Centre,"sb\w\5619\0069.png",74,158 S,0,5619,,0.5 F,19,5622,5922,0,1 F,0,8162,22560,1 F,0,22560,25384,1,0
Sprite,Background,Centre,"sb\w\5619\0063.png",83.5,158 S,0,5619,,0.5 F,19,5629,5929,0,1 F,0,8162,22560,1 F,0,22560,25384,1,0
Sprite,Background,Centre,"sb\w\5619\0074.png",98.5,158 S,0,5619,,0.5 F,19,5641,5941,0,1 F,0,8162,22560,1 F,0,22560,25384,1,0
Sprite,Background,Centre,"sb\w\5619\0061.png",112,158 S,0,5619,,0.5 F,19,5658,5958,0,1 F,0,8162,22560,1 F,0,22560,25384,1,0
Sprite,Background,Centre,"sb\w\5619\0074.png",125.5,158 S,0,5619,,0.5 F,19,5680,5980,0,1 F,0,8162,22560,1 F,0,22560,25384,1,0
Sprite,Background,Centre,"sb\w\5619\0065.png",140.5,158 S,0,5619,,0.5 F,19,5707,6007,0,1 F,0,8162,22560,1 F,0,22560,25384,1,0
Sprite,Background,Centre,"sb\pixel.png",0,0 F,0,5619,,1 MY,0,5619,,156 V,0,5619,,12,15 MX,19,5619,6099,50,154 F,0,6099,6452,0 F,0,6452,6805,1 F,0,6805,7158,0 F,0,7158,7511,1 F,0,7511,7864,0 F,0,7864,8217,1
Sprite,Background,Centre,"sb\w\8443\004d.png",65.75,183 S,0,8443,,0.5 F,19,8444,8744,0,1 F,0,11266,22560,1 F,0,22560,25384,1,0
Sprite,Background,Centre,"sb\w\8443\0061.png",80.5,183 S,0,8443,,0.5 F,19,8446,8746,0,1 F,0,11266,22560,1 F,0,22560,25384,1,0
Sprite,Background,Centre,"sb\w\8443\0070.png",94,183 S,0,8443,,0.5 F,19,8453,8753,0,1 F,0,11266,22560,1 F,0,22560,25384,1,0
Sprite,Background,Centre,"sb\w\8443\0070.png",109,183 S,0,8443,,0.5 F,19,8465,8765,0,1 F,0,11266,22560,1 F,0,22560,25384,1,0
Sprite,Background,Centre,"sb\w\8443\0065.png",124,183 S,0,8443,,0.5 F,19,8482,8782,0,1 F,0,11266,22560,1 F,0,22560,25384,1,0
Sprite,Background,Centre,"sb\w\8443\0072.png",139,183 S,0,8443,,0.5 F,19,8504,8804,0,1 F,0,11266,22560,1 F,0,22560,25384,1,0
Sprite,Background,Centre,"sb\w\8443\003a.png",149.5,183 S,0,8443,,0.5 F,19,8531,8831,0,1 F,0,11266,22560,1 F,0,22560,25384,1,0
Sprite,Background,Centre,"sb\w\8443\0052.png",167,183 S,0,8443,,0.5 F,19,8563,8863,0,1 F,0,11266,22560,1 F,0,22560,25384,1,0
Sprite,Background,Centre,"sb\w\8443\0065.png",182,183 S,0,8443,,0.5 F,19,8600,8900,0,1 F,0,11266,22560,1 F,0,22560,25384,1,0
Sprite,Background,Centre,"sb\w\8443\0061.png",195.5,183 S,0,8443,,0.5 F,19,8642,8942,0,1 F,0,11266,22560,1 F,0,22560,25384,1,0
Sprite,Background,Centre,"sb\w\8443\006c.png",209,183 S,0,8443,,0.5 F,19,8689,8989,0,1 F,0,11266,22560,1 F,0,22560,25384,1,0
Sprite,Background,Centre,"sb\w\8443\0061.png",222.5,183 S,0,8443,,0.5 F,19,8741,9041,0,1 F,0,11266,22560,1 F,0,22560,25384,1,0
Sprite,Background,Centre,"sb\w\8443\007a.png",235.25,183 S,0,8443,,0.5 F,19,8798,9098,0,1 F,0,11266,22560,1 F,0,22560,25384,1,0
Sprite,Background,Centre,"sb\w\8443\0079.png",249.5,183 S,0,8443,,0.5 F,19,8860,9160,0,1 F,0,11266,22560,1 F,0,22560,25384,1,0
Sprite,Background,Centre,"sb\pixel.png",0,0 F,0,8443,,1 MY,0,8443,,181 V,0,8443,,12,15 MX,19,8443,9343,57,263 F,0,9343,9696,0 F,0,9696,10049,1 F,0,10049,10402,0 F,0,10402,10755,1 F,0,10755,11108,0 F,0,11108,11461,1
Sprite,Background,Centre,"sb\w\11266\0044.png",64.5,233 S,0,11266,,0.5 F,19,11267,11567,0,1 F,0,14090,22560,1 F,0,22560,25384,1,0
Sprite,Background,Centre,"sb\w\11266\0069.png",74,233 S,0,11266,,0.5 F,19,11269,11569,0,1 F,0,14090,22560,1 F,0,22560,25384,1,0
Sprite,Background,Centre,"sb\w\11266\0066.png",83.5,233 S,0,11266,,0.5 F,19,11276,11576,0,1 F,0,14090,22560,1 F,0,22560,25384,1,0
Sprite,Background,Centre,"sb\w\11266\0066.png",98.5,233 S,0,11266,,0.5 F,19,11288,11588,0,1 F,0,14090,22560,1 F,0,22560,25384,1,0
Sprite,Background,Centre,"sb\w\11266\0069.png",108,233 S,0,11266,,0.5 F,19,11305,11605,0,1 F,0,14090,22560,1 F,0,22560,25384,1,0
Sprite,Background,Centre,"sb\w\11266\0063.png",117.5,233 S,0,11266,,0.5 F,19,11327,11627,0,1 F,0,14090,22560,1 F,0,22560,25384,1,0
Sprite,Background,Centre,"sb\w\11266\0075.png",132.5,233 S,0,11266,,0.5 F,19,11354,11654,0,1 F,0,14090,22560,1 F,0,22560,25384,1,0
Sprite,Background,Centre,"sb\w\11266\006c.png",147.5,233 S,0,11266,,0.5 F,19,11386,11686,0,1 F,0,14090,22560,1 F,0,22560,25384,1,0
Sprite,Background,Centre,"sb\w\11266\0074.png",162.5,233 S,0,11266,,0.5 F,19,11423,11723,0,1 F,0,14090,22560,1 F,0,22560,25384,1,0
Sprite,Background,Centre,"sb\w\11266\0079.png",177.5,233 S,0,11266,,0.5 F,19,11465,11765,0,1 F,0,14090,22560,1 F,0,22560,25384,1,0
Sprite,Background,Centre,"sb\w\11266\003a.png",188,233 S,0,11266,,0.5 F,19,11512,11812,0,1 F,0,14090,22560,1 F,0,22560,25384,1,0
Sprite,Background,Centre,"sb\pixel.png",0,0 F,0,11266,,1 MY,0,11266,,231 V,0,11266,,12,15 MX,19,11266,11926,57,197 F,0,11926,12279,0 F,0,12279,12632,1 F,0,12632,12985,0 F,0,12985,13338,1 F,0,13338,13691,0 F,0,13691,14044,1
Sprite,Background,Centre,"sb\w\14090\0054.png",64.5,258 S,0,14090,,0.5 F,19,14091,14391,0,1 F,0,16913,22560,1 F,0,22560,25384,1,0
Sprite,Background,Centre,"sb\w\14090\0068.png",79.5,258 S,0,14090,,0.5 F,19,14093,14393,0,1 F,0,16913,22560,1 F,0,22560,25384,1,0
Sprite,Background,Centre,"sb\w\14090\0065.png",94.5,258 S,0,14090,,0.5 F,19,14100,14400,0,1 F,0,16913,22560,1 F,0,22560,25384,1,0
Sprite,Background,Centre,"sb\w\14090\0053.png",116.5,258 S,0,14090,,0.5 F,19,14112,14412,0,1 F,0,16913,22560,1 F,0,22560,25384,1,0
Sprite,Background,Centre,"sb\w\14090\0065.png",131.5,258 S,0,14090,,0.5 F,19,14129,14429,0,1 F,0,16913,22560,1 F,0,22560,25384,1,0
Sprite,Background,Centre,"sb\w\14090\006e.png",147,258 S,0,14090,,0.5 F,19,14151,14451,0,1 F,0,16913,22560,1 F,0,22560,25384,1,0
Sprite,Background,Centre,"sb\w\14090\0061.png",161,258 S,0,14090,,0.5 F,19,14178,14478,0,1 F,0,16913,22560,1 F,0,22560,25384,1,0
Sprite,Background,Centre,"sb\w\14090\0074.png",174.5,258 S,0,14090,,0.5 F,19,14210,14510,0,1 F,0,16913,22560,1 F,0,22560,25384,1,0
Sprite,Background,Centre,"sb\w\14090\0065.png",189.5,258 S,0,14090,,0.5 F,19,14247,14547,0,1 F,0,16913,22560,1 F,0,22560,25384,1,0
Sprite,Background,Centre,"sb\pixel.png",0,0 F,0,14090,,1 MY,0,14090,,256 V,0,14090,,12,15 MX,19,14090,14690,57,203 F,0,14690,15043,0 F,0,15043,15396,1 F,0,15396,15749,0 F,0,15749,16102,1 F,0,16102,16455,0 F,0,16455,16808,1
Sprite,Background,Centre,"sb\w\16913\0053.png",64.5,308 S,0,16913,,0.5 F,19,16914,17214,0,1 F,0,19737,22560,1 F,0,22560,25384,1,0
Sprite,Background,Centre,"sb\w\16913\0074.png",79.5,308 S,0,16913,,0.5 F,19,16916,17216,0,1 F,0,19737,22560,1 F,0,22560,25384,1,0
Sprite,Background,Centre,"sb\w\16913\006f.png",94.5,308 S,0,16913,,0.5 F,19,16923,17223,0,1 F,0,19737,22560,1 F,0,22560,25384,1,0
Sprite,Background,Centre,"sb\w\16913\0072.png",109.5,308 S,0,16913,,0.5 F,19,16935,17235,0,1 F,0,19737,22560,1 F,0,22560,25384,1,0
Sprite,Background,Centre,"sb\w\16913\0079.png",124.5,308 S,0,16913,,0.5 F,19,16952,17252,0,1 F,0,19737,22560,1 F,0,22560,25384,1,0
Sprite,Background,Centre,"sb\w\16913\0062.png",139.5,308 S,0,16913,,0.5 F,19,16974,17274,0,1 F,0,19737,22560,1 F,0,22560,25384,1,0
Sprite,Background,Centre,"sb\w\16913\006f.png",154.5,308 S,0,16913,,0.5 F,19,17001,17301,0,1 F,0,19737,22560,1 F,0,22560,25384,1,0
Sprite,Background,Centre,"sb\w\16913\0061.png",168,308 S,0,16913,,0.5 F,19,17033,17333,0,1 F,0,19737,22560,1 F,0,22560,25384,1,0
Sprite,Background,Centre,"sb\w\16913\0072.png",181.5,308 S,0,16913,,0.5 F,19,17070,17370,0,1 F,0,19737,22560,1 F,0,22560,25384,1,0
Sprite,Background,Centre,"sb\w\16913\0064.png",196.5,308 S,0,16913,,0.5 F,19,17112,17412,0,1 F,0,19737,22560,1 F,0,22560,25384,1,0
Sprite,Background,Centre,"sb\w\16913\003a.png",207,308 S,0,16913,,0.5 F,19,17159,17459,0,1 F,0,19737,22560,1 F,0,22560,25384,1,0
Sprite,Background,Centre,"sb\pixel.png",0,0 F,0,16913,,1 MY,0,16913,,306 V,0,16913,,12,15 MX,19,16913,17573,57,216 F,0,17573,17926,0 F,0,17926,18279,1 F,0,18279,18632,0 F,0,18632,18985,1 F,0,18985,19338,0 F,0,19338,19691,1
Sprite,Background,Centre,"sb\w\19737\0045.png",64.5,333 S,0,19737,,0.5 F,19,19738,20038,0,1 F,0,22560,,1 F,0,22560,25384,1,0
Sprite,Background,Centre,"sb\w\19737\006e.png",80,333 S,0,19737,,0.5 F,19,19740,20040,0,1 F,0,22560,,1 F,0,22560,25384,1,0
Sprite,Background,Centre,"sb\w\19737\006b.png",94.75,333 S,0,19737,,0.5 F,19,19747,20047,0,1 F,0,22560,,1 F,0,22560,25384,1,0
Sprite,Background,Centre,"sb\w\19737\0072.png",109,333 S,0,19737,,0.5 F,19,19759,20059,0,1 F,0,22560,,1 F,0,22560,25384,1,0
Sprite,Background,Centre,"sb\w\19737\0079.png",124,333 S,0,19737,,0.5 F,19,19776,20076,0,1 F,0,22560,,1 F,0,22560,25384,1,0
Sprite,Background,Centre,"sb\w\19737\0070.png",139,333 S,0,19737,,0.5 F,19,19798,20098,0,1 F,0,22560,,1 F,0,22560,25384,1,0
Sprite,Background,Centre,"sb\w\19737\0074.png",154,333 S,0,19737,,0.5 F,19,19825,20125,0,1 F,0,22560,,1 F,0,22560,25384,1,0
Sprite,Background,Centre,"sb\w\19737\006f.png",169,333 S,0,19737,,0.5 F,19,19857,20157,0,1 F,0,22560,,1 F,0,22560,25384,1,0
Sprite,Background,Centre,"sb\w\19737\006e.png",184.5,333 S,0,19737,,0.5 F,19,19894,20194,0,1 F,0,22560,,1 F,0,22560,25384,1,0
Sprite,Background,Centre,"sb\pixel.png",0,0 F,0,19737,,1 MY,0,19737,,331 V,0,19737,,12,15 MX,19,19737,20277,57,198.5 F,0,20277,20630,0 F,0,20630,20983,1 F,0,20983,21336,0 F,0,21336,21689,1 F,0,21689,22042,0 F,0,22042,22395,1
Sprite,Background,Centre,"sb\w\208913\0054.png",160,251.5 S,0,208913,,0.5 F,19,208914,209214,0,1 F,0,211737,212089,1,0
Sprite,Background,Centre,"sb\w\208913\0068.png",181.5,251.5 S,0,208913,,0.5 F,19,208916,209216,0,1 F,0,211737,212089,1,0
Sprite,Background,Centre,"sb\w\208913\0061.png",201,251.5 S,0,208913,,0.5 F,19,208923,209223,0,1 F,0,211737,212089,1,0
Sprite,Background,Centre,"sb\w\208913\006e.png",221.25,251.5 S,0,208913,,0.5 F,19,208935,209235,0,1 F,0,211737,212089,1,0
Sprite,Background,Centre,"sb\w\208913\006b.png",242.5,251.5 S,0,208913,,0.5 F,19,208952,209252,0,1 F,0,211737,212089,1,0
Sprite,Background,Centre,"sb\w\208913\0073.png",263,251.5 S,0,208913,,0.5 F,19,208974,209274,0,1 F,0,211737,212089,1,0
Sprite,Background,Centre,"sb\w\208913\0066.png",294.5,251.5 S,0,208913,,0.5 F,19,209001,209301,0,1 F,0,211737,212089,1,0
Sprite,Background,Centre,"sb\w\208913\006f.png",316,251.5 S,0,208913,,0.5 F,19,209033,209333,0,1 F,0,211737,212089,1,0
Sprite,Background,Centre,"sb\w\208913\0072.png",337.5,251.5 S,0,208913,,0.5 F,19,209070,209370,0,1 F,0,211737,212089,1,0
Sprite,Background,Centre,"sb\w\208913\0050.png",369,251.5 S,0,208913,,0.5 F,19,209112,209412,0,1 F,0,211737,212089,1,0
Sprite,Background,Centre,"sb\w\208913\006c.png",390.5,251.5 S,0,208913,,0.5 F,19,209159,209459,0,1 F,0,211737,212089,1,0
Sprite,Background,Centre,"sb\w\208913\0061.png",410,251.5 S,0,208913,,0.5 F,19,209211,209511,0,1 F,0,211737,212089,1,0
Sprite,Background,Centre,"sb\w\208913\0079.png",429.5,251.5 S,0,208913,,0.5 F,19,209268,209568,0,1 F,0,211737,212089,1,0
Sprite,Background,Centre,"sb\w\208913\0069.png",443.25,251.5 S,0,208913,,0.5 F,19,209330,209630,0,1 F,0,211737,212089,1,0
Sprite,Background,Centre,"sb\w\208913\006e.png",457.75,251.5 S,0,208913,,0.5 F,19,209397,209697,0,1 F,0,211737,212089,1,0
Sprite,Background,Centre,"sb\w\208913\0067.png",480,251.5 S,0,208913,,0.5 F,19,209469,209769,0,1 F,0,211737,212089,1,0
Sprite,Background,Centre,"sb\pixel.png",0,0 F,0,208913,,1 MY,0,208913,,249 V,0,208913,,12,21 MX,19,208913,209993,149.25,496.75 F,0,209993,210346,0 F,0,210346,210699,1 F,0,210699,211052,0 F,0,211052,211405,1
Sprite,Background,Centre,"sb\star.png",0,0 M,16,36678,39404,320,240,348.7015,-12.37318 F,0,36678,39404,1,0 S,0,36678,39404,0,0.05
Sprite,Background,Centre,"sb\star.png",0,0 M,16,36728,39286,320,240,225.8344,203.4783 F,0,36728,39286,1,0 S,0,36728,39286,0,0.05
Sprite,Background,Centre,"sb\star.png",0,0 M,16,36778,39684,320,240,478.4108,217.5053 F,0,36778,39684,1,0 S,0,36778,39684,0,0.05
Sprite,Background,Centre,"sb\star.png",0,0 M,16,36828,39101,320,240,200.5637,264.8791 F,0,36828,39101,1,0 S,0,36828,39101,0,0.05
Sprite,Background,Centre,"sb\star.png",0,0 M,16,36878,39510,320,240,485.9509,221.3107 F,0,36878,39510,1,0 S,0,36878,39510,0,0.05
Sprite,Background,Centre,"sb\star.png",0,0 M,16,36928,38958,320,240,584.8868,232.2538 F,0,36928,38958,1,0 S,0,36928,38958,0,0.05
Sprite,Background,Centre,"sb\star.png",0,0 M,16,36978,39655,320,240,372.2395,123.1452 F,0,36978,39655,1,0 S,0,36978,39655,0,0.05
Sprite,Background,Centre,"sb\star.png",0,0 M,16,37028,39876,320,240,610.7817,300.4566 F,0,37028,39876,1,0 S,0,37028,39876,0,0.05
Sprite,Background,Centre,"sb\star.png",0,0 M,16,37078,39777,320,240,485.6672,167.0934 F,0,37078,39777,1,0 S,0,37078,39777,0,0.05
Sprite,Background,Centre,"sb\star.png",0,0 M,16,37128,39815,320,240,482.3642,330.7407 F,0,37128,39815,1,0 S,0,37128,39815,0,0.05
Sprite,Background,Centre,"sb\star.png",0,0 M,16,37178,39365,320,240,272.3927,395.8927 F,0,37178,39365,1,0 S,0,37178,39365,0,0.05
Sprite,Background,Centre,"sb\star.png",0,0 M,16,37228,40216,320,240,337.0862,30.69624 F,0,37228,40216,1,0 S,0,37228,40216,0,0.05
Sprite,Background,Centre,"sb\star.png",0,0 M,16,37278,39308,320,240,239.9036,360.87 F,0,37278,39308,1,0 S,0,37278,39308,0,0.05
Sprite,Background,Centre,"sb\star.png",0,0 M,16,37328,40285,320,240,282.657,68.00726 F,0,37328,40285,1,0 S,0,37328,40285,0,0.05
Sprite,Background,Centre,"sb\star.png",0,0 M,16,37378,39496,320,240,418.4613,174.9664 F,0,37378,39496,1,0 S,0,37378,39496,0,0.05
Sprite,Background,Centre,"sb\star.png",0,0 M,16,37428,40222,320,240,190.8142,275.5954 F,0,37428,40222,1,0 S,0,37428,40222,0,0.05
Sprite,Background,Centre,"sb\star.png",0,0 M,16,37478,39624,320,240,231.3197,296.221 F,0,37478,39624,1,0 S,0,37478,39624,0,0.05
Sprite,Background,Centre,"sb\star.png",0,0 M,16,37528,40246,320,240,116.5827,255.4075 F,0,37528,40246,1,0 S,0,37528,40246,0,0.05
Sprite,Background,Centre,"sb\star.png",0,0 M,16,37578,39772,320,240,442.7603,0.6448114 F,0,37578,39772,1,0 S,0,37578,39772,0,0.05
Sprite,Background,Centre,"sb\star.png",0,0 M,16,37628,40363,320,240,207.2177,1.30322 F,0,37628,40363,1,0 S,0,37628,40363,0,0.05
Sprite,Background,Centre,"sb\star.png",0,0 M,16,37678,40302,320,240,402.3211,176.445 F,0,37678,40302,1,0 S,0,37678,40302,0,0.05
Sprite,Background,Centre,"sb\star.png",0,0 M,16,37728,40624,320,240,357.507,179.7155 F,0,37728,40624,1,0 S,0,37728,40624,0,0.05
Sprite,Background,Centre,"sb\star.png",0,0 M,16,37778,39948,320,240,417.929,53.10187 F,0,37778,39948,1,0 S,0,37778,39948,0,0.05
Sprite,Background,Centre,"sb\star.png",0,0 M,16,37828,40047,320,240,23.04707,274.9279 F,0,37828,40047,1,0 S,0,37828,40047,0,0.05
Sprite,Background,Centre,"sb\star.png",0,0 M,16,37878,40530,320,240,403.5811,26.79774 F,0,37878,40530,1,0 S,0,37878,40530,0,0.05
Sprite,Background,Centre,"sb\star.png",0,0 M,16,37928,40028,320,240,274.3112,12.54333 F,0,37928,40028,1,0 S,0,37928,40028,0,0.05
Sprite,Background,Centre,"sb\star.png",0,0 M,16,37978,40103,320,240,423.0136,496.0551 F,0,37978,40103,1,0 S,0,37978,40103,0,0.05
Sprite,Background,Centre,"sb\star.png",0,0 M,16,38028,40504,320,240,235.4936,404.5712 F,0,38028,40504,1,0 S,0,38028,40504,0,0.05
Sprite,Background,Centre,"sb\star.png",0,0 M,16,38078,40749,320,240,403.6486,95.45965 F,0,38078,40749,1,0 S,0,38078,40749,0,0.05
Sprite,Background,Centre,"sb\star.png",0,0 M,16,38128,40937,320,240,342.5724,-6.970621 F,0,38128,40937,1,0 S,0,38128,40937,0,0.05
Sprite,Background,Centre,"sb\star.png",0,0 M,16,38178,41115,320,240,198.2583,222.4509 F,0,38178,41115,1,0 S,0,38178,41115,0,0.05
Sprite,Background,Centre,"sb\star.png",0,0 M,16,38228,40891,320,240,289.584,369.4753 F,0,38228,40891,1,0 S,0,38228,40891,0,0.05
Sprite,Background,Centre,"sb\star.png",0,0 M,16,38278,41098,320,240,360.5645,336.8479 F,0,38278,41098,1,0 S,0,38278,41098,0,0.05
Sprite,Background,Centre,"sb\star.png",0,0 M,16,38328,40396,320,240,247.8445,47.05029 F,0,38328,40396,1,0 S,0,38328,40396,0,0.05
Sprite,Background,Centre,"sb\star.png",0,0 M,16,38378,41008,320,240,370.3248,516.4569 F,0,38378,41008,1,0 S,0,38378,41008,0,0.05
Sprite,Background,Centre,"sb\star.png",0,0 M,16,38428,41356,320,240,373.4205,201.2412 F,0,38428,41356,1,0 S,0,38428,41356,0,0.05
Sprite,Background,Centre,"sb\star.png",0,0 M,16,38478,41156,320,240,363.2426,298.814 F,0,38478,41156,1,0 S,0,38478,41156,0,0.05
Sprite,Background,Centre,"sb\star.png",0,0 M,16,38528,40634,320,240,513.2717,181.2627 F,0,38528,40634,1,0 S,0,38528,40634,0,0.05
Sprite,Background,Centre,"sb\star.png",0,0 M,16,38578,41068,320,240,281.7801,161.8448 F,0,38578,41068,1,0 S,0,38578,41068,0,0.05
Sprite,Background,Centre,"sb\star.png",0,0 M,16,38628,41197,320,240,241.9056,168.3253 F,0,38628,41197,1,0 S,0,38628,41197,0,0.05
Sprite,Background,Centre,"sb\star.png",0,0 M,16,38678,40683,320,240,402.6347,126.9889 F,0,38678,40683,1,0 S,0,38678,40683,0,0.05
Sprite,Background,Centre,"sb\star.png",0,0 M,16,38728,40790,320,240,286.5036,124.7698 F,0,38728,40790,1,0 S,0,38728,40790,0,0.05
Sprite,Background,Centre,"sb\star.png",0,0 M,16,38778,41736,320,240,94.60001,433.4007 F,0,38778,41736,1,0 S,0,38778,41736,0,0.05
Sprite,Background,Centre,"sb\star.png",0,0 M,16,38828,41350,320,240,200.1024,235.0431 F,0,38828,41350,1,0 S,0,38828,41350,0,0.05
Sprite,Background,Centre,"sb\star.png",0,0 M,16,38878,41409,320,240,307.789,302.8243 F,0,38878,41409,1,0 S,0,38878,41409,0,0.05
Sprite,Background,Centre,"sb\star.png",0,0 M,16,38928,41424,320,240,122.2364,69.67515 F,0,38928,41424,1,0 S,0,38928,41424,0,0.05
Sprite,Background,Centre,"sb\star.png",0,0 M,16,38978,41082,320,240,128.266,375.8788 F,0,38978,41082,1,0 S,0,38978,41082,0,0.05
Sprite,Background,Centre,"sb\star.png",0,0 M,16,39028,41961,320,240,294.4903,162.0689 F,0,39028,41961,1,0 S,0,39028,41961,0,0.05
Sprite,Background,Centre,"sb\star.png",0,0 M,16,39078,41693,320,240,218.1206,4.055973 F,0,39078,41693,1,0 S,0,39078,41693,0,0.05
Sprite,Background,Centre,"sb\star.png",0,0 M,16,39128,41697,320,240,357.1852,325.2424 F,0,39128,41697,1,0 S,0,39128,41697,0,0.05
Sprite,Background,Centre,"sb\star.png",0,0 M,16,39178,41787,320,240,431.9816,237.9697 F,0,39178,41787,1,0 S,0,39178,41787,0,0.05
Sprite,Background,Centre,"sb\star.png",0,0 M,16,39228,41796,320,240,314.4183,304.7599 F,0,39228,41796,1,0 S,0,39228,41796,0,0.05
Sprite,Background,Centre,"sb\star.png",0,0 M,16,39278,42120,320,240,203.2679,87.5611 F,0,39278,42120,1,0 S,0,39278,42120,0,0.05
Sprite,Background,Centre,"sb\star.png",0,0 M,16,39328,41844,320,240,577.8798,376.9746 F,0,39328,41844,1,0 S,0,39328,41844,0,0.05
Sprite,Background,Centre,"sb\star.png",0,0 M,16,39378,41890,320,240,354.2641,158.9446 F,0,39378,41890,1,0 S,0,39378,41890,0,0.05
Sprite,Background,Centre,"sb\star.png",0,0 M,16,39428,42070,320,240,137.5481,177.069 F,0,39428,42070,1,0 S,0,39428,42070,0,0.05
Sprite,Background,Centre,"sb\star.png",0,0 M,16,39478,42150,320,240,224.9961,522.4504 F,0,39478,42150,1,0 S,0,39478,42150,0,0.05
Sprite,Background,Centre,"sb\star.png",0,0 M,16,39528,41592,320,240,154.9379,257.6206 F,0,39528,41592,1,0 S,0,39528,41592,0,0.05
Sprite,Background,Centre,"sb\star.png",0,0 M,16,39578,41794,320,240,328.2968,306.4843 F,0,39578,41794,1,0 S,0,39578,41794,0,0.05
Sprite,Background,Centre,"sb\star.png",0,0 M,16,39628,41778,320,240,166.546,288.7122 F,0,39628,41778,1,0 S,0,39628,41778,0,0.05
Sprite,Background,Centre,"sb\star.png",0,0 M,16,39678,41697,320,240,379.2651,105.4762 F,0,39678,41697,1,0 S,0,39678,41697,0,0.05
Sprite,Background,Centre,"sb\star.png",0,0 M,16,39728,41930,320,240,593.2133,291.366 F,0,39728,41930,1,0 S,0,39728,41930,0,0.05
Sprite,Background,Centre,"sb\star.png",0,0 M,16,39778,42287,320,240,609.7635,228.2901 F,0,39778,42287,1,0 S,0,39778,42287,0,0.05
Sprite,Background,Centre,"sb\star.png",0,0 M,16,39828,41844,320,240,282.2859,449.6346 F,0,39828,41844,1,0 S,0,39828,41844,0,0.05
Sprite,Background,Centre,"sb\star.png",0,0 M,16,39878,42845,320,240,347.253,45.90395 F,0,39878,42845,1,0 S,0,39878,42845,0,0.05
Sprite,Background,Centre,"sb\star.png",0,0 M,16,39928,42252,320,240,473.0815,215.6882 F,0,39928,42252,1,0 S,0,39928,42252,0,0.05
Sprite,Background,Centre,"sb\star.png",0,0 M,16,39978,42863,320,240,310.4756,532.8452 F,0,39978,42863,1,0 S,0,39978,42863,0,0.05
Sprite,Background,Centre,"sb\star.png",0,0 M,16,40028,42160,320,240,439.4271,486.6032 F,0,40028,42160,1,0 S,0,40028,42160,0,0.05
Sprite,Background,Centre,"sb\star.png",0,0 M,16,40078,42960,320,240,360.6263,58.49102 F,0,40078,42960,1,0 S,0,40078,42960,0,0.05
Sprite,Background,Centre,"sb\star.png",0,0 M,16,40128,42642,320,240,457.8145,232.8472 F,0,40128,42642,1,0 S,0,40128,42642,0,0.05
Sprite,Background,Centre,"sb\star.png",0,0 M,16,40178,42211,320,240,480.694,393.1713 F,0,40178,42211,1,0 S,0,40178,42211,0,0.05
Sprite,Background,Centre,"sb\star.png",0,0 M,16,40228,42422,320,240,168.2068,154.9423 F,0,40228,42422,1,0 S,0,40228,42422,0,0.05
Sprite,Background,Centre,"sb\star.png",0,0 M,16,40278,42539,320,240,326.2726,366.845 F,0,40278,42539,1,0 S,0,40278,42539,0,0.05
Sprite,Background,Centre,"sb\star.png",0,0 M,16,40328,43112,320,240,256.8876,186.0943 F,0,40328,43112,1,0 S,0,40328,43112,0,0.05
Sprite,Background,Centre,"sb\star.png",0,0 M,16,40378,42937,320,240,204.7099,419.1011 F,0,40378,42937,1,0 S,0,40378,42937,0,0.05
Sprite,Background,Centre,"sb\star.png",0,0 M,16,40428,42451,320,240,373.274,188.6397 F,0,40428,42451,1,0 S,0,40428,42451,0,0.05
Sprite,Background,Centre,"sb\star.png",0,0 M,16,40478,43188,320,240,161.2942,17.87059 F,0,40478,43188,1,0 S,0,40478,43188,0,0.05
Sprite,Background,Centre,"sb\star.png",0,0 M,16,40528,42783,320,240,205.5429,258.8568 F,0,40528,42783,1,0 S,0,40528,42783,0,0.05
Sprite,Background,Centre,"sb\star.png",0,0 M,16,40578,42773,320,240,49.37875,254.3226 F,0,40578,42773,1,0 S,0,40578,42773,0,0.05
Sprite,Background,Centre,"sb\star.png",0,0 M,16,40628,43265,320,240,232.3026,334.6053 F,0,40628,43265,1,0 S,0,40628,43265,0,0.05
Sprite,Background,Centre,"sb\star.png",0,0 M,16,40678,42922,320,240,90.99233,49.31836 F,0,40678,42922,1,0 S,0,40678,42922,0,0.05
Sprite,Background,Centre,"sb\star.png",0,0 M,16,40728,42729,320,240,606.5396,169.8569 F,0,40728,42729,1,0 S,0,40728,42729,0,0.05
Sprite,Background,Centre,"sb\star.png",0,0 M,16,40778,42935,320,240,524.1215,371.8463 F,0,40778,42935,1,0 S,0,40778,42935,0,0.05
Sprite,Background,Centre,"sb\star.png",0,0 M,16,40828,43018,320,240,370.0672,281.4521 F,0,40828,43018,1,0 S,0,40828,43018,0,0.05
Sprite,Background,Centre,"sb\star.png",0,0 M,16,40878,43610,320,240,360.1183,176.6318 F,0,40878,43610,1,0 S,0,40878,43610,0,0.05
Sprite,Background,Centre,"sb\star.png",0,0 M,16,40928,43570,320,240,330.1404,432.7334 F,0,40928,43570,1,0 S,0,40928,43570,0,0.05
Sprite,Background,Centre,"sb\star.png",0,0 M,16,40978,43815,320,240,70.3027,325.7162 F,0,40978,43815,1,0 S,0,40978,43815,0,0.05
Sprite,Background,Centre,"sb\star.png",0,0 M,16,41028,43935,320,240,77.75902,301.8005 F,0,41028,43935,1,0 S,0,41028,43935,0,0.05
Sprite,Background,Centre,"sb\star.png",0,0 M,16,41078,43418,320,240,101.2913,348.1782 F,0,41078,43418,1,0 S,0,41078,43418,0,0.05
Sprite,Background,Centre,"sb\star.png",0,0 M,16,41128,43775,320,240,88.34302,50.96021 F,0,41128,43775,1,0 S,0,41128,43775,0,0.05
Sprite,Background,Centre,"sb\star.png",0,0 M,16,41178,43267,320,240,524.6464,227.9649 F,0,41178,43267,1,0 S,0,41178,43267,0,0.05
Sprite,Background,Centre,"sb\star.png",0,0 M,16,41228,44101,320,240,439.3759,380.0193 F,0,41228,44101,1,0 S,0,41228,44101,0,0.05
Sprite,Background,Centre,"sb\star.png",0,0 M,16,41278,43279,320,240,231.2387,73.1395 F,0,41278,43279,1,0 S,0,41278,43279,0,0.05
Sprite,Background,Centre,"sb\star.png",0,0 M,16,41328,43707,320,240,199.1954,476.9858 F,0,41328,43707,1,0 S,0,41328,43707,0,0.05
Sprite,Background,Centre,"sb\star.png",0,0 M,16,41378,44164,320,240,405.8754,82.94456 F,0,41378,44164,1,0 S,0,41378,44164,0,0.05
Sprite,Background,Centre,"sb\star.png",0,0 M,16,41428,43969,320,240,413.6548,393.7165 F,0,41428,43969,1,0 S,0,41428,43969,0,0.05
Sprite,Background,Centre,"sb\star.png",0,0 M,16,41478,44112,320,240,245.7592,412.7203 F,0,41478,44112,1,0 S,0,41478,44112,0,0.05
Sprite,Background,Centre,"sb\star.png",0,0 M,16,41528,43777,320,240,77.80294,301.9724 F,0,41528,43777,1,0 S,0,41528,43777,0,0.05
Sprite,Background,Centre,"sb\star.png",0,0 M,16,41578,44499,320,240,367.5607,365.2756 F,0,41578,44499,1,0 S,0,41578,44499,0,0.05
Sprite,Background,Centre,"sb\star.png",0,0 M,16,41628,43778,320,240,379.6049,446.5726 F,0,41628,43778,1,0 S,0,41628,43778,0,0.05
Sprite,Background,Centre,"sb\star.png",0,0 M,16,41678,44212,320,240,345.7662,64.88545 F,0,41678,44212,1,0 S,0,41678,44212,0,0.05
Sprite,Background,Centre,"sb\star.png",0,0 M,16,41728,44210,320,240,250.5014,268.1947 F,0,41728,44210,1,0 S,0,41728,44210,0,0.05
Sprite,Background,Centre,"sb\star.png",0,0 M,16,41778,43897,320,240,76.01963,139.1557 F,0,41778,43897,1,0 S,0,41778,43897,0,0.05
Sprite,Background,Centre,"sb\star.png",0,0 M,16,41828,44530,320,240,529.0037,260.4315 F,0,41828,44530,1,0 S,0,41828,44530,0,0.05
Sprite,Background,Centre,"sb\star.png",0,0 M,16,41878,44447,320,240,483.8596,233.2143 F,0,41878,44447,1,0 S,0,41878,44447,0,0.05
Sprite,Background,Centre,"sb\star.png",0,0 M,16,41928,44050,320,240,303.4285,318.2648 F,0,41928,44050,1,0 S,0,41928,44050,0,0.05
Sprite,Background,Centre,"sb\star.png",0,0 M,16,41978,44608,320,240,311.2019,488.8445 F,0,41978,44608,1,0 S,0,41978,44608,0,0.05
Sprite,Background,Centre,"sb\star.png",0,0 M,16,42028,44291,320,240,270.0468,257.7111 F,0,42028,44291,1,0 S,0,42028,44291,0,0.05
Sprite,Background,Centre,"sb\star.png",0,0 M,16,42078,44372,320,240,434.9816,7.921915 F,0,42078,44372,1,0 S,0,42078,44372,0,0.05
Sprite,Background,Centre,"sb\star.png",0,0 M,16,42128,44658,320,240,404.998,514.1247 F,0,42128,44658,1,0 S,0,42128,44658,0,0.05
Sprite,Background,Centre,"sb\star.png",0,0 M,16,42178,45123,320,240,528.1489,80.88365 F,0,42178,45123,1,0 S,0,42178,45123,0,0.05
Sprite,Background,Centre,"sb\star.png",0,0 M,16,42228,44694,320,240,158.4836,445.0206 F,0,42228,44694,1,0 S,0,42228,44694,0,0.05
Sprite,Background,Centre,"sb\star.png",0,0 M,16,42278,44829,320,240,210.0645,301.5645 F,0,42278,44829,1,0 S,0,42278,44829,0,0.05
Sprite,Background,Centre,"sb\star.png",0,0 M,16,42328,44718,320,240,239.3266,107.6489 F,0,42328,44718,1,0 S,0,42328,44718,0,0.05
Sprite,Background,Centre,"sb\star.png",0,0 M,16,42378,44978,320,240,560.5009,92.74748 F,0,42378,44978,1,0 S,0,42378,44978,0,0.05
Sprite,Background,Centre,"sb\star.png",0,0 M,16,42428,44727,320,240,199.0147,423.7459 F,0,42428,44727,1,0 S,0,42428,44727,0,0.05
Sprite,Background,Centre,"sb\star.png",0,0 M,16,42478,44944,320,240,371.417,483.6335 F,0,42478,44944,1,0 S,0,42478,44944,0,0.05
Sprite,Background,Centre,"sb\star.png",0,0 M,16,42528,45437,320,240,435.8758,103.5676 F,0,42528,45437,1,0 S,0,42528,45437,0,0.05
Sprite,Background,Centre,"sb\star.png",0,0 M,16,42578,45527,320,240,203.021,242.2186 F,0,42578,45527,1,0 S,0,42578,45527,0,0.05
Sprite,Background,Centre,"sb\star.png",0,0 M,16,42628,44955,320,240,313.0256,336.7489 F,0,42628,44955,1,0 S,0,42628,44955,0,0.05
Sprite,Background,Centre,"sb\star.png",0,0 M,16,42678,45293,320,240,485.0402,132.4326 F,0,42678,45293,1,0 S,0,42678,45293,0,0.05
Sprite,Background,Centre,"sb\star.png",0,0 M,16,42728,45088,320,240,377.8899,8.116925 F,0,42728,45088,1,0 S,0,42728,45088,0,0.05
Sprite,Background,Centre,"sb\star.png",0,0 M,16,42778,44897,320,240,263.3128,190.8923 F,0,42778,44897,1,0 S,0,42778,44897,0,0.05
Sprite,Background,Centre,"sb\star.png",0,0 M,16,42828,45465,320,240,397.5881,64.37514 F,0,42828,45465,1,0 S,0,42828,45465,0,0.05
Sprite,Background,Centre,"sb\star.png",0,0 M,16,42878,45742,320,240,241.7293,315.8597 F,0,42878,45742,1,0 S,0,42878,45742,0,0.05
Sprite,Background,Centre,"sb\star.png",0,0 M,16,42928,45520,320,240,507.7575,344.7479 F,0,42928,45520,1,0 S,0,42928,45520,0,0.05
Sprite,Background,Centre,"sb\star.png",0,0 M,16,42978,45511,320,240,480.8678,490.8497 F,0,42978,45511,1,0 S,0,42978,45511,0,0.05
Sprite,Background,Centre,"sb\star.png",0,0 M,16,43028,45508,320,240,357.4405,293.1339 F,0,43028,45508,1,0 S,0,43028,45508,0,0.05
Sprite,Background,Centre,"sb\star.png",0,0 M,16,43078,46063,320,240,290.9026,291.3259 F,0,43078,46063,1,0 S,0,43078,46063,0,0.05
Sprite,Background,Centre,"sb\star.png",0,0 M,16,43128,45162,320,240,159.715,160.3149 F,0,43128,45162,1,0 S,0,43128,45162,0,0.05
Sprite,Background,Centre,"sb\star.png",0,0 M,16,43178,46037,320,240,398.9499,310.7313 F,0,43178,46037,1,0 S,0,43178,46037,0,0.05
Sprite,Background,Centre,"sb\star.png",0,0 M,16,43228,45385,320,240,440.9259,29.2254 F,0,43228,45385,1,0 S,0,43228,45385,0,0.05
Sprite,Background,Centre,"sb\star.png",0,0 M,16,43278,46032,320,240,369.8179,338.0723 F,0,43278,46032,1,0 S,0,43278,46032,0,0.05
Sprite,Background,Centre,"sb\star.png",0,0 M,16,43328,45451,320,240,237.0559,195.7702 F,0,43328,45451,1,0 S,0,43328,45451,0,0.05
Sprite,Background,Centre,"sb\star.png",0,0 M,16,43378,46107,320,240,354.3019,494.7006 F,0,43378,46107,1,0 S,0,43378,46107,0,0.05
Sprite,Background,Centre,"sb\star.png",0,0 M,16,43428,45828,320,240,308.562,299.918 F,0,43428,45828,1,0 S,0,43428,45828,0,0.05
Sprite,Background,Centre,"sb\star.png",0,0 M,16,43478,45962,320,240,211.496,153.1214 F,0,43478,45962,1,0 S,0,43478,45962,0,0.05
Sprite,Background,Centre,"sb\star.png",0,0 M,16,43528,45943,320,240,407.2244,472.1549 F,0,43528,45943,1,0 S,0,43528,45943,0,0.05
Sprite,Background,Centre,"sb\star.png",0,0 M,16,43578,45680,320,240,238.0293,226.9692 F,0,43578,45680,1,0 S,0,43578,45680,0,0.05
Sprite,Background,Centre,"sb\star.png",0,0 M,16,43628,46383,320,240,293.6086,99.45643 F,0,43628,46383,1,0 S,0,43628,46383,0,0.05
Sprite,Background,Centre,"sb\star.png",0,0 M,16,43678,46134,320,240,258.957,203.7405 F,0,43678,46134,1,0 S,0,43678,46134,0,0.05
Sprite,Background,Centre,"sb\star.png",0,0 M,16,43728,45768,320,240,181.2509,440.7105 F,0,43728,45768,1,0 S,0,43728,45768,0,0.05
Sprite,Background,Centre,"sb\star.png",0,0 M,16,43778,46477,320,240,99.72211,290.5337 F,0,43778,46477,1,0 S,0,43778,46477,0,0.05
Sprite,Background,Centre,"sb\star.png",0,0 M,16,43828,46372,320,240,90.60441,360.2442 F,0,43828,46372,1,0 S,0,43828,46372,0,0.05
Sprite,Background,Centre,"sb\star.png",0,0 M,16,43878,46783,320,240,380.81,100.6941 F,0,43878,46783,1,0 S,0,43878,46783,0,0.05
Sprite,Background,Centre,"sb\star.png",0,0 M,16,43928,46509,320,240,343.3449,475.8474 F,0,43928,46509,1,0 S,0,43928,46509,0,0.05
Sprite,Background,Centre,"sb\star.png",0,0 M,16,43978,46901,320,240,515.7371,229.8508 F,0,43978,46901,1,0 S,0,43978,46901,0,0.05
Sprite,Background,Centre,"sb\star.png",0,0 M,16,44028,46080,320,240,419.8874,398.087 F,0,44028,46080,1,0 S,0,44028,46080,0,0.05
Sprite,Background,Centre,"sb\star.png",0,0 M,16,44078,47043,320,240,175.2147,308.0971 F,0,44078,47043,1,0 S,0,44078,47043,0,0.05
Sprite,Background,Centre,"sb\star.png",0,0 M,16,44128,47051,320,240,280.0286,191.3042 F,0,44128,47051,1,0 S,0,44128,47051,0,0.05
Sprite,Background,Centre,"sb\star.png",0,0 M,16,44178,46485,320,240,518.1726,16.10582 F,0,44178,46485,1,0 S,0,44178,46485,0,0.05
Sprite,Background,Centre,"sb\star.png",0,0 M,16,44228,46682,320,240,499.1125,360.7257 F,0,44228,46682,1,0 S,0,44228,46682,0,0.05
Sprite,Background,Centre,"sb\star.png",0,0 M,16,44278,47270,320,240,530.4766,310.5945 F,0,44278,47270,1,0 S,0,44278,47270,0,0.05
Sprite,Background,Centre,"sb\star.png",0,0 M,16,44328,47210,320,240,202.5203,431.8945 F,0,44328,47210,1,0 S,0,44328,47210,0,0.05
Sprite,Background,Centre,"sb\star.png",0,0 M,16,44378,47193,320,240,38.01728,206.2103 F,0,44378,47193,1,0 S,0,44378,47193,0,0.05
Sprite,Background,Centre,"sb\star.png",0,0 M,16,44428,46612,320,240,187.4652,357.318 F,0,44428,46612,1,0 S,0,44428,46612,0,0.05
Sprite,Background,Centre,"sb\star.png",0,0 M,16,44478,46855,320,240,186.1585,360.3597 F,0,44478,46855,1,0 S,0,44478,46855,0,0.05
Sprite,Background,Centre,"sb\star.png",0,0 M,16,44528,46818,320,240,384.8258,-9.723079 F,0,44528,46818,1,0 S,0,44528,46818,0,0.05
Sprite,Background,Centre,"sb\star.png",0,0 M,16,44578,47306,320,240,172.8112,206.2886 F,0,44578,47306,1,0 S,0,44578,47306,0,0.05
Sprite,Background,Centre,"sb\star.png",0,0 M,16,44628,47052,320,240,285.4683,298.5796 F,0,44628,47052,1,0 S,0,44628,47052,0,0.05
Sprite,Background,Centre,"sb\star.png",0,0 M,16,44678,47594,320,240,179.1538,40.75554 F,0,44678,47594,1,0 S,0,44678,47594,0,0.05
Sprite,Background,Centre,"sb\star.png",0,0 M,16,44728,47551,320,240,377.7652,147.5652 F,0,44728,47551,1,0 S,0,44728,47551,0,0.05
Sprite,Background,Centre,"sb\star.png",0,0 M,16,44778,47335,320,240,312.6931,78.16487 F,0,44778,47335,1,0 S,0,44778,47335,0,0.05
Sprite,Background,Centre,"sb\star.png",0,0 M,16,44828,47549,320,240,501.9504,315.5186 F,0,44828,47549,1,0 S,0,44828,47549,0,0.05
Sprite,Background,Centre,"sb\star.png",0,0 M,16,44878,47060,320,240,364.7087,199.9859 F,0,44878,47060,1,0 S,0,44878,47060,0,0.05
Sprite,Background,Centre,"sb\star.png",0,0 M,16,44928,47582,320,240,235.7995,170.781 F,0,44928,47582,1,0 S,0,44928,47582,0,0.05
Sprite,Background,Centre,"sb\star.png",0,0 M,16,44978,47619,320,240,543.6271,139.9205 F,0,44978,47619,1,0 S,0,44978,47619,0,0.05
Sprite,Background,Centre,"sb\star.png",0,0 M,16,45028,47073,320,240,138.2679,200.3838 F,0,45028,47073,1,0 S,0,45028,47073,0,0.05
Sprite,Background,Centre,"sb\star.png",0,0 M,16,45078,47335,320,240,346.9346,286.8031 F,0,45078,47335,1,0 S,0,45078,47335,0,0.05
Sprite,Background,Centre,"sb\star.png",0,0 M,16,45128,47202,320,240,302.6368,470.3465 F,0,45128,47202,1,0 S,0,45128,47202,0,0.05
Sprite,Background,Centre,"sb\star.png",0,0 M,16,45178,47736,320,240,176.4518,114.0043 F,0,45178,47736,1,0 S,0,45178,47736,0,0.05
Sprite,Background,Centre,"sb\star.png",0,0 M,16,45228,47944,320,240,578.6845,106.7209 F,0,45228,47944,1,0 S,0,45228,47944,0,0.05
Sprite,Background,Centre,"sb\star.png",0,0 M,16,45278,47963,320,240,233.6316,-45.20958 F,0,45278,47963,1,0 S,0,45278,47963,0,0.05
Sprite,Background,Centre,"sb\star.png",0,0 M,16,45328,48008,320,240,511.9403,314.7991 F,0,45328,48008,1,0 S,0,45328,48008,0,0.05
Sprite,Background,Centre,"sb\star.png",0,0 M,16,45378,48019,320,240,514.9388,151.7114 F,0,45378,48019,1,0 S,0,45378,48019,0,0.05
Sprite,Background,Centre,"sb\star.png",0,0 M,16,45428,47748,320,240,339.6038,165.5373 F,0,45428,47748,1,0 S,0,45428,47748,0,0.05
Sprite,Background,Centre,"sb\star.png",0,0 M,16,45478,48384,320,240,353.2657,299.3076 F,0,45478,48384,1,0 S,0,45478,48384,0,0.05
Sprite,Background,Centre,"sb\star.png",0,0 M,16,45528,48454,320,240,255.2907,476.3 F,0,45528,48454,1,0 S,0,45528,48454,0,0.05
Sprite,Background,Centre,"sb\star.png",0,0 M,16,45578,47979,320,240,352.9782,504.9555 F,0,45578,47979,1,0 S,0,45578,47979,0,0.05
Sprite,Background,Centre,"sb\star.png",0,0 M,16,45628,47745,320,240,356.0663,427.5639 F,0,45628,47745,1,0 S,0,45628,47745,0,0.05
Sprite,Background,Centre,"sb\star.png",0,0 M,16,45678,48350,320,240,293.4268,72.08971 F,0,45678,48350,1,0 S,0,45678,48350,0,0.05
Sprite,Background,Centre,"sb\star.png",0,0 M,16,45728,48208,320,240,409.2219,251.8094 F,0,45728,48208,1,0 S,0,45728,48208,0,0.05
Sprite,Background,Centre,"sb\star.png",0,0 M,16,45778,48225,320,240,467.9117,315.3534 F,0,45778,48225,1,0 S,0,45778,48225,0,0.05
Sprite,Background,Centre,"sb\star.png",0,0 M,16,45828,48787,320,240,331.4849,531.774 F,0,45828,48787,1,0 S,0,45828,48787,0,0.05
Sprite,Background,Centre,"sb\star.png",0,0 M,16,45878,48784,320,240,482.6624,480.0853 F,0,45878,48784,1,0 S,0,45878,48784,0,0.05
Sprite,Background,Centre,"sb\star.png",0,0 M,16,45928,48801,320,240,435.5758,144.3849 F,0,45928,48801,1,0 S,0,45928,48801,0,0.05
Sprite,Background,Centre,"sb\star.png",0,0 M,16,45978,48579,320,240,558.8431,86.34469 F,0,45978,48579,1,0 S,0,45978,48579,0,0.05
Sprite,Background,Centre,"sb\star.png",0,0 M,16,46028,48403,320,240,266.7014,165.0116 F,0,46028,48403,1,0 S,0,46028,48403,0,0.05
Sprite,Background,Centre,"sb\star.png",0,0 M,16,46078,48171,320,240,364.1133,36.73166 F,0,46078,48171,1,0 S,0,46078,48171,0,0.05
Sprite,Background,Centre,"sb\star.png",0,0 M,16,46128,48450,320,240,425.7277,312.1503 F,0,46128,48450,1,0 S,0,46128,48450,0,0.05
Sprite,Background,Centre,"sb\star.png",0,0 M,16,46178,48871,320,240,149.2287,325.5463 F,0,46178,48871,1,0 S,0,46178,48871,0,0.05
Sprite,Background,Centre,"sb\star.png",0,0 M,16,46228,48711,320,240,352.2589,280.7843 F,0,46228,48711,1,0 S,0,46228,48711,0,0.05
Sprite,Background,Centre,"sb\star.png",0,0 M,16,46278,48612,320,240,230.0723,243.6066 F,0,46278,48612,1,0 S,0,46278,48612,0,0.05
Sprite,Background,Centre,"sb\star.png",0,0 M,16,46328,49239,320,240,151.697,31.43799 F,0,46328,49239,1,0 S,0,46328,49239,0,0.05
Sprite,Background,Centre,"sb\star.png",0,0 M,16,46378,49093,320,240,545.5183,415.8906 F,0,46378,49093,1,0 S,0,46378,49093,0,0.05
Sprite,Background,Centre,"sb\star.png",0,0 M,16,46428,49352,320,240,344.1686,190.5948 F,0,46428,49352,1,0 S,0,46428,49352,0,0.05
Sprite,Background,Centre,"sb\star.png",0,0 M,16,46478,48615,320,240,142.784,276.8168 F,0,46478,48615,1,0 S,0,46478,48615,0,0.05
Sprite,Background,Centre,"sb\star.png",0,0 M,16,46528,48868,320,240,197.438,109.541 F,0,46528,48868,1,0 S,0,46528,48868,0,0.05
Sprite,Background,Centre,"sb\hit\r.png",109,89 F,6,47972,48672,1,0 S,7,47972,48672,0.25,0.5
Sprite,Background,Centre,"sb\hit\r.png",139,252 F,6,48678,49378,1,0 S,7,48678,49378,0.25,0.5
Sprite,Background,Centre,"sb\hit\r.png",188,87 F,6,49384,50084,1,0 S,7,49384,50084,0.25,0.5
Sprite,Background,Centre,"sb\hit\r.png",218,250 F,6,50090,50790,1,0 S,7,50090,50790,0.25,0.5
Sprite,Background,Centre,"sb\hit\r.png",338,215 F,6,50795,51495,1,0 S,7,50795,51495,0.25,0.5
Sprite,Background,Centre,"sb\hit\r.png",308,378 F,6,51501,52201,1,0 S,7,51501,52201,0.25,0.5
Sprite,Background,Centre,"sb\hit\r.png",417,217 F,6,52207,52907,1,0 S,7,52207,52907,0.25,0.5
Sprite,Background,Centre,"sb\hit\r.png",387,380 F,6,52913,53613,1,0 S,7,52913,53613,0.25,0.5
Sprite,Background,Centre,"sb\hit\r.png",387,380 F,6,53619,54319,1,0 S,7,53619,54319,0.25,0.5
Sprite,Background,Centre,"sb\hit\r.png",374,377 F,6,53972,54672,1,0 S,7,53972,54672,0.25,0.5
Sprite,Background,Centre,"sb\hit\r.png",361,375 F,6,54325,55025,1,0 S,7,54325,55025,0.25,0.5
Sprite,Background,Centre,"sb\hit\r.png",348,372 F,6,54678,55378,1,0 S,7,54678,55378,0.25,0.5
Sprite,Background,Centre,"sb\hit\r.png",325,236 F,6,55031,55731,1,0 S,7,55031,55731,0.25,0.5
Sprite,Background,Centre,"sb\hit\r.png",325,236 F,6,55031,55731,1,0 S,7,55031,55731,0.25,0.5
Sprite,Background,Centre,"sb\hit\r.png",312,239 F,6,55384,56084,1,0 S,7,55384,56084,0.25,0.5
Sprite,Background,Centre,"sb\hit\r.png",299,241 F,6,55737,56437,1,0 S,7,55737,56437,0.25,0.5
Sprite,Background,Centre,"sb\hit\r.png",286,244 F,6,56090,56790,1,0 S,7,56090,56790,0.25,0.5
Sprite,Background,Centre,"sb\hit\r.png",182,337 F,6,56443,57143,1,0 S,7,56443,57143,0.25,0.5
Sprite,Background,Centre,"sb\hit\r.png",182,337 F,6,56443,57143,1,0 S,7,56443,57143,0.25,0.5
Sprite,Background,Centre,"sb\hit\r.png",241,376 F,6,56619,57319,1,0 S,7,56619,57319,0.25,0.5
Sprite,Background,Centre,"sb\hit\r.png",280,317 F,6,56795,57495,1,0 S,7,56795,57495,0.25,0.5
Sprite,Background,Centre,"sb\hit\r.png",221,278 F,6,56972,57672,1,0 S,7,56972,57672,0.25,0.5
Sprite,Background,Centre,"sb\hit\r.png",177,411 F,6,57148,57848,1,0 S,7,57148,57848,0.25,0.5
Sprite,Background,Centre,"sb\hit\r.png",148,273 F,6,57324,58024,1,0 S,7,57324,58024,0.25,0.5
Sprite,Background,Centre,"sb\hit\r.png",286,244 F,6,57501,58201,1,0 S,7,57501,58201,0.25,0.5
Sprite,Background,Centre,"sb\hit\r.png",315,382 F,6,57677,58377,1,0 S,7,57677,58377,0.25,0.5
Sprite,Background,Centre,"sb\hit\h.png",114,349 F,7,57854,58854,1,0 S,7,57854,58854,0.7,1.4
Sprite,Background,Centre,"sb\hit\h.png",109,346 F,7,57943,58943,1,0 S,7,57943,58943,0.7,1.4
Sprite,Background,Centre,"sb\hit\h.png",101,340 F,7,58031,59031,1,0 S,7,58031,59031,0.7,1.4
Sprite,Background,Centre,"sb\hit\h.png",91,332 F,7,58119,59119,1,0 S,7,58119,59119,0.7,1.4
Sprite,Background,Centre,"sb\hit\h.png",80,320 F,7,58207,59207,1,0 S,7,58207,59207,0.7,1.4
Sprite,Background,Centre,"sb\hit\h.png",70,303 F,7,58295,59295,1,0 S,7,58295,59295,0.7,1.4
Sprite,Background,Centre,"sb\hit\h.png",65,281 F,7,58384,59384,1,0 S,7,58384,59384,0.7,1.4
Sprite,Background,Centre,"sb\hit\h.png",66,255 F,7,58472,59472,1,0 S,7,58472,59472,0.7,1.4
Sprite,Background,Centre,"sb\hit\h.png",77,229 F,7,58560,59560,1,0 S,7,58560,59560,0.7,1.4
Sprite,Background,Centre,"sb\hit\h.png",98,205 F,7,58648,59648,1,0 S,7,58648,59648,0.7,1.4
Sprite,Background,Centre,"sb\hit\h.png",130,191 F,7,58737,59737,1,0 S,7,58737,59737,0.7,1.4
Sprite,Background,Centre,"sb\hit\h.png",167,191 F,7,58825,59825,1,0 S,7,58825,59825,0.7,1.4
Sprite,Background,Centre,"sb\hit\h.png",203,209 F,7,58913,59913,1,0 S,7,58913,59913,0.7,1.4
Sprite,Background,Centre,"sb\hit\h.png",238,235 F,7,59001,60001,1,0 S,7,59001,60001,0.7,1.4
Sprite,Background,Centre,"sb\hit\h.png",285,237 F,7,59090,60090,1,0 S,7,59090,60090,0.7,1.4
Sprite,Background,Centre,"sb\hit\h.png",327,209 F,7,59178,60178,1,0 S,7,59178,60178,0.7,1.4
Sprite,Background,Centre,"sb\bar.png",0,0 M,0,59266,,347,165 C,0,59266,,86,191,237 V,0,59266,,35,1 M,0,59266,59288,347,165,321.4385,161.2245 M,0,59288,59310,321.4385,161.2245,297.6413,171.0051 M,0,59310,59332,297.6413,171.0051,282.2406,191.5182 M,0,59332,59354,282.2406,191.5182,279.5068,216.9774 M,0,59354,59376,279.5068,216.9774,289.7873,240.5333 M,0,59376,59398,289.7873,240.5333,311.1582,254.9294 M,0,59398,59420,311.1582,254.9294,336.795,256.3677 M,0,59420,59442,336.795,256.3677,359.8998,244.9146 M,0,59442,59531,359.8998,244.9146,465,158 M,0,59531,59553,465,158,450.4109,163.9346 M,0,59553,59575,450.4109,163.9346,435.8217,169.8691 M,0,59575,59597,435.8217,169.8691,421.2325,175.8037 M,0,59597,59619,421.2325,175.8037,406.6434,181.7383 M,0,59619,59641,406.6434,181.7383,391.5601,177.739 M,0,59641,59663,391.5601,177.739,376.4541,173.2815 M,0,59663,59685,376.4541,173.2815,361.348,168.824 M,0,59685,59707,361.348,168.824,346.2419,164.3665 M,0,59707,59795,346.2419,164.3665,362,89 M,0,59795,59817,362,89,381.4285,81.02931 M,0,59817,59839,381.4285,81.02931,400.8571,73.05863 M,0,59839,59861,400.8571,73.05863,420.9664,78.98991 M,0,59861,59883,420.9664,78.98991,441,85 M,0,59883,59972,441,85,576,198 M,0,59972,60148,576,198,481,422 M,0,60148,60170,481,422,485.2346,396.0938 M,0,60170,60192,485.2346,396.0938,489.4693,370.1877 M,0,60192,60214,489.4693,370.1877,493.704,344.2815 M,0,60214,60236,493.704,344.2815,497.9387,318.3753 M,0,60236,60325,497.9387,318.3753,507,313 M,0,60325,60347,507,313,506.5012,315.5772 M,0,60347,60369,506.5012,315.5772,506.0024,318.1544 M,0,60369,60391,506.0024,318.1544,505.5036,320.7315 M,0,60391,60413,505.5036,320.7315,505.0048,323.3087 M,0,60413,60435,505.0048,323.3087,504.506,325.8859 M,0,60435,60457,504.506,325.8859,504.0071,328.463 M,0,60457,60479,504.0071,328.463,503.5084,331.0402 M,0,60479,60501,503.5084,331.0402,503.0096,333.6174 M,0,60501,60523,503.0096,333.6174,502.5107,336.1945 M,0,60523,60545,502.5107,336.1945,502.0119,338.7717 M,0,60545,60567,502.0119,338.7717,501.5131,341.3489 M,0,60567,60589,501.5131,341.3489,501.0143,343.9261 M,0,60589,60854,501.0143,343.9261,283,336 M,0,60854,60876,283,336,270.0276,337.9958 M,0,60876,60898,270.0276,337.9958,257.0552,339.9915 M,0,60898,60920,257.0552,339.9915,270.0276,337.9958 M,0,60920,60942,270.0276,337.9958,283,336 M,0,60942,61031,283,336,301,335 M,0,61031,61053,301,335,303.7514,319.4922 M,0,61053,61075,303.7514,319.4922,306.5028,303.9844 M,0,61075,61097,306.5028,303.9844,309.2542,288.4766 M,0,61097,61119,309.2542,288.4766,312,273 M,0,61119,61207,312,273,315,333 M,0,61207,61229,315,333,317.9929,317.537 M,0,61229,61251,317.9929,317.537,320.9857,302.0739 M,0,61251,61273,320.9857,302.0739,323.9785,286.6109 M,0,61273,61295,323.9785,286.6109,326.9714,271.1479 M,0,61295,61384,326.9714,271.1479,199,170 M,0,61384,61406,199,170,203.0217,190.6113 M,0,61406,61428,203.0217,190.6113,207.0434,211.2226 M,0,61428,61450,207.0434,211.2226,211.0652,231.8339 M,0,61450,61472,211.0652,231.8339,215,252 M,0,61472,61560,215,252,418,101 M,0,61560,61582,418,101,392.0878,97.70488 M,0,61582,61604,392.0878,97.70488,366.3858,102.1627 M,0,61604,61626,366.3858,102.1627,343.1501,113.9659 M,0,61626,61648,343.1501,113.9659,324.1283,131.8469 M,0,61648,61737,324.1283,131.8469,326,141 M,0,61737,61759,326,141,344.7616,122.8247 M,0,61759,61781,344.7616,122.8247,367.9937,110.9599 M,0,61781,61803,367.9937,110.9599,393.6594,106.4276 M,0,61803,61825,393.6594,106.4276,419.5141,109.6143 M,0,61825,61847,419.5141,109.6143,443.4002,120.0575 M,0,61847,61869,443.4002,120.0575,462.941,137.3433 M,0,61869,61891,462.941,137.3433,476.5461,159.5751 M,0,61891,61913,476.5461,159.5751,483.0352,184.805 M,0,61913,61935,483.0352,184.805,482.0661,210.8592 M,0,61935,61957,482.0661,210.8592,473.1225,235.3704 M,0,61957,61979,473.1225,235.3704,457.4048,256.1645 M,0,61979,62001,457.4048,256.1645,436.4535,271.7416 M,0,62001,62090,436.4535,271.7416,218,327 M,0,62090,62112,218,327,222.5647,311.9832 M,0,62112,62134,222.5647,311.9832,224.7789,296.4838 M,0,62134,62156,224.7789,296.4838,224.2027,280.8325 M,0,62156,62178,224.2027,280.8325,220.852,265.5253 M,0,62178,62200,220.852,265.5253,214.8294,251.0482 M,0,62200,62222,214.8294,251.0482,206.3221,237.8619 M,0,62222,62244,206.3221,237.8619,195.5952,226.3872 M,0,62244,62266,195.5952,226.3872,183,217 M,0,62266,62354,183,217,301,389 M,0,62354,62376,301,389,311.5578,377.3914 M,0,62376,62398,311.5578,377.3914,323.7657,367.5969 M,0,62398,62420,323.7657,367.5969,337.5591,360.1865 M,0,62420,62442,337.5591,360.1865,352.4811,355.4092 M,0,62442,62464,352.4811,355.4092,368.0368,353.4283 M,0,62464,62486,368.0368,353.4283,383.7098,354.3155 M,0,62486,62508,383.7098,354.3155,398.9781,358.0486 M,0,62508,62530,398.9781,358.0486,413.2657,364.6151 M,0,62530,62619,413.2657,364.6151,326,141 M,0,62619,62641,326,141,323.521,161.7114 M,0,62641,62663,323.521,161.7114,326.4724,182.3755 M,0,62663,62685,326.4724,182.3755,335.8701,200.9898 M,0,62685,62707,335.8701,200.9898,349,216 M,0,62707,62795,349,216,504,336 M,0,62795,62972,504,336,194,436 M,0,62972,62994,194,436,168.2693,430.8044 M,0,62994,63016,168.2693,430.8044,142.5386,425.6088 M,0,63016,63038,142.5386,425.6088,116.808,420.4131 M,0,63038,63060,116.808,420.4131,91.07727,415.2175 M,0,63060,63148,91.07727,415.2175,87,408 M,0,63148,63170,87,408,89.58929,408.4315 M,0,63170,63192,89.58929,408.4315,92.17857,408.8631 M,0,63192,63214,92.17857,408.8631,94.76785,409.2946 M,0,63214,63236,94.76785,409.2946,97.35713,409.7262 M,0,63236,63258,97.35713,409.7262,99.94642,410.1577 M,0,63258,63280,99.94642,410.1577,102.5357,410.5893 M,0,63280,63302,102.5357,410.5893,105.125,411.0208 M,0,63302,63324,105.125,411.0208,107.7143,411.4524 M,0,63324,63346,107.7143,411.4524,110.3036,411.8839 M,0,63346,63368,110.3036,411.8839,112.8928,412.3155 M,0,63368,63390,112.8928,412.3155,115.4821,412.747 M,0,63390,63412,115.4821,412.747,117,413 M,0,63412,63678,117,413,186,188 M,0,63678,63700,186,188,197.129,199.0042 M,0,63700,63722,197.129,199.0042,205.9379,211.8695 M,0,63722,63744,205.9379,211.8695,211.6332,226.4203 M,0,63744,63766,211.6332,226.4203,214,241 M,0,63766,63854,214,241,191,298 M,0,63854,63876,191,298,200.9139,285.881 M,0,63876,63898,200.9139,285.881,208.4448,272.2139 M,0,63898,63920,208.4448,272.2139,212.8551,257.208 M,0,63920,63942,212.8551,257.208,214,242 M,0,63942,64031,214,242,125,129 M,0,64031,64053,125,129,109.9754,124.3592 M,0,64053,64075,109.9754,124.3592,94.59164,121.1726 M,0,64075,64097,94.59164,121.1726,78.93686,119.7516 M,0,64097,64119,78.93686,119.7516,64,120 M,0,64119,64207,64,120,294,223 M,0,64207,64229,294,223,314.9419,223.8685 M,0,64229,64251,314.9419,223.8685,335.8108,221.8432 M,0,64251,64273,335.8108,221.8432,356.0016,216.2196 M,0,64273,64295,356.0016,216.2196,375,208 M,0,64295,64384,375,208,535,56 M,0,64384,64406,535,56,526.396,80.79986 M,0,64406,64428,526.396,80.79986,517.7919,105.5997 M,0,64428,64450,517.7919,105.5997,509.1879,130.3996 M,0,64450,64472,509.1879,130.3996,501,154 M,0,64472,64560,501,154,509,165 M,0,64560,64582,509,165,517.0004,139.9989 M,0,64582,64604,517.0004,139.9989,525.0007,114.9977 M,0,64604,64626,525.0007,114.9977,533.0011,89.9966 M,0,64626,64648,533.0011,89.9966,541.0008,65.00469 M,0,64648,64670,541.0008,65.00469,545.3771,90.88733 M,0,64670,64692,545.3771,90.88733,549.7534,116.77 M,0,64692,64714,549.7534,116.77,554.1296,142.6526 M,0,64714,64736,554.1296,142.6526,558.506,168.5352 M,0,64736,64758,558.506,168.5352,562.8822,194.4178 M,0,64758,64780,562.8822,194.4178,567.2585,220.3005 M,0,64780,64802,567.2585,220.3005,571.6348,246.1831 M,0,64802,64824,571.6348,246.1831,576,272 M,0,64824,64913,576,272,554,428 M,0,64913,64935,554,428,538.3755,429.9841 M,0,64935,64957,538.3755,429.9841,522.751,431.9681 M,0,64957,64979,522.751,431.9681,507.1264,433.9522 M,0,64979,65001,507.1264,433.9522,491.5019,435.9363 M,0,65001,65023,491.5019,435.9363,476.8294,430.3806 M,0,65023,65045,476.8294,430.3806,462.1886,424.5748 M,0,65045,65067,462.1886,424.5748,447.5477,418.7689 M,0,65067,65089,447.5477,418.7689,433,413 M,0,65089,65178,433,413,235,341 M,0,65178,65200,235,341,250.6245,339.0159 M,0,65200,65222,250.6245,339.0159,266.2491,337.0319 M,0,65222,65244,266.2491,337.0319,281.8736,335.0478 M,0,65244,65266,281.8736,335.0478,297.4981,333.0637 M,0,65266,65288,297.4981,333.0637,312.1706,338.6194 M,0,65288,65310,312.1706,338.6194,326.8114,344.4252 M,0,65310,65332,326.8114,344.4252,341.4523,350.2311 M,0,65332,65354,341.4523,350.2311,356,356 M,0,65354,65443,356,356,517,331 M,0,65443,65465,517,331,496.6852,336.3206 M,0,65465,65487,496.6852,336.3206,476.3704,341.6411 M,0,65487,65509,476.3704,341.6411,456.7219,334.97 M,0,65509,65531,456.7219,334.97,437.1216,327.4314 M,0,65531,65619,437.1216,327.4314,264,229 M,0,65619,65795,264,229,72,258 M,0,65795,65817,72,258,96.88029,265.9977 M,0,65817,65839,96.88029,265.9977,122.9722,266.7404 M,0,65839,65861,122.9722,266.7404,148.2154,260.1834 M,0,65861,65883,148.2154,260.1834,170.8361,247.1211 M,0,65883,65972,170.8361,247.1211,177,253 M,0,65972,65994,177,253,177.3359,255.6034 M,0,65994,66016,177.3359,255.6034,177.6718,258.2068 M,0,66016,66038,177.6718,258.2068,178.0078,260.8102 M,0,66038,66060,178.0078,260.8102,178.3437,263.4137 M,0,66060,66082,178.3437,263.4137,178.6796,266.0171 M,0,66082,66104,178.6796,266.0171,179.0155,268.6205 M,0,66104,66126,179.0155,268.6205,179.3515,271.2239 M,0,66126,66148,179.3515,271.2239,179.6874,273.8273 M,0,66148,66170,179.6874,273.8273,180.0233,276.4308 M,0,66170,66192,180.0233,276.4308,180.3593,279.0342 M,0,66192,66214,180.3593,279.0342,180.6952,281.6376 M,0,66214,66236,180.6952,281.6376,181,284 M,0,66236,66501,181,284 M,0,66501,66678,181,284,364,340 M,0,66678,66700,364,340,379.5866,342.2626 M,0,66700,66722,379.5866,342.2626,395.1733,344.5251 M,0,66722,66744,395.1733,344.5251,410.7599,346.7877 M,0,66744,66766,410.7599,346.7877,426,349 M,0,66766,66854,426,349,360,313 M,0,66854,66876,360,313,375.5866,315.2626 M,0,66876,66898,375.5866,315.2626,391.1733,317.5251 M,0,66898,66920,391.1733,317.5251,406.7599,319.7877 M,0,66920,66942,406.7599,319.7877,422,322 M,0,66942,67031,422,322,576,415 M,0,67031,67053,576,415,555.2471,411.7882 M,0,67053,67075,555.2471,411.7882,534.4941,408.5765 M,0,67075,67097,534.4941,408.5765,513.7412,405.3647 M,0,67097,67119,513.7412,405.3647,492.9882,402.153 M,0,67119,67207,492.9882,402.153,550,199 M,0,67207,67229,550,199,561.1284,222.7744 M,0,67229,67251,561.1284,222.7744,571.8723,246.5923 M,0,67251,67273,571.8723,246.5923,566.3378,272.2522 M,0,67273,67295,566.3378,272.2522,561,297 M,0,67295,67384,561,297,552,300 M,0,67384,67406,552,300,556.9573,274.2224 M,0,67406,67428,556.9573,274.2224,561.9145,248.4447 M,0,67428,67450,561.9145,248.4447,551.4763,224.4469 M,0,67450,67472,551.4763,224.4469,540.4493,200.8567 M,0,67472,67494,540.4493,200.8567,515.0457,194.2448 M,0,67494,67516,515.0457,194.2448,489.642,187.6329 M,0,67516,67538,489.642,187.6329,464.4422,183.5654 M,0,67538,67560,464.4422,183.5654,440.4152,194.1373 M,0,67560,67582,440.4152,194.1373,416.2891,203.5832 M,0,67582,67604,416.2891,203.5832,390.7848,197.3707 M,0,67604,67626,390.7848,197.3707,365.2806,191.1581 M,0,67626,67648,365.2806,191.1581,340,185 M,0,67648,67737,340,185,166,132 M,0,67737,67759,166,132,181.5116,134.4804 M,0,67759,67781,181.5116,134.4804,197.1863,134.8755 M,0,67781,67803,197.1863,134.8755,212.7367,132.8384 M,0,67803,67825,212.7367,132.8384,227.7894,128.4168 M,0,67825,67847,227.7894,128.4168,241.9823,121.7146 M,0,67847,67869,241.9823,121.7146,254.9737,112.8904 M,0,67869,67891,254.9737,112.8904,266.4496,102.1534 M,0,67891,67913,266.4496,102.1534,276,90 M,0,67913,68001,276,90,226,309 M,0,68001,68023,226,309,220.6085,294.2474 M,0,68023,68045,220.6085,294.2474,213.3053,280.3753 M,0,68045,68067,213.3053,280.3753,203.9187,267.8123 M,0,68067,68089,203.9187,267.8123,192.6764,256.8669 M,0,68089,68111,192.6764,256.8669,179.8513,247.8093 M,0,68111,68133,179.8513,247.8093,165.755,240.8643 M,0,68133,68155,165.755,240.8643,150.7302,236.2065 M,0,68155,68177,150.7302,236.2065,135.1406,234.1013 M,0,68177,68266,135.1406,234.1013,340,185 M,0,68266,68288,340,185,328.981,202.7678 M,0,68288,68310,328.981,202.7678,321.9023,222.4598 M,0,68310,68332,321.9023,222.4598,320.2667,243.3027 M,0,68332,68354,320.2667,243.3027,323,264 M,0,68354,68443,323,264,364,403 M,0,68443,68619,364,403,576,293 M,0,68619,68641,576,293,550.1345,288.5233 M,0,68641,68663,550.1345,288.5233,524.2691,284.0466 M,0,68663,68685,524.2691,284.0466,498.4037,279.5699 M,0,68685,68707,498.4037,279.5699,472.5382,275.0931 M,0,68707,68795,472.5382,275.0931,469,284 M,0,68795,68817,469,284,469.0846,286.6237 M,0,68817,68839,469.0846,286.6237,469.1693,289.2473 M,0,68839,68861,469.1693,289.2473,469.2539,291.8709 M,0,68861,68883,469.2539,291.8709,469.3385,294.4945 M,0,68883,68905,469.3385,294.4945,469.4232,297.1182 M,0,68905,68927,469.4232,297.1182,469.5078,299.7418 M,0,68927,68949,469.5078,299.7418,469.5924,302.3654 M,0,68949,68971,469.5924,302.3654,469.6771,304.9891 M,0,68971,68993,469.6771,304.9891,469.7617,307.6127 M,0,68993,69015,469.7617,307.6127,469.8463,310.2364 M,0,69015,69037,469.8463,310.2364,469.931,312.86 M,0,69037,69059,469.931,312.86,470,315 M,0,69059,69384,470,315,376,99 M,0,69384,69406,376,99,374.5151,88.60553 M,0,69406,69428,374.5151,88.60553,373.0302,78.21106 M,0,69428,69450,373.0302,78.21106,372.0402,71.28142 M,0,69442,69501,372.0402,71.28142,376,99 M,0,69501,69523,376,99,391.5553,96.53091 M,0,69523,69545,391.5553,96.53091,407.1105,94.06182 M,0,69545,69567,407.1105,94.06182,422.6658,91.59274 M,0,69567,69589,422.6658,91.59274,438.221,89.12364 M,0,69589,69678,438.221,89.12364,379,114 M,0,69678,69700,379,114,394.5553,111.5309 M,0,69700,69722,394.5553,111.5309,410.1105,109.0618 M,0,69722,69744,410.1105,109.0618,425.6658,106.5927 M,0,69744,69766,425.6658,106.5927,441.221,104.1236 M,0,69766,69854,441.221,104.1236,576,200 M,0,69854,69876,576,200,555.259,196.7118 M,0,69876,69898,555.259,196.7118,534.5181,193.4236 M,0,69898,69920,534.5181,193.4236,513.7771,190.1354 M,0,69920,69942,513.7771,190.1354,494,187 M,0,69942,70031,494,187,339,300 M,0,70031,70053,339,300,328.4964,276.0411 M,0,70053,70075,328.4964,276.0411,324.2365,250.2547 M,0,70075,70097,324.2365,250.2547,326.4734,224.2317 M,0,70097,70119,326.4734,224.2317,334.7991,199.4432 M,0,70119,70207,334.7991,199.4432,345,198 M,0,70207,70229,345,198,335.6801,222.4704 M,0,70229,70251,335.6801,222.4704,333.0752,248.5055 M,0,70251,70273,333.0752,248.5055,337.5545,274.2971 M,0,70273,70295,337.5545,274.2971,347.5149,298.5539 M,0,70295,70317,347.5149,298.5539,353.7134,323.9658 M,0,70317,70339,353.7134,323.9658,352.6844,350.1146 M,0,70339,70361,352.6844,350.1146,344.6137,375.0031 M,0,70361,70383,344.6137,375.0031,329.8085,396.5622 M,0,70383,70405,329.8085,396.5622,309.244,412.708 M,0,70405,70427,309.244,412.708,284.7545,421.8705 M,0,70427,70449,284.7545,421.8705,258.644,423.3577 M,0,70449,70471,258.644,423.3577,233.2527,417.1049 M,0,70471,70560,233.2527,417.1049,152,256 M,0,70560,70582,152,256,159.0112,231.1574 M,0,70582,70604,159.0112,231.1574,177.9119,213.7511 M,0,70604,70626,177.9119,213.7511,203.0518,208.851 M,0,70626,70648,203.0518,208.851,226.9859,217.8448 M,0,70648,70670,226.9859,217.8448,243.0332,237.8528 M,0,70670,70692,243.0332,237.8528,245.4978,263.451 M,0,70692,70714,245.4978,263.451,234.2189,286.4628 M,0,70714,70736,234.2189,286.4628,212.7607,300.7165 M,0,70736,70825,212.7607,300.7165,87,329 M,0,70825,70847,87,329,76.74659,317.0957 M,0,70847,70869,76.74659,317.0957,68.12218,303.9957 M,0,70869,70891,68.12218,303.9957,61.55432,289.7491 M,0,70891,70913,61.55432,289.7491,57.19155,274.6746 M,0,70913,70935,57.19155,274.6746,55.13363,259.1097 M,0,70935,70957,55.13363,259.1097,55.42929,243.4033 M,0,70957,70979,55.42929,243.4033,58.07506,227.9075 M,0,70979,71001,58.07506,227.9075,63,213 M,0,71001,71090,63,213,232,206 M,0,71090,71112,232,206,245.5319,221.8462 M,0,71112,71134,245.5319,221.8462,254.151,240.8334 M,0,71134,71156,254.151,240.8334,255.7551,261.5997 M,0,71156,71178,255.7551,261.5997,252,281 M,0,71178,71266,252,281,214,412 M,0,71266,71443,214,412,448,288 M,0,71443,71465,448,288,458.9886,264.2919 M,0,71465,71487,458.9886,264.2919,461.9184,238.3341 M,0,71487,71509,461.9184,238.3341,456.4941,212.7891 M,0,71509,71531,456.4941,212.7891,444,191 M,0,71531,71619,444,191,433,185 M,0,71619,71641,433,185,430.4395,185.5782 M,0,71641,71663,430.4395,185.5782,427.8789,186.1564 M,0,71663,71685,427.8789,186.1564,425.3184,186.7346 M,0,71685,71707,425.3184,186.7346,422.7579,187.3127 M,0,71707,71729,422.7579,187.3127,420.1973,187.8909 M,0,71729,71751,420.1973,187.8909,417.6368,188.4691 M,0,71751,71773,417.6368,188.4691,415.0763,189.0473 M,0,71773,71795,415.0763,189.0473,412.5157,189.6255 M,0,71795,71817,412.5157,189.6255,409.9552,190.2037 M,0,71817,71839,409.9552,190.2037,407.3947,190.7818 M,0,71839,71861,407.3947,190.7818,404.8341,191.36 M,0,71861,71883,404.8341,191.36,402.2736,191.9382 M,0,71883,72148,402.2736,191.9382,268,118 M,0,72148,72170,268,118,269.5045,131.0385 M,0,72170,72192,269.5045,131.0385,271,144 M,0,72192,72214,271,144,269.5045,131.0385 M,0,72214,72236,269.5045,131.0385,268,118 M,0,72236,72325,268,118,266,104 M,0,72325,72347,266,104,250.4356,102.0134 M,0,72347,72369,250.4356,102.0134,234.7767,102.2401 M,0,72369,72391,234.7767,102.2401,219.3534,105.1297 M,0,72391,72413,219.3534,105.1297,204.6542,110.7112 M,0,72413,72501,204.6542,110.7112,264,93 M,0,72501,72523,264,93,248.4356,91.0134 M,0,72523,72545,248.4356,91.0134,232.7767,91.24014 M,0,72545,72567,232.7767,91.24014,217.3534,94.12968 M,0,72567,72589,217.3534,94.12968,202.6542,99.71118 M,0,72589,72678,202.6542,99.71118,70,183 M,0,72678,72700,70,183,90.8125,181.4681 M,0,72700,72722,90.8125,181.4681,111.379,185.1439 M,0,72722,72744,111.379,185.1439,129.7549,195.0314 M,0,72744,72766,129.7549,195.0314,145,209 M,0,72766,72854,145,209,225,392 M,0,72854,72876,225,392,199.9522,399.4744 M,0,72876,72898,199.9522,399.4744,173.8461,399.8463 M,0,72898,72920,173.8461,399.8463,148.6448,393.1006 M,0,72920,72942,148.6448,393.1006,126.0272,380.02 M,0,72942,73031,126.0272,380.02,127,372 M,0,73031,73053,127,372,149.9104,384.5919 M,0,73053,73075,149.9104,384.5919,175.3191,390.6151 M,0,73075,73097,175.3191,390.6151,201.395,389.648 M,0,73097,73119,201.395,389.648,226.3819,382.0288 M,0,73119,73141,226.3819,382.0288,248.1924,367.6312 M,0,73141,73163,248.1924,367.6312,265.3584,347.9614 M,0,73163,73185,265.3584,347.9614,276.6528,324.4419 M,0,73185,73207,276.6528,324.4419,281.5098,298.7847 M,0,73207,73229,281.5098,298.7847,278.9359,272.7856 M,0,73229,73251,278.9359,272.7856,269.5338,248.436 M,0,73251,73273,269.5338,248.436,253.9888,227.4848 M,0,73273,73295,253.9888,227.4848,235,212 M,0,73295,73384,235,212,83,105 M,0,73384,73406,83,105,98.17184,109.2282 M,0,73406,73428,98.17184,109.2282,113.3437,113.4564 M,0,73428,73450,113.3437,113.4564,128.5155,117.6846 M,0,73450,73472,128.5155,117.6846,143.6873,121.9129 M,0,73472,73494,143.6873,121.9129,158.3391,116.3138 M,0,73494,73516,158.3391,116.3138,172.98,110.5079 M,0,73516,73538,172.98,110.5079,187.6208,104.7021 M,0,73538,73560,187.6208,104.7021,202,99 M,0,73560,73648,202,99,353,218 M,0,73648,73670,353,218,338.3256,212.2795 M,0,73670,73692,338.3256,212.2795,323.6512,206.5589 M,0,73692,73714,323.6512,206.5589,308.9768,200.8384 M,0,73714,73736,308.9768,200.8384,294.3024,195.1179 M,0,73736,73758,294.3024,195.1179,279.1408,199.1411 M,0,73758,73780,279.1408,199.1411,263.969,203.3693 M,0,73780,73802,263.969,203.3693,248.7971,207.5975 M,0,73802,73824,248.7971,207.5975,233.6253,211.8257 M,0,73824,73913,233.6253,211.8257,347,97 M,0,73913,73935,347,97,366.6836,104.3183 M,0,73935,73957,366.6836,104.3183,386.3672,111.6365 M,0,73957,73979,386.3672,111.6365,406.0507,118.9548 M,0,73979,74001,406.0507,118.9548,425,126 M,0,74001,74090,425,126,575,186 M,0,74090,74266,575,186,441,359 M,0,74266,74288,441,359,436.0428,333.2223 M,0,74288,74310,436.0428,333.2223,431.0855,307.4446 M,0,74310,74332,431.0855,307.4446,440.922,283.1872 M,0,74332,74354,440.922,283.1872,451,259 M,0,74354,74443,451,259,460,256 M,0,74443,74465,460,256,458.9963,258.4255 M,0,74465,74487,458.9963,258.4255,457.9926,260.8511 M,0,74487,74509,457.9926,260.8511,456.989,263.2766 M,0,74509,74531,456.989,263.2766,455.9853,265.7022 M,0,74531,74553,455.9853,265.7022,454.9816,268.1277 M,0,74553,74575,454.9816,268.1277,453.978,270.5533 M,0,74575,74597,453.978,270.5533,452.9743,272.9788 M,0,74597,74619,452.9743,272.9788,451.9706,275.4044 M,0,74619,74641,451.9706,275.4044,450.9669,277.8299 M,0,74641,74663,450.9669,277.8299,449.9633,280.2554 M,0,74663,74685,449.9633,280.2554,448.9596,282.681 M,0,74685,74707,448.9596,282.681,448,285 M,0,74707,74972,448,285,447,285 M,0,74972,75148,447,285,192,383 M,0,75148,75170,192,383,206.372,376.5574 M,0,75170,75192,206.372,376.5574,220.744,370.1147 M,0,75192,75214,220.744,370.1147,236.4374,370.996 M,0,75214,75236,236.4374,370.996,252,372 M,0,75236,75325,252,372,308,393 M,0,75325,75347,308,393,295.2836,383.7072 M,0,75347,75369,295.2836,383.7072,282.5672,374.4145 M,0,75369,75391,282.5672,374.4145,266.9858,372.9991 M,0,75391,75413,266.9858,372.9991,252,372 M,0,75413,75501,252,372,82,431 M,0,75501,75523,82,431,89.21521,411.2784 M,0,75523,75545,89.21521,411.2784,96.43042,391.5569 M,0,75545,75567,96.43042,391.5569,93.20667,371.0334 M,0,75567,75589,93.20667,371.0334,89.08823,350.4412 M,0,75589,75678,89.08823,350.4412,173,124 M,0,75678,75700,173,124,178.4831,149.671 M,0,75700,75722,178.4831,149.671,183.9662,175.3419 M,0,75722,75744,183.9662,175.3419,189.4493,201.0129 M,0,75744,75766,189.4493,201.0129,194.9325,226.6838 M,0,75766,75854,194.9325,226.6838,205,223 M,0,75854,75876,205,223,199.4132,197.3514 M,0,75876,75898,199.4132,197.3514,193.8264,171.7028 M,0,75898,75920,193.8264,171.7028,188.2395,146.0542 M,0,75920,75942,188.2395,146.0542,184.6003,121.6816 M,0,75942,75964,184.6003,121.6816,210.6131,118.3331 M,0,75964,75986,210.6131,118.3331,236.764,119.808 M,0,75986,76008,236.764,119.808,261.6378,127.9386 M,0,76008,76030,261.6378,127.9386,284.4904,140.8331 M,0,76030,76052,284.4904,140.8331,308.0064,152.4002 M,0,76052,76074,308.0064,152.4002,333.6568,157.5453 M,0,76074,76096,333.6568,157.5453,359.8368,156.3491 M,0,76096,76118,359.8368,156.3491,385.5445,151.1189 M,0,76118,76207,385.5445,151.1189,533,60 M,0,76207,76229,533,60,520.6169,69.65604 M,0,76229,76251,520.6169,69.65604,509.7459,80.94167 M,0,76251,76273,509.7459,80.94167,500.8802,93.86803 M,0,76273,76295,500.8802,93.86803,494.2628,108.0848 M,0,76295,76317,494.2628,108.0848,490.0761,123.2065 M,0,76317,76339,490.0761,123.2065,488.4375,138.823 M,0,76339,76361,488.4375,138.823,489.3961,154.5097 M,0,76361,76383,489.3961,154.5097,492.9529,169.8316 M,0,76383,76472,492.9529,169.8316,537,361 M,0,76472,76494,537,361,549.0908,350.9754 M,0,76494,76516,549.0908,350.9754,559.6786,339.4164 M,0,76516,76538,559.6786,339.4164,568.2937,326.3157 M,0,76538,76560,568.2937,326.3157,574.7159,312.0046 M,0,76560,76582,574.7159,312.0046,578.78,296.8453 M,0,76582,76604,578.78,296.8453,580.3795,281.2216 M,0,76604,76626,580.3795,281.2216,579.4698,265.5296 M,0,76626,76648,579.4698,265.5296,576.0472,250.1757 M,0,76648,76737,576.0472,250.1757,385,151 M,0,76737,76759,385,151,375.5173,169.6378 M,0,76759,76781,375.5173,169.6378,370.0349,189.8338 M,0,76781,76803,370.0349,189.8338,369.9296,210.7437 M,0,76803,76825,369.9296,210.7437,374,231 M,0,76825,76913,374,231,434,394 M,0,76913,77090,434,394,574,116 M,0,77090,77112,574,116,548.0247,118.5416 M,0,77112,77134,548.0247,118.5416,524.2413,129.1906 M,0,77134,77156,524.2413,129.1906,505.0978,146.8286 M,0,77156,77178,505.0978,146.8286,492.2032,169.4986 M,0,77178,77266,492.2032,169.4986,492,178 M,0,77266,77288,492,178,492.245,180.6135 M,0,77288,77310,492.245,180.6135,492.4901,183.2271 M,0,77310,77332,492.4901,183.2271,492.735,185.8406 M,0,77332,77354,492.735,185.8406,492.9801,188.4542 M,0,77354,77376,492.9801,188.4542,493.2251,191.0677 M,0,77376,77398,493.2251,191.0677,493.4701,193.6812 M,0,77398,77420,493.4701,193.6812,493.7151,196.2948 M,0,77420,77442,493.7151,196.2948,493.9601,198.9083 M,0,77442,77464,493.9601,198.9083,494.2052,201.5219 M,0,77464,77486,494.2052,201.5219,494.4502,204.1354 M,0,77486,77508,494.4502,204.1354,494.6952,206.7489 M,0,77508,77530,494.6952,206.7489,494.9402,209.3625 M,0,77530,77795,494.9402,209.3625,494,209 M,0,77795,77972,494,209,318,340 M,0,77972,77994,318,340,302.7654,336.004 M,0,77994,78016,302.7654,336.004,287.5307,332.0081 M,0,78016,78038,287.5307,332.0081,272.296,328.0121 M,0,78038,78060,272.296,328.0121,257.0614,324.0161 M,0,78060,78148,257.0614,324.0161,313,356 M,0,78148,78170,313,356,297.7654,352.004 M,0,78170,78192,297.7654,352.004,282.5307,348.0081 M,0,78192,78214,282.5307,348.0081,267.296,344.0121 M,0,78214,78236,267.296,344.0121,252.0614,340.0161 M,0,78236,78325,252.0614,340.0161,148,440 M,0,78325,78347,148,440,168.2658,434.4957 M,0,78347,78369,168.2658,434.4957,188.5316,428.9914 M,0,78369,78391,188.5316,428.9914,208.7974,423.4871 M,0,78391,78413,208.7974,423.4871,229,418 M,0,78413,78501,229,418,64,234 M,0,78501,78523,64,234,54.64531,258.4064 M,0,78523,78545,54.64531,258.4064,52.28662,284.406 M,0,78545,78567,52.28662,284.406,57.08811,310.0471 M,0,78567,78589,57.08811,310.0471,68,333 M,0,78589,78678,68,333,80,332 M,0,78678,78700,80,332,68.19088,308.6837 M,0,78700,78722,68.19088,308.6837,63.28483,283.0436 M,0,78722,78744,63.28483,283.0436,65.64838,257.0668 M,0,78744,78766,65.64838,257.0668,75.09037,232.7632 M,0,78766,78788,75.09037,232.7632,90.73363,211.8833 M,0,78788,78810,90.73363,211.8833,111.7642,196.4136 M,0,78810,78832,111.7642,196.4136,136.2284,187.3607 M,0,78832,78854,136.2284,187.3607,162.2296,185.4173 M,0,78854,78876,162.2296,185.4173,187.8158,190.5318 M,0,78876,78898,187.8158,190.5318,210.8357,202.8526 M,0,78898,78920,210.8357,202.8526,229.5417,221.0355 M,0,78920,78942,229.5417,221.0355,242.7982,243.546 M,0,78942,79031,242.7982,243.546,370,418 M,0,79031,79053,370,418,383.2167,409.4337 M,0,79053,79075,383.2167,409.4337,396.4333,400.8673 M,0,79075,79097,396.4333,400.8673,409.65,392.3009 M,0,79097,79119,409.65,392.3009,422.8666,383.7346 M,0,79119,79141,422.8666,383.7346,438.1371,385.7362 M,0,79141,79163,438.1371,385.7362,453.6001,388.729 M,0,79163,79185,453.6001,388.729,469.0631,391.7219 M,0,79185,79207,469.0631,391.7219,484.5261,394.7147 M,0,79207,79295,484.5261,394.7147,350,245 M,0,79295,79317,350,245,350.7375,260.7327 M,0,79317,79339,350.7375,260.7327,351.4749,276.4655 M,0,79339,79361,351.4749,276.4655,352.2124,292.1982 M,0,79361,79383,352.2124,292.1982,352.9499,307.9309 M,0,79383,79405,352.9499,307.9309,343.2184,319.946 M,0,79405,79427,343.2184,319.946,332.7237,331.6901 M,0,79427,79449,332.7237,331.6901,322.229,343.4342 M,0,79449,79471,322.229,343.4342,311.7343,355.1783 M,0,79471,79560,311.7343,355.1783,488,308 M,0,79560,79582,488,308,470.5996,296.243 M,0,79582,79604,470.5996,296.243,453.1993,284.486 M,0,79604,79626,453.1993,284.486,445.0617,265.6419 M,0,79626,79648,445.0617,265.6419,438.2643,245.7724 M,0,79648,79737,438.2643,245.7724,398,90 M,0,79737,79913,398,90,576,178 M,0,79913,79935,576,178,549.9489,174.7746 M,0,79935,79957,549.9489,174.7746,523.8978,171.5493 M,0,79957,79979,523.8978,171.5493,497.8467,168.3239 M,0,79979,80001,497.8467,168.3239,471.7956,165.0985 M,0,80001,80090,471.7956,165.0985,464,169 M,0,80090,80112,464,169,461.3953,168.6744 M,0,80112,80134,461.3953,168.6744,458.7905,168.3488 M,0,80134,80156,458.7905,168.3488,456.1858,168.0232 M,0,80156,80178,456.1858,168.0232,453.5811,167.6976 M,0,80178,80200,453.5811,167.6976,450.9763,167.372 M,0,80200,80222,450.9763,167.372,448.3716,167.0464 M,0,80222,80244,448.3716,167.0464,445.7669,166.7209 M,0,80244,80266,445.7669,166.7209,443.1622,166.3953 M,0,80266,80288,443.1622,166.3953,440.5574,166.0697 M,0,80288,80310,440.5574,166.0697,437.9527,165.7441 M,0,80310,80332,437.9527,165.7441,435.348,165.4185 M,0,80332,80354,435.348,165.4185,432.7433,165.0929 M,0,80354,80795,432.7433,165.0929,432,165 M,0,80795,80817,432,165,416.5852,168.2321 M,0,80817,80839,416.5852,168.2321,401.1704,171.4643 M,0,80839,80861,401.1704,171.4643,385.7556,174.6964 M,0,80861,80883,385.7556,174.6964,370.3408,177.9285 M,0,80883,80972,370.3408,177.9285,427,175 M,0,80972,80994,427,175,411.5852,178.2321 M,0,80994,81016,411.5852,178.2321,396.1704,181.4643 M,0,81016,81038,396.1704,181.4643,380.7556,184.6964 M,0,81038,81060,380.7556,184.6964,365.3408,187.9285 M,0,81060,81148,365.3408,187.9285,228,102 M,0,81148,81170,228,102,248.5627,106.263 M,0,81170,81192,248.5627,106.263,269.1255,110.526 M,0,81192,81214,269.1255,110.526,289.6882,114.789 M,0,81214,81236,289.6882,114.789,310,119 M,0,81236,81325,310,119,83,295 M,0,81325,81347,83,295,90.24442,269.7694 M,0,81347,81369,90.24442,269.7694,97.48883,244.5389 M,0,81369,81391,97.48883,244.5389,104.7332,219.3083 M,0,81391,81413,104.7332,219.3083,111.9777,194.0778 M,0,81413,81501,111.9777,194.0778,119,208 M,0,81501,81523,119,208,111.7531,233.2299 M,0,81523,81545,111.7531,233.2299,104.5063,258.4597 M,0,81545,81567,104.5063,258.4597,97.25938,283.6895 M,0,81567,81589,97.25938,283.6895,98.43402,305.2275 M,0,81589,81611,98.43402,305.2275,123.2144,313.7385 M,0,81611,81633,123.2144,313.7385,149.2248,316.9025 M,0,81633,81655,149.2248,316.9025,175.3282,314.6245 M,0,81655,81677,175.3282,314.6245,200.3904,306.9827 M,0,81677,81699,200.3904,306.9827,223.2695,294.2184 M,0,81699,81721,223.2695,294.2184,242.8316,276.7951 M,0,81721,81743,242.8316,276.7951,258.1024,255.5094 M,0,81743,81765,258.1024,255.5094,268,233 M,0,81765,81854,268,233,433,65 M,0,81854,81876,433,65,421.5045,88.46011 M,0,81876,81898,421.5045,88.46011,417.2701,114.205 M,0,81898,81920,417.2701,114.205,420.6399,140.0543 M,0,81920,81942,420.6399,140.0543,431,164 M,0,81942,82031,431,164,546,278 M,0,82031,82053,546,278,561.338,274.4211 M,0,82053,82075,561.338,274.4211,576,271 M,0,82075,82207,576,271,546,278 M,0,82207,82229,546,278,530.6368,281.4691 M,0,82229,82251,530.6368,281.4691,515.2736,284.9382 M,0,82251,82273,515.2736,284.9382,499.9104,288.4073 M,0,82273,82295,499.9104,288.4073,484.5472,291.8764 M,0,82295,82384,484.5472,291.8764,295,346 M,0,82384,82406,295,346,315.4999,350.5555 M,0,82406,82428,315.4999,350.5555,335.9998,355.1111 M,0,82428,82450,335.9998,355.1111,356.4998,359.6666 M,0,82450,82472,356.4998,359.6666,376,364 M,0,82472,82560,376,364,542,397 M,0,82560,82737,542,397,431,164 M,0,82737,82759,431,164,405.8896,156.6973 M,0,82759,82781,405.8896,156.6973,379.7715,156.1534 M,0,82781,82803,379.7715,156.1534,354.4233,162.3945 M,0,82803,82825,354.4233,162.3945,331.3831,174.7388 M,0,82825,82913,331.3831,174.7388,330,186 M,0,82913,82935,330,186,332.2132,184.6178 M,0,82935,82957,332.2132,184.6178,334.4265,183.2356 M,0,82957,82979,334.4265,183.2356,336.6397,181.8535 M,0,82979,83001,336.6397,181.8535,338.8529,180.4713 M,0,83001,83023,338.8529,180.4713,340.7518,178.6711 M,0,83023,83045,340.7518,178.6711,343.1855,177.7298 M,0,83045,83067,343.1855,177.7298,345.6191,176.7885 M,0,83067,83089,345.6191,176.7885,348.0528,175.8473 M,0,83089,83111,348.0528,175.8473,350.2108,174.1931 M,0,83111,83133,350.2108,174.1931,352.7338,173.4827 M,0,83133,83155,352.7338,173.4827,355.2568,172.7724 M,0,83155,83177,355.2568,172.7724,357.7798,172.062 M,0,83177,83443,357.7798,172.062,173,367 M,0,83443,83465,173,367,160.2111,364.0487 M,0,83465,83487,160.2111,364.0487,147.4222,361.0974 M,0,83487,83509,147.4222,361.0974,160.2111,364.0487 M,0,83509,83531,160.2111,364.0487,173,367 M,0,83531,83619,173,367,185,377 M,0,83619,83641,185,377,200.3509,373.4768 M,0,83641,83663,200.3509,373.4768,215.7018,369.9537 M,0,83663,83685,215.7018,369.9537,231.0527,366.4305 M,0,83685,83707,231.0527,366.4305,246,363 M,0,83707,83795,246,363,195,386 M,0,83795,83817,195,386,210.3509,382.4768 M,0,83817,83839,210.3509,382.4768,225.7018,378.9537 M,0,83839,83861,225.7018,378.9537,241.0527,375.4305 M,0,83861,83883,241.0527,375.4305,256,372 M,0,83883,83972,256,372,377,242 M,0,83972,83994,377,242,356.4771,237.5492 M,0,83994,84016,356.4771,237.5492,335.9541,233.0985 M,0,84016,84038,335.9541,233.0985,315.4312,228.6477 M,0,84038,84060,315.4312,228.6477,294.9083,224.197 M,0,84060,84148,294.9083,224.197,117,237 M,0,84148,84170,117,237,109.0925,212.0799 M,0,84170,84192,109.0925,212.0799,108.1431,185.9809 M,0,84192,84214,108.1431,185.9809,114.2089,160.5992 M,0,84214,84236,114.2089,160.5992,126.5922,137.5888 M,0,84236,84325,126.5922,137.5888,138,138 M,0,84325,84347,138,138,125.1644,160.7591 M,0,84347,84369,125.1644,160.7591,119.3191,186.1917 M,0,84369,84391,119.3191,186.1917,120.9276,212.2158 M,0,84391,84413,120.9276,212.2158,129.5453,236.8666 M,0,84413,84435,129.5453,236.8666,145.2296,257.7612 M,0,84435,84457,145.2296,257.7612,166.1703,273.3293 M,0,84457,84479,166.1703,273.3293,190.6475,282.3098 M,0,84479,84501,190.6475,282.3098,216.6813,284.307 M,0,84501,84523,216.6813,284.307,242.1137,278.3379 M,0,84523,84545,242.1137,278.3379,264.7809,265.4157 M,0,84545,84567,264.7809,265.4157,282.8366,246.6084 M,0,84567,84589,282.8366,246.6084,295,224 M,0,84589,84678,295,224,374,68 M,0,84678,84700,374,68,363.4055,79.59695 M,0,84700,84722,363.4055,79.59695,351.3819,89.65897 M,0,84722,84744,351.3819,89.65897,337.9352,97.72989 M,0,84744,84766,337.9352,97.72989,323.3902,103.6126 M,0,84766,84788,323.3902,103.6126,308.0982,107.1623 M,0,84788,84810,308.0982,107.1623,292.4288,108.2895 M,0,84810,84832,292.4288,108.2895,276.7615,106.9629 M,0,84832,84854,276.7615,106.9629,261.4996,103.1482 M,0,84854,84943,261.4996,103.1482,436,242 M,0,84943,84965,436,242,417.9053,245.1406 M,0,84965,84987,417.9053,245.1406,399.5631,245.7256 M,0,84987,85009,399.5631,245.7256,381.5065,242.5604 M,0,85009,85031,381.5065,242.5604,364.5476,235.551 M,0,85031,85053,364.5476,235.551,348.0951,227.3748 M,0,85053,85075,348.0951,227.3748,330.6197,221.8344 M,0,85075,85097,330.6197,221.8344,312.3244,220.6083 M,0,85097,85119,312.3244,220.6083,294.0963,222.789 M,0,85119,85207,294.0963,222.789,463,83 M,0,85207,85229,463,83,458.5406,103.388 M,0,85229,85251,458.5406,103.388,459.2464,124.2697 M,0,85251,85273,459.2464,124.2697,466.3846,143.8794 M,0,85273,85295,466.3846,143.8794,478,161 M,0,85295,85384,478,161,563,275 M,0,85384,85560,563,275,465,433 M,0,85560,85582,465,433,468.7473,407.0189 M,0,85582,85604,468.7473,407.0189,472.4946,381.0377 M,0,85604,85626,472.4946,381.0377,476.2419,355.0565 M,0,85626,85648,476.2419,355.0565,479.9891,329.0754 M,0,85648,85737,479.9891,329.0754,475,321 M,0,85737,85759,475,321,474.582,323.5915 M,0,85759,85781,474.582,323.5915,474.164,326.183 M,0,85781,85803,474.164,326.183,473.746,328.7745 M,0,85803,85825,473.746,328.7745,473.3281,331.366 M,0,85825,85847,473.3281,331.366,472.9101,333.9576 M,0,85847,85869,472.9101,333.9576,472.4921,336.549 M,0,85869,85891,472.4921,336.549,472.0741,339.1406 M,0,85891,85913,472.0741,339.1406,471.6561,341.7321 M,0,85913,85935,471.6561,341.7321,471.2381,344.3236 M,0,85935,85957,471.2381,344.3236,470.8202,346.9151 M,0,85957,85979,470.8202,346.9151,470.4022,349.5066 M,0,85979,86001,470.4022,349.5066,470,352 M,0,86001,86266,470,352,365,127 M,0,86266,86288,365,127,352.17,129.7672 M,0,86288,86310,352.17,129.7672,339.3401,132.5345 M,0,86310,86332,339.3401,132.5345,326.5101,135.3017 M,0,86332,86354,326.5101,135.3017,314,138 M,0,86354,86443,314,138,263,150 M,0,86443,86465,263,150,275.83,147.2328 M,0,86465,86487,275.83,147.2328,288.6599,144.4655 M,0,86487,86509,288.6599,144.4655,301.4899,141.6983 M,0,86509,86531,301.4899,141.6983,314,139 M,0,86531,86619,314,139,426,114 M,0,86619,86641,426,114,410.5959,117.2828 M,0,86641,86663,410.5959,117.2828,395.1919,120.5657 M,0,86663,86685,395.1919,120.5657,379.7878,123.8485 M,0,86685,86707,379.7878,123.8485,365,127 M,0,86707,86795,365,127,530,294 M,0,86795,86817,530,294,509.4771,289.5493 M,0,86817,86839,509.4771,289.5493,488.9541,285.0985 M,0,86839,86861,488.9541,285.0985,468.4312,280.6477 M,0,86861,86883,468.4312,280.6477,447.9083,276.197 M,0,86883,86972,447.9083,276.197,142,247 M,0,86972,86994,142,247,130.8716,270.7744 M,0,86994,87016,130.8716,270.7744,120.0808,294.6005 M,0,87016,87038,120.0808,294.6005,123.5829,320.6158 M,0,87038,87060,123.5829,320.6158,127,346 M,0,87060,87148,127,346,135,348 M,0,87148,87170,135,348,132.0472,321.9166 M,0,87170,87192,132.0472,321.9166,129.0943,295.8332 M,0,87192,87214,129.0943,295.8332,139.7729,271.9851 M,0,87214,87236,139.7729,271.9851,150.9014,248.2107 M,0,87236,87258,150.9014,248.2107,146.9835,222.2946 M,0,87258,87280,146.9835,222.2946,142.9311,196.3593 M,0,87280,87302,142.9311,196.3593,153.6035,178.545 M,0,87302,87324,153.6035,178.545,175.2962,163.8985 M,0,87324,87346,175.2962,163.8985,192.1124,143.859 M,0,87346,87368,192.1124,143.859,211.8147,146.2519 M,0,87368,87390,211.8147,146.2519,237.1887,152.4811 M,0,87390,87412,237.1887,152.4811,263,151 M,0,87412,87501,263,151,448,277 M,0,87501,87523,448,277,446.3836,261.3332 M,0,87523,87545,446.3836,261.3332,444.7672,245.6663 M,0,87545,87567,444.7672,245.6663,443.1508,229.9995 M,0,87567,87589,443.1508,229.9995,441.5343,214.3327 M,0,87589,87611,441.5343,214.3327,439.9179,198.6658 M,0,87611,87633,439.9179,198.6658,438.3015,182.999 M,0,87633,87655,438.3015,182.999,436.6851,167.3322 M,0,87655,87677,436.6851,167.3322,435.0686,151.6653 M,0,87677,87766,435.0686,151.6653,264,151 M,0,87766,87788,264,151,265.5051,166.6779 M,0,87788,87810,265.5051,166.6779,267.0102,182.3558 M,0,87810,87832,267.0102,182.3558,268.5153,198.0338 M,0,87832,87854,268.5153,198.0338,270.0203,213.7117 M,0,87854,87876,270.0203,213.7117,271.5254,229.3896 M,0,87876,87898,271.5254,229.3896,273.0305,245.0675 M,0,87898,87920,273.0305,245.0675,274.5356,260.7455 M,0,87920,87942,274.5356,260.7455,276,276 M,0,87942,88031,276,276,372,390 M,0,88031,88053,372,390,369.7628,369.1195 M,0,88053,88075,369.7628,369.1195,367.5256,348.239 M,0,88075,88097,367.5256,348.239,365.2884,327.3585 M,0,88097,88119,365.2884,327.3585,363.0512,306.478 M,0,88119,88207,363.0512,306.478,346,122 M,0,88207,88384,346,122,534,240 M,0,88384,88406,534,240,541.5513,265.0136 M,0,88406,88428,541.5513,265.0136,541.7063,291.1081 M,0,88428,88450,541.7063,291.1081,534.4667,316.1561 M,0,88450,88472,534.4667,316.1561,521,338 M,0,88472,88560,521,338,517,346 M,0,88560,88582,517,346,517.418,348.5915 M,0,88582,88604,517.418,348.5915,517.8359,351.183 M,0,88604,88626,517.8359,351.183,518.254,353.7745 M,0,88626,88648,518.254,353.7745,518.6719,356.366 M,0,88648,88670,518.6719,356.366,519.09,358.9576 M,0,88670,88692,519.09,358.9576,519.5079,361.549 M,0,88692,88714,519.5079,361.549,519.9259,364.1406 M,0,88714,88736,519.9259,364.1406,520.3439,366.7321 M,0,88736,88758,520.3439,366.7321,520.7618,369.3236 M,0,88758,88780,520.7618,369.3236,521.1798,371.9151 M,0,88780,88802,521.1798,371.9151,521.5978,374.5066 M,0,88802,88824,521.5978,374.5066,522,377 M,0,88824,89090,522,377 M,0,89090,89266,522,377,442,214 M,0,89266,89288,442,214,443.4933,229.679 M,0,89288,89310,443.4933,229.679,444.9865,245.3581 M,0,89310,89332,444.9865,245.3581,446.4797,261.0372 M,0,89332,89354,446.4797,261.0372,447.973,276.7162 M,0,89354,89443,447.973,276.7162,430,216 M,0,89443,89465,430,216,431.2661,231.699 M,0,89465,89487,431.2661,231.699,432.5321,247.3981 M,0,89487,89509,432.5321,247.3981,433.7982,263.0971 M,0,89509,89531,433.7982,263.0971,435,278 M,0,89531,89619,435,278,322,161 M,0,89619,89641,322,161,323.744,140.0725 M,0,89641,89663,323.744,140.0725,325.4879,119.1451 M,0,89663,89685,325.4879,119.1451,327.2319,98.21761 M,0,89685,89707,327.2319,98.21761,328.9758,77.29015 M,0,89707,89795,328.9758,77.29015,236,334 M,0,89795,89817,236,334,210.6684,340.4601 M,0,89817,89839,210.6684,340.4601,184.5624,339.8416 M,0,89839,89861,184.5624,339.8416,159.6126,332.2028 M,0,89861,89883,159.6126,332.2028,137.4526,318.3588 M,0,89883,89972,137.4526,318.3588,140,309 M,0,89972,89994,140,309,162.089,322.98 M,0,89994,90016,162.089,322.98,187.1171,330.4251 M,0,90016,90038,187.1171,330.4251,213.206,330.7898 M,0,90038,90060,213.206,330.7898,238.4009,324.0548 M,0,90060,90082,238.4009,324.0548,260.9639,310.9266 M,0,90082,90104,260.9639,310.9266,278.832,291.872 M,0,90104,90126,278.832,291.872,290.8402,268.7007 M,0,90126,90148,290.8402,268.7007,296.0976,243.1532 M,0,90148,90170,296.0976,243.1532,294.516,217.084 M,0,90170,90192,294.516,217.084,285.4722,192.566 M,0,90192,90214,285.4722,192.566,270.1235,171.449 M,0,90214,90236,270.1235,171.449,249.7555,155.0814 M,0,90236,90325,249.7555,155.0814,64,56 M,0,90325,90347,64,56,57.04509,70.07776 M,0,90347,90369,57.04509,70.07776,52.21078,84.98123 M,0,90369,90391,52.21078,84.98123,49.9484,100.4882 M,0,90391,90413,49.9484,100.4882,50.32344,116.1596 M,0,90413,90435,50.32344,116.1596,53.32727,131.5515 M,0,90435,90457,53.32727,131.5515,58.8773,146.2274 M,0,90457,90479,58.8773,146.2274,66.81918,159.7704 M,0,90479,90501,66.81918,159.7704,76,171 M,0,90501,90590,76,171,262,271 M,0,90590,90612,262,271,268.9905,256.9415 M,0,90612,90634,268.9905,256.9415,273.8661,242.0534 M,0,90634,90656,273.8661,242.0534,276.1648,226.5518 M,0,90656,90678,276.1648,226.5518,275.819,210.877 M,0,90678,90700,275.819,210.877,272.8355,195.4748 M,0,90700,90722,272.8355,195.4748,267.2952,180.7839 M,0,90722,90744,267.2952,180.7839,259.351,167.2238 M,0,90744,90766,259.351,167.2238,249.197,155.2123 M,0,90766,90854,249.197,155.2123,64,288 M,0,90854,90876,64,288,84.65355,285.0448 M,0,90876,90898,84.65355,285.0448,105.4005,287.4167 M,0,90898,90920,105.4005,287.4167,124.3167,296.2072 M,0,90920,90942,124.3167,296.2072,140,309 M,0,90942,91031,140,309,226,410 M,0,91031,91207,226,410,358,233 M,0,91207,91229,358,233,332.4388,227.7537 M,0,91229,91251,332.4388,227.7537,306.6032,231.1124 M,0,91251,91273,306.6032,231.1124,283.2972,242.6896 M,0,91273,91295,283.2972,242.6896,264.75,261.0117 M,0,91295,91384,264.75,261.0117,262,271 M,0,91384,91406,262,271,262.2529,273.6128 M,0,91406,91428,262.2529,273.6128,262.5057,276.2256 M,0,91428,91450,262.5057,276.2256,262.7585,278.8384 M,0,91450,91472,262.7585,278.8384,263.0114,281.4512 M,0,91472,91494,263.0114,281.4512,263.2643,284.064 M,0,91494,91516,263.2643,284.064,263.5171,286.6768 M,0,91516,91538,263.5171,286.6768,263.77,289.2896 M,0,91538,91560,263.77,289.2896,264.0228,291.9023 M,0,91560,91582,264.0228,291.9023,264.2757,294.5151 M,0,91582,91604,264.2757,294.5151,264.5285,297.1279 M,0,91604,91626,264.5285,297.1279,264.7814,299.7407 M,0,91626,91648,264.7814,299.7407,265,302 M,0,91648,91972,265,302,354,432 M,0,91972,91994,354,432,343.6635,433.8458 M,0,91994,92016,343.6635,433.8458,333.327,435.6916 M,0,92016,92038,333.327,435.6916,326.436,436.9221 M,0,92030,92090,326.436,436.9221,370,430 M,0,92090,92112,370,430,363.0752,415.9438 M,0,92112,92134,363.0752,415.9438,358.5595,400.9817 M,0,92134,92156,358.5595,400.9817,357.0846,385.3795 M,0,92156,92178,357.0846,385.3795,358.8641,369.7671 M,0,92178,92266,358.8641,369.7671,382,428 M,0,92266,92288,382,428,375.0752,413.9438 M,0,92288,92310,375.0752,413.9438,370.5595,398.9817 M,0,92310,92332,370.5595,398.9817,369.0846,383.3795 M,0,92332,92354,369.0846,383.3795,370.8641,367.7671 M,0,92354,92443,370.8641,367.7671,502,264 M,0,92443,92465,502,264,509.0594,283.6857 M,0,92465,92487,509.0594,283.6857,512.0035,304.408 M,0,92487,92509,512.0035,304.408,509.563,325.178 M,0,92509,92531,509.563,325.178,503,345 M,0,92531,92619,503,345,489,123 M,0,92619,92641,489,123,462.923,126.0089 M,0,92641,92663,462.923,126.0089,436.846,129.0178 M,0,92663,92685,436.846,129.0178,410.769,132.0266 M,0,92685,92707,410.769,132.0266,385,135 M,0,92707,92795,385,135,176,159 M,0,92795,92817,176,159,184.6923,157.997 M,0,92817,92839,184.6923,157.997,193.3847,156.9941 M,0,92839,92861,193.3847,156.9941,202.077,155.9911 M,0,92861,92883,202.077,155.9911,210.7693,154.9882 M,0,92883,92905,210.7693,154.9882,219.4616,153.9852 M,0,92905,92927,219.4616,153.9852,228.154,152.9822 M,0,92927,92949,228.154,152.9822,236.8463,151.9793 M,0,92949,92971,236.8463,151.9793,245.5386,150.9763 M,0,92971,92993,245.5386,150.9763,254.231,149.9734 M,0,92993,93015,254.231,149.9734,262.9233,148.9704 M,0,93015,93037,262.9233,148.9704,271.6156,147.9674 M,0,93037,93059,271.6156,147.9674,280,147 M,0,93059,93081,280,147 M,0,93059,93148,280,147,142,73 M,0,93148,93170,142,73,163.3498,57.97801 M,0,93170,93192,163.3498,57.97801,188.2726,50.34507 M,0,93192,93214,188.2726,50.34507,214.3066,50.83501 M,0,93214,93236,214.3066,50.83501,238.8858,59.3877 M,0,93236,93258,238.8858,59.3877,259.7375,74.99524 M,0,93258,93280,259.7375,74.99524,274.3853,96.55913 M,0,93280,93302,274.3853,96.55913,281.5986,121.5806 M,0,93302,93324,281.5986,121.5806,281.0502,147.6639 M,0,93324,93413,281.0502,147.6639,147,233 M,0,93413,93435,147,233,144.3813,217.5328 M,0,93435,93457,144.3813,217.5328,144.2903,201.889 M,0,93457,93479,144.2903,201.889,147.1486,186.5004 M,0,93479,93501,147.1486,186.5004,152.8585,171.9149 M,0,93501,93523,152.8585,171.9149,161.2219,158.6533 M,0,93523,93545,161.2219,158.6533,171.9473,147.1909 M,0,93545,93567,171.9473,147.1909,184.6593,137.9418 M,0,93567,93589,184.6593,137.9418,198.9598,131.4078 M,0,93589,93678,198.9598,131.4078,340,204 M,0,93678,93700,340,204,323.2285,216.4672 M,0,93700,93722,323.2285,216.4672,303.998,224.558 M,0,93722,93744,303.998,224.558,283.4168,227.867 M,0,93744,93766,283.4168,227.867,262.5731,226.1037 M,0,93766,93854,262.5731,226.1037,66,203 M,0,93854,94031,66,203,185,407 M,0,94031,94053,185,407,189.7176,381.1774 M,0,94053,94075,189.7176,381.1774,194.4352,355.3548 M,0,94075,94097,194.4352,355.3548,199.1528,329.5322 M,0,94097,94119,199.1528,329.5322,203.8704,303.7096 M,0,94119,94207,203.8704,303.7096,211,299 M,0,94207,94229,211,299,213.5605,299.5782 M,0,94229,94251,213.5605,299.5782,216.1211,300.1564 M,0,94251,94273,216.1211,300.1564,218.6816,300.7346 M,0,94273,94295,218.6816,300.7346,221.2421,301.3127 M,0,94295,94317,221.2421,301.3127,223.8027,301.8909 M,0,94317,94339,223.8027,301.8909,226.3632,302.4691 M,0,94339,94361,226.3632,302.4691,228.9237,303.0473 M,0,94361,94383,228.9237,303.0473,231.4843,303.6255 M,0,94383,94405,231.4843,303.6255,234.0448,304.2037 M,0,94405,94427,234.0448,304.2037,236.6053,304.7819 M,0,94427,94449,236.6053,304.7819,239.1659,305.36 M,0,94449,94471,239.1659,305.36,241.7264,305.9382 M,0,94471,94737,241.7264,305.9382,441,385 M,0,94737,94759,441,385,439.8464,398.0742 M,0,94759,94781,439.8464,398.0742,438.6928,411.1484 M,0,94781,94803,438.6928,411.1484,438.3083,415.5065 M,0,94803,94825,438.3083,415.5065,439.4619,402.4323 M,0,94825,94847,439.4619,402.4323,440.6155,389.3581 M,0,94847,94869,440.6155,389.3581,441,385 M,0,94854,94913,441,385,443,369 M,0,94913,94935,443,369,427.2579,368.5002 M,0,94935,94957,427.2579,368.5002,411.5159,368.0005 M,0,94957,94979,411.5159,368.0005,395.7738,367.5008 M,0,94979,95001,395.7738,367.5008,380.0317,367.001 M,0,95001,95090,380.0317,367.001,444,356 M,0,95090,95112,444,356,428.2579,355.5002 M,0,95112,95134,428.2579,355.5002,412.5159,355.0005 M,0,95134,95156,412.5159,355.0005,396.7738,354.5008 M,0,95156,95178,396.7738,354.5008,381.0317,354.001 M,0,95178,95266,381.0317,354.001,262,226 M,0,95266,95288,262,226,282.9863,225.2415 M,0,95288,95310,282.9863,225.2415,303.9726,224.4829 M,0,95310,95332,303.9726,224.4829,324.9589,223.7244 M,0,95332,95354,324.9589,223.7244,345,223 M,0,95354,95443,345,223,538,111 M,0,95443,95465,538,111,544.6885,136.3082 M,0,95465,95487,544.6885,136.3082,544.8972,162.4787 M,0,95487,95509,544.8972,162.4787,538.6155,187.8792 M,0,95509,95531,538.6155,187.8792,527,210 M,0,95531,95619,527,210,535,210 M,0,95619,95641,535,210,547.1439,186.8369 M,0,95641,95663,547.1439,186.8369,552.9591,161.3651 M,0,95663,95685,552.9591,161.3651,552.0714,135.2711 M,0,95685,95707,552.0714,135.2711,544.5461,110.2803 M,0,95707,95729,544.5461,110.2803,531.0462,87.92319 M,0,95729,95751,531.0462,87.92319,512.0253,70.00433 M,0,95751,95773,512.0253,70.00433,489.0737,57.55153 M,0,95773,95795,489.0737,57.55153,463.7128,51.38175 M,0,95795,95817,463.7128,51.38175,437.5918,51.66618 M,0,95817,95839,437.5918,51.66618,412.5024,58.99232 M,0,95839,95861,412.5024,58.99232,390.1371,72.47643 M,0,95861,95883,390.1371,72.47643,371.7467,91.05669 M,0,95883,95972,371.7467,91.05669,262,226 M,0,95972,95994,262,226,248.3403,233.7491 M,0,95994,96016,248.3403,233.7491,233.7738,239.5342 M,0,96016,96038,233.7738,239.5342,218.4618,242.9047 M,0,96038,96060,218.4618,242.9047,202.7992,243.7712 M,0,96060,96082,202.7992,243.7712,187.1903,242.1082 M,0,96082,96104,187.1903,242.1082,172.039,237.9544 M,0,96104,96126,172.039,237.9544,157.7379,231.4125 M,0,96126,96148,157.7379,231.4125,144.7387,222.5549 M,0,96148,96237,144.7387,222.5549,152,102 M,0,96237,96259,152,102,165.4605,93.91548 M,0,96259,96281,165.4605,93.91548,179.9055,87.84656 M,0,96281,96303,179.9055,87.84656,195.1637,84.26427 M,0,96303,96325,195.1637,84.26427,210.8128,83.27009 M,0,96325,96347,210.8128,83.27009,226.419,84.89467 M,0,96347,96369,226.419,84.89467,241.5493,89.09697 M,0,96369,96391,241.5493,89.09697,255.7827,95.76515 M,0,96391,96413,255.7827,95.76515,268.6863,104.7591 M,0,96413,96501,268.6863,104.7591,378,176 M,0,96501,96523,378,176,398.8118,178.0529 M,0,96523,96545,398.8118,178.0529,419.5356,175.4731 M,0,96545,96567,419.5356,175.4731,439.1717,168.4122 M,0,96567,96589,439.1717,168.4122,456.8107,157.1449 M,0,96589,96678,456.8107,157.1449,575,61 M,0,96678,96854,575,61,537,261 M,0,96854,96876,537,261,535.2784,287.0873 M,0,96876,96898,535.2784,287.0873,540.5066,312.673 M,0,96898,96920,540.5066,312.673,552.3034,335.9503 M,0,96920,96942,552.3034,335.9503,569,355 M,0,96942,97031,569,355,576,361 M,0,97031,97053,576,361,575.582,363.5915 M,0,97053,97075,575.582,363.5915,575.1641,366.183 M,0,97075,97097,575.1641,366.183,574.746,368.7745 M,0,97097,97119,574.746,368.7745,574.3281,371.366 M,0,97119,97141,574.3281,371.366,573.91,373.9576 M,0,97141,97163,573.91,373.9576,573.4921,376.549 M,0,97163,97185,573.4921,376.549,573.0741,379.1406 M,0,97185,97207,573.0741,379.1406,572.6561,381.7321 M,0,97207,97229,572.6561,381.7321,572.2382,384.3236 M,0,97229,97251,572.2382,384.3236,571.8202,386.9151 M,0,97251,97273,571.8202,386.9151,571.4022,389.5066 M,0,97273,97295,571.4022,389.5066,571,392 M,0,97295,97560,571,392 M,0,97560,97737,571,392,447,280 M,0,97737,97759,447,280,431.9759,275.5095 M,0,97759,97781,431.9759,275.5095,416.4778,273.371 M,0,97781,97803,416.4778,273.371,400.8155,274.1195 M,0,97803,97825,400.8155,274.1195,385.5422,277.8351 M,0,97825,97913,385.5422,277.8351,324,276 M,0,97913,97935,324,276,339.177,279.9751 M,0,97935,97957,339.177,279.9751,354.74,281.6555 M,0,97957,97979,354.74,281.6555,370.3774,280.5602 M,0,97979,98001,370.3774,280.5602,385,277 M,0,98001,98090,385,277,530,149 M,0,98090,98112,530,149,515.3302,134.0955 M,0,98112,98134,515.3302,134.0955,497.7603,122.8073 M,0,98134,98156,497.7603,122.8073,478.159,115.6487 M,0,98156,98178,478.159,115.6487,457.3948,113.0159 M,0,98178,98266,457.3948,113.0159,286,75 M,0,98266,98288,286,75,289.0089,101.077 M,0,98288,98310,289.0089,101.077,292.0178,127.154 M,0,98310,98332,292.0178,127.154,295.0266,153.231 M,0,98332,98354,295.0266,153.231,298,179 M,0,98354,98443,298,179,289,183 M,0,98443,98465,289,183,285.7746,156.9489 M,0,98465,98487,285.7746,156.9489,282.5493,130.8978 M,0,98487,98509,282.5493,130.8978,279.3239,104.8467 M,0,98509,98531,279.3239,104.8467,276.0985,78.79563 M,0,98531,98553,276.0985,78.79563,255.0351,92.37044 M,0,98553,98575,255.0351,92.37044,231.0272,102.8717 M,0,98575,98597,231.0272,102.8717,205.3592,108.1272 M,0,98597,98619,205.3592,108.1272,179.1504,108.0595 M,0,98619,98641,179.1504,108.0595,153.353,103.3612 M,0,98641,98663,153.353,103.3612,167.9883,121.9131 M,0,98663,98685,167.9883,121.9131,178.0964,146.0223 M,0,98685,98707,178.0964,146.0223,181,171 M,0,98707,98795,181,171,112,267 M,0,98795,98817,112,267,126.4105,260.751 M,0,98817,98839,126.4105,260.751,139.8149,252.6217 M,0,98839,98861,139.8149,252.6217,151.7709,242.476 M,0,98861,98883,151.7709,242.476,161.979,230.5659 M,0,98883,98905,161.979,230.5659,170.1829,217.1874 M,0,98905,98927,170.1829,217.1874,176.1752,202.6728 M,0,98927,98949,176.1752,202.6728,179.8032,187.3834 M,0,98949,98971,179.8032,187.3834,181,172 M,0,98971,99060,181,172,304,365 M,0,99060,99082,304,365,289.4667,359.0525 M,0,99082,99104,289.4667,359.0525,275.9286,351.1591 M,0,99104,99126,275.9286,351.1591,263.8493,341.1659 M,0,99126,99148,263.8493,341.1659,253.5496,329.3348 M,0,99148,99170,253.5496,329.3348,245.3044,315.9759 M,0,99170,99192,245.3044,315.9759,239.3358,301.4398 M,0,99192,99214,239.3358,301.4398,236.1942,286.0564 M,0,99214,99236,236.1942,286.0564,235.004,270.3997 M,0,99236,99325,235.004,270.3997,121,418 M,0,99325,99347,121,418,141.9288,416.9004 M,0,99347,99369,141.9288,416.9004,162.4979,412.8459 M,0,99369,99391,162.4979,412.8459,182.0031,405.1817 M,0,99391,99413,182.0031,405.1817,200,395 M,0,99413,99501,200,395,324,276 M,0,99501,99678,324,276,456,418 M,0,99678,99700,456,418,482.1523,420.2632 M,0,99700,99722,482.1523,420.2632,508.3045,422.5264 M,0,99722,99744,508.3045,422.5264,534.4568,424.7895 M,0,99744,99766,534.4568,424.7895,560,427 M,0,99766,99854,560,427,568,424 M,0,99854,99876,568,424,567.5947,421.4065 M,0,99876,99898,567.5947,421.4065,567.1895,418.8129 M,0,99898,99920,567.1895,418.8129,566.7843,416.2194 M,0,99920,99942,566.7843,416.2194,566.379,413.6259 M,0,99942,99964,566.379,413.6259,565.9738,411.0323 M,0,99964,99986,565.9738,411.0323,565.5686,408.4388 M,0,99986,100008,565.5686,408.4388,565.1633,405.8453 M,0,100008,100030,565.1633,405.8453,564.7581,403.2517 M,0,100030,100052,564.7581,403.2517,564.3528,400.6582 M,0,100052,100074,564.3528,400.6582,563.9476,398.0647 M,0,100074,100096,563.9476,398.0647,563.5424,395.4712 M,0,100096,100118,563.5424,395.4712,563.1371,392.8776 M,0,100118,100384,563.1371,392.8776,563,392 M,0,100384,100560,563,392,281,199 M,0,100560,100582,281,199,296.6537,197.2607 M,0,100582,100604,296.6537,197.2607,312.3073,195.5214 M,0,100604,100626,312.3073,195.5214,327.961,193.7821 M,0,100626,100648,327.961,193.7821,343.6147,192.0428 M,0,100648,100737,343.6147,192.0428,286,216 M,0,100737,100759,286,216,301.6205,213.9845 M,0,100759,100781,301.6205,213.9845,317.241,211.9689 M,0,100781,100803,317.241,211.9689,332.8615,209.9534 M,0,100803,100825,332.8615,209.9534,348,208 M,0,100825,100913,348,208,499,309 M,0,100913,100935,499,309,478.1778,306.2733 M,0,100935,100957,478.1778,306.2733,457.3556,303.5466 M,0,100957,100979,457.3556,303.5466,436.5333,300.8198 M,0,100979,101001,436.5333,300.8198,415.7111,298.0931 M,0,101001,101090,415.7111,298.0931,557,82 M,0,101090,101112,557,82,553.5629,108.024 M,0,101112,101134,553.5629,108.024,550.1257,134.048 M,0,101134,101156,550.1257,134.048,562.444,157.0163 M,0,101156,101178,562.444,157.0163,575.3605,179.8686 M,0,101178,101267,575.3605,179.8686,567,187 M,0,101267,101289,567,187,554.2518,164.0534 M,0,101289,101311,554.2518,164.0534,542.0959,140.9827 M,0,101311,101333,542.0959,140.9827,544.5614,114.8487 M,0,101333,101355,544.5614,114.8487,546.7532,88.85455 M,0,101355,101377,546.7532,88.85455,523.0317,77.71592 M,0,101377,101399,523.0317,77.71592,497.4067,72.39927 M,0,101399,101421,497.4067,72.39927,471.3555,74.65651 M,0,101421,101443,471.3555,74.65651,447.0154,84.27604 M,0,101443,101465,447.0154,84.27604,423.3171,95.45757 M,0,101465,101487,423.3171,95.45757,397.6638,100.629 M,0,101487,101509,397.6638,100.629,371.5941,98.44289 M,0,101509,101531,371.5941,98.44289,346.9829,89.49563 M,0,101531,101619,346.9829,89.49563,213,70 M,0,101619,101641,213,70,218.6375,84.7065 M,0,101641,101663,218.6375,84.7065,224.275,99.413 M,0,101663,101685,224.275,99.413,229.9125,114.1195 M,0,101685,101707,229.9125,114.1195,235.55,128.826 M,0,101707,101729,235.55,128.826,230.092,143.2338 M,0,101729,101751,230.092,143.2338,223.6715,157.6158 M,0,101751,101773,223.6715,157.6158,217.251,171.9977 M,0,101773,101795,217.251,171.9977,211,186 M,0,101795,101884,211,186,304,297 M,0,101884,101906,304,297,298.3625,282.2935 M,0,101906,101928,298.3625,282.2935,292.725,267.587 M,0,101928,101950,292.725,267.587,287.0875,252.8805 M,0,101950,101972,287.0875,252.8805,281.45,238.174 M,0,101972,101994,281.45,238.174,286.624,223.643 M,0,101994,102016,286.624,223.643,292.7359,209.1273 M,0,102016,102038,292.7359,209.1273,298.8478,194.6115 M,0,102038,102060,298.8478,194.6115,304.9597,180.0957 M,0,102060,102148,304.9597,180.0957,212,290 M,0,102148,102170,212,290,219.3183,309.6836 M,0,102170,102192,219.3183,309.6836,226.6365,329.3672 M,0,102192,102214,226.6365,329.3672,233.9548,349.0507 M,0,102214,102236,233.9548,349.0507,241,368 M,0,102236,102325,241,368,381,238 M,0,102325,102501,381,238,135,138 M,0,102501,102523,135,138,124.0824,161.7412 M,0,102523,102545,124.0824,161.7412,120.2672,187.559 M,0,102545,102567,120.2672,187.559,123.8452,213.3893 M,0,102567,102589,123.8452,213.3893,134,237 M,0,102589,102678,134,237,139,245 M,0,102678,102700,139,245,138.4852,247.574 M,0,102700,102722,138.4852,247.574,137.9704,250.1481 M,0,102722,102744,137.9704,250.1481,137.4556,252.7221 M,0,102744,102766,137.4556,252.7221,136.9408,255.2961 M,0,102766,102788,136.9408,255.2961,136.426,257.8701 M,0,102788,102810,136.426,257.8701,135.9112,260.4442 M,0,102810,102832,135.9112,260.4442,135.3964,263.0182 M,0,102832,102854,135.3964,263.0182,134.8816,265.5922 M,0,102854,102876,134.8816,265.5922,134.3668,268.1662 M,0,102876,102898,134.3668,268.1662,133.852,270.7402 M,0,102898,102920,133.852,270.7402,133.3371,273.3143 M,0,102920,102942,133.3371,273.3143,133,275 M,0,102942,103207,133,275 M,0,103207,103384,133,275,249,376 M,0,103384,103472,249,376 M,0,103472,103560,249,376 M,0,103560,103582,249,376,264.3509,372.4768 M,0,103582,103604,264.3509,372.4768,279.7018,368.9537 M,0,103604,103626,279.7018,368.9537,295.0527,365.4305 M,0,103626,103648,295.0527,365.4305,310,362 M,0,103648,103737,310,362,464,328 M,0,103737,103759,464,328,448.5852,331.2321 F,0,103737,104443,1,0 M,0,103759,103781,448.5852,331.2321,433.1704,334.4643 M,0,103781,103803,433.1704,334.4643,417.7556,337.6964 M,0,103803,103825,417.7556,337.6964,402.3408,340.9285 M,0,103825,103913,402.3408,340.9285,341,276 M,0,103913,103935,341,276,356.3509,272.4768 M,0,103935,103957,356.3509,272.4768,371.7018,268.9537 M,0,103957,103979,371.7018,268.9537,387.0527,265.4305 M,0,103979,104001,387.0527,265.4305,402,262 M,0,104001,104090,402,262,525,393 M,0,104090,104112,525,393,519.8617,394.0774 M,0,104112,104134,519.8617,394.0774,514.7235,395.1548 M,0,104134,104156,514.7235,395.1548,509.5852,396.2321 M,0,104156,104178,509.5852,396.2321,504.4469,397.3095 M,0,104178,104200,504.4469,397.3095,499.3087,398.3869 M,0,104200,104222,499.3087,398.3869,494.1704,399.4643 M,0,104222,104244,494.1704,399.4643,489.0322,400.5417 M,0,104244,104266,489.0322,400.5417,483.8939,401.619 M,0,104266,104288,483.8939,401.619,478.7556,402.6964 M,0,104288,104310,478.7556,402.6964,473.6174,403.7738 M,0,104310,104332,473.6174,403.7738,468.4791,404.8512 M,0,104332,104354,468.4791,404.8512,463.3408,405.9285 M,0,104354,104443,463.3408,405.9285,381,424
Sprite,Background,Centre,"sb\pixel.png",0,0 S,0,60325,,15 R,0,60325,,4.117843 C,0,60325,,119,214,244 M,19,60325,60925,507,313,412.5621,376.8551 F,19,60325,63148,1,0
Sprite,Background,Centre,"sb\pixel.png",0,0 S,0,60325,,17 R,0,60325,,7.259436 C,0,60325,,119,214,244 M,19,60325,60925,507,313,601.4379,249.1449 F,19,60325,63148,1,0
Sprite,Background,Centre,"sb\pixel.png",0,0 S,0,60325,,19 R,0,60325,,3.885935 C,0,60325,,119,214,244 M,19,60325,60925,507,313,435.1862,390.9666 F,19,60325,63148,1,0
Sprite,Background,Centre,"sb\pixel.png",0,0 S,0,60325,,17 R,0,60325,,7.027528 C,0,60325,,119,214,244 M,19,60325,60925,507,313,578.8138,235.0334 F,19,60325,63148,1,0
Sprite,Background,Centre,"sb\pixel.png",0,0 S,0,60325,,15 R,0,60325,,5.710316 C,0,60325,,86,191,237 M,19,60325,60925,507,313,441.4125,211.3177 F,19,60325,63148,1,0
Sprite,Background,Centre,"sb\pixel.png",0,0 S,0,60325,,16 R,0,60325,,8.851909 C,0,60325,,86,191,237 M,19,60325,60925,507,313,572.5875,414.6823 F,19,60325,63148,1,0
Sprite,Background,Centre,"sb\pixel.png",0,0 S,0,60325,,16 R,0,60325,,4.386849 C,0,60325,,119,214,244 M,19,60325,60925,507,313,380.0379,355.8559 F,19,60325,63148,1,0
Sprite,Background,Centre,"sb\pixel.png",0,0 S,0,60325,,16 R,0,60325,,7.528442 C,0,60325,,86,191,237 M,19,60325,60925,507,313,633.9621,270.1441 F,19,60325,63148,1,0
Sprite,Background,Centre,"sb\pixel.png",0,0 S,0,60325,,19 R,0,60325,,4.857638 C,0,60325,,86,191,237 M,19,60325,60925,507,313,400.1372,297.3682 F,19,60325,63148,1,0
Sprite,Background,Centre,"sb\pixel.png",0,0 S,0,60325,,18 R,0,60325,,7.99923 C,0,60325,,119,214,244 M,19,60325,60925,507,313,613.8627,328.6318 F,19,60325,63148,1,0
Sprite,Background,Centre,"sb\pixel.png",0,0 S,0,60325,,18 R,0,60325,,5.114221 C,0,60325,,119,214,244 M,19,60325,60925,507,313,399.3195,267.2407 F,19,60325,63148,1,0
Sprite,Background,Centre,"sb\pixel.png",0,0 S,0,60325,,18 R,0,60325,,8.255814 C,0,60325,,119,214,244 M,19,60325,60925,507,313,614.6805,358.7593 F,19,60325,63148,1,0
Sprite,Background,Centre,"sb\pixel.png",0,0 S,0,63148,,19 R,0,63148,,5.745384 C,0,63148,,86,191,237 M,19,63148,63748,87,408,29.11585,310.9514 F,19,63148,65971,1,0
Sprite,Background,Centre,"sb\pixel.png",0,0 S,0,63148,,18 R,0,63148,,8.886976 C,0,63148,,86,191,237 M,19,63148,63748,87,408,144.8842,505.0486 F,19,63148,65971,1,0
Sprite,Background,Centre,"sb\pixel.png",0,0 S,0,63148,,18 R,0,63148,,4.683674 C,0,63148,,86,191,237 M,19,63148,63748,87,408,-48.94394,411.9047 F,19,63148,65971,1,0
Sprite,Background,Centre,"sb\pixel.png",0,0 S,0,63148,,17 R,0,63148,,7.825267 C,0,63148,,119,214,244 M,19,63148,63748,87,408,222.9439,404.0953 F,19,63148,65971,1,0
Sprite,Background,Centre,"sb\pixel.png",0,0 S,0,63148,,16 R,0,63148,,5.87239 C,0,63148,,86,191,237 M,19,63148,63748,87,408,44.67014,310.8188 F,19,63148,65971,1,0
Sprite,Background,Centre,"sb\pixel.png",0,0 S,0,63148,,19 R,0,63148,,9.013983 C,0,63148,,86,191,237 M,19,63148,63748,87,408,129.3299,505.1812 F,19,63148,65971,1,0
Sprite,Background,Centre,"sb\pixel.png",0,0 S,0,63148,,15 R,0,63148,,4.921194 C,0,63148,,86,191,237 M,19,63148,63748,87,408,-12.78449,386.8563 F,19,63148,65971,1,0
Sprite,Background,Centre,"sb\pixel.png",0,0 S,0,63148,,16 R,0,63148,,8.062787 C,0,63148,,86,191,237 M,19,63148,63748,87,408,186.7845,429.1437 F,19,63148,65971,1,0
Sprite,Background,Centre,"sb\pixel.png",0,0 S,0,63148,,16 R,0,63148,,6.025942 C,0,63148,,86,191,237 M,19,63148,63748,87,408,58.25101,298.7183 F,19,63148,65971,1,0
Sprite,Background,Centre,"sb\pixel.png",0,0 S,0,63148,,19 R,0,63148,,9.167534 C,0,63148,,119,214,244 M,19,63148,63748,87,408,115.749,517.2817 F,19,63148,65971,1,0
Sprite,Background,Centre,"sb\pixel.png",0,0 S,0,63148,,16 R,0,63148,,4.241451 C,0,63148,,119,214,244 M,19,63148,63748,87,408,-3.005473,453.8259 F,19,63148,65971,1,0
Sprite,Background,Centre,"sb\pixel.png",0,0 S,0,63148,,16 R,0,63148,,7.383044 C,0,63148,,119,214,244 M,19,63148,63748,87,408,177.0055,362.1741 F,19,63148,65971,1,0
Sprite,Background,Centre,"sb\pixel.png",0,0 C,0,65971,,119,214,244 S,0,65972,,16 R,0,65972,,4.614895 M,19,65972,66572,177,253,56.5746,264.778 F,19,65972,68795,1,0
Sprite,Background,Centre,"sb\pixel.png",0,0 C,0,65971,,86,191,237 S,0,65972,,19 R,0,65972,,7.756488 M,19,65972,66572,177,253,297.4254,241.222 F,19,65972,68795,1,0
Sprite,Background,Centre,"sb\pixel.png",0,0 C,0,65971,,119,214,244 S,0,65972,,15 R,0,65972,,4.836933 M,19,65972,66572,177,253,36.09987,235.3604 F,19,65972,68795,1,0
Sprite,Background,Centre,"sb\pixel.png",0,0 C,0,65971,,119,214,244 S,0,65972,,15 R,0,65972,,7.978526 M,19,65972,66572,177,253,317.9001,270.6396 F,19,65972,68795,1,0
Sprite,Background,Centre,"sb\pixel.png",0,0 C,0,65971,,119,214,244 S,0,65972,,16 R,0,65972,,5.651825 M,19,65972,66572,177,253,106.1708,156.1329 F,19,65972,68795,1,0
Sprite,Background,Centre,"sb\pixel.png",0,0 C,0,65971,,119,214,244 S,0,65972,,15 R,0,65972,,8.793418 M,19,65972,66572,177,253,247.8292,349.8671 F,19,65972,68795,1,0
Sprite,Background,Centre,"sb\pixel.png",0,0 C,0,65971,,86,191,237 S,0,65972,,17 R,0,65972,,3.379849 M,19,65972,66572,177,253,144.9028,385.1581 F,19,65972,68795,1,0
Sprite,Background,Centre,"sb\pixel.png",0,0 C,0,65971,,119,214,244 S,0,65972,,16 R,0,65972,,6.521442 M,19,65972,66572,177,253,209.0972,120.8419 F,19,65972,68795,1,0
Sprite,Background,Centre,"sb\pixel.png",0,0 C,0,65971,,119,214,244 S,0,65972,,18 R,0,65972,,5.673545 M,19,65972,66572,177,253,116.3073,166.0955 F,19,65972,68795,1,0
Sprite,Background,Centre,"sb\pixel.png",0,0 C,0,65971,,119,214,244 S,0,65972,,15 R,0,65972,,8.815138 M,19,65972,66572,177,253,237.6927,339.9045 F,19,65972,68795,1,0
Sprite,Background,Centre,"sb\pixel.png",0,0 C,0,65971,,86,191,237 S,0,65972,,18 R,0,65972,,4.231613 M,19,65972,66572,177,253,60.85062,313.5832 F,19,65972,68795,1,0
Sprite,Background,Centre,"sb\pixel.png",0,0 C,0,65971,,86,191,237 S,0,65972,,17 R,0,65972,,7.373206 M,19,65972,66572,177,253,293.1494,192.4168 F,19,65972,68795,1,0
Sprite,Background,Centre,"sb\pixel.png",0,0 C,0,68794,,119,214,244 S,0,68795,,18 R,0,68795,,5.684906 M,19,68795,69395,469,284,405.9192,191.4537 F,19,68795,71618,1,0
Sprite,Background,Centre,"sb\pixel.png",0,0 C,0,68794,,86,191,237 S,0,68795,,18 R,0,68795,,8.826499 M,19,68795,69395,469,284,532.0807,376.5463 F,19,68795,71618,1,0
Sprite,Background,Centre,"sb\pixel.png",0,0 C,0,68794,,119,214,244 S,0,68795,,19 R,0,68795,,3.637715 M,19,68795,69395,469,284,399.9773,411.5181 F,19,68795,71618,1,0
Sprite,Background,Centre,"sb\pixel.png",0,0 C,0,68794,,86,191,237 S,0,68795,,19 R,0,68795,,6.779307 M,19,68795,69395,469,284,538.0227,156.4819 F,19,68795,71618,1,0
Sprite,Background,Centre,"sb\pixel.png",0,0 C,0,68794,,86,191,237 S,0,68795,,15 R,0,68795,,4.718861 M,19,68795,69395,469,284,363.0022,283.314 F,19,68795,71618,1,0
Sprite,Background,Centre,"sb\pixel.png",0,0 C,0,68794,,119,214,244 S,0,68795,,17 R,0,68795,,7.860454 M,19,68795,69395,469,284,574.9978,284.686 F,19,68795,71618,1,0
Sprite,Background,Centre,"sb\pixel.png",0,0 C,0,68794,,119,214,244 S,0,68795,,18 R,0,68795,,4.854945 M,19,68795,69395,469,284,325.4709,263.3994 F,19,68795,71618,1,0
Sprite,Background,Centre,"sb\pixel.png",0,0 C,0,68794,,86,191,237 S,0,68795,,18 R,0,68795,,7.996537 M,19,68795,69395,469,284,612.5291,304.6006 F,19,68795,71618,1,0
Sprite,Background,Centre,"sb\pixel.png",0,0 C,0,68794,,119,214,244 S,0,68795,,19 R,0,68795,,4.835289 M,19,68795,69395,469,284,332.0409,267.0825 F,19,68795,71618,1,0
Sprite,Background,Centre,"sb\pixel.png",0,0 C,0,68794,,86,191,237 S,0,68795,,17 R,0,68795,,7.976882 M,19,68795,69395,469,284,605.9591,300.9175 F,19,68795,71618,1,0
Sprite,Background,Centre,"sb\pixel.png",0,0 C,0,68794,,86,191,237 S,0,68795,,19 R,0,68795,,3.50777 M,19,68795,69395,469,284,431.7629,381.1051 F,19,68795,71618,1,0
Sprite,Background,Centre,"sb\pixel.png",0,0 C,0,68794,,119,214,244 S,0,68795,,19 R,0,68795,,6.649363 M,19,68795,69395,469,284,506.2371,186.8949 F,19,68795,71618,1,0
Sprite,Background,Centre,"sb\pixel.png",0,0 C,0,71617,,119,214,244 S,0,71619,,15 R,0,71619,,5.84826 M,19,71619,72219,433,185,383.2815,77.98563 F,19,71619,74442,1,0
Sprite,Background,Centre,"sb\pixel.png",0,0 C,0,71617,,119,214,244 S,0,71619,,15 R,0,71619,,8.989852 M,19,71619,72219,433,185,482.7185,292.0144 F,19,71619,74442,1,0
Sprite,Background,Centre,"sb\pixel.png",0,0 C,0,71617,,86,191,237 S,0,71619,,17 R,0,71619,,3.820637 M,19,71619,72219,433,185,341.3048,298.6133 F,19,71619,74442,1,0
Sprite,Background,Centre,"sb\pixel.png",0,0 C,0,71617,,119,214,244 S,0,71619,,16 R,0,71619,,6.962229 M,19,71619,72219,433,185,524.6952,71.38667 F,19,71619,74442,1,0
Sprite,Background,Centre,"sb\pixel.png",0,0 C,0,71617,,119,214,244 S,0,71619,,17 R,0,71619,,4.064777 M,19,71619,72219,433,185,344.4745,251.9645 F,19,71619,74442,1,0
Sprite,Background,Centre,"sb\pixel.png",0,0 C,0,71617,,119,214,244 S,0,71619,,19 R,0,71619,,7.20637 M,19,71619,72219,433,185,521.5255,118.0355 F,19,71619,74442,1,0
Sprite,Background,Centre,"sb\pixel.png",0,0 C,0,71617,,86,191,237 S,0,71619,,18 R,0,71619,,3.52777 M,19,71619,72219,433,185,391.9452,285.9728 F,19,71619,74442,1,0
Sprite,Background,Centre,"sb\pixel.png",0,0 C,0,71617,,119,214,244 S,0,71619,,18 R,0,71619,,6.669363 M,19,71619,72219,433,185,474.0548,84.02723 F,19,71619,74442,1,0
Sprite,Background,Centre,"sb\pixel.png",0,0 C,0,71617,,119,214,244 S,0,71619,,18 R,0,71619,,3.758429 M,19,71619,72219,433,185,369.9481,273.9127 F,19,71619,74442,1,0
Sprite,Background,Centre,"sb\pixel.png",0,0 C,0,71617,,86,191,237 S,0,71619,,17 R,0,71619,,6.900022 M,19,71619,72219,433,185,496.0519,96.08733 F,19,71619,74442,1,0
Sprite,Background,Centre,"sb\pixel.png",0,0 C,0,71617,,86,191,237 S,0,71619,,19 R,0,71619,,4.089674 M,19,71619,72219,433,185,327.4013,260.8216 F,19,71619,74442,1,0
Sprite,Background,Centre,"sb\pixel.png",0,0 C,0,71617,,119,214,244 S,0,71619,,19 R,0,71619,,7.231266 M,19,71619,72219,433,185,538.5987,109.1784 F,19,71619,74442,1,0
Sprite,Background,Centre,"sb\pixel.png",0,0 C,0,74440,,86,191,237 S,0,74443,,16 R,0,74443,,3.977628 M,19,74443,75043,460,256,367.9931,339.1309 F,19,74443,77266,1,0
Sprite,Background,Centre,"sb\pixel.png",0,0 C,0,74440,,119,214,244 S,0,74443,,17 R,0,74443,,7.11922 M,19,74443,75043,460,256,552.0068,172.8692 F,19,74443,77266,1,0
Sprite,Background,Centre,"sb\pixel.png",0,0 C,0,74440,,119,214,244 S,0,74443,,16 R,0,74443,,3.415926 M,19,74443,75043,460,256,431.5549,357.0736 F,19,74443,77266,1,0
Sprite,Background,Centre,"sb\pixel.png",0,0 C,0,74440,,86,191,237 S,0,74443,,17 R,0,74443,,6.557519 M,19,74443,75043,460,256,488.4451,154.9264 F,19,74443,77266,1,0
Sprite,Background,Centre,"sb\pixel.png",0,0 C,0,74440,,86,191,237 S,0,74443,,19 R,0,74443,,3.146563 M,19,74443,75043,460,256,459.3489,386.9984 F,19,74443,77266,1,0
Sprite,Background,Centre,"sb\pixel.png",0,0 C,0,74440,,86,191,237 S,0,74443,,16 R,0,74443,,6.288155 M,19,74443,75043,460,256,460.6511,125.0016 F,19,74443,77266,1,0
Sprite,Background,Centre,"sb\pixel.png",0,0 C,0,74440,,119,214,244 S,0,74443,,16 R,0,74443,,3.896445 M,19,74443,75043,460,256,383.2598,337.5778 F,19,74443,77266,1,0
Sprite,Background,Centre,"sb\pixel.png",0,0 C,0,74440,,86,191,237 S,0,74443,,16 R,0,74443,,7.038037 M,19,74443,75043,460,256,536.7402,174.4222 F,19,74443,77266,1,0
Sprite,Background,Centre,"sb\pixel.png",0,0 C,0,74440,,119,214,244 S,0,74443,,15 R,0,74443,,5.991525 M,19,74443,75043,460,256,424.3447,137.2368 F,19,74443,77266,1,0
Sprite,Background,Centre,"sb\pixel.png",0,0 C,0,74440,,119,214,244 S,0,74443,,18 R,0,74443,,9.133118 M,19,74443,75043,460,256,495.6553,374.7632 F,19,74443,77266,1,0
Sprite,Background,Centre,"sb\pixel.png",0,0 C,0,74440,,86,191,237 S,0,74443,,18 R,0,74443,,4.779942 M,19,74443,75043,460,256,336.2828,247.6299 F,19,74443,77266,1,0
Sprite,Background,Centre,"sb\pixel.png",0,0 C,0,74440,,119,214,244 S,0,74443,,18 R,0,74443,,7.921534 M,19,74443,75043,460,256,583.7172,264.3701 F,19,74443,77266,1,0
Sprite,Background,Centre,"sb\pixel.png",0,0 C,0,77263,,86,191,237 S,0,77266,,15 R,0,77266,,4.157419 M,19,77266,77866,492,178,370.462,253.3493 F,19,77266,80089,1,0
Sprite,Background,Centre,"sb\pixel.png",0,0 C,0,77263,,86,191,237 S,0,77266,,15 R,0,77266,,7.299011 M,19,77266,77866,492,178,613.538,102.6507 F,19,77266,80089,1,0
Sprite,Background,Centre,"sb\pixel.png",0,0 C,0,77263,,119,214,244 S,0,77266,,18 R,0,77266,,4.02633 M,19,77266,77866,492,178,379.0327,270.49 F,19,77266,80089,1,0
Sprite,Background,Centre,"sb\pixel.png",0,0 C,0,77263,,86,191,237 S,0,77266,,15 R,0,77266,,7.167922 M,19,77266,77866,492,178,604.9673,85.51003 F,19,77266,80089,1,0
Sprite,Background,Centre,"sb\pixel.png",0,0 C,0,77263,,86,191,237 S,0,77266,,17 R,0,77266,,4.865514 M,19,77266,77866,492,178,369.4509,159.0867 F,19,77266,80089,1,0
Sprite,Background,Centre,"sb\pixel.png",0,0 C,0,77263,,86,191,237 S,0,77266,,15 R,0,77266,,8.007106 M,19,77266,77866,492,178,614.5491,196.9133 F,19,77266,80089,1,0
Sprite,Background,Centre,"sb\pixel.png",0,0 C,0,77263,,86,191,237 S,0,77266,,16 R,0,77266,,5.064476 M,19,77266,77866,492,178,357.7723,128.6854 F,19,77266,80089,1,0
Sprite,Background,Centre,"sb\pixel.png",0,0 C,0,77263,,119,214,244 S,0,77266,,19 R,0,77266,,8.206068 M,19,77266,77866,492,178,626.2277,227.3146 F,19,77266,80089,1,0
Sprite,Background,Centre,"sb\pixel.png",0,0 C,0,77263,,86,191,237 S,0,77266,,19 R,0,77266,,4.485025 M,19,77266,77866,492,178,394.5736,200.541 F,19,77266,80089,1,0
Sprite,Background,Centre,"sb\pixel.png",0,0 C,0,77263,,86,191,237 S,0,77266,,15 R,0,77266,,7.626617 M,19,77266,77866,492,178,589.4264,155.459 F,19,77266,80089,1,0
Sprite,Background,Centre,"sb\pixel.png",0,0 C,0,77263,,119,214,244 S,0,77266,,16 R,0,77266,,4.637382 M,19,77266,77866,492,178,375.329,186.7676 F,19,77266,80089,1,0
Sprite,Background,Centre,"sb\pixel.png",0,0 C,0,77263,,119,214,244 S,0,77266,,19 R,0,77266,,7.778975 M,19,77266,77866,492,178,608.671,169.2324 F,19,77266,80089,1,0
Sprite,Background,Centre,"sb\pixel.png",0,0 C,0,80086,,86,191,237 S,0,80090,,15 R,0,80090,,4.497903 M,19,80090,80690,464,169,362.3831,191.1359 F,19,80090,82913,1,0
Sprite,Background,Centre,"sb\pixel.png",0,0 C,0,80086,,119,214,244 S,0,80090,,19 R,0,80090,,7.639496 M,19,80090,80690,464,169,565.6169,146.8641 F,19,80090,82913,1,0
Sprite,Background,Centre,"sb\pixel.png",0,0 C,0,80086,,86,191,237 S,0,80090,,15 R,0,80090,,5.381914 M,19,80090,80690,464,169,381.6677,103.8356 F,19,80090,82913,1,0
Sprite,Background,Centre,"sb\pixel.png",0,0 C,0,80086,,86,191,237 S,0,80090,,18 R,0,80090,,8.523506 M,19,80090,80690,464,169,546.3323,234.1644 F,19,80090,82913,1,0
Sprite,Background,Centre,"sb\pixel.png",0,0 C,0,80086,,86,191,237 S,0,80090,,19 R,0,80090,,5.772515 M,19,80090,80690,464,169,414.6351,80.88586 F,19,80090,82913,1,0
Sprite,Background,Centre,"sb\pixel.png",0,0 C,0,80086,,119,214,244 S,0,80090,,16 R,0,80090,,8.914108 M,19,80090,80690,464,169,513.3649,257.1141 F,19,80090,82913,1,0
Sprite,Background,Centre,"sb\pixel.png",0,0 C,0,80086,,86,191,237 S,0,80090,,19 R,0,80090,,3.213962 M,19,80090,80690,464,169,456.7694,268.7383 F,19,80090,82913,1,0
Sprite,Background,Centre,"sb\pixel.png",0,0 C,0,80086,,86,191,237 S,0,80090,,17 R,0,80090,,6.355554 M,19,80090,80690,464,169,471.2306,69.26175 F,19,80090,82913,1,0
Sprite,Background,Centre,"sb\pixel.png",0,0 C,0,80086,,119,214,244 S,0,80090,,16 R,0,80090,,3.457416 M,19,80090,80690,464,169,426.1069,284.966 F,19,80090,82913,1,0
Sprite,Background,Centre,"sb\pixel.png",0,0 C,0,80086,,119,214,244 S,0,80090,,16 R,0,80090,,6.599009 M,19,80090,80690,464,169,501.8931,53.03399 F,19,80090,82913,1,0
Sprite,Background,Centre,"sb\pixel.png",0,0 C,0,80086,,119,214,244 S,0,80090,,19 R,0,80090,,5.501654 M,19,80090,80690,464,169,383.7021,88.07872 F,19,80090,82913,1,0
Sprite,Background,Centre,"sb\pixel.png",0,0 C,0,80086,,119,214,244 S,0,80090,,17 R,0,80090,,8.643247 M,19,80090,80690,464,169,544.2979,249.9213 F,19,80090,82913,1,0
Sprite,Background,Centre,"sb\pixel.png",0,0 C,0,82909,,86,191,237 S,0,82913,,18 R,0,82913,,4.095393 M,19,82913,83513,330,186,228.8631,257.7449 F,19,82913,85736,1,0
Sprite,Background,Centre,"sb\pixel.png",0,0 C,0,82909,,86,191,237 S,0,82913,,16 R,0,82913,,7.236985 M,19,82913,83513,330,186,431.1369,114.2551 F,19,82913,85736,1,0
Sprite,Background,Centre,"sb\pixel.png",0,0 C,0,82909,,119,214,244 S,0,82913,,16 R,0,82913,,3.527652 M,19,82913,83513,330,186,284.8151,297.168 F,19,82913,85736,1,0
Sprite,Background,Centre,"sb\pixel.png",0,0 C,0,82909,,119,214,244 S,0,82913,,18 R,0,82913,,6.669245 M,19,82913,83513,330,186,375.1849,74.83199 F,19,82913,85736,1,0
Sprite,Background,Centre,"sb\pixel.png",0,0 C,0,82909,,119,214,244 S,0,82913,,15 R,0,82913,,4.05304 M,19,82913,83513,330,186,230.4107,263.188 F,19,82913,85736,1,0
Sprite,Background,Centre,"sb\pixel.png",0,0 C,0,82909,,119,214,244 S,0,82913,,17 R,0,82913,,7.194632 M,19,82913,83513,330,186,429.5893,108.8121 F,19,82913,85736,1,0
Sprite,Background,Centre,"sb\pixel.png",0,0 C,0,82909,,119,214,244 S,0,82913,,15 R,0,82913,,4.27375 M,19,82913,83513,330,186,215.023,239.9379 F,19,82913,85736,1,0
Sprite,Background,Centre,"sb\pixel.png",0,0 C,0,82909,,119,214,244 S,0,82913,,18 R,0,82913,,7.415342 M,19,82913,83513,330,186,444.977,132.0621 F,19,82913,85736,1,0
Sprite,Background,Centre,"sb\pixel.png",0,0 C,0,82909,,86,191,237 S,0,82913,,17 R,0,82913,,5.388048 M,19,82913,83513,330,186,236.3646,110.9506 F,19,82913,85736,1,0
Sprite,Background,Centre,"sb\pixel.png",0,0 C,0,82909,,119,214,244 S,0,82913,,16 R,0,82913,,8.529641 M,19,82913,83513,330,186,423.6354,261.0494 F,19,82913,85736,1,0
Sprite,Background,Centre,"sb\pixel.png",0,0 C,0,82909,,86,191,237 S,0,82913,,17 R,0,82913,,5.101453 M,19,82913,83513,330,186,195.8366,130.9983 F,19,82913,85736,1,0
Sprite,Background,Centre,"sb\pixel.png",0,0 C,0,82909,,86,191,237 S,0,82913,,17 R,0,82913,,8.243046 M,19,82913,83513,330,186,464.1634,241.0017 F,19,82913,85736,1,0
Sprite,Background,Centre,"sb\pixel.png",0,0 C,0,85732,,119,214,244 S,0,85737,,16 R,0,85737,,5.051043 M,19,85737,86337,475,321,367.4749,283.1272 F,19,85737,88560,1,0
Sprite,Background,Centre,"sb\pixel.png",0,0 C,0,85732,,86,191,237 S,0,85737,,16 R,0,85737,,8.192636 M,19,85737,86337,475,321,582.5251,358.8728 F,19,85737,88560,1,0
Sprite,Background,Centre,"sb\pixel.png",0,0 C,0,85732,,119,214,244 S,0,85737,,17 R,0,85737,,3.356693 M,19,85737,86337,475,321,445.5445,455.8198 F,19,85737,88560,1,0
Sprite,Background,Centre,"sb\pixel.png",0,0 C,0,85732,,119,214,244 S,0,85737,,18 R,0,85737,,6.498286 M,19,85737,86337,475,321,504.4555,186.1802 F,19,85737,88560,1,0
Sprite,Background,Centre,"sb\pixel.png",0,0 C,0,85732,,119,214,244 S,0,85737,,17 R,0,85737,,3.405401 M,19,85737,86337,475,321,439.7976,451.3295 F,19,85737,88560,1,0
Sprite,Background,Centre,"sb\pixel.png",0,0 C,0,85732,,86,191,237 S,0,85737,,17 R,0,85737,,6.546993 M,19,85737,86337,475,321,510.2024,190.6705 F,19,85737,88560,1,0
Sprite,Background,Centre,"sb\pixel.png",0,0 C,0,85732,,119,214,244 S,0,85737,,15 R,0,85737,,3.526809 M,19,85737,86337,475,321,435.1695,419.232 F,19,85737,88560,1,0
Sprite,Background,Centre,"sb\pixel.png",0,0 C,0,85732,,119,214,244 S,0,85737,,15 R,0,85737,,6.668402 M,19,85737,86337,475,321,514.8306,222.768 F,19,85737,88560,1,0
Sprite,Background,Centre,"sb\pixel.png",0,0 C,0,85732,,119,214,244 S,0,85737,,16 R,0,85737,,4.480358 M,19,85737,86337,475,321,343.6178,352.0439 F,19,85737,88560,1,0
Sprite,Background,Centre,"sb\pixel.png",0,0 C,0,85732,,86,191,237 S,0,85737,,15 R,0,85737,,7.621951 M,19,85737,86337,475,321,606.3822,289.9561 F,19,85737,88560,1,0
Sprite,Background,Centre,"sb\pixel.png",0,0 C,0,85732,,86,191,237 S,0,85737,,18 R,0,85737,,5.391022 M,19,85737,86337,475,321,363.6843,231.2347 F,19,85737,88560,1,0
Sprite,Background,Centre,"sb\pixel.png",0,0 C,0,85732,,119,214,244 S,0,85737,,19 R,0,85737,,8.532615 M,19,85737,86337,475,321,586.3157,410.7653 F,19,85737,88560,1,0
Sprite,Background,Centre,"sb\pixel.png",0,0 C,0,88555,,86,191,237 S,0,88560,,15 R,0,88560,,3.250267 M,19,88560,89160,517,346,505.9371,447.3983 F,19,88560,91383,1,0
Sprite,Background,Centre,"sb\pixel.png",0,0 C,0,88555,,119,214,244 S,0,88560,,16 R,0,88560,,6.391859 M,19,88560,89160,517,346,528.0629,244.6017 F,19,88560,91383,1,0
Sprite,Background,Centre,"sb\pixel.png",0,0 C,0,88555,,119,214,244 S,0,88560,,15 R,0,88560,,3.8595 M,19,88560,89160,517,346,444.6409,428.8503 F,19,88560,91383,1,0
Sprite,Background,Centre,"sb\pixel.png",0,0 C,0,88555,,119,214,244 S,0,88560,,17 R,0,88560,,7.001092 M,19,88560,89160,517,346,589.3591,263.1497 F,19,88560,91383,1,0
Sprite,Background,Centre,"sb\pixel.png",0,0 C,0,88555,,119,214,244 S,0,88560,,17 R,0,88560,,3.754303 M,19,88560,89160,517,346,457.7661,430.2635 F,19,88560,91383,1,0
Sprite,Background,Centre,"sb\pixel.png",0,0 C,0,88555,,119,214,244 S,0,88560,,17 R,0,88560,,6.895895 M,19,88560,89160,517,346,576.2339,261.7365 F,19,88560,91383,1,0
Sprite,Background,Centre,"sb\pixel.png",0,0 C,0,88555,,119,214,244 S,0,88560,,16 R,0,88560,,3.404871 M,19,88560,89160,517,346,484.2088,467.6583 F,19,88560,91383,1,0
Sprite,Background,Centre,"sb\pixel.png",0,0 C,0,88555,,86,191,237 S,0,88560,,15 R,0,88560,,6.546463 M,19,88560,89160,517,346,549.7911,224.3417 F,19,88560,91383,1,0
Sprite,Background,Centre,"sb\pixel.png",0,0 C,0,88555,,119,214,244 S,0,88560,,16 R,0,88560,,3.656673 M,19,88560,89160,517,346,447.0501,469.576 F,19,88560,91383,1,0
Sprite,Background,Centre,"sb\pixel.png",0,0 C,0,88555,,86,191,237 S,0,88560,,15 R,0,88560,,6.798265 M,19,88560,89160,517,346,586.9499,222.424 F,19,88560,91383,1,0
Sprite,Background,Centre,"sb\pixel.png",0,0 C,0,88555,,119,214,244 S,0,88560,,15 R,0,88560,,6.002395 M,19,88560,89160,517,346,484.5775,233.5821 F,19,88560,91383,1,0
Sprite,Background,Centre,"sb\pixel.png",0,0 C,0,88555,,86,191,237 S,0,88560,,17 R,0,88560,,9.143988 M,19,88560,89160,517,346,549.4224,458.4179 F,19,88560,91383,1,0
Sprite,Background,Centre,"sb\pixel.png",0,0 C,0,91378,,119,214,244 S,0,91384,,16 R,0,91384,,5.441654 M,19,91384,91984,262,271,185.1966,202.3689 F,19,91384,94207,1,0
Sprite,Background,Centre,"sb\pixel.png",0,0 C,0,91378,,86,191,237 S,0,91384,,18 R,0,91384,,8.583246 M,19,91384,91984,262,271,338.8034,339.6311 F,19,91384,94207,1,0
Sprite,Background,Centre,"sb\pixel.png",0,0 C,0,91378,,119,214,244 S,0,91384,,18 R,0,91384,,5.584375 M,19,91384,91984,262,271,184.8032,179.127 F,19,91384,94207,1,0
Sprite,Background,Centre,"sb\pixel.png",0,0 C,0,91378,,119,214,244 S,0,91384,,18 R,0,91384,,8.725968 M,19,91384,91984,262,271,339.1968,362.873 F,19,91384,94207,1,0
Sprite,Background,Centre,"sb\pixel.png",0,0 C,0,91378,,86,191,237 S,0,91384,,16 R,0,91384,,5.496618 M,19,91384,91984,262,271,182.7115,191.8967 F,19,91384,94207,1,0
Sprite,Background,Centre,"sb\pixel.png",0,0 C,0,91378,,86,191,237 S,0,91384,,19 R,0,91384,,8.638211 M,19,91384,91984,262,271,341.2885,350.1033 F,19,91384,94207,1,0
Sprite,Background,Centre,"sb\pixel.png",0,0 C,0,91378,,119,214,244 S,0,91384,,18 R,0,91384,,5.221583 M,19,91384,91984,262,271,140.6339,203.2411 F,19,91384,94207,1,0
Sprite,Background,Centre,"sb\pixel.png",0,0 C,0,91378,,86,191,237 S,0,91384,,16 R,0,91384,,8.363176 M,19,91384,91984,262,271,383.3661,338.7589 F,19,91384,94207,1,0
Sprite,Background,Centre,"sb\pixel.png",0,0 C,0,91378,,119,214,244 S,0,91384,,16 R,0,91384,,3.737297 M,19,91384,91984,262,271,181.7639,389.3688 F,19,91384,94207,1,0
Sprite,Background,Centre,"sb\pixel.png",0,0 C,0,91378,,119,214,244 S,0,91384,,19 R,0,91384,,6.87889 M,19,91384,91984,262,271,342.2361,152.6312 F,19,91384,94207,1,0
Sprite,Background,Centre,"sb\pixel.png",0,0 C,0,91378,,86,191,237 S,0,91384,,19 R,0,91384,,3.927076 M,19,91384,91984,262,271,188.4546,344.5329 F,19,91384,94207,1,0
Sprite,Background,Centre,"sb\pixel.png",0,0 C,0,91378,,86,191,237 S,0,91384,,16 R,0,91384,,7.068668 M,19,91384,91984,262,271,335.5453,197.4671 F,19,91384,94207,1,0
Sprite,Background,Centre,"sb\pixel.png",0,0 C,0,94201,,86,191,237 S,0,94207,,17 R,0,94207,,4.765654 M,19,94207,94807,211,299,68.20281,291.3867 F,19,94207,97030,1,0
Sprite,Background,Centre,"sb\pixel.png",0,0 C,0,94201,,119,214,244 S,0,94207,,17 R,0,94207,,7.907247 M,19,94207,94807,211,299,353.7972,306.6133 F,19,94207,97030,1,0
Sprite,Background,Centre,"sb\pixel.png",0,0 C,0,94201,,86,191,237 S,0,94207,,17 R,0,94207,,5.179014 M,19,94207,94807,211,299,97.57738,241.8659 F,19,94207,97030,1,0
Sprite,Background,Centre,"sb\pixel.png",0,0 C,0,94201,,86,191,237 S,0,94207,,17 R,0,94207,,8.320607 M,19,94207,94807,211,299,324.4226,356.1341 F,19,94207,97030,1,0
Sprite,Background,Centre,"sb\pixel.png",0,0 C,0,94201,,86,191,237 S,0,94207,,16 R,0,94207,,4.974948 M,19,94207,94807,211,299,88.35242,266.0368 F,19,94207,97030,1,0
Sprite,Background,Centre,"sb\pixel.png",0,0 C,0,94201,,119,214,244 S,0,94207,,18 R,0,94207,,8.11654 M,19,94207,94807,211,299,333.6476,331.9632 F,19,94207,97030,1,0
Sprite,Background,Centre,"sb\pixel.png",0,0 C,0,94201,,119,214,244 S,0,94207,,18 R,0,94207,,4.285456 M,19,94207,94807,211,299,119.976,340.4081 F,19,94207,97030,1,0
Sprite,Background,Centre,"sb\pixel.png",0,0 C,0,94201,,119,214,244 S,0,94207,,19 R,0,94207,,7.427048 M,19,94207,94807,211,299,302.024,257.5919 F,19,94207,97030,1,0
Sprite,Background,Centre,"sb\pixel.png",0,0 C,0,94201,,119,214,244 S,0,94207,,17 R,0,94207,,4.293542 M,19,94207,94807,211,299,95.8916,350.2451 F,19,94207,97030,1,0
Sprite,Background,Centre,"sb\pixel.png",0,0 C,0,94201,,119,214,244 S,0,94207,,19 R,0,94207,,7.435135 M,19,94207,94807,211,299,326.1084,247.7549 F,19,94207,97030,1,0
Sprite,Background,Centre,"sb\pixel.png",0,0 C,0,94201,,119,214,244 S,0,94207,,16 R,0,94207,,3.388066 M,19,94207,94807,211,299,175.3782,440.5877 F,19,94207,97030,1,0
Sprite,Background,Centre,"sb\pixel.png",0,0 C,0,94201,,86,191,237 S,0,94207,,18 R,0,94207,,6.529658 M,19,94207,94807,211,299,246.6218,157.4123 F,19,94207,97030,1,0
Sprite,Background,Centre,"sb\pixel.png",0,0 C,0,97024,,119,214,244 S,0,97031,,18 R,0,97031,,3.838402 M,19,97031,97631,576,361,506.0466,444.5914 F,19,97031,99854,1,0
Sprite,Background,Centre,"sb\pixel.png",0,0 C,0,97024,,119,214,244 S,0,97031,,16 R,0,97031,,6.979995 M,19,97031,97631,576,361,645.9534,277.4086 F,19,97031,99854,1,0
Sprite,Background,Centre,"sb\pixel.png",0,0 C,0,97024,,119,214,244 S,0,97031,,19 R,0,97031,,4.467038 M,19,97031,97631,576,361,442.1328,394.5197 F,19,97031,99854,1,0
Sprite,Background,Centre,"sb\pixel.png",0,0 C,0,97024,,86,191,237 S,0,97031,,17 R,0,97031,,7.608631 M,19,97031,97631,576,361,709.8672,327.4803 F,19,97031,99854,1,0
Sprite,Background,Centre,"sb\pixel.png",0,0 C,0,97024,,86,191,237 S,0,97031,,19 R,0,97031,,4.007555 M,19,97031,97631,576,361,467.8358,453.0028 F,19,97031,99854,1,0
Sprite,Background,Centre,"sb\pixel.png",0,0 C,0,97024,,119,214,244 S,0,97031,,18 R,0,97031,,7.149148 M,19,97031,97631,576,361,684.1642,268.9972 F,19,97031,99854,1,0
Sprite,Background,Centre,"sb\pixel.png",0,0 C,0,97024,,86,191,237 S,0,97031,,18 R,0,97031,,3.27059 M,19,97031,97631,576,361,558.2477,497.8534 F,19,97031,99854,1,0
Sprite,Background,Centre,"sb\pixel.png",0,0 C,0,97024,,119,214,244 S,0,97031,,19 R,0,97031,,6.412183 M,19,97031,97631,576,361,593.7523,224.1466 F,19,97031,99854,1,0
Sprite,Background,Centre,"sb\pixel.png",0,0 C,0,97024,,119,214,244 S,0,97031,,19 R,0,97031,,3.606901 M,19,97031,97631,576,361,526.1945,460.1989 F,19,97031,99854,1,0
Sprite,Background,Centre,"sb\pixel.png",0,0 C,0,97024,,119,214,244 S,0,97031,,18 R,0,97031,,6.748493 M,19,97031,97631,576,361,625.8055,261.8011 F,19,97031,99854,1,0
Sprite,Background,Centre,"sb\pixel.png",0,0 C,0,97024,,86,191,237 S,0,97031,,19 R,0,97031,,3.279113 M,19,97031,97631,576,361,560.6462,471.9426 F,19,97031,99854,1,0
Sprite,Background,Centre,"sb\pixel.png",0,0 C,0,97024,,119,214,244 S,0,97031,,16 R,0,97031,,6.420706 M,19,97031,97631,576,361,591.3538,250.0574 F,19,97031,99854,1,0
Sprite,Background,Centre,"sb\pixel.png",0,0 C,0,99847,,86,191,237 S,0,99854,,19 R,0,99854,,4.455695 M,19,99854,100454,568,424,439.3578,457.7666 F,19,99854,102677,1,0
Sprite,Background,Centre,"sb\pixel.png",0,0 C,0,99847,,119,214,244 S,0,99854,,16 R,0,99854,,7.597288 M,19,99854,100454,568,424,696.6422,390.2334 F,19,99854,102677,1,0
Sprite,Background,Centre,"sb\pixel.png",0,0 C,0,99847,,86,191,237 S,0,99854,,18 R,0,99854,,5.34972 M,19,99854,100454,568,424,469.1465,350.8086 F,19,99854,102677,1,0
Sprite,Background,Centre,"sb\pixel.png",0,0 C,0,99847,,119,214,244 S,0,99854,,17 R,0,99854,,8.491312 M,19,99854,100454,568,424,666.8535,497.1914 F,19,99854,102677,1,0
Sprite,Background,Centre,"sb\pixel.png",0,0 C,0,99847,,119,214,244 S,0,99854,,18 R,0,99854,,4.086537 M,19,99854,100454,568,424,477.228,489.6083 F,19,99854,102677,1,0
Sprite,Background,Centre,"sb\pixel.png",0,0 C,0,99847,,119,214,244 S,0,99854,,15 R,0,99854,,7.228129 M,19,99854,100454,568,424,658.772,358.3917 F,19,99854,102677,1,0
Sprite,Background,Centre,"sb\pixel.png",0,0 C,0,99847,,119,214,244 S,0,99854,,16 R,0,99854,,6.160815 M,19,99854,100454,568,424,552.6198,298.9422 F,19,99854,102677,1,0
Sprite,Background,Centre,"sb\pixel.png",0,0 C,0,99847,,86,191,237 S,0,99854,,19 R,0,99854,,9.302407 M,19,99854,100454,568,424,583.3802,549.0578 F,19,99854,102677,1,0
Sprite,Background,Centre,"sb\pixel.png",0,0 C,0,99847,,119,214,244 S,0,99854,,18 R,0,99854,,3.517027 M,19,99854,100454,568,424,521.7988,541.2239 F,19,99854,102677,1,0
Sprite,Background,Centre,"sb\pixel.png",0,0 C,0,99847,,86,191,237 S,0,99854,,17 R,0,99854,,6.658619 M,19,99854,100454,568,424,614.2012,306.7761 F,19,99854,102677,1,0
Sprite,Background,Centre,"sb\pixel.png",0,0 C,0,99847,,86,191,237 S,0,99854,,16 R,0,99854,,5.728667 M,19,99854,100454,568,424,505.869,323.6818 F,19,99854,102677,1,0
Sprite,Background,Centre,"sb\pixel.png",0,0 C,0,99847,,119,214,244 S,0,99854,,18 R,0,99854,,8.87026 M,19,99854,100454,568,424,630.131,524.3182 F,19,99854,102677,1,0
Sprite,Background,Centre,"sb\pixel.png",0,0 C,0,102670,,119,214,244 S,0,102678,,17 R,0,102678,,5.721318 M,19,102678,103278,139,245,81.46111,153.6037 F,19,102678,105501,1,0
Sprite,Background,Centre,"sb\pixel.png",0,0 C,0,102670,,86,191,237 S,0,102678,,18 R,0,102678,,8.86291 M,19,102678,103278,139,245,196.5389,336.3963 F,19,102678,105501,1,0
Sprite,Background,Centre,"sb\pixel.png",0,0 C,0,102670,,119,214,244 S,0,102678,,18 R,0,102678,,3.453322 M,19,102678,103278,139,245,102.8088,357.313 F,19,102678,105501,1,0
Sprite,Background,Centre,"sb\pixel.png",0,0 C,0,102670,,86,191,237 S,0,102678,,15 R,0,102678,,6.594914 M,19,102678,103278,139,245,175.1912,132.687 F,19,102678,105501,1,0
Sprite,Background,Centre,"sb\pixel.png",0,0 C,0,102670,,86,191,237 S,0,102678,,18 R,0,102678,,3.764538 M,19,102678,103278,139,245,72.48905,337.5867 F,19,102678,105501,1,0
Sprite,Background,Centre,"sb\pixel.png",0,0 C,0,102670,,86,191,237 S,0,102678,,18 R,0,102678,,6.90613 M,19,102678,103278,139,245,205.511,152.4133 F,19,102678,105501,1,0
Sprite,Background,Centre,"sb\pixel.png",0,0 C,0,102670,,119,214,244 S,0,102678,,15 R,0,102678,,3.779279 M,19,102678,103278,139,245,78.27555,326.9545 F,19,102678,105501,1,0
Sprite,Background,Centre,"sb\pixel.png",0,0 C,0,102670,,86,191,237 S,0,102678,,19 R,0,102678,,6.920871 M,19,102678,103278,139,245,199.7244,163.0455 F,19,102678,105501,1,0
Sprite,Background,Centre,"sb\pixel.png",0,0 C,0,102670,,86,191,237 S,0,102678,,17 R,0,102678,,5.820742 M,19,102678,103278,139,245,92.1557,151.0287 F,19,102678,105501,1,0
Sprite,Background,Centre,"sb\pixel.png",0,0 C,0,102670,,86,191,237 S,0,102678,,18 R,0,102678,,8.962335 M,19,102678,103278,139,245,185.8443,338.9713 F,19,102678,105501,1,0
Sprite,Background,Centre,"sb\pixel.png",0,0 C,0,102670,,86,191,237 S,0,102678,,18 R,0,102678,,5.733544 M,19,102678,103278,139,245,62.73231,120.5041 F,19,102678,105501,1,0
Sprite,Background,Centre,"sb\pixel.png",0,0 C,0,102670,,86,191,237 S,0,102678,,15 R,0,102678,,8.875136 M,19,102678,103278,139,245,215.2677,369.4959 F,19,102678,105501,1,0
Sprite,Background,Centre,"sb\pixel.png",0,0 L,107266,4 R,0,0,1200,0,6.283185 V,0,0,1200,4,4,4,-4 C,0,107266,,119,214,244 M,0,107266,109266,431,520,431,-40 F,0,107266,109266,1 F,0,107266,114325,0.8
Sprite,Background,Centre,"sb\pixel.png",0,0 L,107310,4 R,0,0,1200,0,6.283185 V,0,0,1200,4,4,4,-4 F,0,107266,114325,0.8 C,0,107310,,119,214,244 M,0,107310,109310,342,520,342,-40 F,0,107310,109310,1
Sprite,Background,Centre,"sb\pixel.png",0,0 L,107354,4 R,0,0,1200,0,6.283185 V,0,0,1200,4,4,4,-4 F,0,107266,114325,0.8 C,0,107354,,119,214,244 M,0,107354,109354,118,520,118,-40 F,0,107354,109354,1
Sprite,Background,Centre,"sb\pixel.png",0,0 L,107398,4 R,0,0,1200,0,6.283185 V,0,0,1200,4,4,4,-4 F,0,107266,114325,0.8 C,0,107398,,119,214,244 M,0,107398,109398,566,520,566,-40 F,0,107398,109398,1
Sprite,Background,Centre,"sb\pixel.png",0,0 L,107442,4 R,0,0,1200,0,6.283185 V,0,0,1200,4,4,4,-4 F,0,107266,114325,0.8 C,0,107442,,119,214,244 M,0,107442,109442,677,520,677,-40 F,0,107442,109442,1
Sprite,Background,Centre,"sb\pixel.png",0,0 L,107486,4 R,0,0,1200,0,6.283185 V,0,0,1200,4,4,4,-4 F,0,107266,114325,0.8 C,0,107486,,86,191,237 M,0,107486,109486,236,520,236,-40 F,0,107486,109486,1
Sprite,Background,Centre,"sb\pixel.png",0,0 L,107530,4 R,0,0,1200,0,6.283185 V,0,0,1200,4,4,4,-4 F,0,107266,114325,0.8 C,0,107530,,119,214,244 M,0,107530,109530,288,520,288,-40 F,0,107530,109530,1
Sprite,Background,Centre,"sb\pixel.png",0,0 L,107574,4 R,0,0,1200,0,6.283185 V,0,0,1200,4,4,4,-4 F,0,107266,114325,0.8 C,0,107574,,119,214,244 M,0,107574,109574,255,520,255,-40 F,0,107574,109574,1
Sprite,Background,Centre,"sb\pixel.png",0,0 L,107618,4 R,0,0,1200,0,6.283185 V,0,0,1200,4,4,4,-4 F,0,107266,114325,0.8 C,0,107618,,119,214,244 M,0,107618,109618,31,520,31,-40 F,0,107618,109618,1
Sprite,Background,Centre,"sb\pixel.png",0,0 L,107663,4 R,0,0,1200,0,6.283185 V,0,0,1200,4,4,4,-4 F,0,107266,114325,0.8 C,0,107663,,86,191,237 M,0,107663,109663,442,520,442,-40 F,0,107663,109663,1
Sprite,Background,Centre,"sb\pixel.png",0,0 L,107707,4 R,0,0,1200,0,6.283185 V,0,0,1200,4,4,4,-4 F,0,107266,114325,0.8 C,0,107707,,86,191,237 M,0,107707,109707,264,520,264,-40 F,0,107707,109707,1
Sprite,Background,Centre,"sb\pixel.png",0,0 L,107751,4 R,0,0,1200,0,6.283185 V,0,0,1200,4,4,4,-4 F,0,107266,114325,0.8 C,0,107751,,86,191,237 M,0,107751,109751,497,520,497,-40 F,0,107751,109751,1
Sprite,Background,Centre,"sb\pixel.png",0,0 L,107795,4 R,0,0,1200,0,6.283185 V,0,0,1200,4,4,4,-4 F,0,107266,114325,0.8 C,0,107795,,86,191,237 M,0,107795,109795,-102,520,-102,-40 F,0,107795,109795,1
Sprite,Background,Centre,"sb\pixel.png",0,0 L,107839,4 R,0,0,1200,0,6.283185 V,0,0,1200,4,4,4,-4 F,0,107266,114325,0.8 C,0,107839,,119,214,244 M,0,107839,109839,243,520,243,-40 F,0,107839,109839,1
Sprite,Background,Centre,"sb\pixel.png",0,0 L,107883,4 R,0,0,1200,0,6.283185 V,0,0,1200,4,4,4,-4 F,0,107266,114325,0.8 C,0,107883,,86,191,237 M,0,107883,109883,643,520,643,-40 F,0,107883,109883,1
Sprite,Background,Centre,"sb\pixel.png",0,0 L,107927,4 R,0,0,1200,0,6.283185 V,0,0,1200,4,4,4,-4 F,0,107266,114325,0.8 C,0,107927,,119,214,244 M,0,107927,109927,104,520,104,-40 F,0,107927,109927,1
Sprite,Background,Centre,"sb\pixel.png",0,0 L,107971,4 R,0,0,1200,0,6.283185 V,0,0,1200,4,4,4,-4 F,0,107266,114325,0.8 C,0,107971,,86,191,237 M,0,107971,109971,191,520,191,-40 F,0,107971,109971,1
Sprite,Background,Centre,"sb\pixel.png",0,0 L,108016,4 R,0,0,1200,0,6.283185 V,0,0,1200,4,4,4,-4 F,0,107266,114325,0.8 C,0,108016,,86,191,237 M,0,108016,110016,-93,520,-93,-40 F,0,108016,110016,1
Sprite,Background,Centre,"sb\pixel.png",0,0 L,108060,4 R,0,0,1200,0,6.283185 V,0,0,1200,4,4,4,-4 F,0,107266,114325,0.8 C,0,108060,,86,191,237 M,0,108060,110060,1,520,1,-40 F,0,108060,110060,1
Sprite,Background,Centre,"sb\pixel.png",0,0 L,108104,4 R,0,0,1200,0,6.283185 V,0,0,1200,4,4,4,-4 F,0,107266,114325,0.8 C,0,108104,,86,191,237 M,0,108104,110104,568,520,568,-40 F,0,108104,110104,1
Sprite,Background,Centre,"sb\pixel.png",0,0 L,108148,4 R,0,0,1200,0,6.283185 V,0,0,1200,4,4,4,-4 F,0,107266,114325,0.8 C,0,108148,,119,214,244 M,0,108148,110148,124,520,124,-40 F,0,108148,110148,1
Sprite,Background,Centre,"sb\pixel.png",0,0 L,108192,4 R,0,0,1200,0,6.283185 V,0,0,1200,4,4,4,-4 F,0,107266,114325,0.8 C,0,108192,,86,191,237 M,0,108192,110192,651,520,651,-40 F,0,108192,110192,1
Sprite,Background,Centre,"sb\pixel.png",0,0 L,108236,4 R,0,0,1200,0,6.283185 V,0,0,1200,4,4,4,-4 F,0,107266,114325,0.8 C,0,108236,,119,214,244 M,0,108236,110236,491,520,491,-40 F,0,108236,110236,1
Sprite,Background,Centre,"sb\pixel.png",0,0 L,108280,4 R,0,0,1200,0,6.283185 V,0,0,1200,4,4,4,-4 F,0,107266,114325,0.8 C,0,108280,,86,191,237 M,0,108280,110280,718,520,718,-40 F,0,108280,110280,1
Sprite,Background,Centre,"sb\pixel.png",0,0 L,108324,4 R,0,0,1200,0,6.283185 V,0,0,1200,4,4,4,-4 F,0,107266,114325,0.8 C,0,108324,,86,191,237 M,0,108324,110324,197,520,197,-40 F,0,108324,110324,1
Sprite,Background,Centre,"sb\pixel.png",0,0 L,108368,4 R,0,0,1200,0,6.283185 V,0,0,1200,4,4,4,-4 F,0,107266,114325,0.8 C,0,108368,,119,214,244 M,0,108368,110368,553,520,553,-40 F,0,108368,110368,1
Sprite,Background,Centre,"sb\pixel.png",0,0 L,108413,4 R,0,0,1200,0,6.283185 V,0,0,1200,4,4,4,-4 F,0,107266,114325,0.8 C,0,108413,,119,214,244 M,0,108413,110413,-63,520,-63,-40 F,0,108413,110413,1
Sprite,Background,Centre,"sb\pixel.png",0,0 L,108457,4 R,0,0,1200,0,6.283185 V,0,0,1200,4,4,4,-4 F,0,107266,114325,0.8 C,0,108457,,86,191,237 M,0,108457,110457,472,520,472,-40 F,0,108457,110457,1
Sprite,Background,Centre,"sb\pixel.png",0,0 L,108501,4 R,0,0,1200,0,6.283185 V,0,0,1200,4,4,4,-4 F,0,107266,114325,0.8 C,0,108501,,86,191,237 M,0,108501,110501,485,520,485,-40 F,0,108501,110501,1
Sprite,Background,Centre,"sb\pixel.png",0,0 L,108545,4 R,0,0,1200,0,6.283185 V,0,0,1200,4,4,4,-4 F,0,107266,114325,0.8 C,0,108545,,86,191,237 M,0,108545,110545,253,520,253,-40 F,0,108545,110545,1
Sprite,Background,Centre,"sb\pixel.png",0,0 L,108589,4 R,0,0,1200,0,6.283185 V,0,0,1200,4,4,4,-4 F,0,107266,114325,0.8 C,0,108589,,119,214,244 M,0,108589,110589,543,520,543,-40 F,0,108589,110589,1
Sprite,Background,Centre,"sb\pixel.png",0,0 L,108633,4 R,0,0,1200,0,6.283185 V,0,0,1200,4,4,4,-4 F,0,107266,114325,0.8 C,0,108633,,119,214,244 M,0,108633,110633,350,520,350,-40 F,0,108633,110633,1
Sprite,Background,Centre,"sb\pixel.png",0,0 L,108677,4 R,0,0,1200,0,6.283185 V,0,0,1200,4,4,4,-4 F,0,107266,114325,0.8 C,0,108677,,86,191,237 M,0,108677,110677,-44,520,-44,-40 F,0,108677,110677,1
Sprite,Background,Centre,"sb\pixel.png",0,0 L,108721,4 R,0,0,1200,0,6.283185 V,0,0,1200,4,4,4,-4 F,0,107266,114325,0.8 C,0,108721,,86,191,237 M,0,108721,110721,72,520,72,-40 F,0,108721,110721,1
Sprite,Background,Centre,"sb\pixel.png",0,0 L,108766,4 R,0,0,1200,0,6.283185 V,0,0,1200,4,4,4,-4 F,0,107266,114325,0.8 C,0,108766,,86,191,237 M,0,108766,110766,28,520,28,-40 F,0,108766,110766,1
Sprite,Background,Centre,"sb\pixel.png",0,0 L,108810,4 R,0,0,1200,0,6.283185 V,0,0,1200,4,4,4,-4 F,0,107266,114325,0.8 C,0,108810,,119,214,244 M,0,108810,110810,658,520,658,-40 F,0,108810,110810,1
Sprite,Background,Centre,"sb\pixel.png",0,0 L,108854,4 R,0,0,1200,0,6.283185 V,0,0,1200,4,4,4,-4 F,0,107266,114325,0.8 C,0,108854,,86,191,237 M,0,108854,110854,372,520,372,-40 F,0,108854,110854,1
Sprite,Background,Centre,"sb\pixel.png",0,0 L,108898,4 R,0,0,1200,0,6.283185 V,0,0,1200,4,4,4,-4 F,0,107266,114325,0.8 C,0,108898,,119,214,244 M,0,108898,110898,311,520,311,-40 F,0,108898,110898,1
Sprite,Background,Centre,"sb\pixel.png",0,0 L,108942,4 R,0,0,1200,0,6.283185 V,0,0,1200,4,4,4,-4 F,0,107266,114325,0.8 C,0,108942,,119,214,244 M,0,108942,110942,528,520,528,-40 F,0,108942,110942,1
Sprite,Background,Centre,"sb\pixel.png",0,0 L,108986,4 R,0,0,1200,0,6.283185 V,0,0,1200,4,4,4,-4 F,0,107266,114325,0.8 C,0,108986,,86,191,237 M,0,108986,110986,58,520,58,-40 F,0,108986,110986,1
Sprite,Background,Centre,"sb\pixel.png",0,0 L,109030,4 R,0,0,1200,0,6.283185 V,0,0,1200,4,4,4,-4 F,0,107266,114325,0.8 C,0,109030,,86,191,237 M,0,109030,111030,494,520,494,-40 F,0,109030,111030,1
Sprite,Background,Centre,"sb\pixel.png",0,0 L,109074,4 R,0,0,1200,0,6.283185 V,0,0,1200,4,4,4,-4 F,0,107266,114325,0.8 C,0,109074,,119,214,244 M,0,109074,111074,689,520,689,-40 F,0,109074,111074,1
Sprite,Background,Centre,"sb\pixel.png",0,0 L,109118,4 R,0,0,1200,0,6.283185 V,0,0,1200,4,4,4,-4 F,0,107266,114325,0.8 C,0,109118,,86,191,237 M,0,109118,111118,654,520,654,-40 F,0,109118,111118,1
Sprite,Background,Centre,"sb\pixel.png",0,0 L,109163,4 R,0,0,1200,0,6.283185 V,0,0,1200,4,4,4,-4 F,0,107266,114325,0.8 C,0,109163,,119,214,244 M,0,109163,111163,278,520,278,-40 F,0,109163,111163,1
Sprite,Background,Centre,"sb\pixel.png",0,0 L,109207,4 R,0,0,1200,0,6.283185 V,0,0,1200,4,4,4,-4 F,0,107266,114325,0.8 C,0,109207,,119,214,244 M,0,109207,111207,34,520,34,-40 F,0,109207,111207,1
Sprite,Background,Centre,"sb\pixel.png",0,0 L,109251,4 R,0,0,1200,0,6.283185 V,0,0,1200,4,4,4,-4 F,0,107266,114325,0.8 C,0,109251,,119,214,244 M,0,109251,111251,619,520,619,-40 F,0,109251,111251,1
Sprite,Background,Centre,"sb\pixel.png",0,0 L,109295,4 R,0,0,1200,0,6.283185 V,0,0,1200,4,4,4,-4 F,0,107266,114325,0.8 C,0,109295,,119,214,244 M,0,109295,111295,194,520,194,-40 F,0,109295,111295,1
Sprite,Background,Centre,"sb\pixel.png",0,0 L,109339,4 R,0,0,1200,0,6.283185 V,0,0,1200,4,4,4,-4 F,0,107266,114325,0.8 C,0,109339,,86,191,237 M,0,109339,111339,66,520,66,-40 F,0,109339,111339,1
Sprite,Background,Centre,"sb\pixel.png",0,0 L,109383,4 R,0,0,1200,0,6.283185 V,0,0,1200,4,4,4,-4 F,0,107266,114325,0.8 C,0,109383,,86,191,237 M,0,109383,111383,569,520,569,-40 F,0,109383,111383,1
Sprite,Background,Centre,"sb\pixel.png",0,0 L,109427,4 R,0,0,1200,0,6.283185 V,0,0,1200,4,4,4,-4 F,0,107266,114325,0.8 C,0,109427,,86,191,237 M,0,109427,111427,283,520,283,-40 F,0,109427,111427,1
Sprite,Background,Centre,"sb\pixel.png",0,0 L,109471,4 R,0,0,1200,0,6.283185 V,0,0,1200,4,4,4,-4 F,0,107266,114325,0.8 C,0,109471,,119,214,244 M,0,109471,111471,629,520,629,-40 F,0,109471,111471,1
Sprite,Background,Centre,"sb\pixel.png",0,0 L,109516,4 R,0,0,1200,0,6.283185 V,0,0,1200,4,4,4,-4 F,0,107266,114325,0.8 C,0,109516,,119,214,244 M,0,109516,111516,424,520,424,-40 F,0,109516,111516,1
Sprite,Background,Centre,"sb\pixel.png",0,0 L,109560,4 R,0,0,1200,0,6.283185 V,0,0,1200,4,4,4,-4 F,0,107266,114325,0.8 C,0,109560,,119,214,244 M,0,109560,111560,666,520,666,-40 F,0,109560,111560,1
Sprite,Background,Centre,"sb\pixel.png",0,0 L,109604,4 R,0,0,1200,0,6.283185 V,0,0,1200,4,4,4,-4 F,0,107266,114325,0.8 C,0,109604,,119,214,244 M,0,109604,111604,690,520,690,-40 F,0,109604,111604,1
Sprite,Background,Centre,"sb\pixel.png",0,0 L,109648,4 R,0,0,1200,0,6.283185 V,0,0,1200,4,4,4,-4 F,0,107266,114325,0.8 C,0,109648,,86,191,237 M,0,109648,111648,478,520,478,-40 F,0,109648,111648,1
Sprite,Background,Centre,"sb\pixel.png",0,0 L,109692,4 R,0,0,1200,0,6.283185 V,0,0,1200,4,4,4,-4 F,0,107266,114325,0.8 C,0,109692,,86,191,237 M,0,109692,111692,108,520,108,-40 F,0,109692,111692,1
Sprite,Background,Centre,"sb\pixel.png",0,0 L,109736,4 R,0,0,1200,0,6.283185 V,0,0,1200,4,4,4,-4 F,0,107266,114325,0.8 C,0,109736,,119,214,244 M,0,109736,111736,267,520,267,-40 F,0,109736,111736,1
Sprite,Background,Centre,"sb\pixel.png",0,0 L,109780,4 R,0,0,1200,0,6.283185 V,0,0,1200,4,4,4,-4 F,0,107266,114325,0.8 C,0,109780,,119,214,244 M,0,109780,111780,653,520,653,-40 F,0,109780,111780,1
Sprite,Background,Centre,"sb\pixel.png",0,0 L,109824,4 R,0,0,1200,0,6.283185 V,0,0,1200,4,4,4,-4 F,0,107266,114325,0.8 C,0,109824,,119,214,244 M,0,109824,111824,376,520,376,-40 F,0,109824,111824,1
Sprite,Background,Centre,"sb\pixel.png",0,0 L,109868,4 R,0,0,1200,0,6.283185 V,0,0,1200,4,4,4,-4 F,0,107266,114325,0.8 C,0,109868,,119,214,244 M,0,109868,111868,201,520,201,-40 F,0,109868,111868,1
Sprite,Background,Centre,"sb\pixel.png",0,0 L,109913,4 R,0,0,1200,0,6.283185 V,0,0,1200,4,4,4,-4 F,0,107266,114325,0.8 C,0,109913,,119,214,244 M,0,109913,111913,275,520,275,-40 F,0,109913,111913,1
Sprite,Background,Centre,"sb\pixel.png",0,0 L,109957,4 R,0,0,1200,0,6.283185 V,0,0,1200,4,4,4,-4 F,0,107266,114325,0.8 C,0,109957,,119,214,244 M,0,109957,111957,279,520,279,-40 F,0,109957,111957,1
Sprite,Background,Centre,"sb\pixel.png",0,0 L,110001,4 R,0,0,1200,0,6.283185 V,0,0,1200,4,4,4,-4 F,0,107266,114325,0.8 C,0,110001,,119,214,244 M,0,110001,112001,-83,520,-83,-40 F,0,110001,112001,1
Sprite,Background,Centre,"sb\pixel.png",0,0 L,110045,4 R,0,0,1200,0,6.283185 V,0,0,1200,4,4,4,-4 F,0,107266,114325,0.8 C,0,110045,,119,214,244 M,0,110045,112045,-78,520,-78,-40 F,0,110045,112045,1
Sprite,Background,Centre,"sb\pixel.png",0,0 L,110089,4 R,0,0,1200,0,6.283185 V,0,0,1200,4,4,4,-4 F,0,107266,114325,0.8 C,0,110089,,86,191,237 M,0,110089,112089,299,520,299,-40 F,0,110089,112089,1
Sprite,Background,Centre,"sb\pixel.png",0,0 L,110133,4 R,0,0,1200,0,6.283185 V,0,0,1200,4,4,4,-4 F,0,107266,114325,0.8 C,0,110133,,119,214,244 M,0,110133,112133,162,520,162,-40 F,0,110133,112133,1
Sprite,Background,Centre,"sb\pixel.png",0,0 L,110177,4 R,0,0,1200,0,6.283185 V,0,0,1200,4,4,4,-4 F,0,107266,114325,0.8 C,0,110177,,119,214,244 M,0,110177,112177,507,520,507,-40 F,0,110177,112177,1
Sprite,Background,Centre,"sb\pixel.png",0,0 L,110221,4 R,0,0,1200,0,6.283185 V,0,0,1200,4,4,4,-4 F,0,107266,114325,0.8 C,0,110221,,119,214,244 M,0,110221,112221,-46,520,-46,-40 F,0,110221,112221,1
Sprite,Background,Centre,"sb\pixel.png",0,0 L,110266,4 R,0,0,1200,0,6.283185 V,0,0,1200,4,4,4,-4 F,0,107266,114325,0.8 C,0,110266,,119,214,244 M,0,110266,112266,-101,520,-101,-40 F,0,110266,112266,1
Sprite,Background,Centre,"sb\pixel.png",0,0 L,110310,4 R,0,0,1200,0,6.283185 V,0,0,1200,4,4,4,-4 F,0,107266,114325,0.8 C,0,110310,,119,214,244 M,0,110310,112310,39,520,39,-40 F,0,110310,112310,1
Sprite,Background,Centre,"sb\pixel.png",0,0 L,110354,4 R,0,0,1200,0,6.283185 V,0,0,1200,4,4,4,-4 F,0,107266,114325,0.8 C,0,110354,,119,214,244 M,0,110354,112354,593,520,593,-40 F,0,110354,112354,1
Sprite,Background,Centre,"sb\pixel.png",0,0 L,110398,4 R,0,0,1200,0,6.283185 V,0,0,1200,4,4,4,-4 F,0,107266,114325,0.8 C,0,110398,,86,191,237 M,0,110398,112398,310,520,310,-40 F,0,110398,112398,1
Sprite,Background,Centre,"sb\pixel.png",0,0 L,110442,4 R,0,0,1200,0,6.283185 V,0,0,1200,4,4,4,-4 F,0,107266,114325,0.8 C,0,110442,,119,214,244 M,0,110442,112442,548,520,548,-40 F,0,110442,112442,1
Sprite,Background,Centre,"sb\pixel.png",0,0 L,110486,4 R,0,0,1200,0,6.283185 V,0,0,1200,4,4,4,-4 F,0,107266,114325,0.8 C,0,110486,,86,191,237 M,0,110486,112486,-60,520,-60,-40 F,0,110486,112486,1
Sprite,Background,Centre,"sb\pixel.png",0,0 L,110530,4 R,0,0,1200,0,6.283185 V,0,0,1200,4,4,4,-4 F,0,107266,114325,0.8 C,0,110530,,119,214,244 M,0,110530,112530,155,520,155,-40 F,0,110530,112530,1
Sprite,Background,Centre,"sb\pixel.png",0,0 L,110574,4 R,0,0,1200,0,6.283185 V,0,0,1200,4,4,4,-4 F,0,107266,114325,0.8 C,0,110574,,119,214,244 M,0,110574,112574,69,520,69,-40 F,0,110574,112574,1
Sprite,Background,Centre,"sb\pixel.png",0,0 L,110618,4 R,0,0,1200,0,6.283185 V,0,0,1200,4,4,4,-4 F,0,107266,114325,0.8 C,0,110618,,119,214,244 M,0,110618,112618,126,520,126,-40 F,0,110618,112618,1
Sprite,Background,Centre,"sb\pixel.png",0,0 L,110663,4 R,0,0,1200,0,6.283185 V,0,0,1200,4,4,4,-4 F,0,107266,114325,0.8 C,0,110663,,86,191,237 M,0,110663,112663,195,520,195,-40 F,0,110663,112663,1
Sprite,Background,Centre,"sb\pixel.png",0,0 L,110707,4 R,0,0,1200,0,6.283185 V,0,0,1200,4,4,4,-4 F,0,107266,114325,0.8 C,0,110707,,119,214,244 M,0,110707,112707,656,520,656,-40 F,0,110707,112707,1
Sprite,Background,Centre,"sb\pixel.png",0,0 L,110751,4 R,0,0,1200,0,6.283185 V,0,0,1200,4,4,4,-4 F,0,107266,114325,0.8 C,0,110751,,119,214,244 M,0,110751,112751,275,520,275,-40 F,0,110751,112751,1
Sprite,Background,Centre,"sb\pixel.png",0,0 L,110795,4 R,0,0,1200,0,6.283185 V,0,0,1200,4,4,4,-4 F,0,107266,114325,0.8 C,0,110795,,86,191,237 M,0,110795,112795,192,520,192,-40 F,0,110795,112795,1
Sprite,Background,Centre,"sb\pixel.png",0,0 L,110839,4 R,0,0,1200,0,6.283185 V,0,0,1200,4,4,4,-4 F,0,107266,114325,0.8 C,0,110839,,86,191,237 M,0,110839,112839,658,520,658,-40 F,0,110839,112839,1
Sprite,Background,Centre,"sb\pixel.png",0,0 L,110883,4 R,0,0,1200,0,6.283185 V,0,0,1200,4,4,4,-4 F,0,107266,114325,0.8 C,0,110883,,119,214,244 M,0,110883,112883,112,520,112,-40 F,0,110883,112883,1
Sprite,Background,Centre,"sb\pixel.png",0,0 L,110927,4 R,0,0,1200,0,6.283185 V,0,0,1200,4,4,4,-4 F,0,107266,114325,0.8 C,0,110927,,119,214,244 M,0,110927,112927,573,520,573,-40 F,0,110927,112927,1
Sprite,Background,Centre,"sb\pixel.png",0,0 L,110971,4 R,0,0,1200,0,6.283185 V,0,0,1200,4,4,4,-4 F,0,107266,114325,0.8 C,0,110971,,86,191,237 M,0,110971,112971,247,520,247,-40 F,0,110971,112971,1
Sprite,Background,Centre,"sb\pixel.png",0,0 L,111016,4 R,0,0,1200,0,6.283185 V,0,0,1200,4,4,4,-4 F,0,107266,114325,0.8 C,0,111016,,119,214,244 M,0,111016,113016,-3,520,-3,-40 F,0,111016,113016,1
Sprite,Background,Centre,"sb\pixel.png",0,0 L,111060,4 R,0,0,1200,0,6.283185 V,0,0,1200,4,4,4,-4 F,0,107266,114325,0.8 C,0,111060,,86,191,237 M,0,111060,113060,138,520,138,-40 F,0,111060,113060,1
Sprite,Background,Centre,"sb\pixel.png",0,0 L,111104,4 R,0,0,1200,0,6.283185 V,0,0,1200,4,4,4,-4 F,0,107266,114325,0.8 C,0,111104,,119,214,244 M,0,111104,113104,320,520,320,-40 F,0,111104,113104,1
Sprite,Background,Centre,"sb\pixel.png",0,0 L,111148,4 R,0,0,1200,0,6.283185 V,0,0,1200,4,4,4,-4 F,0,107266,114325,0.8 C,0,111148,,86,191,237 M,0,111148,113148,359,520,359,-40 F,0,111148,113148,1
Sprite,Background,Centre,"sb\pixel.png",0,0 L,111192,4 R,0,0,1200,0,6.283185 V,0,0,1200,4,4,4,-4 F,0,107266,114325,0.8 C,0,111192,,86,191,237 M,0,111192,113192,210,520,210,-40 F,0,111192,113192,1
Sprite,Background,Centre,"sb\pixel.png",0,0 L,111236,4 R,0,0,1200,0,6.283185 V,0,0,1200,4,4,4,-4 F,0,107266,114325,0.8 C,0,111236,,119,214,244 M,0,111236,113236,187,520,187,-40 F,0,111236,113236,1
Sprite,Background,Centre,"sb\pixel.png",0,0 L,111280,4 R,0,0,1200,0,6.283185 V,0,0,1200,4,4,4,-4 F,0,107266,114325,0.8 C,0,111280,,119,214,244 M,0,111280,113280,-59,520,-59,-40 F,0,111280,113280,1
Sprite,Background,Centre,"sb\pixel.png",0,0 L,111324,4 R,0,0,1200,0,6.283185 V,0,0,1200,4,4,4,-4 F,0,107266,114325,0.8 C,0,111324,,86,191,237 M,0,111324,113324,329,520,329,-40 F,0,111324,113324,1
Sprite,Background,Centre,"sb\pixel.png",0,0 L,111368,4 R,0,0,1200,0,6.283185 V,0,0,1200,4,4,4,-4 F,0,107266,114325,0.8 C,0,111368,,86,191,237 M,0,111368,113368,607,520,607,-40 F,0,111368,113368,1
Sprite,Background,Centre,"sb\pixel.png",0,0 L,111413,4 R,0,0,1200,0,6.283185 V,0,0,1200,4,4,4,-4 F,0,107266,114325,0.8 C,0,111413,,119,214,244 M,0,111413,113413,-76,520,-76,-40 F,0,111413,113413,1
Sprite,Background,Centre,"sb\pixel.png",0,0 L,111457,4 R,0,0,1200,0,6.283185 V,0,0,1200,4,4,4,-4 F,0,107266,114325,0.8 C,0,111457,,86,191,237 M,0,111457,113457,287,520,287,-40 F,0,111457,113457,1
Sprite,Background,Centre,"sb\pixel.png",0,0 L,111501,4 R,0,0,1200,0,6.283185 V,0,0,1200,4,4,4,-4 F,0,107266,114325,0.8 C,0,111501,,86,191,237 M,0,111501,113501,-100,520,-100,-40 F,0,111501,113501,1
Sprite,Background,Centre,"sb\pixel.png",0,0 L,111545,4 R,0,0,1200,0,6.283185 V,0,0,1200,4,4,4,-4 F,0,107266,114325,0.8 C,0,111545,,119,214,244 M,0,111545,113545,26,520,26,-40 F,0,111545,113545,1
Sprite,Background,Centre,"sb\pixel.png",0,0 L,111589,4 R,0,0,1200,0,6.283185 V,0,0,1200,4,4,4,-4 F,0,107266,114325,0.8 C,0,111589,,86,191,237 M,0,111589,113589,49,520,49,-40 F,0,111589,113589,1
Sprite,Background,Centre,"sb\pixel.png",0,0 L,111633,4 R,0,0,1200,0,6.283185 V,0,0,1200,4,4,4,-4 F,0,107266,114325,0.8 C,0,111633,,86,191,237 M,0,111633,113633,181,520,181,-40 F,0,111633,113633,1
Sprite,Background,Centre,"sb\pixel.png",0,0 L,111677,4 R,0,0,1200,0,6.283185 V,0,0,1200,4,4,4,-4 F,0,107266,114325,0.8 C,0,111677,,119,214,244 M,0,111677,113677,351,520,351,-40 F,0,111677,113677,1
Sprite,Background,Centre,"sb\pixel.png",0,0 L,111721,4 R,0,0,1200,0,6.283185 V,0,0,1200,4,4,4,-4 F,0,107266,114325,0.8 C,0,111721,,86,191,237 M,0,111721,113721,276,520,276,-40 F,0,111721,113721,1
Sprite,Background,Centre,"sb\pixel.png",0,0 L,111766,4 R,0,0,1200,0,6.283185 V,0,0,1200,4,4,4,-4 F,0,107266,114325,0.8 C,0,111766,,119,214,244 M,0,111766,113766,703,520,703,-40 F,0,111766,113766,1
Sprite,Background,Centre,"sb\pixel.png",0,0 L,111810,4 R,0,0,1200,0,6.283185 V,0,0,1200,4,4,4,-4 F,0,107266,114325,0.8 C,0,111810,,119,214,244 M,0,111810,113810,-68,520,-68,-40 F,0,111810,113810,1
Sprite,Background,Centre,"sb\pixel.png",0,0 L,111854,4 R,0,0,1200,0,6.283185 V,0,0,1200,4,4,4,-4 F,0,107266,114325,0.8 C,0,111854,,86,191,237 M,0,111854,113854,436,520,436,-40 F,0,111854,113854,1
Sprite,Background,Centre,"sb\pixel.png",0,0 L,111898,4 R,0,0,1200,0,6.283185 V,0,0,1200,4,4,4,-4 F,0,107266,114325,0.8 C,0,111898,,119,214,244 M,0,111898,113898,132,520,132,-40 F,0,111898,113898,1
Sprite,Background,Centre,"sb\pixel.png",0,0 L,111942,4 R,0,0,1200,0,6.283185 V,0,0,1200,4,4,4,-4 F,0,107266,114325,0.8 C,0,111942,,86,191,237 M,0,111942,113942,-12,520,-12,-40 F,0,111942,113942,1
Sprite,Background,Centre,"sb\pixel.png",0,0 L,111986,4 R,0,0,1200,0,6.283185 V,0,0,1200,4,4,4,-4 F,0,107266,114325,0.8 C,0,111986,,119,214,244 M,0,111986,113986,29,520,29,-40 F,0,111986,113986,1
Sprite,Background,Centre,"sb\pixel.png",0,0 L,112030,4 R,0,0,1200,0,6.283185 V,0,0,1200,4,4,4,-4 F,0,107266,114325,0.8 C,0,112030,,119,214,244 M,0,112030,114030,330,520,330,-40 F,0,112030,114030,1
Sprite,Background,Centre,"sb\pixel.png",0,0 L,112074,4 R,0,0,1200,0,6.283185 V,0,0,1200,4,4,4,-4 F,0,107266,114325,0.8 C,0,112074,,119,214,244 M,0,112074,114074,282,520,282,-40 F,0,112074,114074,1
Sprite,Background,Centre,"sb\pixel.png",0,0 L,112118,4 R,0,0,1200,0,6.283185 V,0,0,1200,4,4,4,-4 F,0,107266,114325,0.8 C,0,112118,,119,214,244 M,0,112118,114118,154,520,154,-40 F,0,112118,114118,1
Sprite,Background,Centre,"sb\pixel.png",0,0 L,112163,4 R,0,0,1200,0,6.283185 V,0,0,1200,4,4,4,-4 F,0,107266,114325,0.8 C,0,112163,,119,214,244 M,0,112163,114163,-99,520,-99,-40 F,0,112163,114163,1
Sprite,Background,Centre,"sb\pixel.png",0,0 L,112207,4 R,0,0,1200,0,6.283185 V,0,0,1200,4,4,4,-4 F,0,107266,114325,0.8 C,0,112207,,86,191,237 M,0,112207,114207,-46,520,-46,-40 F,0,112207,114207,1
Sprite,Background,Centre,"sb\pixel.png",0,0 L,112251,4 R,0,0,1200,0,6.283185 V,0,0,1200,4,4,4,-4 F,0,107266,114325,0.8 C,0,112251,,86,191,237 M,0,112251,114251,-22,520,-22,-40 F,0,112251,114251,1
Sprite,Background,Centre,"sb\pixel.png",0,0 L,112295,4 R,0,0,1200,0,6.283185 V,0,0,1200,4,4,4,-4 F,0,107266,114325,0.8 C,0,112295,,119,214,244 M,0,112295,114295,489,520,489,-40 F,0,112295,114295,1
Sprite,Background,Centre,"sb\pixel.png",0,0 L,112339,4 R,0,0,1200,0,6.283185 V,0,0,1200,4,4,4,-4 F,0,107266,114325,0.8 C,0,112339,,119,214,244 M,0,112339,114339,51,520,51,-40 F,0,112339,114339,1
Sprite,Background,Centre,"sb\pixel.png",0,0 L,112383,4 R,0,0,1200,0,6.283185 V,0,0,1200,4,4,4,-4 F,0,107266,114325,0.8 C,0,112383,,86,191,237 M,0,112383,114383,338,520,338,-40 F,0,112383,114383,1
Sprite,Background,Centre,"sb\pixel.png",0,0 L,112427,4 R,0,0,1200,0,6.283185 V,0,0,1200,4,4,4,-4 F,0,107266,114325,0.8 C,0,112427,,119,214,244 M,0,112427,114427,27,520,27,-40 F,0,112427,114427,1
Sprite,Background,Centre,"sb\pixel.png",0,0 L,112471,4 R,0,0,1200,0,6.283185 V,0,0,1200,4,4,4,-4 F,0,107266,114325,0.8 C,0,112471,,119,214,244 M,0,112471,114471,508,520,508,-40 F,0,112471,114471,1
Sprite,Background,Centre,"sb\pixel.png",0,0 L,112516,4 R,0,0,1200,0,6.283185 V,0,0,1200,4,4,4,-4 F,0,107266,114325,0.8 C,0,112516,,119,214,244 M,0,112516,114516,282,520,282,-40 F,0,112516,114516,1
Sprite,Background,Centre,"sb\pixel.png",0,0 L,112560,4 R,0,0,1200,0,6.283185 V,0,0,1200,4,4,4,-4 F,0,107266,114325,0.8 C,0,112560,,119,214,244 M,0,112560,114560,691,520,691,-40 F,0,112560,114560,1
Sprite,Background,Centre,"sb\pixel.png",0,0 L,112604,4 R,0,0,1200,0,6.283185 V,0,0,1200,4,4,4,-4 F,0,107266,114325,0.8 C,0,112604,,119,214,244 M,0,112604,114604,701,520,701,-40 F,0,112604,114604,1
Sprite,Background,Centre,"sb\pixel.png",0,0 L,112648,4 R,0,0,1200,0,6.283185 V,0,0,1200,4,4,4,-4 F,0,107266,114325,0.8 C,0,112648,,119,214,244 M,0,112648,114648,717,520,717,-40 F,0,112648,114648,1
Sprite,Background,Centre,"sb\pixel.png",0,0 L,112692,4 R,0,0,1200,0,6.283185 V,0,0,1200,4,4,4,-4 F,0,107266,114325,0.8 C,0,112692,,119,214,244 M,0,112692,114692,245,520,245,-40 F,0,112692,114692,1
Sprite,Background,Centre,"sb\pixel.png",0,0 L,112736,4 R,0,0,1200,0,6.283185 V,0,0,1200,4,4,4,-4 F,0,107266,114325,0.8 C,0,112736,,86,191,237 M,0,112736,114736,326,520,326,-40 F,0,112736,114736,1
Sprite,Background,Centre,"sb\pixel.png",0,0 L,112780,4 R,0,0,1200,0,6.283185 V,0,0,1200,4,4,4,-4 F,0,107266,114325,0.8 C,0,112780,,86,191,237 M,0,112780,114780,523,520,523,-40 F,0,112780,114780,1
Sprite,Background,Centre,"sb\pixel.png",0,0 L,112824,4 R,0,0,1200,0,6.283185 V,0,0,1200,4,4,4,-4 F,0,107266,114325,0.8 C,0,112824,,119,214,244 M,0,112824,114824,-52,520,-52,-40 F,0,112824,114824,1
Sprite,Background,Centre,"sb\pixel.png",0,0 L,112868,4 R,0,0,1200,0,6.283185 V,0,0,1200,4,4,4,-4 F,0,107266,114325,0.8 C,0,112868,,119,214,244 M,0,112868,114868,165,520,165,-40 F,0,112868,114868,1
Sprite,Background,Centre,"sb\pixel.png",0,0 L,112913,4 R,0,0,1200,0,6.283185 V,0,0,1200,4,4,4,-4 F,0,107266,114325,0.8 C,0,112913,,119,214,244 M,0,112913,114913,745,520,745,-40 F,0,112913,114913,1
Sprite,Background,Centre,"sb\pixel.png",0,0 L,112957,4 R,0,0,1200,0,6.283185 V,0,0,1200,4,4,4,-4 F,0,107266,114325,0.8 C,0,112957,,119,214,244 M,0,112957,114957,492,520,492,-40 F,0,112957,114957,1
Sprite,Background,Centre,"sb\pixel.png",0,0 L,113001,4 R,0,0,1200,0,6.283185 V,0,0,1200,4,4,4,-4 F,0,107266,114325,0.8 C,0,113001,,119,214,244 M,0,113001,115001,744,520,744,-40 F,0,113001,115001,1
Sprite,Background,Centre,"sb\pixel.png",0,0 L,113045,4 R,0,0,1200,0,6.283185 V,0,0,1200,4,4,4,-4 F,0,107266,114325,0.8 C,0,113045,,119,214,244 M,0,113045,115045,507,520,507,-40 F,0,113045,115045,1
Sprite,Background,Centre,"sb\pixel.png",0,0 L,113089,4 R,0,0,1200,0,6.283185 V,0,0,1200,4,4,4,-4 F,0,107266,114325,0.8 C,0,113089,,119,214,244 M,0,113089,115089,575,520,575,-40 F,0,113089,115089,1
Sprite,Background,Centre,"sb\pixel.png",0,0 L,113133,4 R,0,0,1200,0,6.283185 V,0,0,1200,4,4,4,-4 F,0,107266,114325,0.8 C,0,113133,,119,214,244 M,0,113133,115133,332,520,332,-40 F,0,113133,115133,1
Sprite,Background,Centre,"sb\pixel.png",0,0 L,113177,4 R,0,0,1200,0,6.283185 V,0,0,1200,4,4,4,-4 F,0,107266,114325,0.8 C,0,113177,,86,191,237 M,0,113177,115177,401,520,401,-40 F,0,113177,115177,1
Sprite,Background,Centre,"sb\pixel.png",0,0 L,113221,4 R,0,0,1200,0,6.283185 V,0,0,1200,4,4,4,-4 F,0,107266,114325,0.8 C,0,113221,,119,214,244 M,0,113221,115221,285,520,285,-40 F,0,113221,115221,1
Sprite,Background,Centre,"sb\pixel.png",0,0 L,113266,4 R,0,0,1200,0,6.283185 V,0,0,1200,4,4,4,-4 F,0,107266,114325,0.8 C,0,113266,,119,214,244 M,0,113266,115266,-77,520,-77,-40 F,0,113266,115266,1
Sprite,Background,Centre,"sb\pixel.png",0,0 L,113310,4 R,0,0,1200,0,6.283185 V,0,0,1200,4,4,4,-4 F,0,107266,114325,0.8 C,0,113310,,86,191,237 M,0,113310,115310,182,520,182,-40 F,0,113310,115310,1
Sprite,Background,Centre,"sb\pixel.png",0,0 L,113354,4 R,0,0,1200,0,6.283185 V,0,0,1200,4,4,4,-4 F,0,107266,114325,0.8 C,0,113354,,86,191,237 M,0,113354,115354,121,520,121,-40 F,0,113354,115354,1
Sprite,Background,Centre,"sb\pixel.png",0,0 L,113398,4 R,0,0,1200,0,6.283185 V,0,0,1200,4,4,4,-4 F,0,107266,114325,0.8 C,0,113398,,86,191,237 M,0,113398,115398,66,520,66,-40 F,0,113398,115398,1
Sprite,Background,Centre,"sb\pixel.png",0,0 L,113442,4 R,0,0,1200,0,6.283185 V,0,0,1200,4,4,4,-4 F,0,107266,114325,0.8 C,0,113442,,86,191,237 M,0,113442,115442,50,520,50,-40 F,0,113442,115442,1
Sprite,Background,Centre,"sb\pixel.png",0,0 L,113486,4 R,0,0,1200,0,6.283185 V,0,0,1200,4,4,4,-4 F,0,107266,114325,0.8 C,0,113486,,86,191,237 M,0,113486,115486,-12,520,-12,-40 F,0,113486,115486,1
Sprite,Background,Centre,"sb\pixel.png",0,0 L,113530,4 R,0,0,1200,0,6.283185 V,0,0,1200,4,4,4,-4 F,0,107266,114325,0.8 C,0,113530,,119,214,244 M,0,113530,115530,330,520,330,-40 F,0,113530,115530,1
Sprite,Background,Centre,"sb\pixel.png",0,0 L,113574,4 R,0,0,1200,0,6.283185 V,0,0,1200,4,4,4,-4 F,0,107266,114325,0.8 C,0,113574,,119,214,244 M,0,113574,115574,712,520,712,-40 F,0,113574,115574,1
Sprite,Background,Centre,"sb\pixel.png",0,0 L,113618,4 R,0,0,1200,0,6.283185 V,0,0,1200,4,4,4,-4 F,0,107266,114325,0.8 C,0,113618,,86,191,237 M,0,113618,115618,258,520,258,-40 F,0,113618,115618,1
Sprite,Background,Centre,"sb\pixel.png",0,0 L,113663,4 R,0,0,1200,0,6.283185 V,0,0,1200,4,4,4,-4 F,0,107266,114325,0.8 C,0,113663,,119,214,244 M,0,113663,115663,182,520,182,-40 F,0,113663,115663,1
Sprite,Background,Centre,"sb\pixel.png",0,0 L,113707,4 R,0,0,1200,0,6.283185 V,0,0,1200,4,4,4,-4 F,0,107266,114325,0.8 C,0,113707,,119,214,244 M,0,113707,115707,390,520,390,-40 F,0,113707,115707,1
Sprite,Background,Centre,"sb\pixel.png",0,0 L,113751,4 R,0,0,1200,0,6.283185 V,0,0,1200,4,4,4,-4 F,0,107266,114325,0.8 C,0,113751,,119,214,244 M,0,113751,115751,248,520,248,-40 F,0,113751,115751,1
Sprite,Background,Centre,"sb\pixel.png",0,0 L,113795,4 R,0,0,1200,0,6.283185 V,0,0,1200,4,4,4,-4 F,0,107266,114325,0.8 C,0,113795,,86,191,237 M,0,113795,115795,489,520,489,-40 F,0,113795,115795,1
Sprite,Background,Centre,"sb\pixel.png",0,0 L,113839,4 R,0,0,1200,0,6.283185 V,0,0,1200,4,4,4,-4 F,0,107266,114325,0.8 C,0,113839,,86,191,237 M,0,113839,115839,108,520,108,-40 F,0,113839,115839,1
Sprite,Background,Centre,"sb\pixel.png",0,0 L,113883,4 R,0,0,1200,0,6.283185 V,0,0,1200,4,4,4,-4 F,0,107266,114325,0.8 C,0,113883,,119,214,244 M,0,113883,115883,671,520,671,-40 F,0,113883,115883,1
Sprite,Background,Centre,"sb\pixel.png",0,0 L,113927,4 R,0,0,1200,0,6.283185 V,0,0,1200,4,4,4,-4 F,0,107266,114325,0.8 C,0,113927,,86,191,237 M,0,113927,115927,457,520,457,-40 F,0,113927,115927,1
Sprite,Background,Centre,"sb\pixel.png",0,0 L,113971,4 R,0,0,1200,0,6.283185 V,0,0,1200,4,4,4,-4 F,0,107266,114325,0.8 C,0,113971,,86,191,237 M,0,113971,115971,332,520,332,-40 F,0,113971,115971,1
Sprite,Background,Centre,"sb\pixel.png",0,0 L,114016,4 R,0,0,1200,0,6.283185 V,0,0,1200,4,4,4,-4 F,0,107266,114325,0.8 C,0,114016,,119,214,244 M,0,114016,116016,453,520,453,-40 F,0,114016,116016,1
Sprite,Background,Centre,"sb\pixel.png",0,0 L,114060,4 R,0,0,1200,0,6.283185 V,0,0,1200,4,4,4,-4 F,0,107266,114325,0.8 C,0,114060,,119,214,244 M,0,114060,116060,511,520,511,-40 F,0,114060,116060,1
Sprite,Background,Centre,"sb\pixel.png",0,0 L,114104,4 R,0,0,1200,0,6.283185 V,0,0,1200,4,4,4,-4 F,0,107266,114325,0.8 C,0,114104,,119,214,244 M,0,114104,116104,-61,520,-61,-40 F,0,114104,116104,1
Sprite,Background,Centre,"sb\pixel.png",0,0 L,114148,4 R,0,0,1200,0,6.283185 V,0,0,1200,4,4,4,-4 F,0,107266,114325,0.8 C,0,114148,,119,214,244 M,0,114148,116148,-43,520,-43,-40 F,0,114148,116148,1
Sprite,Background,Centre,"sb\pixel.png",0,0 L,114192,4 R,0,0,1200,0,6.283185 V,0,0,1200,4,4,4,-4 F,0,107266,114325,0.8 C,0,114192,,119,214,244 M,0,114192,116192,35,520,35,-40 F,0,114192,116192,1
Sprite,Background,Centre,"sb\pixel.png",0,0 L,114236,4 R,0,0,1200,0,6.283185 V,0,0,1200,4,4,4,-4 F,0,107266,114325,0.8 C,0,114236,,86,191,237 M,0,114236,116236,161,520,161,-40 F,0,114236,116236,1
Sprite,Background,Centre,"sb\pixel.png",0,0 L,114280,4 R,0,0,1200,0,6.283185 V,0,0,1200,4,4,4,-4 F,0,107266,114325,0.8 C,0,114280,,119,214,244 M,0,114280,116280,639,520,639,-40 F,0,114280,116280,1
Sprite,Background,Centre,"sb\pixel.png",0,0 L,114324,4 R,0,0,1200,0,6.283185 V,0,0,1200,4,4,4,-4 F,0,107266,114325,0.8 C,0,114324,,119,214,244 M,0,114324,116324,145,520,145,-40 F,0,114324,116324,1
Sprite,Background,Centre,"sb\star.png",0,0 M,16,138678,141614,320,240,82.20486,263.9681 F,0,138678,141614,1,0 S,0,138678,141614,0,0.05
Sprite,Background,Centre,"sb\star.png",0,0 M,16,138728,140746,320,240,511.2784,150.9294 F,0,138728,140746,1,0 S,0,138728,140746,0,0.05
Sprite,Background,Centre,"sb\star.png",0,0 M,16,138778,141404,320,240,416.0025,478.3957 F,0,138778,141404,1,0 S,0,138778,141404,0,0.05
Sprite,Background,Centre,"sb\star.png",0,0 M,16,138828,141535,320,240,94.22885,250.1681 F,0,138828,141535,1,0 S,0,138828,141535,0,0.05
Sprite,Background,Centre,"sb\star.png",0,0 M,16,138878,141612,320,240,354.5189,316.5797 F,0,138878,141612,1,0 S,0,138878,141612,0,0.05
Sprite,Background,Centre,"sb\star.png",0,0 M,16,138928,141355,320,240,421.9939,241.1179 F,0,138928,141355,1,0 S,0,138928,141355,0,0.05
Sprite,Background,Centre,"sb\star.png",0,0 M,16,138978,141816,320,240,291.5794,-42.57436 F,0,138978,141816,1,0 S,0,138978,141816,0,0.05
Sprite,Background,Centre,"sb\star.png",0,0 M,16,139028,142025,320,240,245.6157,473.4352 F,0,139028,142025,1,0 S,0,139028,142025,0,0.05
Sprite,Background,Centre,"sb\star.png",0,0 M,16,139078,141443,320,240,487.5701,171.5803 F,0,139078,141443,1,0 S,0,139078,141443,0,0.05
Sprite,Background,Centre,"sb\star.png",0,0 M,16,139128,141391,320,240,291.4899,146.2387 F,0,139128,141391,1,0 S,0,139128,141391,0,0.05
Sprite,Background,Centre,"sb\star.png",0,0 M,16,139178,141864,320,240,73.12759,384.3953 F,0,139178,141864,1,0 S,0,139178,141864,0,0.05
Sprite,Background,Centre,"sb\star.png",0,0 M,16,139228,142082,320,240,382.7469,195.3701 F,0,139228,142082,1,0 S,0,139228,142082,0,0.05
Sprite,Background,Centre,"sb\star.png",0,0 M,16,139278,141478,320,240,434.3775,108.8749 F,0,139278,141478,1,0 S,0,139278,141478,0,0.05
Sprite,Background,Centre,"sb\star.png",0,0 M,16,139328,142053,320,240,436.3573,148.5397 F,0,139328,142053,1,0 S,0,139328,142053,0,0.05
Sprite,Background,Centre,"sb\star.png",0,0 M,16,139378,141619,320,240,251.8275,357.6797 F,0,139378,141619,1,0 S,0,139378,141619,0,0.05
Sprite,Background,Centre,"sb\star.png",0,0 M,16,139428,142011,320,240,447.6183,264.7702 F,0,139428,142011,1,0 S,0,139428,142011,0,0.05
Sprite,Background,Centre,"sb\star.png",0,0 M,16,139478,142448,320,240,382.3193,-23.73718 F,0,139478,142448,1,0 S,0,139478,142448,0,0.05
Sprite,Background,Centre,"sb\star.png",0,0 M,16,139528,142400,320,240,216.4839,369.7706 F,0,139528,142400,1,0 S,0,139528,142400,0,0.05
Sprite,Background,Centre,"sb\star.png",0,0 M,16,139578,141900,320,240,601.6058,203.201 F,0,139578,141900,1,0 S,0,139578,141900,0,0.05
Sprite,Background,Centre,"sb\star.png",0,0 M,16,139628,141812,320,240,475.8793,385.1573 F,0,139628,141812,1,0 S,0,139628,141812,0,0.05
Sprite,Background,Centre,"sb\star.png",0,0 M,16,139678,142670,320,240,227.674,134.7578 F,0,139678,142670,1,0 S,0,139678,142670,0,0.05
Sprite,Background,Centre,"sb\star.png",0,0 M,16,139728,142214,320,240,322.7973,185.0712 F,0,139728,142214,1,0 S,0,139728,142214,0,0.05
Sprite,Background,Centre,"sb\star.png",0,0 M,16,139778,141855,320,240,585.8995,280.7241 F,0,139778,141855,1,0 S,0,139778,141855,0,0.05
Sprite,Background,Centre,"sb\star.png",0,0 M,16,139828,142108,320,240,295.0334,136.9822 F,0,139828,142108,1,0 S,0,139828,142108,0,0.05
Sprite,Background,Centre,"sb\star.png",0,0 M,16,139878,142015,320,240,244.7053,219.6358 F,0,139878,142015,1,0 S,0,139878,142015,0,0.05
Sprite,Background,Centre,"sb\star.png",0,0 M,16,139928,142768,320,240,102.8718,337.4645 F,0,139928,142768,1,0 S,0,139928,142768,0,0.05
Sprite,Background,Centre,"sb\star.png",0,0 M,16,139978,142943,320,240,388.491,475.2318 F,0,139978,142943,1,0 S,0,139978,142943,0,0.05
Sprite,Background,Centre,"sb\star.png",0,0 M,16,140028,142935,320,240,276.444,355.0299 F,0,140028,142935,1,0 S,0,140028,142935,0,0.05
Sprite,Background,Centre,"sb\star.png",0,0 M,16,140078,142994,320,240,68.57391,268.1766 F,0,140078,142994,1,0 S,0,140078,142994,0,0.05
Sprite,Background,Centre,"sb\star.png",0,0 M,16,140128,142186,320,240,405.8785,401.5979 F,0,140128,142186,1,0 S,0,140128,142186,0,0.05
Sprite,Background,Centre,"sb\star.png",0,0 M,16,140178,143100,320,240,349.8484,194.9992 F,0,140178,143100,1,0 S,0,140178,143100,0,0.05
Sprite,Background,Centre,"sb\star.png",0,0 M,16,140228,142972,320,240,547.8839,288.5584 F,0,140228,142972,1,0 S,0,140228,142972,0,0.05
Sprite,Background,Centre,"sb\star.png",0,0 M,16,140278,142536,320,240,209.514,450.8005 F,0,140278,142536,1,0 S,0,140278,142536,0,0.05
Sprite,Background,Centre,"sb\star.png",0,0 M,16,140328,142903,320,240,155.5023,302.582 F,0,140328,142903,1,0 S,0,140328,142903,0,0.05
Sprite,Background,Centre,"sb\star.png",0,0 M,16,140378,142384,320,240,201.8693,52.03952 F,0,140378,142384,1,0 S,0,140378,142384,0,0.05
Sprite,Background,Centre,"sb\star.png",0,0 M,16,140428,142502,320,240,180.6182,426.7129 F,0,140428,142502,1,0 S,0,140428,142502,0,0.05
Sprite,Background,Centre,"sb\star.png",0,0 M,16,140478,143293,320,240,388.1502,395.7419 F,0,140478,143293,1,0 S,0,140478,143293,0,0.05
Sprite,Background,Centre,"sb\star.png",0,0 M,16,140528,143074,320,240,391.7196,164.6854 F,0,140528,143074,1,0 S,0,140528,143074,0,0.05
Sprite,Background,Centre,"sb\star.png",0,0 M,16,140578,143492,320,240,384.3873,269.9211 F,0,140578,143492,1,0 S,0,140578,143492,0,0.05
Sprite,Background,Centre,"sb\star.png",0,0 M,16,140628,142955,320,240,371.3257,425.0126 F,0,140628,142955,1,0 S,0,140628,142955,0,0.05
Sprite,Background,Centre,"sb\star.png",0,0 M,16,140678,142953,320,240,289.0264,284.2339 F,0,140678,142953,1,0 S,0,140678,142953,0,0.05
Sprite,Background,Centre,"sb\star.png",0,0 M,16,140728,143579,320,240,354.2689,374.7095 F,0,140728,143579,1,0 S,0,140728,143579,0,0.05
Sprite,Background,Centre,"sb\star.png",0,0 M,16,140778,143646,320,240,211.6619,340.8308 F,0,140778,143646,1,0 S,0,140778,143646,0,0.05
Sprite,Background,Centre,"sb\star.png",0,0 M,16,140828,143336,320,240,514.9983,239.1876 F,0,140828,143336,1,0 S,0,140828,143336,0,0.05
Sprite,Background,Centre,"sb\star.png",0,0 M,16,140878,142984,320,240,295.8909,385.0095 F,0,140878,142984,1,0 S,0,140878,142984,0,0.05
Sprite,Background,Centre,"sb\star.png",0,0 M,16,140928,143690,320,240,101.4481,73.08665 F,0,140928,143690,1,0 S,0,140928,143690,0,0.05
Sprite,Background,Centre,"sb\star.png",0,0 M,16,140978,143624,320,240,548.7175,363.6459 F,0,140978,143624,1,0 S,0,140978,143624,0,0.05
Sprite,Background,Centre,"sb\star.png",0,0 M,16,141028,143158,320,240,424.6645,273.843 F,0,141028,143158,1,0 S,0,141028,143158,0,0.05
Sprite,Background,Centre,"sb\star.png",0,0 M,16,141078,144065,320,240,361.2874,103.09 F,0,141078,144065,1,0 S,0,141078,144065,0,0.05
Sprite,Background,Centre,"sb\star.png",0,0 M,16,141128,144100,320,240,166.819,33.63971 F,0,141128,144100,1,0 S,0,141128,144100,0,0.05
Sprite,Background,Centre,"sb\star.png",0,0 M,16,141178,144142,320,240,430.5109,499.4443 F,0,141178,144142,1,0 S,0,141178,144142,0,0.05
Sprite,Background,Centre,"sb\star.png",0,0 M,16,141228,143347,320,240,196.3794,249.693 F,0,141228,143347,1,0 S,0,141228,143347,0,0.05
Sprite,Background,Centre,"sb\star.png",0,0 M,16,141278,143372,320,240,277.2556,316.9215 F,0,141278,143372,1,0 S,0,141278,143372,0,0.05
Sprite,Background,Centre,"sb\star.png",0,0 M,16,141328,143778,320,240,264.7091,324.5217 F,0,141328,143778,1,0 S,0,141328,143778,0,0.05
Sprite,Background,Centre,"sb\star.png",0,0 M,16,141378,144349,320,240,422.3966,166.577 F,0,141378,144349,1,0 S,0,141378,144349,0,0.05
Sprite,Background,Centre,"sb\star.png",0,0 M,16,141428,143613,320,240,396.4861,99.46577 F,0,141428,143613,1,0 S,0,141428,143613,0,0.05
Sprite,Background,Centre,"sb\star.png",0,0 M,16,141478,144072,320,240,355.5149,319.421 F,0,141478,144072,1,0 S,0,141478,144072,0,0.05
Sprite,Background,Centre,"sb\star.png",0,0 M,16,141528,143993,320,240,290.567,21.97775 F,0,141528,143993,1,0 S,0,141528,143993,0,0.05
Sprite,Background,Centre,"sb\star.png",0,0 M,16,141578,143706,320,240,333.4439,155.0573 F,0,141578,143706,1,0 S,0,141578,143706,0,0.05
Sprite,Background,Centre,"sb\star.png",0,0 M,16,141628,143925,320,240,584.4666,211.479 F,0,141628,143925,1,0 S,0,141628,143925,0,0.05
Sprite,Background,Centre,"sb\star.png",0,0 M,16,141678,144091,320,240,66.76519,135.3667 F,0,141678,144091,1,0 S,0,141678,144091,0,0.05
Sprite,Background,Centre,"sb\star.png",0,0 M,16,141728,144460,320,240,211.3138,89.05861 F,0,141728,144460,1,0 S,0,141728,144460,0,0.05
Sprite,Background,Centre,"sb\star.png",0,0 M,16,141778,144591,320,240,569.4688,399.3152 F,0,141778,144591,1,0 S,0,141778,144591,0,0.05
Sprite,Background,Centre,"sb\star.png",0,0 M,16,141828,144616,320,240,316.0302,24.03648 F,0,141828,144616,1,0 S,0,141828,144616,0,0.05
Sprite,Background,Centre,"sb\star.png",0,0 M,16,141878,144151,320,240,254.7609,165.5362 F,0,141878,144151,1,0 S,0,141878,144151,0,0.05
Sprite,Background,Centre,"sb\star.png",0,0 M,16,141928,144664,320,240,402.1141,205.674 F,0,141928,144664,1,0 S,0,141928,144664,0,0.05
Sprite,Background,Centre,"sb\star.png",0,0 M,16,141978,144126,320,240,549.6609,141.2281 F,0,141978,144126,1,0 S,0,141978,144126,0,0.05
Sprite,Background,Centre,"sb\star.png",0,0 M,16,142028,144995,320,240,257.6549,110.196 F,0,142028,144995,1,0 S,0,142028,144995,0,0.05
Sprite,Background,Centre,"sb\star.png",0,0 M,16,142078,144543,320,240,320.0714,414 F,0,142078,144543,1,0 S,0,142078,144543,0,0.05
Sprite,Background,Centre,"sb\star.png",0,0 M,16,142128,144585,320,240,488.5916,484.5115 F,0,142128,144585,1,0 S,0,142128,144585,0,0.05
Sprite,Background,Centre,"sb\star.png",0,0 M,16,142178,144890,320,240,257.52,481.0337 F,0,142178,144890,1,0 S,0,142178,144890,0,0.05
Sprite,Background,Centre,"sb\star.png",0,0 M,16,142228,144575,320,240,298.6337,294.9953 F,0,142228,144575,1,0 S,0,142228,144575,0,0.05
Sprite,Background,Centre,"sb\star.png",0,0 M,16,142278,145057,320,240,328.2459,131.3123 F,0,142278,145057,1,0 S,0,142278,145057,0,0.05
Sprite,Background,Centre,"sb\star.png",0,0 M,16,142328,144578,320,240,183.8029,280.1789 F,0,142328,144578,1,0 S,0,142328,144578,0,0.05
Sprite,Background,Centre,"sb\star.png",0,0 M,16,142378,145116,320,240,70.29662,265.4799 F,0,142378,145116,1,0 S,0,142378,145116,0,0.05
Sprite,Background,Centre,"sb\star.png",0,0 M,16,142428,144864,320,240,222.4762,249.6493 F,0,142428,144864,1,0 S,0,142428,144864,0,0.05
Sprite,Background,Centre,"sb\star.png",0,0 M,16,142478,144571,320,240,466.4987,227.8708 F,0,142478,144571,1,0 S,0,142478,144571,0,0.05
Sprite,Background,Centre,"sb\star.png",0,0 M,16,142528,145365,320,240,400.6599,272.6033 F,0,142528,145365,1,0 S,0,142528,145365,0,0.05
Sprite,Background,Centre,"sb\star.png",0,0 M,16,142578,144625,320,240,160.2236,220.1882 F,0,142578,144625,1,0 S,0,142578,144625,0,0.05
Sprite,Background,Centre,"sb\star.png",0,0 M,16,142628,145511,320,240,431.2512,272.8507 F,0,142628,145511,1,0 S,0,142628,145511,0,0.05
Sprite,Background,Centre,"sb\star.png",0,0 M,16,142678,145078,320,240,458.9097,234.9899 F,0,142678,145078,1,0 S,0,142678,145078,0,0.05
Sprite,Background,Centre,"sb\star.png",0,0 M,16,142728,145664,320,240,367.3535,189.8138 F,0,142728,145664,1,0 S,0,142728,145664,0,0.05
Sprite,Background,Centre,"sb\star.png",0,0 M,16,142778,145234,320,240,470.6264,477.2187 F,0,142778,145234,1,0 S,0,142778,145234,0,0.05
Sprite,Background,Centre,"sb\star.png",0,0 M,16,142828,145154,320,240,573.0929,100.483 F,0,142828,145154,1,0 S,0,142828,145154,0,0.05
Sprite,Background,Centre,"sb\star.png",0,0 M,16,142878,145052,320,240,71.13234,354.6337 F,0,142878,145052,1,0 S,0,142878,145052,0,0.05
Sprite,Background,Centre,"sb\star.png",0,0 M,16,142928,145409,320,240,223.4714,193.8348 F,0,142928,145409,1,0 S,0,142928,145409,0,0.05
Sprite,Background,Centre,"sb\star.png",0,0 M,16,142978,145172,320,240,300.2204,293.4581 F,0,142978,145172,1,0 S,0,142978,145172,0,0.05
Sprite,Background,Centre,"sb\star.png",0,0 M,16,143028,145793,320,240,206.1771,156.7813 F,0,143028,145793,1,0 S,0,143028,145793,0,0.05
Sprite,Background,Centre,"sb\star.png",0,0 M,16,143078,145245,320,240,160.8394,24.3802 F,0,143078,145245,1,0 S,0,143078,145245,0,0.05
Sprite,Background,Centre,"sb\star.png",0,0 M,16,143128,145357,320,240,214.5254,172.9172 F,0,143128,145357,1,0 S,0,143128,145357,0,0.05
Sprite,Background,Centre,"sb\star.png",0,0 M,16,143178,145967,320,240,589.7609,191.9892 F,0,143178,145967,1,0 S,0,143178,145967,0,0.05
Sprite,Background,Centre,"sb\star.png",0,0 M,16,143228,145944,320,240,580.7691,265.3668 F,0,143228,145944,1,0 S,0,143228,145944,0,0.05
Sprite,Background,Centre,"sb\star.png",0,0 M,16,143278,145738,320,240,288.8268,-8.048847 F,0,143278,145738,1,0 S,0,143278,145738,0,0.05
Sprite,Background,Centre,"sb\star.png",0,0 M,16,143328,145941,320,240,288.4964,532.3073 F,0,143328,145941,1,0 S,0,143328,145941,0,0.05
Sprite,Background,Centre,"sb\star.png",0,0 M,16,143378,145702,320,240,99.10403,336.3637 F,0,143378,145702,1,0 S,0,143378,145702,0,0.05
Sprite,Background,Centre,"sb\star.png",0,0 M,16,143428,145495,320,240,319.7208,454.9998 F,0,143428,145495,1,0 S,0,143428,145495,0,0.05
Sprite,Background,Centre,"sb\star.png",0,0 M,16,143478,146107,320,240,358.1063,427.1601 F,0,143478,146107,1,0 S,0,143478,146107,0,0.05
Sprite,Background,Centre,"sb\star.png",0,0 M,16,143528,146476,320,240,337.0727,461.3426 F,0,143528,146476,1,0 S,0,143528,146476,0,0.05
Sprite,Background,Centre,"sb\star.png",0,0 M,16,143578,146317,320,240,527.7397,229.5972 F,0,143578,146317,1,0 S,0,143578,146317,0,0.05
Sprite,Background,Centre,"sb\star.png",0,0 M,16,143628,146021,320,240,392.5424,470.8714 F,0,143628,146021,1,0 S,0,143628,146021,0,0.05
Sprite,Background,Centre,"sb\star.png",0,0 M,16,143678,145899,320,240,245.0395,165.0539 F,0,143678,145899,1,0 S,0,143678,145899,0,0.05
Sprite,Background,Centre,"sb\star.png",0,0 M,16,143728,146297,320,240,490.8095,308.4112 F,0,143728,146297,1,0 S,0,143728,146297,0,0.05
Sprite,Background,Centre,"sb\star.png",0,0 M,16,143778,146725,320,240,476.3226,289.5908 F,0,143778,146725,1,0 S,0,143778,146725,0,0.05
Sprite,Background,Centre,"sb\star.png",0,0 M,16,143828,146243,320,240,270.828,264.6397 F,0,143828,146243,1,0 S,0,143828,146243,0,0.05
Sprite,Background,Centre,"sb\star.png",0,0 M,16,143878,146718,320,240,505.4553,300.2607 F,0,143878,146718,1,0 S,0,143878,146718,0,0.05
Sprite,Background,Centre,"sb\star.png",0,0 M,16,143928,145967,320,240,189.0885,148.0098 F,0,143928,145967,1,0 S,0,143928,145967,0,0.05
Sprite,Background,Centre,"sb\star.png",0,0 M,16,143978,146143,320,240,337.9682,312.8158 F,0,143978,146143,1,0 S,0,143978,146143,0,0.05
Sprite,Background,Centre,"sb\star.png",0,0 M,16,144028,146426,320,240,299.7103,42.03706 F,0,144028,146426,1,0 S,0,144028,146426,0,0.05
Sprite,Background,Centre,"sb\star.png",0,0 M,16,144078,146450,320,240,388.5938,490.7885 F,0,144078,146450,1,0 S,0,144078,146450,0,0.05
Sprite,Background,Centre,"sb\star.png",0,0 M,16,144128,146862,320,240,385.1063,526.7005 F,0,144128,146862,1,0 S,0,144128,146862,0,0.05
Sprite,Background,Centre,"sb\star.png",0,0 M,16,144178,146201,320,240,384.5953,253.5441 F,0,144178,146201,1,0 S,0,144178,146201,0,0.05
Sprite,Background,Centre,"sb\star.png",0,0 M,16,144228,146756,320,240,321.6779,93.00957 F,0,144228,146756,1,0 S,0,144228,146756,0,0.05
Sprite,Background,Centre,"sb\star.png",0,0 M,16,144278,146920,320,240,350.6334,476.0203 F,0,144278,146920,1,0 S,0,144278,146920,0,0.05
Sprite,Background,Centre,"sb\star.png",0,0 M,16,144328,146701,320,240,342.2823,315.7925 F,0,144328,146701,1,0 S,0,144328,146701,0,0.05
Sprite,Background,Centre,"sb\star.png",0,0 M,16,144378,146579,320,240,221.1986,210.8918 F,0,144378,146579,1,0 S,0,144378,146579,0,0.05
Sprite,Background,Centre,"sb\star.png",0,0 M,16,144428,147219,320,240,379.396,287.4143 F,0,144428,147219,1,0 S,0,144428,147219,0,0.05
Sprite,Background,Centre,"sb\star.png",0,0 M,16,144478,146665,320,240,397.4312,450.1913 F,0,144478,146665,1,0 S,0,144478,146665,0,0.05
Sprite,Background,Centre,"sb\star.png",0,0 M,16,144528,146922,320,240,268.5925,147.3001 F,0,144528,146922,1,0 S,0,144528,146922,0,0.05
Sprite,Background,Centre,"sb\star.png",0,0 M,16,144578,147568,320,240,143.2112,56.23191 F,0,144578,147568,1,0 S,0,144578,147568,0,0.05
Sprite,Background,Centre,"sb\star.png",0,0 M,16,144628,147519,320,240,287.3253,146.5475 F,0,144628,147519,1,0 S,0,144628,147519,0,0.05
Sprite,Background,Centre,"sb\star.png",0,0 M,16,144678,147531,320,240,217.6937,251.9341 F,0,144678,147531,1,0 S,0,144678,147531,0,0.05
Sprite,Background,Centre,"sb\star.png",0,0 M,16,144728,147562,320,240,462.0289,198.3853 F,0,144728,147562,1,0 S,0,144728,147562,0,0.05
Sprite,Background,Centre,"sb\star.png",0,0 M,16,144778,147171,320,240,367.3972,358.9012 F,0,144778,147171,1,0 S,0,144778,147171,0,0.05
Sprite,Background,Centre,"sb\star.png",0,0 M,16,144828,147126,320,240,262.3292,102.6134 F,0,144828,147126,1,0 S,0,144828,147126,0,0.05
Sprite,Background,Centre,"sb\star.png",0,0 M,16,144878,147246,320,240,566.2075,210.236 F,0,144878,147246,1,0 S,0,144878,147246,0,0.05
Sprite,Background,Centre,"sb\star.png",0,0 M,16,144928,146935,320,240,245.5633,305.2701 F,0,144928,146935,1,0 S,0,144928,146935,0,0.05
Sprite,Background,Centre,"sb\star.png",0,0 M,16,144978,147166,320,240,299.1713,46.11559 F,0,144978,147166,1,0 S,0,144978,147166,0,0.05
Sprite,Background,Centre,"sb\star.png",0,0 M,16,145028,147128,320,240,288.5079,423.3146 F,0,145028,147128,1,0 S,0,145028,147128,0,0.05
Sprite,Background,Centre,"sb\star.png",0,0 M,16,145078,147098,320,240,429.2138,64.15536 F,0,145078,147098,1,0 S,0,145078,147098,0,0.05
Sprite,Background,Centre,"sb\star.png",0,0 M,16,145128,147491,320,240,152.9564,162.8481 F,0,145128,147491,1,0 S,0,145128,147491,0,0.05
Sprite,Background,Centre,"sb\star.png",0,0 M,16,145178,147301,320,240,97.96619,157.1146 F,0,145178,147301,1,0 S,0,145178,147301,0,0.05
Sprite,Background,Centre,"sb\star.png",0,0 M,16,145228,147760,320,240,469.2267,139.3452 F,0,145228,147760,1,0 S,0,145228,147760,0,0.05
Sprite,Background,Centre,"sb\star.png",0,0 M,16,145278,148000,320,240,381.2331,112.9901 F,0,145278,148000,1,0 S,0,145278,148000,0,0.05
Sprite,Background,Centre,"sb\star.png",0,0 M,16,145328,147918,320,240,361.9286,97.02102 F,0,145328,147918,1,0 S,0,145328,147918,0,0.05
Sprite,Background,Centre,"sb\star.png",0,0 M,16,145378,148295,320,240,231.4595,497.1859 F,0,145378,148295,1,0 S,0,145378,148295,0,0.05
Sprite,Background,Centre,"sb\star.png",0,0 M,16,145428,147935,320,240,268.495,261.9825 F,0,145428,147935,1,0 S,0,145428,147935,0,0.05
Sprite,Background,Centre,"sb\star.png",0,0 M,16,145478,148166,320,240,112.3452,30.46598 F,0,145478,148166,1,0 S,0,145478,148166,0,0.05
Sprite,Background,Centre,"sb\star.png",0,0 M,16,145528,147770,320,240,153.5984,88.55529 F,0,145528,147770,1,0 S,0,145528,147770,0,0.05
Sprite,Background,Centre,"sb\star.png",0,0 M,16,145578,148541,320,240,201.6354,33.5204 F,0,145578,148541,1,0 S,0,145578,148541,0,0.05
Sprite,Background,Centre,"sb\star.png",0,0 M,16,145628,147832,320,240,341.6296,-12.07372 F,0,145628,147832,1,0 S,0,145628,147832,0,0.05
Sprite,Background,Centre,"sb\star.png",0,0 M,16,145678,147794,320,240,328.5041,183.638 F,0,145678,147794,1,0 S,0,145678,147794,0,0.05
Sprite,Background,Centre,"sb\star.png",0,0 M,16,145728,148348,320,240,263.625,166.0348 F,0,145728,148348,1,0 S,0,145728,148348,0,0.05
Sprite,Background,Centre,"sb\star.png",0,0 M,16,145778,147907,320,240,285.6333,495.7009 F,0,145778,147907,1,0 S,0,145778,147907,0,0.05
Sprite,Background,Centre,"sb\star.png",0,0 M,16,145828,147903,320,240,378.5515,134.1099 F,0,145828,147903,1,0 S,0,145828,147903,0,0.05
Sprite,Background,Centre,"sb\star.png",0,0 M,16,145878,148441,320,240,403.1738,420.7848 F,0,145878,148441,1,0 S,0,145878,148441,0,0.05
Sprite,Background,Centre,"sb\star.png",0,0 M,16,145928,148865,320,240,267.55,160.7914 F,0,145928,148865,1,0 S,0,145928,148865,0,0.05
Sprite,Background,Centre,"sb\star.png",0,0 M,16,145978,148952,320,240,177.5397,133.2805 F,0,145978,148952,1,0 S,0,145978,148952,0,0.05
Sprite,Background,Centre,"sb\star.png",0,0 M,16,146028,148430,320,240,115.1017,165.5641 F,0,146028,148430,1,0 S,0,146028,148430,0,0.05
Sprite,Background,Centre,"sb\star.png",0,0 M,16,146078,149021,320,240,577.9302,319.8247 F,0,146078,149021,1,0 S,0,146078,149021,0,0.05
Sprite,Background,Centre,"sb\star.png",0,0 M,16,146128,149067,320,240,341.6042,49.21934 F,0,146128,149067,1,0 S,0,146128,149067,0,0.05
Sprite,Background,Centre,"sb\star.png",0,0 M,16,146178,148416,320,240,150.8669,181.3911 F,0,146178,148416,1,0 S,0,146178,148416,0,0.05
Sprite,Background,Centre,"sb\star.png",0,0 M,16,146228,148285,320,240,205.6947,363.119 F,0,146228,148285,1,0 S,0,146228,148285,0,0.05
Sprite,Background,Centre,"sb\star.png",0,0 M,16,146278,148299,320,240,293.0352,118.9674 F,0,146278,148299,1,0 S,0,146278,148299,0,0.05
Sprite,Background,Centre,"sb\star.png",0,0 M,16,146328,148984,320,240,371.7612,374.3755 F,0,146328,148984,1,0 S,0,146328,148984,0,0.05
Sprite,Background,Centre,"sb\star.png",0,0 M,16,146378,148542,320,240,256.0788,47.3265 F,0,146378,148542,1,0 S,0,146378,148542,0,0.05
Sprite,Background,Centre,"sb\star.png",0,0 M,16,146428,149223,320,240,492.2726,375.2151 F,0,146428,149223,1,0 S,0,146428,149223,0,0.05
Sprite,Background,Centre,"sb\star.png",0,0 M,16,146478,148914,320,240,269.3504,216.1124 F,0,146478,148914,1,0 S,0,146478,148914,0,0.05
Sprite,Background,Centre,"sb\star.png",0,0 M,16,146528,148538,320,240,286.7832,341.7136 F,0,146528,148538,1,0 S,0,146528,148538,0,0.05
Sprite,Background,Centre,"sb\star.png",0,0 M,16,146578,148739,320,240,180.5117,420.3524 F,0,146578,148739,1,0 S,0,146578,148739,0,0.05
Sprite,Background,Centre,"sb\star.png",0,0 M,16,146628,148846,320,240,261.0639,450.9207 F,0,146628,148846,1,0 S,0,146628,148846,0,0.05
Sprite,Background,Centre,"sb\star.png",0,0 M,16,146678,149276,320,240,310.5386,336.5375 F,0,146678,149276,1,0 S,0,146678,149276,0,0.05
Sprite,Background,Centre,"sb\star.png",0,0 M,16,146728,149231,320,240,345.1779,-17.7733 F,0,146728,149231,1,0 S,0,146728,149231,0,0.05
Sprite,Background,Centre,"sb\star.png",0,0 M,16,146778,149055,320,240,446.4642,362.4042 F,0,146778,149055,1,0 S,0,146778,149055,0,0.05
Sprite,Background,Centre,"sb\star.png",0,0 M,16,146828,149640,320,240,530.2866,56.6409 F,0,146828,149640,1,0 S,0,146828,149640,0,0.05
Sprite,Background,Centre,"sb\star.png",0,0 M,16,146878,149819,320,240,404.4776,337.4912 F,0,146878,149819,1,0 S,0,146878,149819,0,0.05
Sprite,Background,Centre,"sb\star.png",0,0 M,16,146928,149338,320,240,420.923,281.1771 F,0,146928,149338,1,0 S,0,146928,149338,0,0.05
Sprite,Background,Centre,"sb\star.png",0,0 M,16,146978,149834,320,240,345.3594,322.176 F,0,146978,149834,1,0 S,0,146978,149834,0,0.05
Sprite,Background,Centre,"sb\star.png",0,0 M,16,147028,149969,320,240,151.5132,192.7009 F,0,147028,149969,1,0 S,0,147028,149969,0,0.05
Sprite,Background,Centre,"sb\star.png",0,0 M,16,147078,149275,320,240,294.4329,343.9005 F,0,147078,149275,1,0 S,0,147078,149275,0,0.05
Sprite,Background,Centre,"sb\star.png",0,0 M,16,147128,149380,320,240,339.3596,-33.31522 F,0,147128,149380,1,0 S,0,147128,149380,0,0.05
Sprite,Background,Centre,"sb\star.png",0,0 M,16,147178,149192,320,240,136.9059,69.775 F,0,147178,149192,1,0 S,0,147178,149192,0,0.05
Sprite,Background,Centre,"sb\star.png",0,0 M,16,147228,149649,320,240,344.8044,298.9978 F,0,147228,149649,1,0 S,0,147228,149649,0,0.05
Sprite,Background,Centre,"sb\star.png",0,0 M,16,147278,150203,320,240,355.454,27.94337 F,0,147278,150203,1,0 S,0,147278,150203,0,0.05
Sprite,Background,Centre,"sb\star.png",0,0 M,16,147328,150261,320,240,403.5922,398.2825 F,0,147328,150261,1,0 S,0,147328,150261,0,0.05
Sprite,Background,Centre,"sb\star.png",0,0 M,16,147378,150361,320,240,478.0134,370.6016 F,0,147378,150361,1,0 S,0,147378,150361,0,0.05
Sprite,Background,Centre,"sb\star.png",0,0 M,16,147428,150112,320,240,377.0704,204.9006 F,0,147428,150112,1,0 S,0,147428,150112,0,0.05
Sprite,Background,Centre,"sb\star.png",0,0 M,16,147478,149641,320,240,85.825,276.4839 F,0,147478,149641,1,0 S,0,147478,149641,0,0.05
Sprite,Background,Centre,"sb\star.png",0,0 M,16,147528,149821,320,240,182.4472,213.9382 F,0,147528,149821,1,0 S,0,147528,149821,0,0.05
Sprite,Background,Centre,"sb\star.png",0,0 M,16,147578,149669,320,240,237.8991,42.37552 F,0,147578,149669,1,0 S,0,147578,149669,0,0.05
Sprite,Background,Centre,"sb\star.png",0,0 M,16,147628,150349,320,240,222.2849,160.4529 F,0,147628,150349,1,0 S,0,147628,150349,0,0.05
Sprite,Background,Centre,"sb\star.png",0,0 M,16,147678,150155,320,240,276.7341,204.4463 F,0,147678,150155,1,0 S,0,147678,150155,0,0.05
Sprite,Background,Centre,"sb\star.png",0,0 M,16,147728,150089,320,240,509.023,402.0842 F,0,147728,150089,1,0 S,0,147728,150089,0,0.05
Sprite,Background,Centre,"sb\star.png",0,0 M,16,147778,150044,320,240,308.6389,419.6411 F,0,147778,150044,1,0 S,0,147778,150044,0,0.05
Sprite,Background,Centre,"sb\star.png",0,0 M,16,147828,150777,320,240,168.5786,160.5483 F,0,147828,150777,1,0 S,0,147828,150777,0,0.05
Sprite,Background,Centre,"sb\star.png",0,0 M,16,147878,150163,320,240,128.0582,36.14135 F,0,147878,150163,1,0 S,0,147878,150163,0,0.05
Sprite,Background,Centre,"sb\star.png",0,0 M,16,147928,149957,320,240,529.8478,41.29189 F,0,147928,149957,1,0 S,0,147928,149957,0,0.05
Sprite,Background,Centre,"sb\star.png",0,0 M,16,147978,150411,320,240,415.6506,390.1165 F,0,147978,150411,1,0 S,0,147978,150411,0,0.05
Sprite,Background,Centre,"sb\star.png",0,0 M,16,148028,150404,320,240,363.7256,297.202 F,0,148028,150404,1,0 S,0,148028,150404,0,0.05
Sprite,Background,Centre,"sb\star.png",0,0 M,16,148078,150363,320,240,105.4897,322.978 F,0,148078,150363,1,0 S,0,148078,150363,0,0.05
Sprite,Background,Centre,"sb\star.png",0,0 M,16,148128,150217,320,240,212.6707,316.8403 F,0,148128,150217,1,0 S,0,148128,150217,0,0.05
Sprite,Background,Centre,"sb\star.png",0,0 M,16,148178,150677,320,240,258.3582,318.7419 F,0,148178,150677,1,0 S,0,148178,150677,0,0.05
Sprite,Background,Centre,"sb\star.png",0,0 M,16,148228,150395,320,240,156.1333,246.6121 F,0,148228,150395,1,0 S,0,148228,150395,0,0.05
Sprite,Background,Centre,"sb\star.png",0,0 M,16,148278,150841,320,240,414.1062,57.87635 F,0,148278,150841,1,0 S,0,148278,150841,0,0.05
Sprite,Background,Centre,"sb\star.png",0,0 M,16,148328,151325,320,240,173.0632,193.8959 F,0,148328,151325,1,0 S,0,148328,151325,0,0.05
Sprite,Background,Centre,"sb\star.png",0,0 M,16,148378,151030,320,240,309.959,342.5094 F,0,148378,151030,1,0 S,0,148378,151030,0,0.05
Sprite,Background,Centre,"sb\star.png",0,0 M,16,148428,151326,320,240,272.6987,259.0679 F,0,148428,151326,1,0 S,0,148428,151326,0,0.05
Sprite,Background,Centre,"sb\star.png",0,0 M,16,148478,151378,320,240,299.2845,178.3894 F,0,148478,151378,1,0 S,0,148478,151378,0,0.05
Sprite,Background,Centre,"sb\star.png",0,0 M,16,148528,151335,320,240,351.799,122.217 F,0,148528,151335,1,0 S,0,148528,151335,0,0.05
Sprite,Background,Centre,"sb\star.png",0,0 M,16,148578,151027,320,240,388.9191,210.4169 F,0,148578,151027,1,0 S,0,148578,151027,0,0.05
Sprite,Background,Centre,"sb\star.png",0,0 M,16,148628,151091,320,240,380.2433,271.5396 F,0,148628,151091,1,0 S,0,148628,151091,0,0.05
Sprite,Background,Centre,"sb\star.png",0,0 M,16,148678,151349,320,240,354.9807,327.2488 F,0,148678,151349,1,0 S,0,148678,151349,0,0.05
Sprite,Background,Centre,"sb\star.png",0,0 M,16,148728,151586,320,240,288.6754,398.9427 F,0,148728,151586,1,0 S,0,148728,151586,0,0.05
Sprite,Background,Centre,"sb\star.png",0,0 M,16,148778,150999,320,240,242.7441,256.5085 F,0,148778,150999,1,0 S,0,148778,150999,0,0.05
Sprite,Background,Centre,"sb\star.png",0,0 M,16,148828,150964,320,240,234.6111,382.3542 F,0,148828,150964,1,0 S,0,148828,150964,0,0.05
Sprite,Background,Centre,"sb\star.png",0,0 M,16,148878,150931,320,240,450.9773,330.1441 F,0,148878,150931,1,0 S,0,148878,150931,0,0.05
Sprite,Background,Centre,"sb\star.png",0,0 M,16,148928,151539,320,240,482.438,77.16908 F,0,148928,151539,1,0 S,0,148928,151539,0,0.05
Sprite,Background,Centre,"sb\star.png",0,0 M,16,148978,151858,320,240,286.6912,97.85035 F,0,148978,151858,1,0 S,0,148978,151858,0,0.05
Sprite,Background,Centre,"sb\star.png",0,0 M,16,149028,151030,320,240,308.188,336.2781 F,0,149028,151030,1,0 S,0,149028,151030,0,0.05
Sprite,Background,Centre,"sb\star.png",0,0 M,16,149078,151780,320,240,511.4959,127.6911 F,0,149078,151780,1,0 S,0,149078,151780,0,0.05
Sprite,Background,Centre,"sb\star.png",0,0 M,16,149128,151691,320,240,179.0906,420.5146 F,0,149128,151691,1,0 S,0,149128,151691,0,0.05
Sprite,Background,Centre,"sb\star.png",0,0 M,16,149178,151736,320,240,249.2116,218.436 F,0,149178,151736,1,0 S,0,149178,151736,0,0.05
Sprite,Background,Centre,"sb\star.png",0,0 M,16,149228,151977,320,240,327.9438,370.7589 F,0,149228,151977,1,0 S,0,149228,151977,0,0.05
Sprite,Background,Centre,"sb\star.png",0,0 M,16,149278,151637,320,240,341.459,-7.069849 F,0,149278,151637,1,0 S,0,149278,151637,0,0.05
Sprite,Background,Centre,"sb\star.png",0,0 M,16,149328,152312,320,240,488.8851,100.5768 F,0,149328,152312,1,0 S,0,149328,152312,0,0.05
Sprite,Background,Centre,"sb\star.png",0,0 M,16,149378,152350,320,240,121.341,105.3352 F,0,149378,152350,1,0 S,0,149378,152350,0,0.05
Sprite,Background,Centre,"sb\star.png",0,0 M,16,149428,151790,320,240,462.1201,49.09197 F,0,149428,151790,1,0 S,0,149428,151790,0,0.05
Sprite,Background,Centre,"sb\star.png",0,0 M,16,149478,152174,320,240,134.6041,420.8573 F,0,149478,152174,1,0 S,0,149478,152174,0,0.05
Sprite,Background,Centre,"sb\star.png",0,0 M,16,149528,151588,320,240,245.8745,59.63813 F,0,149528,151588,1,0 S,0,149528,151588,0,0.05
Sprite,Background,Centre,"sb\star.png",0,0 M,16,149578,151941,320,240,536.3698,223.4738 F,0,149578,151941,1,0 S,0,149578,151941,0,0.05
Sprite,Background,Centre,"sb\hit\r.png",482,179 F,6,149619,150319,1,0 S,7,149619,150319,0.25,0.5
Sprite,Background,Centre,"sb\hit\r.png",299,132 F,6,150325,151025,1,0 S,7,150325,151025,0.25,0.5
Sprite,Background,Centre,"sb\hit\r.png",299,226 F,6,151031,151731,1,0 S,7,151031,151731,0.25,0.5
Sprite,Background,Centre,"sb\hit\r.png",482,179 F,6,151737,152437,1,0 S,7,151737,152437,0.25,0.5
Sprite,Background,Centre,"sb\hit\r.png",482,273 F,6,152443,153143,1,0 S,7,152443,153143,0.25,0.5
Sprite,Background,Centre,"sb\hit\r.png",299,226 F,6,153149,153849,1,0 S,7,153149,153849,0.25,0.5
Sprite,Background,Centre,"sb\hit\r.png",299,320 F,6,153854,154554,1,0 S,7,153854,154554,0.25,0.5
Sprite,Background,Centre,"sb\hit\r.png",482,273 F,6,154560,155260,1,0 S,7,154560,155260,0.25,0.5
Sprite,Background,Centre,"sb\hit\r.png",482,367 F,6,155266,155966,1,0 S,7,155266,155966,0.25,0.5
Sprite,Background,Centre,"sb\hit\r.png",482,273 F,6,155619,156319,1,0 S,7,155619,156319,0.25,0.5
Sprite,Background,Centre,"sb\hit\r.png",482,179 F,6,155972,156672,1,0 S,7,155972,156672,0.25,0.5
Sprite,Background,Centre,"sb\hit\r.png",482,85 F,6,156325,157025,1,0 S,7,156325,157025,0.25,0.5
Sprite,Background,Centre,"sb\hit\r.png",299,414 F,6,156678,157378,1,0 S,7,156678,157378,0.25,0.5
Sprite,Background,Centre,"sb\hit\r.png",299,320 F,6,157031,157731,1,0 S,7,157031,157731,0.25,0.5
Sprite,Background,Centre,"sb\hit\r.png",299,226 F,6,157384,158084,1,0 S,7,157384,158084,0.25,0.5
Sprite,Background,Centre,"sb\hit\r.png",299,132 F,6,157737,158437,1,0 S,7,157737,158437,0.25,0.5
Sprite,Background,Centre,"sb\hit\r.png",508,389 F,6,158090,158790,1,0 S,7,158090,158790,0.25,0.5
Sprite,Background,Centre,"sb\hit\r.png",448,315 F,6,158266,158966,1,0 S,7,158266,158966,0.25,0.5
Sprite,Background,Centre,"sb\hit\r.png",347,295 F,6,158443,159143,1,0 S,7,158443,159143,0.25,0.5
Sprite,Background,Centre,"sb\hit\r.png",249,344 F,6,158619,159319,1,0 S,7,158619,159319,0.25,0.5
Sprite,Background,Centre,"sb\hit\r.png",508,389 F,6,158795,159495,1,0 S,7,158795,159495,0.25,0.5
Sprite,Background,Centre,"sb\hit\r.png",488,166 F,6,158972,159672,1,0 S,7,158972,159672,0.25,0.5
Sprite,Background,Centre,"sb\hit\r.png",545,277 F,6,159148,159848,1,0 S,7,159148,159848,0.25,0.5
Sprite,Background,Centre,"sb\hit\r.png",357,144 F,6,159325,160025,1,0 S,7,159325,160025,0.25,0.5
Sprite,Background,Centre,"sb\hit\h.png",249,344 F,7,159501,160501,1,0 S,7,159501,160501,0.7,1.4
Sprite,Background,Centre,"sb\hit\h.png",263,369 F,7,159590,160590,1,0 S,7,159590,160590,0.7,1.4
Sprite,Background,Centre,"sb\hit\h.png",293,382 F,7,159678,160678,1,0 S,7,159678,160678,0.7,1.4
Sprite,Background,Centre,"sb\hit\h.png",327,369 F,7,159766,160766,1,0 S,7,159766,160766,0.7,1.4
Sprite,Background,Centre,"sb\hit\h.png",340,330 F,7,159854,160854,1,0 S,7,159854,160854,0.7,1.4
Sprite,Background,Centre,"sb\hit\h.png",312,294 F,7,159943,160943,1,0 S,7,159943,160943,0.7,1.4
Sprite,Background,Centre,"sb\hit\h.png",264,289 F,7,160031,161031,1,0 S,7,160031,161031,0.7,1.4
Sprite,Background,Centre,"sb\hit\h.png",221,317 F,7,160119,161119,1,0 S,7,160119,161119,0.7,1.4
Sprite,Background,Centre,"sb\hit\h.png",179,353 F,7,160207,161207,1,0 S,7,160207,161207,0.7,1.4
Sprite,Background,Centre,"sb\hit\h.png",120,356 F,7,160295,161295,1,0 S,7,160295,161295,0.7,1.4
Sprite,Background,Centre,"sb\hit\h.png",71,315 F,7,160384,161384,1,0 S,7,160384,161384,0.7,1.4
Sprite,Background,Centre,"sb\hit\h.png",64,249 F,7,160472,161472,1,0 S,7,160472,161472,0.7,1.4
Sprite,Background,Centre,"sb\hit\h.png",110,197 F,7,160560,161560,1,0 S,7,160560,161560,0.7,1.4
Sprite,Background,Centre,"sb\hit\h.png",183,191 F,7,160648,161648,1,0 S,7,160648,161648,0.7,1.4
Sprite,Background,Centre,"sb\hit\h.png",252,225 F,7,160737,161737,1,0 S,7,160737,161737,0.7,1.4
Sprite,Background,Centre,"sb\bar.png",0,0 M,0,160913,,366,131 C,0,160913,,86,191,237 V,0,160913,,35,1 M,0,160913,160935,366,131,341.6391,121.6955 M,0,160935,160957,341.6391,121.6955,315.6127,121.2194 M,0,160957,160979,315.6127,121.2194,291.0033,129.6027 M,0,160979,161001,291.0033,129.6027,270.4147,145.5715 M,0,161001,161023,270.4147,145.5715 M,0,161001,161090,270.4147,145.5715,189,272 M,0,161090,161178,189,272 M,0,161178,161200,189,272,190.2902,287.6971 M,0,161200,161222,190.2902,287.6971,191.5803,303.3941 M,0,161222,161244,191.5803,303.3941,192.8705,319.0912 M,0,161244,161266,192.8705,319.0912,194.1607,334.7883 M,0,161266,161354,194.1607,334.7883,397,343 M,0,161354,161443,397,343 M,0,161443,161465,397,343,395.256,322.0725 M,0,161465,161487,395.256,322.0725,393.5121,301.1451 M,0,161487,161509,393.5121,301.1451,391.7681,280.2176 M,0,161509,161531,391.7681,280.2176,390.0242,259.2902 M,0,161531,161553,390.0242,259.2902 M,0,161531,161619,390.0242,259.2902,305,76 M,0,161619,161641,305,76,281.71,72.03574 M,0,161641,161663,281.71,72.03574,258.42,68.07148 M,0,161663,161685,258.42,68.07148,235.1299,64.10722 M,0,161685,161707,235.1299,64.10722,211.8399,60.14296 M,0,161707,161795,211.8399,60.14296,366,131 M,0,161795,161817,366,131,389.2829,126.9943 M,0,161817,161839,389.2829,126.9943,412.5659,122.9887 M,0,161839,161861,412.5659,122.9887,435.8488,118.983 M,0,161861,161883,435.8488,118.983,459,115 M,0,161883,161972,459,115,306,183 M,0,161972,161994,306,183,303.4065,182.5948 M,0,161994,162016,303.4065,182.5948,300.8129,182.1895 M,0,162016,162038,300.8129,182.1895,298.2194,181.7843 M,0,162038,162060,298.2194,181.7843,295.6259,181.379 M,0,162060,162082,295.6259,181.379,293.0323,180.9738 M,0,162082,162104,293.0323,180.9738,290.4388,180.5686 M,0,162104,162126,290.4388,180.5686,287.8453,180.1633 M,0,162126,162148,287.8453,180.1633,285.2518,179.7581 M,0,162148,162170,285.2518,179.7581,282.6582,179.3528 M,0,162170,162192,282.6582,179.3528,280.0647,178.9476 M,0,162192,162214,280.0647,178.9476,277.4712,178.5424 M,0,162214,162236,277.4712,178.5424,274.8776,178.1371 M,0,162236,162258,274.8776,178.1371 M,0,162236,162501,274.8776,178.1371,76,111 M,0,162501,162523,76,111,73.42598,98.12988 M,0,162523,162545,73.42598,98.12988,71,86 M,0,162545,162567,71,86,73.42598,98.12988 M,0,162567,162589,73.42598,98.12988,76,111 M,0,162589,162611,76,111 M,0,162589,162678,76,111,80,129 M,0,162678,162700,80,129,95.38618,125.6343 M,0,162700,162722,95.38618,125.6343,110.7724,122.2685 M,0,162722,162744,110.7724,122.2685,126.1585,118.9028 M,0,162744,162766,126.1585,118.9028,141.5447,115.5371 M,0,162766,162854,141.5447,115.5371,84,147 M,0,162854,162876,84,147,99.38618,143.6343 M,0,162876,162898,99.38618,143.6343,114.7724,140.2686 M,0,162898,162920,114.7724,140.2686,130.1585,136.9028 M,0,162920,162942,130.1585,136.9028,145.5447,133.5371 M,0,162942,163031,145.5447,133.5371,306,183 M,0,163031,163053,306,183,285.4771,178.5492 M,0,163053,163075,285.4771,178.5492,264.9541,174.0985 M,0,163075,163097,264.9541,174.0985,244.4312,169.6477 M,0,163097,163119,244.4312,169.6477,223.9083,165.197 M,0,163119,163141,223.9083,165.197 M,0,163119,163207,223.9083,165.197,109,290 M,0,163207,163229,109,290,128.6304,272.7276 M,0,163229,163251,128.6304,272.7276,152.0835,261.231 M,0,163251,163273,152.0835,261.231,177.7146,256.3036 M,0,163273,163295,177.7146,256.3036,203.7977,257.9654 M,0,163295,163317,203.7977,257.9654 M,0,163295,163384,203.7977,257.9654,206,266 M,0,163384,163406,206,266,179.8633,264.1736 M,0,163406,163428,179.8633,264.1736,154.0934,268.7208 M,0,163428,163450,154.0934,268.7208,130.6637,280.3528 M,0,163450,163472,130.6637,280.3528,111.1575,297.8217 M,0,163472,163494,111.1575,297.8217,121.3548,321.7804 M,0,163494,163516,121.3548,321.7804,137.9177,342.0321 M,0,163516,163538,137.9177,342.0321,159.4438,356.9087 M,0,163538,163560,159.4438,356.9087,184.1451,365.5709 M,0,163560,163582,184.1451,365.5709,210.2356,367.7501 M,0,163582,163604,210.2356,367.7501,236.0503,363.3921 M,0,163604,163626,236.0503,363.3921,259.899,352.6069 M,0,163626,163648,259.899,352.6069,280,336 M,0,163648,163670,280,336 M,0,163648,163737,280,336,434,183 M,0,163737,163759,434,183,449.4041,179.7172 M,0,163759,163781,449.4041,179.7172,464.8081,176.4343 M,0,163781,163803,464.8081,176.4343,480.2122,173.1515 M,0,163803,163825,480.2122,173.1515,495,170 M,0,163825,163913,495,170,306,183 M,0,163913,164001,306,183 M,0,164001,164023,306,183,290.5852,179.7679 M,0,164023,164045,290.5852,179.7679,275.1704,176.5357 M,0,164045,164067,275.1704,176.5357,259.7556,173.3036 M,0,164067,164089,259.7556,173.3036,244.3408,170.0715 M,0,164089,164178,244.3408,170.0715,370,254 M,0,164178,164266,370,254 M,0,164266,164354,370,254,375,329 M,0,164354,164442,375,329,381,404 M,0,164442,164619,381,404,576,269 M,0,164619,164641,576,269,550.4961,274.6757 M,0,164641,164663,550.4961,274.6757,524.4674,272.8263 M,0,164663,164685,524.4674,272.8263,500.075,263.6203 M,0,164685,164707,500.075,263.6203,479.0867,248.0811 M,0,164707,164729,479.0867,248.0811 M,0,164707,164795,479.0867,248.0811,474,255 M,0,164795,164817,474,255,473.5948,257.5935 M,0,164817,164839,473.5948,257.5935,473.1895,260.1871 M,0,164839,164861,473.1895,260.1871,472.7843,262.7806 M,0,164861,164883,472.7843,262.7806,472.379,265.3741 M,0,164883,164905,472.379,265.3741,471.9738,267.9677 M,0,164905,164927,471.9738,267.9677,471.5686,270.5612 M,0,164927,164949,471.5686,270.5612,471.1633,273.1547 M,0,164949,164971,471.1633,273.1547,470.7581,275.7482 M,0,164971,164993,470.7581,275.7482,470.3528,278.3418 M,0,164993,165015,470.3528,278.3418,469.9476,280.9353 M,0,165015,165037,469.9476,280.9353,469.5424,283.5288 M,0,165037,165059,469.5424,283.5288,469.1371,286.1224 M,0,165059,165081,469.1371,286.1224 M,0,165059,165325,469.1371,286.1224,469,286 M,0,165325,165501,469,286,373,156 M,0,165501,165523,373,156,357.321,154.5068 M,0,165523,165545,357.321,154.5068,341.6419,153.0135 M,0,165545,165567,341.6419,153.0135,325.9628,151.5203 M,0,165567,165589,325.9628,151.5203,310.2838,150.027 M,0,165589,165678,310.2838,150.027,248,145 M,0,165678,165700,248,145,263.699,146.2661 M,0,165700,165722,263.699,146.2661,279.3981,147.5321 M,0,165722,165744,279.3981,147.5321,295.0971,148.7982 M,0,165744,165766,295.0971,148.7982,310,150 M,0,165766,165854,310,150,469,72 M,0,165854,165876,469,72,448.0725,73.74396 M,0,165876,165898,448.0725,73.74396,427.1451,75.48792 M,0,165898,165920,427.1451,75.48792,406.2176,77.23186 M,0,165920,165942,406.2176,77.23186,385.2902,78.97582 M,0,165942,165964,385.2902,78.97582 M,0,165942,166031,385.2902,78.97582,179,89 M,0,166031,166053,179,89,163.3836,109.9088 M,0,166053,166075,163.3836,109.9088,155.2087,134.6473 M,0,166075,166097,155.2087,134.6473,155.2933,160.6744 M,0,166097,166119,155.2933,160.6744,163,185 M,0,166119,166141,163,185 M,0,166119,166207,163,185,155,190 M,0,166207,166229,155,190,144.8651,165.9382 M,0,166229,166251,144.8651,165.9382,142.5737,139.9688 M,0,166251,166273,142.5737,139.9688,148.3257,114.5673 M,0,166273,166295,148.3257,114.5673,161.2701,91.91222 M,0,166295,166317,161.2701,91.91222,180.9091,74.71107 M,0,166317,166339,180.9091,74.71107,204.8311,64.35147 M,0,166339,166361,204.8311,64.35147,230.7499,61.8038 M,0,166361,166383,230.7499,61.8038,256.3257,66.95617 M,0,166383,166405,256.3257,66.95617,278.8384,80.17113 M,0,166405,166427,278.8384,80.17113,296.2091,99.60715 M,0,166427,166449,296.2091,99.60715,306.7961,123.4009 M,0,166449,166471,306.7961,123.4009,310,149 M,0,166471,166493,310,149 M,0,166471,166560,310,149,244,301 M,0,166560,166582,244,301,229.3765,295.1506 M,0,166582,166604,229.3765,295.1506,214.753,289.3012 M,0,166604,166626,214.753,289.3012,199.092,289.9618 M,0,166626,166648,199.092,289.9618,183.3747,290.9758 M,0,166648,166737,183.3747,290.9758,167,399 M,0,166737,166825,167,399 M,0,166825,166847,167,399,181.6235,404.8494 M,0,166847,166869,181.6235,404.8494,196.247,410.6988 M,0,166869,166891,196.247,410.6988,211.8649,409.5135 M,0,166891,166913,211.8649,409.5135,227,408 M,0,166913,167001,227,408,363,370 M,0,167001,167089,363,370 M,0,167089,167111,363,370,342.1284,367.6809 M,0,167111,167133,342.1284,367.6809,321.2569,365.3619 M,0,167133,167155,321.2569,365.3619,300.3853,363.0428 M,0,167155,167266,300.3853,363.0428,110,336 M,0,167266,167443,110,336,323,219 M,0,167443,167465,323,219,326.4693,192.9803 M,0,167465,167487,326.4693,192.9803,329.9386,166.9605 M,0,167487,167509,329.9386,166.9605,333.4079,140.9408 M,0,167509,167531,333.4079,140.9408,336.8772,114.9211 M,0,167531,167553,336.8772,114.9211 M,0,167531,167619,336.8772,114.9211,345,109 M,0,167619,167641,345,109,344.582,111.5915 M,0,167641,167663,344.582,111.5915,344.164,114.183 M,0,167663,167685,344.164,114.183,343.746,116.7745 M,0,167685,167707,343.746,116.7745,343.3281,119.366 M,0,167707,167729,343.3281,119.366,342.9101,121.9575 M,0,167729,167751,342.9101,121.9575,342.4921,124.549 M,0,167751,167773,342.4921,124.549,342.0741,127.1406 M,0,167773,167795,342.0741,127.1406,341.6561,129.7321 M,0,167795,167817,341.6561,129.7321,341.2381,132.3236 M,0,167817,167839,341.2381,132.3236,340.8202,134.9151 M,0,167839,167861,340.8202,134.9151,340.4022,137.5066 M,0,167861,167883,340.4022,137.5066,340,140 M,0,167883,167905,340,140 M,0,167883,168148,340,140,339,140 M,0,168148,168325,339,140,522,228 M,0,168325,168347,522,228,520.233,212.3494 M,0,168347,168369,520.233,212.3494,518.466,196.6989 M,0,168369,168391,518.466,196.6989,516.699,181.0483 M,0,168391,168413,516.699,181.0483,515,166 M,0,168413,168501,515,166,534,220 M,0,168501,168523,534,220,532.5067,204.321 M,0,168523,168545,532.5067,204.321,531.0135,188.6419 M,0,168545,168567,531.0135,188.6419,529.5203,172.9628 M,0,168567,168589,529.5203,172.9628,528.027,157.2838 M,0,168589,168678,528.027,157.2838,410,56 M,0,168678,168700,410,56,412.2638,76.87762 M,0,168700,168722,412.2638,76.87762,414.5277,97.75524 M,0,168722,168744,414.5277,97.75524,416.7915,118.6329 M,0,168744,168766,416.7915,118.6329,419,139 M,0,168766,168788,419,139 M,0,168766,168854,419,139,451,351 M,0,168854,168876,451,351,477.0154,347.4979 M,0,168876,168898,477.0154,347.4979,503.0307,343.9959 M,0,168898,168920,503.0307,343.9959,529.046,340.4938 M,0,168920,168942,529.046,340.4938,555,337 M,0,168942,168964,555,337 M,0,168942,169031,555,337,552,349 M,0,169031,169053,552,349,525.9264,352.0377 M,0,169053,169075,525.9264,352.0377,499.8527,355.0754 M,0,169075,169097,499.8527,355.0754,473.7791,358.1131 M,0,169097,169119,473.7791,358.1131,447.9232,360.2658 M,0,169119,169141,447.9232,360.2658,426.2347,345.4782 M,0,169141,169163,426.2347,345.4782,404.9098,331.5417 M,0,169163,169185,404.9098,331.5417,397.2427,356.5693 M,0,169185,169207,397.2427,356.5693,383.3701,378.7664 M,0,169207,169229,383.3701,378.7664,364.3056,396.7082 M,0,169229,169251,364.3056,396.7082,341.3785,409.351 M,0,169251,169273,341.3785,409.351,316.0434,415.9558 M,0,169273,169295,316.0434,415.9558,289.8616,416.1054 M,0,169295,169317,289.8616,416.1054 M,0,169295,169384,289.8616,416.1054,281,255 M,0,169384,169406,281,255,290.2913,267.6226 M,0,169406,169428,290.2913,267.6226,297.4274,281.5337 M,0,169428,169450,297.4274,281.5337,301.761,296.5978 M,0,169450,169472,301.761,296.5978,302.9868,312.2654 M,0,169472,169560,302.9868,312.2654,200,380 M,0,169560,169648,200,380 M,0,169648,169670,200,380,200.8473,364.3619 M,0,169670,169692,200.8473,364.3619,204.3717,349.1495 M,0,169692,169714,204.3717,349.1495,211.0015,334.9603 M,0,169714,169736,211.0015,334.9603,220.565,322.4969 M,0,169736,169825,220.565,322.4969,354,221 M,0,169825,169913,354,221 M,0,169913,169935,354,221,339.2619,235.8215 M,0,169935,169957,339.2619,235.8215,321.6712,247.145 M,0,169957,169979,321.6712,247.145,301.6906,253.2788 M,0,169979,170001,301.6906,253.2788,281,255 M,0,170001,170023,281,255 M,0,170001,170090,281,255,96,223 M,0,170090,170266,96,223,219,56 M,0,170266,170288,219,56,228.1218,80.54141 M,0,170288,170310,228.1218,80.54141,231.8067,106.4434 M,0,170310,170332,231.8067,106.4434,229.8925,132.5241 M,0,170332,170354,229.8925,132.5241,223,157 M,0,170354,170376,223,157 M,0,170354,170443,223,157,220,164 M,0,170443,170465,220,164,219.2456,166.507 M,0,170465,170487,219.2456,166.507,218.4912,169.014 M,0,170487,170509,218.4912,169.014,217.7368,171.521 M,0,170509,170531,217.7368,171.521,216.3802,173.8454 M,0,170531,170553,216.3802,173.8454,215.9471,176.4274 M,0,170553,170575,215.9471,176.4274,215.5141,179.0093 M,0,170575,170597,215.5141,179.0093,215.0811,181.5913 M,0,170597,170619,215.0811,181.5913,214.0275,184.0692 M,0,170619,170641,214.0275,184.0692,213.7575,186.6786 M,0,170641,170663,213.7575,186.6786,213.4875,189.2879 M,0,170663,170685,213.4875,189.2879,213.2176,191.8972 M,0,170685,170707,213.2176,191.8972,213,194 M,0,170707,170729,213,194 M,0,170707,171031,213,194,418,173 M,0,171031,171053,418,173,419.1186,162.5598 M,0,171053,171075,419.1186,162.5598,420.2372,152.1195 M,0,171075,171097,420.2372,152.1195,420.9829,145.1593 M,0,171089,171148,420.9829,145.1593,418,173 M,0,171148,171170,418,173,405.4444,163.6393 M,0,171170,171192,405.4444,163.6393,391.5018,156.6075 M,0,171192,171214,391.5018,156.6075,376.3572,152.6165 M,0,171214,171236,376.3572,152.6165,360.6602,151.984 M,0,171236,171325,360.6602,151.984,417,189 M,0,171325,171347,417,189,404.4444,179.6393 M,0,171347,171369,404.4444,179.6393,390.5018,172.6075 M,0,171369,171391,390.5018,172.6075,375.3572,168.6165 M,0,171391,171413,375.3572,168.6165,359.6602,167.984 M,0,171413,171501,359.6602,167.984,487,273 M,0,171501,171523,487,273,503.8071,260.6425 M,0,171523,171545,503.8071,260.6425,523.2321,252.9809 M,0,171545,171567,523.2321,252.9809,544.062,251.9205 M,0,171567,171589,544.062,251.9205,564,256 M,0,171589,171611,564,256 M,0,171589,171678,564,256,415,204 M,0,171678,171700,415,204,402.4444,194.6393 M,0,171700,171722,402.4444,194.6393,388.5018,187.6075 M,0,171722,171744,388.5018,187.6075,373.3572,183.6165 M,0,171744,171766,373.3572,183.6165,357.6602,182.984 M,0,171766,171854,357.6602,182.984,351,325 M,0,171854,171876,351,325,353.2493,320.2685 M,0,171876,171898,353.2493,320.2685,355.8093,315.6947 M,0,171898,171920,355.8093,315.6947,357.5131,310.7406 M,0,171920,171942,357.5131,310.7406,359.3882,305.8646 M,0,171942,171964,359.3882,305.8646,360.5251,300.7505 M,0,171964,171986,360.5251,300.7505,361.6817,295.6686 M,0,171986,172008,361.6817,295.6686,362.6879,290.5105 M,0,172008,172030,362.6879,290.5105,362.655,285.2716 M,0,172030,172052,362.655,285.2716,362.9147,280.0432 M,0,172052,172074,362.9147,280.0432,362.2939,274.8412 M,0,172074,172096,362.2939,274.8412,361.9906,269.6013 M,0,172096,172118,361.9906,269.6013,361.0768,264.4342 M,0,172118,172140,361.0768,264.4342 M,0,172118,172207,361.0768,264.4342,142,391 M,0,172207,172229,142,391,118.0809,400.7344 M,0,172229,172251,118.0809,400.7344,92.68198,396.7664 M,0,172251,172273,92.68198,396.7664,73.02602,380.3193 M,0,172273,172295,73.02602,380.3193,64.02811,356.1689 M,0,172295,172317,64.02811,356.1689,69.71641,330.9866 M,0,172317,172339,69.71641,330.9866,87.49091,312.4218 M,0,172339,172361,87.49091,312.4218,112.2203,305.7012 M,0,172361,172383,112.2203,305.7012,137,312 M,0,172383,172405,137,312 M,0,172383,172472,137,312,359,387 M,0,172472,172494,359,387,356.9845,371.3795 M,0,172494,172516,356.9845,371.3795,354.9689,355.759 M,0,172516,172538,354.9689,355.759,352.9534,340.1385 M,0,172538,172560,352.9534,340.1385,351,325 M,0,172560,172648,351,325,222,168 M,0,172648,172737,222,168 M,0,172737,172759,222,168,224.759,188.818 M,0,172759,172781,224.759,188.818,227.518,209.6359 M,0,172781,172803,227.518,209.6359,230.277,230.4539 M,0,172803,172825,230.277,230.4539,233,251 M,0,172825,172847,233,251 M,0,172825,172913,233,251,253,429 M,0,172913,173090,253,429,82,241 M,0,173090,173112,82,241,85.9915,215.0552 M,0,173112,173134,85.9915,215.0552,89.983,189.1105 M,0,173134,173156,89.983,189.1105,93.9745,163.1657 M,0,173156,173178,93.9745,163.1657,97.966,137.221 M,0,173178,173200,97.966,137.221 M,0,173178,173266,97.966,137.221,99,129 M,0,173266,173288,99,129,101.574,129.5148 M,0,173288,173310,101.574,129.5148,104.148,130.0296 M,0,173310,173332,104.148,130.0296,106.7221,130.5444 M,0,173332,173354,106.7221,130.5444,109.2961,131.0592 M,0,173354,173376,109.2961,131.0592,111.8701,131.574 M,0,173376,173398,111.8701,131.574,114.4441,132.0888 M,0,173398,173420,114.4441,132.0888,117.0182,132.6036 M,0,173420,173442,117.0182,132.6036,119.5922,133.1184 M,0,173442,173464,119.5922,133.1184,122.1662,133.6332 M,0,173464,173486,122.1662,133.6332,124.7402,134.148 M,0,173486,173508,124.7402,134.148,127.3143,134.6629 M,0,173508,173530,127.3143,134.6629,129,135 M,0,173530,173552,129,135 M,0,173530,173795,129,135,293,239 M,0,173795,173817,293,239,288.9998,251.5006 M,0,173817,173839,288.9998,251.5006,285,264 M,0,173839,173861,285,264,288.9998,251.5006 M,0,173861,173883,288.9998,251.5006,293,239 M,0,173883,173905,293,239 M,0,173883,173972,293,239,298,225 M,0,173972,173994,298,225,282.596,227.7731 M,0,173994,174016,282.596,227.7731,266.9947,227.7086 M,0,174016,174038,266.9947,227.7086,251.7332,224.2287 M,0,174038,174060,251.7332,224.2287,237.6132,217.3521 M,0,174060,174148,237.6132,217.3521,252,114 M,0,174148,174170,252,114,267.4073,111.2566 M,0,174170,174192,267.4073,111.2566,282.9991,111.4528 M,0,174192,174214,282.9991,111.4528,298.1895,115.1504 M,0,174214,174236,298.1895,115.1504,312,122 M,0,174236,174325,312,122,303,337 M,0,174325,174347,303,337,282.3335,339.8117 M,0,174347,174369,282.3335,339.8117,261.7573,336.7079 M,0,174369,174391,261.7573,336.7079,242.896,327.9815 M,0,174391,174413,242.896,327.9815,227.1931,314.2108 M,0,174413,174435,227.1931,314.2108 M,0,174413,174501,227.1931,314.2108,416,102 M,0,174501,174523,416,102,427.5293,125.5826 M,0,174523,174545,427.5293,125.5826,437.6038,149.3773 M,0,174545,174567,437.6038,149.3773,433.2883,175.2701 M,0,174567,174589,433.2883,175.2701,429,201 M,0,174589,174611,429,201 M,0,174589,174678,429,201,438,199 M,0,174678,174700,438,199,441.7784,173.0233 M,0,174700,174722,441.7784,173.0233,445.5569,147.0467 M,0,174722,174744,445.5569,147.0467,435.6375,123.275 M,0,174744,174766,435.6375,123.275,423.7735,99.97644 M,0,174766,174788,423.7735,99.97644,398.0256,95.05561 M,0,174788,174810,398.0256,95.05561,373.986,84.69307 M,0,174810,174832,373.986,84.69307,353.0256,83.06007 M,0,174832,174854,353.0256,83.06007,329.7914,95.11726 M,0,174854,174876,329.7914,95.11726,304.3228,101.2496 M,0,174876,174898,304.3228,101.2496,278.1266,102.3382 M,0,174898,174920,278.1266,102.3382,289.9022,111.1694 M,0,174920,174942,289.9022,111.1694,313,123 M,0,174942,174964,313,123 M,0,174942,175031,313,123,519,228 M,0,175031,175053,519,228,520.9841,212.3755 M,0,175053,175075,520.9841,212.3755,522.9681,196.7509 M,0,175075,175097,522.9681,196.7509,524.9522,181.1264 M,0,175097,175119,524.9522,181.1264,526.9363,165.5019 M,0,175119,175207,526.9363,165.5019,453,327 M,0,175207,175295,453,327 M,0,175295,175317,453,327,455.0155,342.6205 M,0,175317,175339,455.0155,342.6205,457.0311,358.241 M,0,175339,175361,457.0311,358.241,459.0466,373.8615 M,0,175361,175383,459.0466,373.8615,461,389 M,0,175383,175472,461,389,357,243 M,0,175472,175560,357,243 M,0,175560,175582,357,243,336.3347,246.7347 M,0,175582,175604,336.3347,246.7347,315.6695,250.4694 M,0,175604,175626,315.6695,250.4694,295.0043,254.204 M,0,175626,175648,295.0043,254.204,274.3391,257.9387 M,0,175648,175670,274.3391,257.9387 M,0,175648,175737,274.3391,257.9387,105,293 M,0,175737,175913,105,293,246,396 M,0,175913,175935,246,396,271.4954,389.7511 M,0,175935,175957,271.4954,389.7511,296.9908,383.5023 M,0,175957,175979,296.9908,383.5023,322.4861,377.2534 M,0,175979,176001,322.4861,377.2534,347.9815,371.0045 M,0,176001,176023,347.9815,371.0045 M,0,176001,176090,347.9815,371.0045,354,365 M,0,176090,176112,354,365,353.5948,362.4065 M,0,176112,176134,353.5948,362.4065,353.1895,359.8129 M,0,176134,176156,353.1895,359.8129,352.7843,357.2194 M,0,176156,176178,352.7843,357.2194,352.379,354.6259 M,0,176178,176200,352.379,354.6259,351.9738,352.0323 M,0,176200,176222,351.9738,352.0323,351.5686,349.4388 M,0,176222,176244,351.5686,349.4388,351.1633,346.8453 M,0,176244,176266,351.1633,346.8453,350.7581,344.2517 M,0,176266,176288,350.7581,344.2517,350.3528,341.6582 M,0,176288,176310,350.3528,341.6582,349.9476,339.0647 M,0,176310,176332,349.9476,339.0647,349.5424,336.4712 M,0,176332,176354,349.5424,336.4712,349.1371,333.8776 M,0,176354,176376,349.1371,333.8776 M,0,176354,176619,349.1371,333.8776,349,333 M,0,176619,176795,349,333,428,167 M,0,176795,176817,428,167,436.9923,179.8549 M,0,176817,176839,436.9923,179.8549,443.9547,193.8732 M,0,176839,176861,443.9547,193.8732,448.3221,208.9282 M,0,176861,176883,448.3221,208.9282,450,224 M,0,176883,176972,450,224,434,284 M,0,176972,176994,434,284,441.8839,270.4402 M,0,176994,177016,441.8839,270.4402,447.6767,255.8991 M,0,177016,177038,447.6767,255.8991,450.8068,240.5272 M,0,177038,177060,450.8068,240.5272,451.0333,224.8081 M,0,177060,177148,451.0333,224.8081,368,106 M,0,177148,177170,368,106,355.6187,122.8466 M,0,177170,177192,355.6187,122.8466,347.4109,142.041 M,0,177192,177214,347.4109,142.041,343.7529,162.5771 M,0,177214,177236,343.7529,162.5771,344.9222,183.47 M,0,177236,177258,344.9222,183.47 M,0,177236,177325,344.9222,183.47,367,437 M,0,177325,177347,367,437,362.5233,411.1346 M,0,177347,177369,362.5233,411.1346,358.0466,385.2691 M,0,177369,177391,358.0466,385.2691,353.5699,359.4037 M,0,177391,177413,353.5699,359.4037,349.0931,333.5382 M,0,177413,177435,349.0931,333.5382 M,0,177413,177501,349.0931,333.5382,355,328 M,0,177501,177523,355,328,359.3994,353.8787 M,0,177523,177545,359.3994,353.8787,363.7988,379.7574 M,0,177545,177567,363.7988,379.7574,368.1982,405.6361 M,0,177567,177589,368.1982,405.6361,375.4724,428.8074 M,0,177589,177611,375.4724,428.8074,401.5754,430.681 M,0,177611,177633,401.5754,430.681,427.3455,426.0074 M,0,177633,177655,427.3455,426.0074,451.5052,415.8612 M,0,177655,177677,451.5052,415.8612,473.1911,401.1432 M,0,177677,177699,473.1911,401.1432,491.6129,382.5036 M,0,177699,177721,491.6129,382.5036,505.8203,360.492 M,0,177721,177743,505.8203,360.492,514.6479,335.8396 M,0,177743,177765,514.6479,335.8396,517,310 M,0,177765,177787,517,310 M,0,177765,177854,517,310,453,124 M,0,177854,177876,453,124,437.6138,120.6343 M,0,177876,177898,437.6138,120.6343,422.2277,117.2685 M,0,177898,177920,422.2277,117.2685,406.6338,118.9155 M,0,177920,177942,406.6338,118.9155,391.022,120.9971 M,0,177942,178031,391.022,120.9971,515,177 M,0,178031,178119,515,177 M,0,178119,178141,515,177,530.5491,179.5079 M,0,178141,178163,530.5491,179.5079,546.096,181.9744 M,0,178163,178185,546.096,181.9744,561.3142,177.9162 M,0,178185,178207,561.3142,177.9162,576,174 M,0,178207,178295,576,174,433,283 M,0,178295,178384,433,283 M,0,178384,178406,433,283,427.9167,262.7095 M,0,178406,178428,427.9167,262.7095,427.3189,241.829 M,0,178428,178450,427.3189,241.829,431.1432,221.3041 M,0,178450,178472,431.1432,221.3041,439.4186,202.0753 M,0,178472,178494,439.4186,202.0753 M,0,178472,178560,439.4186,202.0753,528,99 M,0,178560,178737,528,99,324,182 M,0,178737,178759,324,182,298.2224,177.0428 M,0,178759,178781,298.2224,177.0428,272.4446,172.0855 M,0,178781,178803,272.4446,172.0855,246.667,167.1283 M,0,178803,178825,246.667,167.1283,220.8893,162.171 M,0,178825,178847,220.8893,162.171 M,0,178825,178913,220.8893,162.171,213,167 M,0,178913,178935,213,167,210.4228,166.5012 M,0,178935,178957,210.4228,166.5012,207.8457,166.0024 M,0,178957,178979,207.8457,166.0024,205.2685,165.5036 M,0,178979,179001,205.2685,165.5036,202.6913,165.0048 M,0,179001,179023,202.6913,165.0048,200.1141,164.506 M,0,179023,179045,200.1141,164.506,197.537,164.0072 M,0,179045,179067,197.537,164.0072,194.9598,163.5083 M,0,179067,179089,194.9598,163.5083,192.3826,163.0095 M,0,179089,179111,192.3826,163.0095,189.8055,162.5107 M,0,179111,179133,189.8055,162.5107,187.2283,162.0119 M,0,179133,179155,187.2283,162.0119,184.6511,161.5131 M,0,179155,179177,184.6511,161.5131,182.0739,161.0143 M,0,179177,179199,182.0739,161.0143 M,0,179177,179443,182.0739,161.0143,182,161 M,0,179443,179619,182,161,283,294 M,0,179619,179641,283,294,267.5852,297.2321 M,0,179641,179663,267.5852,297.2321,252.1704,300.4643 M,0,179663,179685,252.1704,300.4643,236.7556,303.6964 M,0,179685,179707,236.7556,303.6964,221.3408,306.9285 M,0,179707,179795,221.3408,306.9285,278,283 M,0,179795,179817,278,283,262.5852,286.2321 M,0,179817,179839,262.5852,286.2321,247.1704,289.4643 M,0,179839,179861,247.1704,289.4643,231.7556,292.6964 M,0,179861,179883,231.7556,292.6964,216.3408,295.9285 M,0,179883,179972,216.3408,295.9285,211,408 M,0,179972,179994,211,408,231.458,403.2597 M,0,179994,180016,231.458,403.2597,251.916,398.5195 M,0,180016,180038,251.916,398.5195,272.374,393.7792 M,0,180038,180060,272.374,393.7792,292.832,389.0389 M,0,180060,180082,292.832,389.0389 M,0,180060,180148,292.832,389.0389,456,345 M,0,180148,180170,456,345,461.6745,319.4633 M,0,180170,180192,461.6745,319.4633,460.8285,293.3416 M,0,180192,180214,460.8285,293.3416,453.5244,268.2656 M,0,180214,180236,453.5244,268.2656,440.4507,245.6209 M,0,180236,180258,440.4507,245.6209 M,0,180236,180325,440.4507,245.6209,449,244 M,0,180325,180347,449,244,461.8635,266.7834 M,0,180347,180369,461.8635,266.7834,468.8641,291.969 M,0,180369,180391,468.8641,291.969,469.6014,318.0832 M,0,180391,180413,469.6014,318.0832,464.0377,343.6004 M,0,180413,180435,464.0377,343.6004,452.6335,367.1076 M,0,180435,180457,452.6335,367.1076,435.6704,386.9971 M,0,180457,180479,435.6704,386.9971,414.4347,402.2137 M,0,180479,180501,414.4347,402.2137,390.1698,411.873 M,0,180501,180523,390.1698,411.873,364.3047,415.5684 M,0,180523,180545,364.3047,415.5684,338.3294,412.6303 M,0,180545,180567,338.3294,412.6303,313.8381,403.5368 M,0,180567,180589,313.8381,403.5368,292.0615,389.05 M,0,180589,180611,292.0615,389.05 M,0,180589,180678,292.0615,389.05,172,296 M,0,180678,180700,172,296,170.5741,280.3147 M,0,180700,180722,170.5741,280.3147,169.1481,264.6294 M,0,180722,180744,169.1481,264.6294,172.7533,249.3943 M,0,180744,180766,172.7533,249.3943,176.9417,234.2114 M,0,180766,180854,176.9417,234.2114,328,155 M,0,180854,180943,328,155 M,0,180943,180965,328,155,329.4259,170.6853 M,0,180965,180987,329.4259,170.6853,330.8519,186.3706 M,0,180987,181009,330.8519,186.3706,326.681,201.4369 M,0,181009,181031,326.681,201.4369,322,216 M,0,181031,181119,322,216,186,109 M,0,181119,181207,186,109 M,0,181207,181229,186,109,206.6572,105.2212 M,0,181229,181251,206.6572,105.2212,227.3145,101.4425 M,0,181251,181273,227.3145,101.4425,247.9717,97.66372 M,0,181273,181295,247.9717,97.66372,268,94 M,0,181295,181317,268,94 M,0,181295,181384,268,94,428,65 M,0,181384,181560,428,65,507,237 M,0,181560,181582,507,237,503.7441,263.0473 M,0,181582,181604,503.7441,263.0473,500.4882,289.0946 M,0,181604,181626,500.4882,289.0946,497.2323,315.1419 M,0,181626,181648,497.2323,315.1419,494,341 M,0,181648,181670,494,341 M,0,181648,181737,494,341,484,351 M,0,181737,181759,484,351,481.3953,350.6744 M,0,181759,181781,481.3953,350.6744,478.7905,350.3488 M,0,181781,181803,478.7905,350.3488,476.1858,350.0232 M,0,181803,181825,476.1858,350.0232,473.5811,349.6976 M,0,181825,181847,473.5811,349.6976,470.9763,349.372 M,0,181847,181869,470.9763,349.372,468.3716,349.0464 M,0,181869,181891,468.3716,349.0464,465.7669,348.7209 M,0,181891,181913,465.7669,348.7209,463.1622,348.3953 M,0,181913,181935,463.1622,348.3953,460.5574,348.0697 M,0,181935,181957,460.5574,348.0697,457.9527,347.7441 M,0,181957,181979,457.9527,347.7441,455.348,347.4185 M,0,181979,182001,455.348,347.4185,452.7433,347.0929 M,0,182001,182023,452.7433,347.0929 M,0,182001,182443,452.7433,347.0929,452,347 M,0,182443,182465,452,347,436.4083,344.7726 M,0,182465,182487,436.4083,344.7726,420.8166,342.5452 M,0,182487,182509,420.8166,342.5452,405.2249,340.3178 M,0,182509,182531,405.2249,340.3178,389.6332,338.0905 M,0,182531,182619,389.6332,338.0905,449,354 M,0,182619,182641,449,354,433.4083,351.7726 M,0,182641,182663,433.4083,351.7726,417.8166,349.5452 M,0,182663,182685,417.8166,349.5452,402.2249,347.3178 M,0,182685,182707,402.2249,347.3178,386.6332,345.0905 M,0,182707,182795,386.6332,345.0905,282,258 M,0,182795,182817,282,258,302.7839,254.9951 M,0,182817,182839,302.7839,254.9951,323.5678,251.9902 M,0,182839,182861,323.5678,251.9902,344.3517,248.9853 M,0,182861,182883,344.3517,248.9853,365,246 M,0,182883,182905,365,246 M,0,182883,182972,365,246,236,415 M,0,182972,182994,236,415,209.9914,417.7603 M,0,182994,183016,209.9914,417.7603,184.1632,413.8074 M,0,183016,183038,184.1632,413.8074,160.211,403.4115 M,0,183038,183060,160.211,403.4115,139.492,387.4696 M,0,183060,183082,139.492,387.4696 M,0,183060,183148,139.492,387.4696,136,397 M,0,183148,183170,136,397,156.54,413.1871 M,0,183170,183192,156.54,413.1871,180.5123,423.5706 M,0,183192,183214,180.5123,423.5706,206.3259,427.4729 M,0,183214,183236,206.3259,427.4729,232.3378,424.9271 M,0,183236,183258,232.3378,424.9271,256.6796,415.3815 M,0,183258,183280,256.6796,415.3815,277.7489,399.9417 M,0,183280,183302,277.7489,399.9417,294.1568,379.638 M,0,183302,183324,294.1568,379.638,305.0741,355.8978 M,0,183324,183346,305.0741,355.8978,309.1337,330.0734 M,0,183346,183368,309.1337,330.0734,306.4544,304.0937 M,0,183368,183390,306.4544,304.0937,297.2226,279.6776 M,0,183390,183412,297.2226,279.6776,283,259 M,0,183412,183434,283,259 M,0,183412,183501,283,259,110,160 M,0,183501,183523,110,160,101.4986,184.7053 M,0,183523,183545,101.4986,184.7053,100.3577,210.7729 M,0,183545,183567,100.3577,210.7729,106.656,236.0723 M,0,183567,183589,106.656,236.0723,119,258 M,0,183589,183611,119,258 M,0,183589,183678,119,258,218,105 M,0,183678,183700,218,105,202.3716,106.9536 M,0,183700,183722,202.3716,106.9536,186.7433,108.9071 M,0,183722,183854,186.7433,108.9071,218,105 M,0,183854,183876,218,105,233.549,102.4921 M,0,183876,183898,233.549,102.4921,249.0981,99.98418 M,0,183898,183920,249.0981,99.98418,264.6472,97.47627 M,0,183920,183942,264.6472,97.47627,280,95 M,0,183942,184031,280,95,417,207 M,0,184031,184053,417,207,396.2925,203.5072 M,0,184053,184075,396.2925,203.5072,375.585,200.0143 M,0,184075,184097,375.585,200.0143,354.8775,196.5215 M,0,184097,184119,354.8775,196.5215,334.17,193.0287 M,0,184119,184141,334.17,193.0287 M,0,184119,184207,334.17,193.0287,110,160 M,0,184207,184384,110,160,382,71 M,0,184384,184406,382,71,408.0938,70.17142 M,0,184406,184428,408.0938,70.17142,433.141,77.39266 M,0,184428,184450,433.141,77.39266,454.7338,91.9501 M,0,184450,184472,454.7338,91.9501,471,112 M,0,184472,184494,471,112 M,0,184472,184560,471,112,475,120 M,0,184560,184582,475,120,474.831,122.6196 M,0,184582,184604,474.831,122.6196,474.662,125.2391 M,0,184604,184626,474.662,125.2391,474.493,127.8587 M,0,184626,184648,474.493,127.8587,474.324,130.4782 M,0,184648,184670,474.324,130.4782,474.155,133.0978 M,0,184670,184692,474.155,133.0978,473.986,135.7173 M,0,184692,184714,473.986,135.7173,473.817,138.3369 M,0,184714,184736,473.817,138.3369,473.648,140.9564 M,0,184736,184758,473.648,140.9564,473.479,143.576 M,0,184758,184780,473.479,143.576,473.31,146.1955 M,0,184780,184802,473.31,146.1955,473.141,148.8151 M,0,184802,184824,473.141,148.8151,473,151 M,0,184824,184846,473,151 M,0,184824,185090,473,151,443,344 M,0,185090,185112,443,344,443.9696,330.9109 M,0,185112,185134,443.9696,330.9109,444.9391,317.8217 M,0,185134,185156,444.9391,317.8217,443.9696,330.9109 M,0,185156,185178,443.9696,330.9109,443,344 M,0,185178,185200,443,344 M,0,185178,185266,443,344,441,362 M,0,185266,185288,441,362,425.5852,358.7679 M,0,185288,185310,425.5852,358.7679,410.1704,355.5357 M,0,185310,185332,410.1704,355.5357,394.7556,352.3036 M,0,185332,185354,394.7556,352.3036,379.3408,349.0715 M,0,185354,185443,379.3408,349.0715,439,380 M,0,185443,185465,439,380,423.5852,376.7679 M,0,185465,185487,423.5852,376.7679,408.1704,373.5357 M,0,185487,185509,408.1704,373.5357,392.7556,370.3036 M,0,185509,185531,392.7556,370.3036,377.3408,367.0715 M,0,185531,185619,377.3408,367.0715,216,432 M,0,185619,185641,216,432,236.5627,427.737 M,0,185641,185663,236.5627,427.737,257.1255,423.474 M,0,185663,185685,257.1255,423.474,277.6882,419.211 M,0,185685,185707,277.6882,419.211,298,415 M,0,185707,185729,298,415 M,0,185707,185795,298,415,135,250 M,0,185795,185817,135,250,123.8716,273.7744 M,0,185817,185839,123.8716,273.7744,113.1277,297.5923 M,0,185839,185861,113.1277,297.5923,118.6622,323.2522 M,0,185861,185883,118.6622,323.2522,124,348 M,0,185883,185905,124,348 M,0,185883,185972,124,348,115,348 M,0,185972,185994,115,348,110.0428,322.2223 M,0,185994,186016,110.0428,322.2223,105.0855,296.4446 M,0,186016,186038,105.0855,296.4446,115.5237,272.4469 M,0,186038,186060,115.5237,272.4469,126.5507,248.8567 M,0,186060,186082,126.5507,248.8567,151.9543,242.2448 M,0,186082,186104,151.9543,242.2448,177.358,235.6329 M,0,186104,186126,177.358,235.6329,202.5578,231.5654 M,0,186126,186148,202.5578,231.5654,226.5848,242.1373 M,0,186148,186170,226.5848,242.1373,250.7109,251.5832 M,0,186170,186192,250.7109,251.5832,276.2151,245.3707 M,0,186192,186214,276.2151,245.3707,301.7194,239.1581 M,0,186214,186236,301.7194,239.1581,327,233 M,0,186236,186258,327,233 M,0,186236,186325,327,233,414,94 M,0,186325,186347,414,94,411.7756,109.4919 M,0,186347,186369,411.7756,109.4919,412.4576,125.0733 M,0,186369,186391,412.4576,125.0733,416.5913,140.1572 M,0,186391,186413,416.5913,140.1572,424,154 M,0,186413,186501,424,154,500,238 M,0,186501,186590,500,238 M,0,186590,186612,500,238,517.668,232.952 M,0,186612,186634,517.668,232.952,535.336,227.904 M,0,186634,186656,535.336,227.904,553.004,222.856 M,0,186656,186678,553.004,222.856,570,218 M,0,186678,186766,570,218,576,352 M,0,186766,186854,576,352 M,0,186854,186876,576,352,555.8652,346.0341 M,0,186876,186898,555.8652,346.0341,535.7305,340.0683 M,0,186898,186920,535.7305,340.0683,515.5957,334.1024 M,0,186920,186942,515.5957,334.1024,495.4609,328.1366 M,0,186942,186964,495.4609,328.1366 M,0,186942,187031,495.4609,328.1366,323,277 M,0,187031,187207,323,277,420,440 M,0,187207,187229,420,440,417.0194,413.9198 M,0,187229,187251,417.0194,413.9198,414.0388,387.8395 M,0,187251,187273,414.0388,387.8395,411.0582,361.7593 M,0,187273,187295,411.0582,361.7593,408.0776,335.6791 M,0,187295,187317,408.0776,335.6791 M,0,187295,187384,408.0776,335.6791,404,331 M,0,187384,187406,404,331,401.4065,331.4052 M,0,187406,187428,401.4065,331.4052,398.8129,331.8105 M,0,187428,187450,398.8129,331.8105,396.2194,332.2157 M,0,187450,187472,396.2194,332.2157,393.6259,332.621 M,0,187472,187494,393.6259,332.621,391.0323,333.0262 M,0,187494,187516,391.0323,333.0262,388.4388,333.4314 M,0,187516,187538,388.4388,333.4314,385.8453,333.8367 M,0,187538,187560,385.8453,333.8367,383.2517,334.2419 M,0,187560,187582,383.2517,334.2419,380.6582,334.6472 M,0,187582,187604,380.6582,334.6472,378.0647,335.0524 M,0,187604,187626,378.0647,335.0524,375.4712,335.4576 M,0,187626,187648,375.4712,335.4576,372.8776,335.8629 M,0,187648,187670,372.8776,335.8629 M,0,187648,187913,372.8776,335.8629,372,335 M,0,187913,188090,372,335,221,359 M,0,188090,188112,221,359,223.4691,343.4447 M,0,188112,188134,223.4691,343.4447,225.9382,327.8895 M,0,188134,188156,225.9382,327.8895,228.4073,312.3342 M,0,188156,188178,228.4073,312.3342,230.8764,296.779 M,0,188178,188266,230.8764,296.779,241,234 M,0,188266,188288,241,234,238.2486,249.5078 M,0,188288,188310,238.2486,249.5078,235.4972,265.0156 M,0,188310,188332,235.4972,265.0156,232.7458,280.5234 M,0,188332,188354,232.7458,280.5234,230,296 M,0,188354,188443,230,296,145,416 M,0,188443,188465,145,416,141.5072,395.2925 M,0,188465,188487,141.5072,395.2925,138.0143,374.585 M,0,188487,188509,138.0143,374.585,134.5215,353.8775 M,0,188509,188531,134.5215,353.8775,131.0287,333.17 M,0,188531,188553,131.0287,333.17 M,0,188531,188619,131.0287,333.17,138,84 M,0,188619,188641,138,84,131.3438,109.3921 M,0,188641,188663,131.3438,109.3921,124.6876,134.7842 M,0,188663,188685,124.6876,134.7842,118.0315,160.1762 M,0,188685,188707,118.0315,160.1762,111.3753,185.5683 M,0,188707,188729,111.3753,185.5683 M,0,188707,188795,111.3753,185.5683,121,180 M,0,188795,188817,121,180,127.5514,154.5807 M,0,188817,188839,127.5514,154.5807,134.1028,129.1613 M,0,188839,188861,134.1028,129.1613,140.6541,103.742 M,0,188861,188883,140.6541,103.742,150.8256,82.80225 M,0,188883,188905,150.8256,82.80225,176.8388,85.69901 M,0,188905,188927,176.8388,85.69901,201.1307,95.42667 M,0,188927,188949,201.1307,95.42667,221.9047,111.3427 M,0,188949,188971,221.9047,111.3427,237.7946,132.1439 M,0,188971,188993,237.7946,132.1439,247.8854,156.3006 M,0,188993,189015,247.8854,156.3006,251.6256,182.2131 M,0,189015,189037,251.6256,182.2131,248.8732,208.252 M,0,189037,189059,248.8732,208.252,240.0437,232.9106 M,0,189059,189081,240.0437,232.9106 M,0,189059,189148,240.0437,232.9106,145,416 M,0,189148,189170,145,416,129.5852,412.7679 M,0,189170,189192,129.5852,412.7679,114.1704,409.5357 M,0,189192,189214,114.1704,409.5357,98.75562,406.3036 M,0,189214,189236,98.75562,406.3036,83.34084,403.0715 M,0,189236,189325,83.34084,403.0715,218,322 M,0,189325,189413,218,322 M,0,189413,189435,218,322,202.537,324.9929 M,0,189435,189457,202.537,324.9929,187.0739,327.9857 M,0,189457,189479,187.0739,327.9857,171.6109,330.9785 M,0,189479,189501,171.6109,330.9785,156.1479,333.9714 M,0,189501,189590,156.1479,333.9714,258,416 M,0,189590,189678,258,416 M,0,189678,189700,258,416,278.5116,411.4974 M,0,189700,189722,278.5116,411.4974,299.0233,406.9949 M,0,189722,189744,299.0233,406.9949,319.5349,402.4923 M,0,189744,189766,319.5349,402.4923,340,398 M,0,189766,189788,340,398 M,0,189766,189854,340,398,526,349 M,0,189854,190031,526,349,411,239 M,0,190031,190053,411,239,397.3003,216.785 M,0,190053,190075,397.3003,216.785,391.2672,191.4354 M,0,190075,190097,391.2672,191.4354,393.4867,165.4988 M,0,190097,190119,393.4867,165.4988,403,142 M,0,190119,190141,403,142 M,0,190119,190207,403,142,410,137 M,0,190207,190229,410,137,412.574,137.5148 M,0,190229,190251,412.574,137.5148,415.148,138.0296 M,0,190251,190273,415.148,138.0296,417.7221,138.5444 M,0,190273,190295,417.7221,138.5444,420.2961,139.0592 M,0,190295,190317,420.2961,139.0592,422.8701,139.574 M,0,190317,190339,422.8701,139.574,425.4442,140.0888 M,0,190339,190361,425.4442,140.0888,428.0182,140.6036 M,0,190361,190383,428.0182,140.6036,430.5922,141.1184 M,0,190383,190405,430.5922,141.1184,433.1662,141.6332 M,0,190405,190427,433.1662,141.6332,435.7402,142.148 M,0,190427,190449,435.7402,142.148,438.3143,142.6629 M,0,190449,190471,438.3143,142.6629,440,143 M,0,190471,190493,440,143 M,0,190471,190737,440,143 M,0,190737,190913,440,143,506,248 M,0,190913,190935,506,248,510.7965,262.9518 M,0,190935,190957,510.7965,262.9518,513.6395,278.3688 M,0,190957,190979,513.6395,278.3688,514.0827,294.0624 M,0,190979,191001,514.0827,294.0624,512.0602,309.6603 M,0,191001,191090,512.0602,309.6603,517,244 M,0,191090,191112,517,244,521.9602,258.8844 M,0,191112,191134,521.9602,258.8844,524.6703,274.3022 M,0,191134,191156,524.6703,274.3022,524.6289,289.98 M,0,191156,191178,524.6289,289.98,522,305 M,0,191178,191266,522,305,337,182 M,0,191266,191288,337,182,329.3747,162.535 M,0,191288,191310,329.3747,162.535,326.4255,141.8707 M,0,191310,191332,326.4255,141.8707,328.2763,121.0973 M,0,191332,191354,328.2763,121.0973,334.8927,101.2465 M,0,191354,191376,334.8927,101.2465 M,0,191354,191443,334.8927,101.2465,384,365 M,0,191443,191465,384,365,366.5139,384.4007 M,0,191465,191487,366.5139,384.4007,344.0655,397.681 M,0,191487,191509,344.0655,397.681,318.7009,403.6501 M,0,191509,191531,318.7009,403.6501,292.6447,402.1196 M,0,191531,191553,292.6447,402.1196 M,0,191531,191619,292.6447,402.1196,288,394 M,0,191619,191641,288,394,314.0269,396.0774 M,0,191641,191663,314.0269,396.0774,339.406,390.1107 M,0,191663,191685,339.406,390.1107,361.7249,376.6859 M,0,191685,191707,361.7249,376.6859,378.8632,357.0912 M,0,191707,191729,378.8632,357.0912,389.3822,333.2589 M,0,191729,191751,389.3822,333.2589,391.7307,307.2928 M,0,191751,191773,391.7307,307.2928,386.0362,281.8772 M,0,191773,191795,386.0362,281.8772,372.8522,259.4302 M,0,191795,191817,372.8522,259.4302,353.5607,241.9226 M,0,191817,191839,353.5607,241.9226,329.6624,231.4985 M,0,191839,191861,329.6624,231.4985,303.748,228.8802 M,0,191861,191883,303.748,228.8802,278.1504,233.9503 M,0,191883,191905,278.1504,233.9503 M,0,191883,191972,278.1504,233.9503,125,366 M,0,191972,191994,125,366,121.5309,350.6368 M,0,191994,192016,121.5309,350.6368,118.0618,335.2736 M,0,192016,192038,118.0618,335.2736,114.5927,319.9104 M,0,192038,192060,114.5927,319.9104,111.1236,304.5472 M,0,192060,192148,111.1236,304.5472,204,184 M,0,192148,192237,204,184 M,0,192237,192259,204,184,200.4768,199.3509 M,0,192259,192281,200.4768,199.3509,196.9537,214.7018 M,0,192281,192303,196.9537,214.7018,193.4305,230.0527 M,0,192303,192325,193.4305,230.0527,190,245 M,0,192325,192413,190,245,64,130 M,0,192413,192501,64,130 M,0,192501,192523,64,130,84.08119,135.77 M,0,192523,192545,84.08119,135.77,104.964,136.9154 M,0,192545,192567,104.964,136.9154,125.3038,132.1393 M,0,192567,192589,125.3038,132.1393,144,123 M,0,192589,192611,144,123 M,0,192589,192678,144,123,277,56 M,0,192678,192854,277,56,379,259 M,0,192854,192876,379,259,353.519,252.6928 M,0,192876,192898,353.519,252.6928,328.038,246.3856 M,0,192898,192920,328.038,246.3856,302.5569,240.0785 M,0,192920,192942,302.5569,240.0785,278,234 M,0,192942,192964,278,234 M,0,192942,193031,278,234,275,226 M,0,193031,193053,275,226,277.5563,226.5965 M,0,193053,193075,277.5563,226.5965,280.1127,227.193 M,0,193075,193097,280.1127,227.193,282.669,227.7894 M,0,193097,193119,282.669,227.7894,285.2253,228.3859 M,0,193119,193141,285.2253,228.3859,287.7817,228.9824 M,0,193141,193163,287.7817,228.9824,290.338,229.5789 M,0,193163,193185,290.338,229.5789,292.8943,230.1753 M,0,193185,193207,292.8943,230.1753,295.4507,230.7718 M,0,193207,193229,295.4507,230.7718,298.007,231.3683 M,0,193229,193251,298.007,231.3683,300.5633,231.9648 M,0,193251,193273,300.5633,231.9648,303.1197,232.5612 M,0,193273,193295,303.1197,232.5612,305,233 M,0,193295,193317,305,233 M,0,193295,193619,305,233,502,321 M,0,193619,193641,502,321,491.8135,318.4534 M,0,193641,193663,491.8135,318.4534,481.627,315.9067 M,0,193663,193685,481.627,315.9067,474.836,314.209 M,0,193677,193737,474.836,314.209,518,325 M,0,193737,193759,518,325,520.7513,309.4922 M,0,193759,193781,520.7513,309.4922,523.5028,293.9844 M,0,193781,193803,523.5028,293.9844,526.2542,278.4766 M,0,193803,193825,526.2542,278.4766,529,263 M,0,193825,193913,529,263,527,328 M,0,193913,193935,527,328,529.7513,312.4922 M,0,193935,193957,529.7513,312.4922,532.5028,296.9844 M,0,193957,193979,532.5028,296.9844,535.2542,281.4766 M,0,193979,194001,535.2542,281.4766,538,266 M,0,194001,194090,538,266,437,129 M,0,194090,194112,437,129,441.0217,149.6113 M,0,194112,194134,441.0217,149.6113,445.0434,170.2226 M,0,194134,194156,445.0434,170.2226,449.0652,190.8339 M,0,194156,194178,449.0652,190.8339,453,211 M,0,194178,194200,453,211 M,0,194178,194266,453,211,507,413 M,0,194266,194288,507,413,481.8366,405.5257 M,0,194288,194310,481.8366,405.5257,456.6732,398.0514 M,0,194310,194332,456.6732,398.0514,431.5098,390.5771 M,0,194332,194354,431.5098,390.5771,406.3463,383.1029 M,0,194354,194376,406.3463,383.1029 M,0,194354,194443,406.3463,383.1029,226,331 M,0,194443,194465,226,331,234.4037,333.4371 M,0,194465,194487,234.4037,333.4371,242.8075,335.8742 M,0,194487,194509,242.8075,335.8742,251.2113,338.3113 M,0,194509,194531,251.2113,338.3113,259.615,340.7484 M,0,194531,194553,259.615,340.7484,268.0188,343.1855 M,0,194553,194575,268.0188,343.1855,276.4225,345.6225 M,0,194575,194597,276.4225,345.6225,284.8263,348.0596 M,0,194597,194619,284.8263,348.0596,293.23,350.4967 M,0,194619,194641,293.23,350.4967,301.6338,352.9338 M,0,194641,194663,301.6338,352.9338,310.0375,355.3709 M,0,194663,194685,310.0375,355.3709,318.4413,357.808 M,0,194685,194707,318.4413,357.808,326,360 M,0,194707,194729,326,360 M,0,194707,194795,326,360,136,402 M,0,194795,194817,136,402,143.0177,376.8018 M,0,194817,194839,143.0177,376.8018,141.9214,350.6899 M,0,194839,194861,141.9214,350.6899,133.0818,326.0592 M,0,194861,194883,133.0818,326.0592,143.8696,303.2283 M,0,194883,194905,143.8696,303.2283,147.8052,280.076 M,0,194905,194927,147.8052,280.076,140.1882,255.0184 M,0,194927,194949,140.1882,255.0184,139.7589,228.8841 M,0,194949,194971,139.7589,228.8841,147.9591,204.0782 M,0,194971,194993,147.9591,204.0782 M,0,194971,195060,147.9591,204.0782,295,160 M,0,195060,195082,295,160,298.0545,175.3774 M,0,195082,195104,298.0545,175.3774,298.6181,191.0044 M,0,195104,195126,298.6181,191.0044,296.1894,206.4816 M,0,195126,195148,296.1894,206.4816,291,221 M,0,195148,195237,291,221,134,97 M,0,195237,195325,134,97 M,0,195325,195347,134,97,150.1068,110.2795 M,0,195347,195369,150.1068,110.2795,168.9675,119.2719 M,0,195369,195391,168.9675,119.2719,189.645,122.1158 M,0,195391,195413,189.645,122.1158,210,120 M,0,195413,195435,210,120 M,0,195413,195501,210,120,361,68 M,0,195501,195678,361,68,291,221 M,0,195678,195700,291,221,296.0509,246.7595 M,0,195700,195722,296.0509,246.7595,301.1017,272.519 M,0,195722,195744,301.1017,272.519,306.1526,298.2784 M,0,195744,195766,306.1526,298.2784,311,323 M,0,195766,195788,311,323 M,0,195766,195854,311,323,314,332 M,0,195854,195876,314,332,313.3441,334.5417 M,0,195876,195898,313.3441,334.5417,312.6881,337.0835 M,0,195898,195920,312.6881,337.0835,312.0322,339.6252 M,0,195920,195942,312.0322,339.6252,311.3763,342.1669 M,0,195942,195964,311.3763,342.1669,310.7203,344.7086 M,0,195964,195986,310.7203,344.7086,310.0644,347.2504 M,0,195986,196008,310.0644,347.2504,309.4085,349.7921 M,0,196008,196030,309.4085,349.7921,308.7526,352.3338 M,0,196030,196052,308.7526,352.3338,308.0966,354.8755 M,0,196052,196074,308.0966,354.8755,307.4407,357.4173 M,0,196074,196096,307.4407,357.4173,306.7848,359.959 M,0,196096,196118,306.7848,359.959,306.1288,362.5007 M,0,196118,196140,306.1288,362.5007 M,0,196118,196384,306.1288,362.5007,479,201 M,0,196384,196406,479,201,491.9601,203.0736 M,0,196406,196428,491.9601,203.0736,504,205 M,0,196428,196450,504,205,491.9601,203.0736 M,0,196450,196472,491.9601,203.0736,479,201 M,0,196472,196494,479,201 M,0,196472,196560,479,201,457,199 M,0,196560,196582,457,199,461.7965,184.0482 M,0,196582,196604,461.7965,184.0482,464.6395,168.6313 M,0,196604,196626,464.6395,168.6313,465.0827,152.9376 M,0,196626,196648,465.0827,152.9376,463.0602,137.3397 M,0,196648,196737,463.0602,137.3397,443,198 M,0,196737,196759,443,198,447.244,182.8732 M,0,196759,196781,447.244,182.8732,449.6943,167.3761 M,0,196781,196803,449.6943,167.3761,449.9561,151.6712 M,0,196803,196825,449.9561,151.6712,448.0099,136.0597 M,0,196825,196913,448.0099,136.0597,351,265 M,0,196913,196935,351,265,344.2829,284.7929 M,0,196935,196957,344.2829,284.7929,342.4122,305.5758 M,0,196957,196979,342.4122,305.5758,345.3622,326.2229 M,0,196979,197001,345.3622,326.2229,353.2567,345.5974 M,0,197001,197023,353.2567,345.5974 M,0,197001,197090,353.2567,345.5974,250,108 M,0,197090,197112,250,108,224.6205,101.296 M,0,197112,197134,224.6205,101.296,199.241,94.59196 M,0,197134,197156,199.241,94.59196,174.1573,101.1384 M,0,197156,197178,174.1573,101.1384,149.1022,108.9681 M,0,197178,197200,149.1022,108.9681 M,0,197178,197266,149.1022,108.9681,150,99 M,0,197266,197288,150,99,175.0143,91.04091 M,0,197288,197310,175.0143,91.04091,200.1644,86.42255 M,0,197310,197332,200.1644,86.42255,225.7422,92.32512 M,0,197332,197354,225.7422,92.32512,251.3634,98.01751 M,0,197354,197376,251.3634,98.01751,277.4967,98.18582 M,0,197376,197398,277.4967,98.18582,301.9656,89.12497 M,0,197398,197420,301.9656,89.12497,321.9241,72.22998 M,0,197420,197442,321.9241,72.22998,340.7525,87.79423 M,0,197442,197464,340.7525,87.79423,350.8076,111.84 M,0,197464,197486,350.8076,111.84,350.7543,137.927 M,0,197486,197508,350.7543,137.927,341.0394,162.1497 M,0,197508,197530,341.0394,162.1497,324,181 M,0,197530,197552,324,181 M,0,197530,197619,324,181,253,268 M,0,197619,197641,253,268,237.5852,264.7679 M,0,197641,197663,237.5852,264.7679,222.1704,261.5357 M,0,197663,197685,222.1704,261.5357,206.7556,258.3036 M,0,197685,197707,206.7556,258.3036,191.3408,255.0715 M,0,197707,197795,191.3408,255.0715,358,351 M,0,197795,197884,358,351 M,0,197884,197906,358,351,373.4041,347.7172 M,0,197906,197928,373.4041,347.7172,388.8081,344.4343 M,0,197928,197950,388.8081,344.4343,404.2122,341.1515 M,0,197950,197972,404.2122,341.1515,419,338 M,0,197972,198060,419,338,269,440 M,0,198060,198148,269,440 M,0,198148,198170,269,440,261.2739,420.5842 M,0,198170,198192,261.2739,420.5842,258.4375,399.9162 M,0,198192,198214,258.4375,399.9162,260.5967,379.1846 M,0,198214,198236,260.5967,379.1846,267.7488,359.528 M,0,198236,198258,267.7488,359.528 M,0,198236,198325,267.7488,359.528,324,181 M,0,198325,198501,324,181,421,340 M,0,198501,198523,421,340,446.7108,334.7066 M,0,198523,198545,446.7108,334.7066,472.4215,329.4132 M,0,198545,198567,472.4215,329.4132,498.1322,324.1198 M,0,198567,198589,498.1322,324.1198,523,319 M,0,198589,198611,523,319 M,0,198589,198678,523,319,530,325 M,0,198678,198700,530,325,530.5148,327.574 M,0,198700,198722,530.5148,327.574,531.0296,330.148 M,0,198722,198744,531.0296,330.148,531.5444,332.7221 M,0,198744,198766,531.5444,332.7221,532.0592,335.2961 M,0,198766,198788,532.0592,335.2961,532.574,337.8701 M,0,198788,198810,532.574,337.8701,533.0889,340.4442 M,0,198810,198832,533.0889,340.4442,533.6036,343.0182 M,0,198832,198854,533.6036,343.0182,534.1184,345.5922 M,0,198854,198876,534.1184,345.5922,534.6332,348.1662 M,0,198876,198898,534.6332,348.1662,535.1481,350.7402 M,0,198898,198920,535.1481,350.7402,535.6628,353.3143 M,0,198920,198942,535.6628,353.3143,536,355 M,0,198942,198964,536,355 M,0,198942,199207,536,355 M,0,199207,199384,536,355,483,203 M,0,199384,199406,483,203,478.6786,187.9425 M,0,199406,199428,478.6786,187.9425,477.4574,172.3867 M,0,199428,199450,477.4574,172.3867,479.8361,156.9644 M,0,199450,199472,479.8361,156.9644,485.35,142.3026 M,0,199472,199560,485.35,142.3026,489,81 M,0,199560,199582,489,81,492.6689,96.21883 M,0,199582,199604,492.6689,96.21883,493.5281,111.7989 M,0,199604,199626,493.5281,111.7989,490.986,127.2392 M,0,199626,199648,490.986,127.2392,485.0963,141.8002 M,0,199648,199737,485.0963,141.8002,389,265 M,0,199737,199759,389,265,368.526,269.233 M,0,199759,199781,368.526,269.233,347.6584,268.6809 M,0,199781,199803,347.6584,268.6809,327.4586,263.4655 M,0,199803,199825,327.4586,263.4655,308.98,253.6462 M,0,199825,199847,308.98,253.6462 M,0,199825,199913,308.98,253.6462,133,218 M,0,199913,199935,133,218,138.1956,192.2693 M,0,199935,199957,138.1956,192.2693,143.3912,166.5386 M,0,199957,199979,143.3912,166.5386,148.5869,140.808 M,0,199979,200001,148.5869,140.808,153.7825,115.0773 M,0,200001,200023,153.7825,115.0773 M,0,200001,200090,153.7825,115.0773,166,114 M,0,200090,200112,166,114,160.5169,139.671 M,0,200112,200134,160.5169,139.671,155.0338,165.3419 M,0,200134,200156,155.0338,165.3419,149.5507,191.0129 M,0,200156,200178,149.5507,191.0129,144.0675,216.6838 M,0,200178,200200,144.0675,216.6838,169.8943,217.5286 M,0,200200,200222,169.8943,217.5286,195.6408,212.7822 M,0,200222,200244,195.6408,212.7822,219.0313,201.0758 M,0,200244,200266,219.0313,201.0758,239.3145,184.4425 M,0,200266,200288,239.3145,184.4425,259.661,167.8896 M,0,200288,200310,259.661,167.8896,283.1143,156.3033 M,0,200310,200332,283.1143,156.3033,308.8581,151.5222 M,0,200332,200354,308.8581,151.5222,335.0783,151.9177 M,0,200354,200376,335.0783,151.9177 M,0,200354,200443,335.0783,151.9177,486,234 M,0,200443,200465,486,234,490.3913,249.1255 M,0,200465,200487,490.3913,249.1255,494.7825,264.2509 M,0,200487,200509,494.7825,264.2509,499.1738,279.3763 M,0,200509,200531,499.1738,279.3763,503.565,294.5018 M,0,200531,200619,503.565,294.5018,505,143 M,0,200619,200707,505,143 M,0,200707,200729,505,143,515.6427,131.3898 M,0,200729,200751,515.6427,131.3898,526.2853,119.7796 M,0,200751,200773,526.2853,119.7796,536.928,108.1695 M,0,200773,200795,536.928,108.1695,547.5707,96.55929 M,0,200795,200884,547.5707,96.55929,418,172 M,0,200884,200972,418,172 M,0,200972,200994,418,172,397.5844,167.0806 M,0,200994,201016,397.5844,167.0806,377.1687,162.1611 M,0,201016,201038,377.1687,162.1611,356.753,157.2417 M,0,201038,201060,356.753,157.2417,336.3374,152.3223 M,0,201060,201082,336.3374,152.3223 M,0,201060,201148,336.3374,152.3223,171,100 M,0,201148,201325,171,100,226,290 M,0,201325,201347,226,290,240.1389,268.0169 M,0,201347,201369,240.1389,268.0169,247.7247,243.0372 M,0,201369,201391,247.7247,243.0372,248.1956,216.9554 M,0,201391,201413,248.1956,216.9554,242,192 M,0,201413,201435,242,192 M,0,201413,201501,242,192,236,186 M,0,201501,201523,236,186,233.3865,186.245 M,0,201523,201545,233.3865,186.245,230.7729,186.49 M,0,201545,201567,230.7729,186.49,228.1594,186.7351 M,0,201567,201589,228.1594,186.7351,225.5458,186.9801 M,0,201589,201611,225.5458,186.9801,222.9323,187.2251 M,0,201611,201633,222.9323,187.2251,220.3188,187.4701 M,0,201633,201655,220.3188,187.4701,217.7052,187.7151 M,0,201655,201677,217.7052,187.7151,215.0917,187.9602 M,0,201677,201699,215.0917,187.9602,212.4781,188.2052 M,0,201699,201721,212.4781,188.2052,209.8646,188.4502 M,0,201721,201743,209.8646,188.4502,207.2511,188.6952 M,0,201743,201765,207.2511,188.6952,204.6375,188.9402 M,0,201765,201787,204.6375,188.9402 M,0,201765,202031,204.6375,188.9402,204,189 M,0,202031,202207,204,189,110,345 M,0,202207,202229,110,345,111.2661,360.699 M,0,202229,202251,111.2661,360.699,112.5321,376.3981 M,0,202251,202273,112.5321,376.3981,113.7982,392.0971 M,0,202273,202295,113.7982,392.0971,115,407 M,0,202295,202384,115,407,121,346 M,0,202384,202406,121,346,122.2661,361.699 M,0,202406,202428,122.2661,361.699,123.5321,377.3981 M,0,202428,202450,123.5321,377.3981,124.7982,393.0971 M,0,202450,202472,124.7982,393.0971,126,408 M,0,202472,202560,126,408,211,272 M,0,202560,202582,211,272,209.009,251.0946 M,0,202582,202604,209.009,251.0946,207.018,230.1892 M,0,202604,202626,207.018,230.1892,205.027,209.2838 M,0,202626,202648,205.027,209.2838,203.036,188.3784 M,0,202648,202670,203.036,188.3784 M,0,202648,202737,203.036,188.3784,310,367 M,0,202737,202759,310,367,332.4249,380.3379 M,0,202759,202781,332.4249,380.3379,357.908,385.7319 M,0,202781,202803,357.908,385.7319,383.7422,382.6309 M,0,202803,202825,383.7422,382.6309,407,372 M,0,202825,202847,407,372 M,0,202825,202913,407,372,407,365 M,0,202913,202935,407,365,383.4366,376.1777 M,0,202935,202957,383.4366,376.1777,357.5317,378.7693 M,0,202957,202979,357.5317,378.7693,332.297,372.4984 M,0,202979,203001,332.297,372.4984,310.6606,358.1085 M,0,203001,203023,310.6606,358.1085,294.8902,337.4156 M,0,203023,203045,294.8902,337.4156,287.4496,312.4568 M,0,203045,203067,287.4496,312.4568,288.8415,286.4852 M,0,203067,203089,288.8415,286.4852,298.8865,262.5174 M,0,203089,203111,298.8865,262.5174,316.1996,243.0802 M,0,203111,203133,316.1996,243.0802,339.3136,231.0545 M,0,203133,203155,339.3136,231.0545,365.088,227.5147 M,0,203155,203177,365.088,227.5147,390.6631,232.5233 M,0,203177,203199,390.6631,232.5233 M,0,203177,203266,390.6631,232.5233,553,256 M,0,203266,203288,553,256,553.2098,271.7061 M,0,203288,203310,553.2098,271.7061,555.3578,287.2409 M,0,203310,203332,555.3578,287.2409,559.7796,302.3035 M,0,203332,203354,559.7796,302.3035,566,316 M,0,203354,203443,566,316,471,410 M,0,203443,203531,471,410 M,0,203531,203553,471,410,478.4022,396.1794 M,0,203553,203575,478.4022,396.1794,483.5265,381.4035 M,0,203575,203597,483.5265,381.4035,485.7754,365.8931 M,0,203597,203619,485.7754,365.8931,485.0203,350.1937 M,0,203619,203707,485.0203,350.1937,392,233 M,0,203707,203795,392,233 M,0,203795,203817,392,233,373.2879,242.3601 M,0,203817,203839,373.2879,242.3601,353.0632,247.6161 M,0,203839,203861,353.0632,247.6161,332.2028,248.5872 M,0,203861,203883,332.2028,248.5872,311.5506,245.1391 M,0,203883,203905,311.5506,245.1391 M,0,203883,203972,311.5506,245.1391,170,193 M,0,203972,204148,170,193,347,92 M,0,204148,204170,347,92,373.0494,90.10815 M,0,204170,204192,373.0494,90.10815,398.4418,96.06816 M,0,204192,204214,398.4418,96.06816,420.8765,109.3227 M,0,204214,204236,420.8765,109.3227,438.6177,128.4674 M,0,204236,204258,438.6177,128.4674 M,0,204236,204325,438.6177,128.4674,444,137 M,0,204325,204347,444,137,446.6034,136.6641 M,0,204347,204369,446.6034,136.6641,449.2068,136.3282 M,0,204369,204391,449.2068,136.3282,451.8102,135.9922 M,0,204391,204413,451.8102,135.9922,454.4137,135.6563 M,0,204413,204435,454.4137,135.6563,457.0171,135.3204 M,0,204435,204457,457.0171,135.3204,459.6205,134.9845 M,0,204457,204479,459.6205,134.9845,462.2239,134.6485 M,0,204479,204501,462.2239,134.6485,464.8273,134.3126 M,0,204501,204523,464.8273,134.3126,467.4308,133.9767 M,0,204523,204545,467.4308,133.9767,470.0342,133.6407 M,0,204545,204567,470.0342,133.6407,472.6376,133.3048 M,0,204567,204589,472.6376,133.3048,475,133 M,0,204589,204611,475,133 M,0,204589,204854,475,133 M,0,204854,205031,475,133,558,246 M,0,205031,205119,558,246,538,271 M,0,205119,205207,538,271,508,284 M,0,205207,205295,508,284,475,282 M,0,205295,205317,475,282,459.5375,279.22 M,0,205317,205339,459.5375,279.22,443.8772,278.2817 M,0,205339,205361,443.8772,278.2817,428.2244,279.5634 M,0,205361,205383,428.2244,279.5634,413,283 M,0,205383,205472,413,283,285,342 F,0,205384,206090,1,0 M,0,205472,205560,285,342 M,0,205560,205582,285,342,287.4691,326.4447 M,0,205582,205604,287.4691,326.4447,289.9382,310.8895 M,0,205604,205626,289.9382,310.8895,292.4073,295.3342 M,0,205626,205648,292.4073,295.3342,294.8763,279.779 M,0,205648,205737,294.8763,279.779,249,124 M,0,205737,205759,249,124,251.9259,142.1406 M,0,205759,205781,251.9259,142.1406,254.8518,160.2811 M,0,205781,205803,254.8518,160.2811,257.7777,178.4217 M,0,205803,205825,257.7777,178.4217,260.7036,196.5622 M,0,205825,205847,260.7036,196.5622,263.6295,214.7028 M,0,205847,205869,263.6295,214.7028,266.5554,232.8433 M,0,205869,205891,266.5554,232.8433,269.4813,250.9839 M,0,205891,205913,269.4813,250.9839,272.4072,269.1245 M,0,205913,205935,272.4072,269.1245,275.3331,287.265 M,0,205935,205957,275.3331,287.265,278.259,305.4055 M,0,205957,205979,278.259,305.4055,281.1849,323.5461 M,0,205979,206001,281.1849,323.5461,284,341 M,0,206001,206090,284,341,320,440
Sprite,Background,Centre,"sb\pixel.png",0,0 S,0,161972,,16 R,0,161972,,6.031493 C,0,161972,,86,191,237 M,19,161972,162572,306,183,279.3524,79.37132 F,19,161972,164795,1,0
Sprite,Background,Centre,"sb\pixel.png",0,0 S,0,161972,,16 R,0,161972,,9.173086 C,0,161972,,86,191,237 M,19,161972,162572,306,183,332.6476,286.6287 F,19,161972,164795,1,0
Sprite,Background,Centre,"sb\pixel.png",0,0 S,0,161972,,18 R,0,161972,,3.490331 C,0,161972,,119,214,244 M,19,161972,162572,306,183,262.2608,303.295 F,19,161972,164795,1,0
Sprite,Background,Centre,"sb\pixel.png",0,0 S,0,161972,,15 R,0,161972,,6.631924 C,0,161972,,119,214,244 M,19,161972,162572,306,183,349.7392,62.70504 F,19,161972,164795,1,0
Sprite,Background,Centre,"sb\pixel.png",0,0 S,0,161972,,15 R,0,161972,,5.829521 C,0,161972,,86,191,237 M,19,161972,162572,306,183,256.9147,82.32909 F,19,161972,164795,1,0
Sprite,Background,Centre,"sb\pixel.png",0,0 S,0,161972,,18 R,0,161972,,8.971114 C,0,161972,,86,191,237 M,19,161972,162572,306,183,355.0853,283.6709 F,19,161972,164795,1,0
Sprite,Background,Centre,"sb\pixel.png",0,0 S,0,161972,,18 R,0,161972,,5.727766 C,0,161972,,119,214,244 M,19,161972,162572,306,183,252.7428,97.18237 F,19,161972,164795,1,0
Sprite,Background,Centre,"sb\pixel.png",0,0 S,0,161972,,19 R,0,161972,,8.869359 C,0,161972,,119,214,244 M,19,161972,162572,306,183,359.2573,268.8176 F,19,161972,164795,1,0
Sprite,Background,Centre,"sb\pixel.png",0,0 S,0,161972,,19 R,0,161972,,3.341813 C,0,161972,,86,191,237 M,19,161972,162572,306,183,277.5594,323.1432 F,19,161972,164795,1,0
Sprite,Background,Centre,"sb\pixel.png",0,0 S,0,161972,,17 R,0,161972,,6.483406 C,0,161972,,119,214,244 M,19,161972,162572,306,183,334.4406,42.85674 F,19,161972,164795,1,0
Sprite,Background,Centre,"sb\pixel.png",0,0 S,0,161972,,16 R,0,161972,,5.840604 C,0,161972,,86,191,237 M,19,161972,162572,306,183,255.0355,75.46574 F,19,161972,164795,1,0
Sprite,Background,Centre,"sb\pixel.png",0,0 S,0,161972,,18 R,0,161972,,8.982197 C,0,161972,,119,214,244 M,19,161972,162572,306,183,356.9645,290.5342 F,19,161972,164795,1,0
Sprite,Background,Centre,"sb\pixel.png",0,0 S,0,164795,,17 R,0,164795,,3.156472 C,0,164795,,119,214,244 M,19,164795,165395,474,255,472.0657,384.9856 F,19,164795,167618,1,0
Sprite,Background,Centre,"sb\pixel.png",0,0 S,0,164795,,15 R,0,164795,,6.298065 C,0,164795,,86,191,237 M,19,164795,165395,474,255,475.9343,125.0144 F,19,164795,167618,1,0
Sprite,Background,Centre,"sb\pixel.png",0,0 S,0,164795,,18 R,0,164795,,3.858352 C,0,164795,,119,214,244 M,19,164795,165395,474,255,389.911,351.5041 F,19,164795,167618,1,0
Sprite,Background,Centre,"sb\pixel.png",0,0 S,0,164795,,17 R,0,164795,,6.999945 C,0,164795,,86,191,237 M,19,164795,165395,474,255,558.089,158.4959 F,19,164795,167618,1,0
Sprite,Background,Centre,"sb\pixel.png",0,0 S,0,164795,,19 R,0,164795,,4.543549 C,0,164795,,86,191,237 M,19,164795,165395,474,255,329.0903,279.7017 F,19,164795,167618,1,0
Sprite,Background,Centre,"sb\pixel.png",0,0 S,0,164795,,18 R,0,164795,,7.685142 C,0,164795,,86,191,237 M,19,164795,165395,474,255,618.9097,230.2983 F,19,164795,167618,1,0
Sprite,Background,Centre,"sb\pixel.png",0,0 S,0,164795,,19 R,0,164795,,4.908036 C,0,164795,,86,191,237 M,19,164795,165395,474,255,364.1367,233.227 F,19,164795,167618,1,0
Sprite,Background,Centre,"sb\pixel.png",0,0 S,0,164795,,18 R,0,164795,,8.049629 C,0,164795,,119,214,244 M,19,164795,165395,474,255,583.8633,276.773 F,19,164795,167618,1,0
Sprite,Background,Centre,"sb\pixel.png",0,0 S,0,164795,,19 R,0,164795,,4.769594 C,0,164795,,119,214,244 M,19,164795,165395,474,255,368.1734,248.9396 F,19,164795,167618,1,0
Sprite,Background,Centre,"sb\pixel.png",0,0 S,0,164795,,19 R,0,164795,,7.911186 C,0,164795,,86,191,237 M,19,164795,165395,474,255,579.8266,261.0604 F,19,164795,167618,1,0
Sprite,Background,Centre,"sb\pixel.png",0,0 S,0,164795,,16 R,0,164795,,4.570094 C,0,164795,,86,191,237 M,19,164795,165395,474,255,345.3139,273.436 F,19,164795,167618,1,0
Sprite,Background,Centre,"sb\pixel.png",0,0 S,0,164795,,16 R,0,164795,,7.711686 C,0,164795,,119,214,244 M,19,164795,165395,474,255,602.6861,236.5639 F,19,164795,167618,1,0
Sprite,Background,Centre,"sb\pixel.png",0,0 C,0,167618,,119,214,244 S,0,167619,,16 R,0,167619,,5.309979 M,19,167619,168219,345,109,249.1035,43.73237 F,19,167619,170442,1,0
Sprite,Background,Centre,"sb\pixel.png",0,0 C,0,167618,,119,214,244 S,0,167619,,18 R,0,167619,,8.451571 M,19,167619,168219,345,109,440.8965,174.2676 F,19,167619,170442,1,0
Sprite,Background,Centre,"sb\pixel.png",0,0 C,0,167618,,119,214,244 S,0,167619,,16 R,0,167619,,4.669948 M,19,167619,168219,345,109,229.1045,113.9217 F,19,167619,170442,1,0
Sprite,Background,Centre,"sb\pixel.png",0,0 C,0,167618,,86,191,237 S,0,167619,,17 R,0,167619,,7.811541 M,19,167619,168219,345,109,460.8955,104.0783 F,19,167619,170442,1,0
Sprite,Background,Centre,"sb\pixel.png",0,0 C,0,167618,,86,191,237 S,0,167619,,15 R,0,167619,,5.750147 M,19,167619,168219,345,109,271.826,-15.02244 F,19,167619,170442,1,0
Sprite,Background,Centre,"sb\pixel.png",0,0 C,0,167618,,86,191,237 S,0,167619,,15 R,0,167619,,8.891739 M,19,167619,168219,345,109,418.174,233.0224 F,19,167619,170442,1,0
Sprite,Background,Centre,"sb\pixel.png",0,0 C,0,167618,,119,214,244 S,0,167619,,16 R,0,167619,,5.721422 M,19,167619,168219,345,109,286.938,16.75141 F,19,167619,170442,1,0
Sprite,Background,Centre,"sb\pixel.png",0,0 C,0,167618,,86,191,237 S,0,167619,,18 R,0,167619,,8.863015 M,19,167619,168219,345,109,403.062,201.2486 F,19,167619,170442,1,0
Sprite,Background,Centre,"sb\pixel.png",0,0 C,0,167618,,86,191,237 S,0,167619,,17 R,0,167619,,3.471648 M,19,167619,168219,345,109,306.7567,220.6309 F,19,167619,170442,1,0
Sprite,Background,Centre,"sb\pixel.png",0,0 C,0,167618,,119,214,244 S,0,167619,,16 R,0,167619,,6.613241 M,19,167619,168219,345,109,383.2433,-2.630874 F,19,167619,170442,1,0
Sprite,Background,Centre,"sb\pixel.png",0,0 C,0,167618,,86,191,237 S,0,167619,,17 R,0,167619,,5.568213 M,19,167619,168219,345,109,274.8512,28.20307 F,19,167619,170442,1,0
Sprite,Background,Centre,"sb\pixel.png",0,0 C,0,167618,,119,214,244 S,0,167619,,16 R,0,167619,,8.709805 M,19,167619,168219,345,109,415.1488,189.7969 F,19,167619,170442,1,0
Sprite,Background,Centre,"sb\pixel.png",0,0 C,0,170441,,86,191,237 S,0,170443,,15 R,0,170443,,4.622468 M,19,170443,171043,220,164,104.4687,174.4168 F,19,170443,173266,1,0
Sprite,Background,Centre,"sb\pixel.png",0,0 C,0,170441,,119,214,244 S,0,170443,,19 R,0,170443,,7.76406 M,19,170443,171043,220,164,335.5313,153.5832 F,19,170443,173266,1,0
Sprite,Background,Centre,"sb\pixel.png",0,0 C,0,170441,,86,191,237 S,0,170443,,17 R,0,170443,,5.536976 M,19,170443,171043,220,164,144.6465,82.49628 F,19,170443,173266,1,0
Sprite,Background,Centre,"sb\pixel.png",0,0 C,0,170441,,119,214,244 S,0,170443,,15 R,0,170443,,8.678569 M,19,170443,171043,220,164,295.3535,245.5037 F,19,170443,173266,1,0
Sprite,Background,Centre,"sb\pixel.png",0,0 C,0,170441,,86,191,237 S,0,170443,,18 R,0,170443,,3.370837 M,19,170443,171043,220,164,192.5038,281.8344 F,19,170443,173266,1,0
Sprite,Background,Centre,"sb\pixel.png",0,0 C,0,170441,,119,214,244 S,0,170443,,19 R,0,170443,,6.51243 M,19,170443,171043,220,164,247.4962,46.16555 F,19,170443,173266,1,0
Sprite,Background,Centre,"sb\pixel.png",0,0 C,0,170441,,119,214,244 S,0,170443,,17 R,0,170443,,6.155348 M,19,170443,171043,220,164,204.3188,42.00368 F,19,170443,173266,1,0
Sprite,Background,Centre,"sb\pixel.png",0,0 C,0,170441,,119,214,244 S,0,170443,,15 R,0,170443,,9.296941 M,19,170443,171043,220,164,235.6812,285.9963 F,19,170443,173266,1,0
Sprite,Background,Centre,"sb\pixel.png",0,0 C,0,170441,,119,214,244 S,0,170443,,18 R,0,170443,,3.528773 M,19,170443,171043,220,164,164.4958,300.1187 F,19,170443,173266,1,0
Sprite,Background,Centre,"sb\pixel.png",0,0 C,0,170441,,86,191,237 S,0,170443,,16 R,0,170443,,6.670366 M,19,170443,171043,220,164,275.5042,27.88134 F,19,170443,173266,1,0
Sprite,Background,Centre,"sb\pixel.png",0,0 C,0,170441,,86,191,237 S,0,170443,,18 R,0,170443,,5.354685 M,19,170443,171043,220,164,123.1126,91.51673 F,19,170443,173266,1,0
Sprite,Background,Centre,"sb\pixel.png",0,0 C,0,170441,,86,191,237 S,0,170443,,16 R,0,170443,,8.496278 M,19,170443,171043,220,164,316.8875,236.4833 F,19,170443,173266,1,0
Sprite,Background,Centre,"sb\pixel.png",0,0 C,0,173264,,86,191,237 S,0,173266,,16 R,0,173266,,4.382917 M,19,173266,173866,99,129,-31.57743,173.649 F,19,173266,176089,1,0
Sprite,Background,Centre,"sb\pixel.png",0,0 C,0,173264,,119,214,244 S,0,173266,,18 R,0,173266,,7.524509 M,19,173266,173866,99,129,229.5774,84.35098 F,19,173266,176089,1,0
Sprite,Background,Centre,"sb\pixel.png",0,0 C,0,173264,,119,214,244 S,0,173266,,17 R,0,173266,,3.546191 M,19,173266,173866,99,129,48.61288,246.6654 F,19,173266,176089,1,0
Sprite,Background,Centre,"sb\pixel.png",0,0 C,0,173264,,119,214,244 S,0,173266,,19 R,0,173266,,6.687783 M,19,173266,173866,99,129,149.3871,11.33463 F,19,173266,176089,1,0
Sprite,Background,Centre,"sb\pixel.png",0,0 C,0,173264,,86,191,237 S,0,173266,,19 R,0,173266,,4.160719 M,19,173266,173866,99,129,7.873377,185.0798 F,19,173266,176089,1,0
Sprite,Background,Centre,"sb\pixel.png",0,0 C,0,173264,,119,214,244 S,0,173266,,19 R,0,173266,,7.302312 M,19,173266,173866,99,129,190.1266,72.92025 F,19,173266,176089,1,0
Sprite,Background,Centre,"sb\pixel.png",0,0 C,0,173264,,119,214,244 S,0,173266,,18 R,0,173266,,5.808218 M,19,173266,173866,99,129,52.81176,39.17992 F,19,173266,176089,1,0
Sprite,Background,Centre,"sb\pixel.png",0,0 C,0,173264,,86,191,237 S,0,173266,,16 R,0,173266,,8.949811 M,19,173266,173866,99,129,145.1882,218.8201 F,19,173266,176089,1,0
Sprite,Background,Centre,"sb\pixel.png",0,0 C,0,173264,,86,191,237 S,0,173266,,16 R,0,173266,,6.101523 M,19,173266,173866,99,129,72.2616,-16.56462 F,19,173266,176089,1,0
Sprite,Background,Centre,"sb\pixel.png",0,0 C,0,173264,,86,191,237 S,0,173266,,17 R,0,173266,,9.243115 M,19,173266,173866,99,129,125.7384,274.5646 F,19,173266,176089,1,0
Sprite,Background,Centre,"sb\pixel.png",0,0 C,0,173264,,86,191,237 S,0,173266,,17 R,0,173266,,4.57097 M,19,173266,173866,99,129,-20.79205,146.0548 F,19,173266,176089,1,0
Sprite,Background,Centre,"sb\pixel.png",0,0 C,0,173264,,119,214,244 S,0,173266,,18 R,0,173266,,7.712562 M,19,173266,173866,99,129,218.7921,111.9452 F,19,173266,176089,1,0
Sprite,Background,Centre,"sb\pixel.png",0,0 C,0,176087,,86,191,237 S,0,176090,,18 R,0,176090,,3.384054 M,19,176090,176690,354,365,322.5478,492.1682 F,19,176090,178913,1,0
Sprite,Background,Centre,"sb\pixel.png",0,0 C,0,176087,,119,214,244 S,0,176090,,17 R,0,176090,,6.525647 M,19,176090,176690,354,365,385.4522,237.8318 F,19,176090,178913,1,0
Sprite,Background,Centre,"sb\pixel.png",0,0 C,0,176087,,119,214,244 S,0,176090,,15 R,0,176090,,5.36767 M,19,176090,176690,354,365,254.0975,288.2179 F,19,176090,178913,1,0
Sprite,Background,Centre,"sb\pixel.png",0,0 C,0,176087,,119,214,244 S,0,176090,,16 R,0,176090,,8.509262 M,19,176090,176690,354,365,453.9025,441.7821 F,19,176090,178913,1,0
Sprite,Background,Centre,"sb\pixel.png",0,0 C,0,176087,,86,191,237 S,0,176090,,18 R,0,176090,,5.339377 M,19,176090,176690,354,365,241.438,283.4476 F,19,176090,178913,1,0
Sprite,Background,Centre,"sb\pixel.png",0,0 C,0,176087,,86,191,237 S,0,176090,,17 R,0,176090,,8.480969 M,19,176090,176690,354,365,466.562,446.5524 F,19,176090,178913,1,0
Sprite,Background,Centre,"sb\pixel.png",0,0 C,0,176087,,86,191,237 S,0,176090,,17 R,0,176090,,3.707841 M,19,176090,176690,354,365,282.6495,477.2413 F,19,176090,178913,1,0
Sprite,Background,Centre,"sb\pixel.png",0,0 C,0,176087,,119,214,244 S,0,176090,,17 R,0,176090,,6.849433 M,19,176090,176690,354,365,425.3505,252.7587 F,19,176090,178913,1,0
Sprite,Background,Centre,"sb\pixel.png",0,0 C,0,176087,,86,191,237 S,0,176090,,18 R,0,176090,,3.299456 M,19,176090,176690,354,365,331.2048,508.197 F,19,176090,178913,1,0
Sprite,Background,Centre,"sb\pixel.png",0,0 C,0,176087,,119,214,244 S,0,176090,,15 R,0,176090,,6.441049 M,19,176090,176690,354,365,376.7952,221.803 F,19,176090,178913,1,0
Sprite,Background,Centre,"sb\pixel.png",0,0 C,0,176087,,86,191,237 S,0,176090,,19 R,0,176090,,6.142984 M,19,176090,176690,354,365,334.7155,228.3541 F,19,176090,178913,1,0
Sprite,Background,Centre,"sb\pixel.png",0,0 C,0,176087,,86,191,237 S,0,176090,,19 R,0,176090,,9.284576 M,19,176090,176690,354,365,373.2845,501.6459 F,19,176090,178913,1,0
Sprite,Background,Centre,"sb\pixel.png",0,0 C,0,178910,,86,191,237 S,0,178913,,18 R,0,178913,,5.764911 M,19,178913,179513,213,167,158.0126,70.57706 F,19,178913,181736,1,0
Sprite,Background,Centre,"sb\pixel.png",0,0 C,0,178910,,119,214,244 S,0,178913,,16 R,0,178913,,8.906504 M,19,178913,179513,213,167,267.9874,263.4229 F,19,178913,181736,1,0
Sprite,Background,Centre,"sb\pixel.png",0,0 C,0,178910,,119,214,244 S,0,178913,,16 R,0,178913,,5.922109 M,19,178913,179513,213,167,164.6005,38.83414 F,19,178913,181736,1,0
Sprite,Background,Centre,"sb\pixel.png",0,0 C,0,178910,,86,191,237 S,0,178913,,15 R,0,178913,,9.063702 M,19,178913,179513,213,167,261.3995,295.1659 F,19,178913,181736,1,0
Sprite,Background,Centre,"sb\pixel.png",0,0 C,0,178910,,86,191,237 S,0,178913,,16 R,0,178913,,5.117758 M,19,178913,179513,213,167,89.85978,114.156 F,19,178913,181736,1,0
Sprite,Background,Centre,"sb\pixel.png",0,0 C,0,178910,,119,214,244 S,0,178913,,17 R,0,178913,,8.259351 M,19,178913,179513,213,167,336.1402,219.844 F,19,178913,181736,1,0
Sprite,Background,Centre,"sb\pixel.png",0,0 C,0,178910,,119,214,244 S,0,178913,,17 R,0,178913,,5.823793 M,19,178913,179513,213,167,155.3575,50.47814 F,19,178913,181736,1,0
Sprite,Background,Centre,"sb\pixel.png",0,0 C,0,178910,,86,191,237 S,0,178913,,17 R,0,178913,,8.965385 M,19,178913,179513,213,167,270.6425,283.5219 F,19,178913,181736,1,0
Sprite,Background,Centre,"sb\pixel.png",0,0 C,0,178910,,119,214,244 S,0,178913,,17 R,0,178913,,5.713826 M,19,178913,179513,213,167,133.7534,43.18972 F,19,178913,181736,1,0
Sprite,Background,Centre,"sb\pixel.png",0,0 C,0,178910,,119,214,244 S,0,178913,,18 R,0,178913,,8.855419 M,19,178913,179513,213,167,292.2466,290.8103 F,19,178913,181736,1,0
Sprite,Background,Centre,"sb\pixel.png",0,0 C,0,178910,,86,191,237 S,0,178913,,15 R,0,178913,,4.525159 M,19,178913,179513,213,167,80.3593,192.1286 F,19,178913,181736,1,0
Sprite,Background,Centre,"sb\pixel.png",0,0 C,0,178910,,86,191,237 S,0,178913,,17 R,0,178913,,7.666752 M,19,178913,179513,213,167,345.6407,141.8714 F,19,178913,181736,1,0
Sprite,Background,Centre,"sb\pixel.png",0,0 C,0,181733,,86,191,237 S,0,181737,,17 R,0,181737,,5.627578 M,19,181737,182337,484,351,406.5756,250.3299 F,19,181737,184560,1,0
Sprite,Background,Centre,"sb\pixel.png",0,0 C,0,181733,,86,191,237 S,0,181737,,18 R,0,181737,,8.769171 M,19,181737,182337,484,351,561.4244,451.6701 F,19,181737,184560,1,0
Sprite,Background,Centre,"sb\pixel.png",0,0 C,0,181733,,119,214,244 S,0,181737,,18 R,0,181737,,6.24592 M,19,181737,182337,484,351,478.9331,215.0944 F,19,181737,184560,1,0
Sprite,Background,Centre,"sb\pixel.png",0,0 C,0,181733,,119,214,244 S,0,181737,,17 R,0,181737,,9.387513 M,19,181737,182337,484,351,489.0669,486.9056 F,19,181737,184560,1,0
Sprite,Background,Centre,"sb\pixel.png",0,0 C,0,181733,,119,214,244 S,0,181737,,16 R,0,181737,,4.324442 M,19,181737,182337,484,351,365.512,399.4209 F,19,181737,184560,1,0
Sprite,Background,Centre,"sb\pixel.png",0,0 C,0,181733,,119,214,244 S,0,181737,,16 R,0,181737,,7.466035 M,19,181737,182337,484,351,602.488,302.5791 F,19,181737,184560,1,0
Sprite,Background,Centre,"sb\pixel.png",0,0 C,0,181733,,86,191,237 S,0,181737,,16 R,0,181737,,5.045177 M,19,181737,182337,484,351,374.3643,313.1051 F,19,181737,184560,1,0
Sprite,Background,Centre,"sb\pixel.png",0,0 C,0,181733,,86,191,237 S,0,181737,,15 R,0,181737,,8.18677 M,19,181737,182337,484,351,593.6357,388.8949 F,19,181737,184560,1,0
Sprite,Background,Centre,"sb\pixel.png",0,0 C,0,181733,,86,191,237 S,0,181737,,19 R,0,181737,,3.17144 M,19,181737,182337,484,351,480.4189,470.9466 F,19,181737,184560,1,0
Sprite,Background,Centre,"sb\pixel.png",0,0 C,0,181733,,86,191,237 S,0,181737,,19 R,0,181737,,6.313033 M,19,181737,182337,484,351,487.5811,231.0535 F,19,181737,184560,1,0
Sprite,Background,Centre,"sb\pixel.png",0,0 C,0,181733,,86,191,237 S,0,181737,,15 R,0,181737,,3.458555 M,19,181737,182337,484,351,445.3514,468.8231 F,19,181737,184560,1,0
Sprite,Background,Centre,"sb\pixel.png",0,0 C,0,181733,,86,191,237 S,0,181737,,19 R,0,181737,,6.600148 M,19,181737,182337,484,351,522.6486,233.1769 F,19,181737,184560,1,0
Sprite,Background,Centre,"sb\pixel.png",0,0 C,0,184556,,119,214,244 S,0,184560,,17 R,0,184560,,6.025187 M,19,184560,185160,475,120,444.3825,3.971699 F,19,184560,187383,1,0
Sprite,Background,Centre,"sb\pixel.png",0,0 C,0,184556,,119,214,244 S,0,184560,,19 R,0,184560,,9.16678 M,19,184560,185160,475,120,505.6175,236.0283 F,19,184560,187383,1,0
Sprite,Background,Centre,"sb\pixel.png",0,0 C,0,184556,,86,191,237 S,0,184560,,19 R,0,184560,,3.18849 M,19,184560,185160,475,120,470.0776,224.8846 F,19,184560,187383,1,0
Sprite,Background,Centre,"sb\pixel.png",0,0 C,0,184556,,119,214,244 S,0,184560,,18 R,0,184560,,6.330083 M,19,184560,185160,475,120,479.9224,15.11545 F,19,184560,187383,1,0
Sprite,Background,Centre,"sb\pixel.png",0,0 C,0,184556,,86,191,237 S,0,184560,,18 R,0,184560,,3.995646 M,19,184560,185160,475,120,397.3432,187.664 F,19,184560,187383,1,0
Sprite,Background,Centre,"sb\pixel.png",0,0 C,0,184556,,86,191,237 S,0,184560,,17 R,0,184560,,7.137239 M,19,184560,185160,475,120,552.6568,52.33595 F,19,184560,187383,1,0
Sprite,Background,Centre,"sb\pixel.png",0,0 C,0,184556,,86,191,237 S,0,184560,,17 R,0,184560,,5.869635 M,19,184560,185160,475,120,425.5708,7.368942 F,19,184560,187383,1,0
Sprite,Background,Centre,"sb\pixel.png",0,0 C,0,184556,,119,214,244 S,0,184560,,15 R,0,184560,,9.011228 M,19,184560,185160,475,120,524.4292,232.6311 F,19,184560,187383,1,0
Sprite,Background,Centre,"sb\pixel.png",0,0 C,0,184556,,86,191,237 S,0,184560,,17 R,0,184560,,3.52587 M,19,184560,185160,475,120,434.512,220.1235 F,19,184560,187383,1,0
Sprite,Background,Centre,"sb\pixel.png",0,0 C,0,184556,,86,191,237 S,0,184560,,18 R,0,184560,,6.667462 M,19,184560,185160,475,120,515.488,19.87647 F,19,184560,187383,1,0
Sprite,Background,Centre,"sb\pixel.png",0,0 C,0,184556,,86,191,237 S,0,184560,,18 R,0,184560,,5.319462 M,19,184560,185160,475,120,382.1907,55.53735 F,19,184560,187383,1,0
Sprite,Background,Centre,"sb\pixel.png",0,0 C,0,184556,,119,214,244 S,0,184560,,18 R,0,184560,,8.461055 M,19,184560,185160,475,120,567.8093,184.4626 F,19,184560,187383,1,0
Sprite,Background,Centre,"sb\pixel.png",0,0 C,0,187379,,86,191,237 S,0,187384,,19 R,0,187384,,3.769138 M,19,187384,187984,404,331,344.6969,412.7566 F,19,187384,190207,1,0
Sprite,Background,Centre,"sb\pixel.png",0,0 C,0,187379,,119,214,244 S,0,187384,,18 R,0,187384,,6.910731 M,19,187384,187984,404,331,463.3031,249.2434 F,19,187384,190207,1,0
Sprite,Background,Centre,"sb\pixel.png",0,0 C,0,187379,,119,214,244 S,0,187384,,19 R,0,187384,,3.950697 M,19,187384,187984,404,331,329.4621,402.0851 F,19,187384,190207,1,0
Sprite,Background,Centre,"sb\pixel.png",0,0 C,0,187379,,86,191,237 S,0,187384,,19 R,0,187384,,7.092289 M,19,187384,187984,404,331,478.5379,259.9149 F,19,187384,190207,1,0
Sprite,Background,Centre,"sb\pixel.png",0,0 C,0,187379,,86,191,237 S,0,187384,,15 R,0,187384,,3.79363 M,19,187384,187984,404,331,331.79,425.5871 F,19,187384,190207,1,0
Sprite,Background,Centre,"sb\pixel.png",0,0 C,0,187379,,119,214,244 S,0,187384,,15 R,0,187384,,6.935222 M,19,187384,187984,404,331,476.21,236.4129 F,19,187384,190207,1,0
Sprite,Background,Centre,"sb\pixel.png",0,0 C,0,187379,,86,191,237 S,0,187384,,19 R,0,187384,,3.331679 M,19,187384,187984,404,331,381.8936,445.8926 F,19,187384,190207,1,0
Sprite,Background,Centre,"sb\pixel.png",0,0 C,0,187379,,119,214,244 S,0,187384,,16 R,0,187384,,6.473272 M,19,187384,187984,404,331,426.1064,216.1074 F,19,187384,190207,1,0
Sprite,Background,Centre,"sb\pixel.png",0,0 C,0,187379,,86,191,237 S,0,187384,,15 R,0,187384,,3.167988 M,19,187384,187984,404,331,400.8065,451.9579 F,19,187384,190207,1,0
Sprite,Background,Centre,"sb\pixel.png",0,0 C,0,187379,,119,214,244 S,0,187384,,19 R,0,187384,,6.309581 M,19,187384,187984,404,331,407.1935,210.0421 F,19,187384,190207,1,0
Sprite,Background,Centre,"sb\pixel.png",0,0 C,0,187379,,86,191,237 S,0,187384,,19 R,0,187384,,5.24676 M,19,187384,187984,404,331,289.5417,263.2631 F,19,187384,190207,1,0
Sprite,Background,Centre,"sb\pixel.png",0,0 C,0,187379,,86,191,237 S,0,187384,,17 R,0,187384,,8.388353 M,19,187384,187984,404,331,518.4583,398.7369 F,19,187384,190207,1,0
Sprite,Background,Centre,"sb\pixel.png",0,0 C,0,190202,,119,214,244 S,0,190207,,15 R,0,190207,,5.545055 M,19,190207,190807,410,137,342.0365,62.28748 F,19,190207,193030,1,0
Sprite,Background,Centre,"sb\pixel.png",0,0 C,0,190202,,119,214,244 S,0,190207,,16 R,0,190207,,8.686647 M,19,190207,190807,410,137,477.9635,211.7125 F,19,190207,193030,1,0
Sprite,Background,Centre,"sb\pixel.png",0,0 C,0,190202,,86,191,237 S,0,190207,,15 R,0,190207,,5.818048 M,19,190207,190807,410,137,359.7628,36.89891 F,19,190207,193030,1,0
Sprite,Background,Centre,"sb\pixel.png",0,0 C,0,190202,,119,214,244 S,0,190207,,16 R,0,190207,,8.959641 M,19,190207,190807,410,137,460.2372,237.1011 F,19,190207,193030,1,0
Sprite,Background,Centre,"sb\pixel.png",0,0 C,0,190202,,119,214,244 S,0,190207,,19 R,0,190207,,5.29942 M,19,190207,190807,410,137,305.0938,67.20967 F,19,190207,193030,1,0
Sprite,Background,Centre,"sb\pixel.png",0,0 C,0,190202,,86,191,237 S,0,190207,,15 R,0,190207,,8.441012 M,19,190207,190807,410,137,514.9062,206.7903 F,19,190207,193030,1,0
Sprite,Background,Centre,"sb\pixel.png",0,0 C,0,190202,,86,191,237 S,0,190207,,17 R,0,190207,,5.516071 M,19,190207,190807,410,137,329.489,53.4897 F,19,190207,193030,1,0
Sprite,Background,Centre,"sb\pixel.png",0,0 C,0,190202,,86,191,237 S,0,190207,,19 R,0,190207,,8.657663 M,19,190207,190807,410,137,490.511,220.5103 F,19,190207,193030,1,0
Sprite,Background,Centre,"sb\pixel.png",0,0 C,0,190202,,86,191,237 S,0,190207,,17 R,0,190207,,3.672134 M,19,190207,190807,410,137,357.376,226.7035 F,19,190207,193030,1,0
Sprite,Background,Centre,"sb\pixel.png",0,0 C,0,190202,,119,214,244 S,0,190207,,19 R,0,190207,,6.813726 M,19,190207,190807,410,137,462.624,47.29653 F,19,190207,193030,1,0
Sprite,Background,Centre,"sb\pixel.png",0,0 C,0,190202,,86,191,237 S,0,190207,,17 R,0,190207,,3.768594 M,19,190207,190807,410,137,341.9406,230.9357 F,19,190207,193030,1,0
Sprite,Background,Centre,"sb\pixel.png",0,0 C,0,190202,,119,214,244 S,0,190207,,16 R,0,190207,,6.910187 M,19,190207,190807,410,137,478.0594,43.0643 F,19,190207,193030,1,0
Sprite,Background,Centre,"sb\pixel.png",0,0 C,0,193025,,119,214,244 S,0,193031,,17 R,0,193031,,6.12492 M,19,193031,193631,275,226,251.5168,78.86217 F,19,193031,195854,1,0
Sprite,Background,Centre,"sb\pixel.png",0,0 C,0,193025,,119,214,244 S,0,193031,,15 R,0,193031,,9.266513 M,19,193031,193631,275,226,298.4832,373.1378 F,19,193031,195854,1,0
Sprite,Background,Centre,"sb\pixel.png",0,0 C,0,193025,,119,214,244 S,0,193031,,16 R,0,193031,,5.41363 M,19,193031,193631,275,226,161.1577,129.8702 F,19,193031,195854,1,0
Sprite,Background,Centre,"sb\pixel.png",0,0 C,0,193025,,119,214,244 S,0,193031,,18 R,0,193031,,8.555223 M,19,193031,193631,275,226,388.8423,322.1298 F,19,193031,195854,1,0
Sprite,Background,Centre,"sb\pixel.png",0,0 C,0,193025,,119,214,244 S,0,193031,,17 R,0,193031,,5.554231 M,19,193031,193631,275,226,182.4135,122.3239 F,19,193031,195854,1,0
Sprite,Background,Centre,"sb\pixel.png",0,0 C,0,193025,,119,214,244 S,0,193031,,15 R,0,193031,,8.695824 M,19,193031,193631,275,226,367.5865,329.6761 F,19,193031,195854,1,0
Sprite,Background,Centre,"sb\pixel.png",0,0 C,0,193025,,119,214,244 S,0,193031,,16 R,0,193031,,6.105179 M,19,193031,193631,275,226,254.9914,114.7855 F,19,193031,195854,1,0
Sprite,Background,Centre,"sb\pixel.png",0,0 C,0,193025,,86,191,237 S,0,193031,,16 R,0,193031,,9.246772 M,19,193031,193631,275,226,295.0086,337.2144 F,19,193031,195854,1,0
Sprite,Background,Centre,"sb\pixel.png",0,0 C,0,193025,,119,214,244 S,0,193031,,18 R,0,193031,,4.831463 M,19,193031,193631,275,226,158.8285,212.1013 F,19,193031,195854,1,0
Sprite,Background,Centre,"sb\pixel.png",0,0 C,0,193025,,86,191,237 S,0,193031,,15 R,0,193031,,7.973055 M,19,193031,193631,275,226,391.1715,239.8987 F,19,193031,195854,1,0
Sprite,Background,Centre,"sb\pixel.png",0,0 C,0,193025,,119,214,244 S,0,193031,,19 R,0,193031,,4.188744 M,19,193031,193631,275,226,178.0078,282.0045 F,19,193031,195854,1,0
Sprite,Background,Centre,"sb\pixel.png",0,0 C,0,193025,,86,191,237 S,0,193031,,17 R,0,193031,,7.330337 M,19,193031,193631,275,226,371.9922,169.9955 F,19,193031,195854,1,0
Sprite,Background,Centre,"sb\pixel.png",0,0 C,0,195848,,119,214,244 S,0,195854,,16 R,0,195854,,3.334498 M,19,195854,196454,314,332,293.4869,437.0153 F,19,195854,198677,1,0
Sprite,Background,Centre,"sb\pixel.png",0,0 C,0,195848,,86,191,237 S,0,195854,,19 R,0,195854,,6.476091 M,19,195854,196454,314,332,334.5131,226.9847 F,19,195854,198677,1,0
Sprite,Background,Centre,"sb\pixel.png",0,0 C,0,195848,,86,191,237 S,0,195854,,15 R,0,195854,,5.734367 M,19,195854,196454,314,332,239.3999,210.0007 F,19,195854,198677,1,0
Sprite,Background,Centre,"sb\pixel.png",0,0 C,0,195848,,86,191,237 S,0,195854,,16 R,0,195854,,8.87596 M,19,195854,196454,314,332,388.6001,453.9993 F,19,195854,198677,1,0
Sprite,Background,Centre,"sb\pixel.png",0,0 C,0,195848,,119,214,244 S,0,195854,,18 R,0,195854,,5.526392 M,19,195854,196454,314,332,221.9965,234.5764 F,19,195854,198677,1,0
Sprite,Background,Centre,"sb\pixel.png",0,0 C,0,195848,,119,214,244 S,0,195854,,15 R,0,195854,,8.667985 M,19,195854,196454,314,332,406.0035,429.4236 F,19,195854,198677,1,0
Sprite,Background,Centre,"sb\pixel.png",0,0 C,0,195848,,119,214,244 S,0,195854,,19 R,0,195854,,3.172682 M,19,195854,196454,314,332,309.8969,463.9362 F,19,195854,198677,1,0
Sprite,Background,Centre,"sb\pixel.png",0,0 C,0,195848,,119,214,244 S,0,195854,,18 R,0,195854,,6.314275 M,19,195854,196454,314,332,318.1031,200.0638 F,19,195854,198677,1,0
Sprite,Background,Centre,"sb\pixel.png",0,0 C,0,195848,,119,214,244 S,0,195854,,15 R,0,195854,,3.560934 M,19,195854,196454,314,332,253.3333,468.0902 F,19,195854,198677,1,0
Sprite,Background,Centre,"sb\pixel.png",0,0 C,0,195848,,86,191,237 S,0,195854,,16 R,0,195854,,6.702527 M,19,195854,196454,314,332,374.6667,195.9098 F,19,195854,198677,1,0
Sprite,Background,Centre,"sb\pixel.png",0,0 C,0,195848,,86,191,237 S,0,195854,,17 R,0,195854,,4.981685 M,19,195854,196454,314,332,173.2621,293.1563 F,19,195854,198677,1,0
Sprite,Background,Centre,"sb\pixel.png",0,0 C,0,195848,,119,214,244 S,0,195854,,19 R,0,195854,,8.123278 M,19,195854,196454,314,332,454.7379,370.8437 F,19,195854,198677,1,0
Sprite,Background,Centre,"sb\pixel.png",0,0 C,0,198671,,86,191,237 S,0,198678,,16 R,0,198678,,5.80941 M,19,198678,199278,530,325,471.6001,211.099 F,19,198678,201501,1,0
Sprite,Background,Centre,"sb\pixel.png",0,0 C,0,198671,,119,214,244 S,0,198678,,15 R,0,198678,,8.951002 M,19,198678,199278,530,325,588.4,438.901 F,19,198678,201501,1,0
Sprite,Background,Centre,"sb\pixel.png",0,0 C,0,198671,,86,191,237 S,0,198678,,18 R,0,198678,,5.125687 M,19,198678,199278,530,325,419.188,276.4026 F,19,198678,201501,1,0
Sprite,Background,Centre,"sb\pixel.png",0,0 C,0,198671,,86,191,237 S,0,198678,,15 R,0,198678,,8.26728 M,19,198678,199278,530,325,640.812,373.5974 F,19,198678,201501,1,0
Sprite,Background,Centre,"sb\pixel.png",0,0 C,0,198671,,86,191,237 S,0,198678,,15 R,0,198678,,5.733191 M,19,198678,199278,530,325,461.5287,213.3189 F,19,198678,201501,1,0
Sprite,Background,Centre,"sb\pixel.png",0,0 C,0,198671,,86,191,237 S,0,198678,,16 R,0,198678,,8.874784 M,19,198678,199278,530,325,598.4713,436.6811 F,19,198678,201501,1,0
Sprite,Background,Centre,"sb\pixel.png",0,0 C,0,198671,,119,214,244 S,0,198678,,18 R,0,198678,,4.51852 M,19,198678,199278,530,325,420.0982,346.5776 F,19,198678,201501,1,0
Sprite,Background,Centre,"sb\pixel.png",0,0 C,0,198671,,119,214,244 S,0,198678,,18 R,0,198678,,7.660113 M,19,198678,199278,530,325,639.9018,303.4224 F,19,198678,201501,1,0
Sprite,Background,Centre,"sb\pixel.png",0,0 C,0,198671,,86,191,237 S,0,198678,,16 R,0,198678,,5.18936 M,19,198678,199278,530,325,405.6255,260.7273 F,19,198678,201501,1,0
Sprite,Background,Centre,"sb\pixel.png",0,0 C,0,198671,,86,191,237 S,0,198678,,19 R,0,198678,,8.330953 M,19,198678,199278,530,325,654.3745,389.2727 F,19,198678,201501,1,0
Sprite,Background,Centre,"sb\pixel.png",0,0 C,0,198671,,119,214,244 S,0,198678,,16 R,0,198678,,4.760301 M,19,198678,199278,530,325,421.1251,319.7796 F,19,198678,201501,1,0
Sprite,Background,Centre,"sb\pixel.png",0,0 C,0,198671,,86,191,237 S,0,198678,,19 R,0,198678,,7.901893 M,19,198678,199278,530,325,638.8749,330.2204 F,19,198678,201501,1,0
Sprite,Background,Centre,"sb\pixel.png",0,0 C,0,201494,,119,214,244 S,0,201501,,15 R,0,201501,,5.044652 M,19,201501,202101,236,186,111.2195,142.9438 F,19,201501,204324,1,0
Sprite,Background,Centre,"sb\pixel.png",0,0 C,0,201494,,119,214,244 S,0,201501,,18 R,0,201501,,8.186245 M,19,201501,202101,236,186,360.7805,229.0562 F,19,201501,204324,1,0
Sprite,Background,Centre,"sb\pixel.png",0,0 C,0,201494,,119,214,244 S,0,201501,,15 R,0,201501,,3.253341 M,19,201501,202101,236,186,222.2835,308.2328 F,19,201501,204324,1,0
Sprite,Background,Centre,"sb\pixel.png",0,0 C,0,201494,,119,214,244 S,0,201501,,16 R,0,201501,,6.394934 M,19,201501,202101,236,186,249.7165,63.7672 F,19,201501,204324,1,0
Sprite,Background,Centre,"sb\pixel.png",0,0 C,0,201494,,119,214,244 S,0,201501,,18 R,0,201501,,4.74107 M,19,201501,202101,236,186,108.0526,182.3293 F,19,201501,204324,1,0
Sprite,Background,Centre,"sb\pixel.png",0,0 C,0,201494,,119,214,244 S,0,201501,,16 R,0,201501,,7.882663 M,19,201501,202101,236,186,363.9474,189.6707 F,19,201501,204324,1,0
Sprite,Background,Centre,"sb\pixel.png",0,0 C,0,201494,,119,214,244 S,0,201501,,18 R,0,201501,,5.852174 M,19,201501,202101,236,186,190.4609,86.96873 F,19,201501,204324,1,0
Sprite,Background,Centre,"sb\pixel.png",0,0 C,0,201494,,86,191,237 S,0,201501,,18 R,0,201501,,8.993767 M,19,201501,202101,236,186,281.5391,285.0313 F,19,201501,204324,1,0
Sprite,Background,Centre,"sb\pixel.png",0,0 C,0,201494,,86,191,237 S,0,201501,,19 R,0,201501,,3.603304 M,19,201501,202101,236,186,185.2152,288.0632 F,19,201501,204324,1,0
Sprite,Background,Centre,"sb\pixel.png",0,0 C,0,201494,,119,214,244 S,0,201501,,18 R,0,201501,,6.744896 M,19,201501,202101,236,186,286.7848,83.93677 F,19,201501,204324,1,0
Sprite,Background,Centre,"sb\pixel.png",0,0 C,0,201494,,86,191,237 S,0,201501,,19 R,0,201501,,5.984205 M,19,201501,202101,236,186,198.2981,63.67842 F,19,201501,204324,1,0
Sprite,Background,Centre,"sb\pixel.png",0,0 C,0,201494,,119,214,244 S,0,201501,,15 R,0,201501,,9.125797 M,19,201501,202101,236,186,273.7019,308.3216 F,19,201501,204324,1,0
Sprite,Background,Centre,"sb\pixel.png",0,0 C,0,204317,,119,214,244 S,0,204325,,17 R,0,204325,,3.362502 M,19,204325,204925,444,137,418.1442,252.1324 F,19,204325,207148,1,0
Sprite,Background,Centre,"sb\pixel.png",0,0 C,0,204317,,86,191,237 S,0,204325,,18 R,0,204325,,6.504095 M,19,204325,204925,444,137,469.8558,21.86757 F,19,204325,207148,1,0
Sprite,Background,Centre,"sb\pixel.png",0,0 C,0,204317,,86,191,237 S,0,204325,,17 R,0,204325,,5.55492 M,19,204325,204925,444,137,358.1407,40.72346 F,19,204325,207148,1,0
Sprite,Background,Centre,"sb\pixel.png",0,0 C,0,204317,,86,191,237 S,0,204325,,19 R,0,204325,,8.696512 M,19,204325,204925,444,137,529.8594,233.2765 F,19,204325,207148,1,0
Sprite,Background,Centre,"sb\pixel.png",0,0 C,0,204317,,119,214,244 S,0,204325,,15 R,0,204325,,5.41806 M,19,204325,204925,444,137,334.3906,43.60958 F,19,204325,207148,1,0
Sprite,Background,Centre,"sb\pixel.png",0,0 C,0,204317,,119,214,244 S,0,204325,,18 R,0,204325,,8.559652 M,19,204325,204925,444,137,553.6094,230.3904 F,19,204325,207148,1,0
Sprite,Background,Centre,"sb\pixel.png",0,0 C,0,204317,,86,191,237 S,0,204325,,17 R,0,204325,,4.967205 M,19,204325,204925,444,137,305.6175,100.9544 F,19,204325,207148,1,0
Sprite,Background,Centre,"sb\pixel.png",0,0 C,0,204317,,86,191,237 S,0,204325,,19 R,0,204325,,8.108797 M,19,204325,204925,444,137,582.3825,173.0456 F,19,204325,207148,1,0
Sprite,Background,Centre,"sb\pixel.png",0,0 C,0,204317,,119,214,244 S,0,204325,,16 R,0,204325,,5.469771 M,19,204325,204925,444,137,363.3433,60.74063 F,19,204325,207148,1,0
Sprite,Background,Centre,"sb\pixel.png",0,0 C,0,204317,,119,214,244 S,0,204325,,18 R,0,204325,,8.611363 M,19,204325,204925,444,137,524.6567,213.2594 F,19,204325,207148,1,0
Sprite,Background,Centre,"sb\pixel.png",0,0 C,0,204317,,119,214,244 S,0,204325,,19 R,0,204325,,4.91695 M,19,204325,204925,444,137,312.7939,109.7796 F,19,204325,207148,1,0
Sprite,Background,Centre,"sb\pixel.png",0,0 C,0,204317,,86,191,237 S,0,204325,,18 R,0,204325,,8.058542 M,19,204325,204925,444,137,575.2061,164.2204 F,19,204325,207148,1,0
Sprite,Background,Centre,"sb\pixel.png",0,0 L,208913,4 R,0,0,1200,0,6.283185 V,0,0,1200,4,4,4,-4 F,0,107266,114325,0.8 C,0,208913,,119,214,244 M,0,208913,210913,13,520,13,-40 F,0,208913,210913,1
Sprite,Background,Centre,"sb\pixel.png",0,0 L,208957,4 R,0,0,1200,0,6.283185 V,0,0,1200,4,4,4,-4 F,0,107266,114325,0.8 C,0,208957,,86,191,237 M,0,208957,210957,361,520,361,-40 F,0,208957,210957,1
Sprite,Background,Centre,"sb\pixel.png",0,0 L,209001,4 R,0,0,1200,0,6.283185 V,0,0,1200,4,4,4,-4 F,0,107266,114325,0.8 C,0,209001,,119,214,244 M,0,209001,211001,721,520,721,-40 F,0,209001,211001,1
Sprite,Background,Centre,"sb\pixel.png",0,0 L,209045,4 R,0,0,1200,0,6.283185 V,0,0,1200,4,4,4,-4 F,0,107266,114325,0.8 C,0,209045,,86,191,237 M,0,209045,211045,-98,520,-98,-40 F,0,209045,211045,1
Sprite,Background,Centre,"sb\pixel.png",0,0 L,209089,4 R,0,0,1200,0,6.283185 V,0,0,1200,4,4,4,-4 F,0,107266,114325,0.8 C,0,209089,,86,191,237 M,0,209089,211089,271,520,271,-40 F,0,209089,211089,1
Sprite,Background,Centre,"sb\pixel.png",0,0 L,209133,4 R,0,0,1200,0,6.283185 V,0,0,1200,4,4,4,-4 F,0,107266,114325,0.8 C,0,209133,,119,214,244 M,0,209133,211133,-32,520,-32,-40 F,0,209133,211133,1
Sprite,Background,Centre,"sb\pixel.png",0,0 L,209177,4 R,0,0,1200,0,6.283185 V,0,0,1200,4,4,4,-4 F,0,107266,114325,0.8 C,0,209177,,86,191,237 M,0,209177,211177,536,520,536,-40 F,0,209177,211177,1
Sprite,Background,Centre,"sb\pixel.png",0,0 L,209221,4 R,0,0,1200,0,6.283185 V,0,0,1200,4,4,4,-4 F,0,107266,114325,0.8 C,0,209221,,119,214,244 M,0,209221,211221,37,520,37,-40 F,0,209221,211221,1
Sprite,Background,Centre,"sb\pixel.png",0,0 L,209265,4 R,0,0,1200,0,6.283185 V,0,0,1200,4,4,4,-4 F,0,107266,114325,0.8 C,0,209265,,86,191,237 M,0,209265,211265,90,520,90,-40 F,0,209265,211265,1
Sprite,Background,Centre,"sb\pixel.png",0,0 L,209310,4 R,0,0,1200,0,6.283185 V,0,0,1200,4,4,4,-4 F,0,107266,114325,0.8 C,0,209310,,86,191,237 M,0,209310,211310,92,520,92,-40 F,0,209310,211310,1
Sprite,Background,Centre,"sb\pixel.png",0,0 L,209354,4 R,0,0,1200,0,6.283185 V,0,0,1200,4,4,4,-4 F,0,107266,114325,0.8 C,0,209354,,119,214,244 M,0,209354,211354,265,520,265,-40 F,0,209354,211354,1
Sprite,Background,Centre,"sb\pixel.png",0,0 L,209398,4 R,0,0,1200,0,6.283185 V,0,0,1200,4,4,4,-4 F,0,107266,114325,0.8 C,0,209398,,119,214,244 M,0,209398,211398,506,520,506,-40 F,0,209398,211398,1
Sprite,Background,Centre,"sb\pixel.png",0,0 L,209442,4 R,0,0,1200,0,6.283185 V,0,0,1200,4,4,4,-4 F,0,107266,114325,0.8 C,0,209442,,86,191,237 M,0,209442,211442,292,520,292,-40 F,0,209442,211442,1
Sprite,Background,Centre,"sb\pixel.png",0,0 L,209486,4 R,0,0,1200,0,6.283185 V,0,0,1200,4,4,4,-4 F,0,107266,114325,0.8 C,0,209486,,119,214,244 M,0,209486,211486,275,520,275,-40 F,0,209486,211486,1
Sprite,Background,Centre,"sb\pixel.png",0,0 L,209530,4 R,0,0,1200,0,6.283185 V,0,0,1200,4,4,4,-4 F,0,107266,114325,0.8 C,0,209530,,119,214,244 M,0,209530,211530,726,520,726,-40 F,0,209530,211530,1
Sprite,Background,Centre,"sb\pixel.png",0,0 L,209574,4 R,0,0,1200,0,6.283185 V,0,0,1200,4,4,4,-4 F,0,107266,114325,0.8 C,0,209574,,86,191,237 M,0,209574,211574,555,520,555,-40 F,0,209574,211574,1
Sprite,Background,Centre,"sb\pixel.png",0,0 L,209618,4 R,0,0,1200,0,6.283185 V,0,0,1200,4,4,4,-4 F,0,107266,114325,0.8 C,0,209618,,119,214,244 M,0,209618,211618,195,520,195,-40 F,0,209618,211618,1
Sprite,Background,Centre,"sb\pixel.png",0,0 L,209663,4 R,0,0,1200,0,6.283185 V,0,0,1200,4,4,4,-4 F,0,107266,114325,0.8 C,0,209663,,86,191,237 M,0,209663,211663,641,520,641,-40 F,0,209663,211663,1
Sprite,Background,Centre,"sb\pixel.png",0,0 L,209707,4 R,0,0,1200,0,6.283185 V,0,0,1200,4,4,4,-4 F,0,107266,114325,0.8 C,0,209707,,119,214,244 M,0,209707,211707,-2,520,-2,-40 F,0,209707,211707,1
Sprite,Background,Centre,"sb\pixel.png",0,0 L,209751,4 R,0,0,1200,0,6.283185 V,0,0,1200,4,4,4,-4 F,0,107266,114325,0.8 C,0,209751,,86,191,237 M,0,209751,211751,659,520,659,-40 F,0,209751,211751,1
Sprite,Background,Centre,"sb\pixel.png",0,0 L,209795,4 R,0,0,1200,0,6.283185 V,0,0,1200,4,4,4,-4 F,0,107266,114325,0.8 C,0,209795,,119,214,244 M,0,209795,211795,348,520,348,-40 F,0,209795,211795,1
Sprite,Background,Centre,"sb\pixel.png",0,0 L,209839,4 R,0,0,1200,0,6.283185 V,0,0,1200,4,4,4,-4 F,0,107266,114325,0.8 C,0,209839,,86,191,237 M,0,209839,211839,281,520,281,-40 F,0,209839,211839,1
Sprite,Background,Centre,"sb\pixel.png",0,0 L,209883,4 R,0,0,1200,0,6.283185 V,0,0,1200,4,4,4,-4 F,0,107266,114325,0.8 C,0,209883,,119,214,244 M,0,209883,211883,7,520,7,-40 F,0,209883,211883,1
Sprite,Background,Centre,"sb\pixel.png",0,0 L,209927,4 R,0,0,1200,0,6.283185 V,0,0,1200,4,4,4,-4 F,0,107266,114325,0.8 C,0,209927,,119,214,244 M,0,209927,211927,284,520,284,-40 F,0,209927,211927,1
Sprite,Background,Centre,"sb\pixel.png",0,0 L,209971,4 R,0,0,1200,0,6.283185 V,0,0,1200,4,4,4,-4 F,0,107266,114325,0.8 C,0,209971,,119,214,244 M,0,209971,211971,274,520,274,-40 F,0,209971,211971,1
Sprite,Background,Centre,"sb\pixel.png",0,0 L,210015,4 R,0,0,1200,0,6.283185 V,0,0,1200,4,4,4,-4 F,0,107266,114325,0.8 C,0,210015,,86,191,237 M,0,210015,212015,290,520,290,-40 F,0,210015,212015,1
Sprite,Background,Centre,"sb\pixel.png",0,0 L,210060,4 R,0,0,1200,0,6.283185 V,0,0,1200,4,4,4,-4 F,0,107266,114325,0.8 C,0,210060,,119,214,244 M,0,210060,212060,463,520,463,-40 F,0,210060,212060,1
Sprite,Background,Centre,"sb\pixel.png",0,0 L,210104,4 R,0,0,1200,0,6.283185 V,0,0,1200,4,4,4,-4 F,0,107266,114325,0.8 C,0,210104,,86,191,237 M,0,210104,212104,183,520,183,-40 F,0,210104,212104,1
Sprite,Background,Centre,"sb\pixel.png",0,0 L,210148,4 R,0,0,1200,0,6.283185 V,0,0,1200,4,4,4,-4 F,0,107266,114325,0.8 C,0,210148,,119,214,244 M,0,210148,212148,477,520,477,-40 F,0,210148,212148,1
Sprite,Background,Centre,"sb\pixel.png",0,0 L,210192,4 R,0,0,1200,0,6.283185 V,0,0,1200,4,4,4,-4 F,0,107266,114325,0.8 C,0,210192,,119,214,244 M,0,210192,212192,-18,520,-18,-40 F,0,210192,212192,1
Sprite,Background,Centre,"sb\pixel.png",0,0 L,210236,4 R,0,0,1200,0,6.283185 V,0,0,1200,4,4,4,-4 F,0,107266,114325,0.8 C,0,210236,,86,191,237 M,0,210236,212236,456,520,456,-40 F,0,210236,212236,1
Sprite,Background,Centre,"sb\pixel.png",0,0 L,210280,4 R,0,0,1200,0,6.283185 V,0,0,1200,4,4,4,-4 F,0,107266,114325,0.8 C,0,210280,,119,214,244 M,0,210280,212280,430,520,430,-40 F,0,210280,212280,1
Sprite,Background,Centre,"sb\pixel.png",0,0 L,210324,4 R,0,0,1200,0,6.283185 V,0,0,1200,4,4,4,-4 F,0,107266,114325,0.8 C,0,210324,,119,214,244 M,0,210324,212324,37,520,37,-40 F,0,210324,212324,1
Sprite,Background,Centre,"sb\pixel.png",0,0 L,210368,4 R,0,0,1200,0,6.283185 V,0,0,1200,4,4,4,-4 F,0,107266,114325,0.8 C,0,210368,,119,214,244 M,0,210368,212368,664,520,664,-40 F,0,210368,212368,1
Sprite,Background,Centre,"sb\pixel.png",0,0 L,210413,4 R,0,0,1200,0,6.283185 V,0,0,1200,4,4,4,-4 F,0,107266,114325,0.8 C,0,210413,,119,214,244 M,0,210413,212413,-98,520,-98,-40 F,0,210413,212413,1
Sprite,Background,Centre,"sb\pixel.png",0,0 L,210457,4 R,0,0,1200,0,6.283185 V,0,0,1200,4,4,4,-4 F,0,107266,114325,0.8 C,0,210457,,119,214,244 M,0,210457,212457,733,520,733,-40 F,0,210457,212457,1
Sprite,Background,Centre,"sb\pixel.png",0,0 L,210501,4 R,0,0,1200,0,6.283185 V,0,0,1200,4,4,4,-4 F,0,107266,114325,0.8 C,0,210501,,119,214,244 M,0,210501,212501,437,520,437,-40 F,0,210501,212501,1
Sprite,Background,Centre,"sb\pixel.png",0,0 L,210545,4 R,0,0,1200,0,6.283185 V,0,0,1200,4,4,4,-4 F,0,107266,114325,0.8 C,0,210545,,119,214,244 M,0,210545,212545,740,520,740,-40 F,0,210545,212545,1
Sprite,Background,Centre,"sb\pixel.png",0,0 L,210589,4 R,0,0,1200,0,6.283185 V,0,0,1200,4,4,4,-4 F,0,107266,114325,0.8 C,0,210589,,86,191,237 M,0,210589,212589,502,520,502,-40 F,0,210589,212589,1
Sprite,Background,Centre,"sb\pixel.png",0,0 L,210633,4 R,0,0,1200,0,6.283185 V,0,0,1200,4,4,4,-4 F,0,107266,114325,0.8 C,0,210633,,119,214,244 M,0,210633,212633,128,520,128,-40 F,0,210633,212633,1
Sprite,Background,Centre,"sb\pixel.png",0,0 L,210677,4 R,0,0,1200,0,6.283185 V,0,0,1200,4,4,4,-4 F,0,107266,114325,0.8 C,0,210677,,119,214,244 M,0,210677,212677,-25,520,-25,-40 F,0,210677,212677,1
Sprite,Background,Centre,"sb\pixel.png",0,0 L,210721,4 R,0,0,1200,0,6.283185 V,0,0,1200,4,4,4,-4 F,0,107266,114325,0.8 C,0,210721,,86,191,237 M,0,210721,212721,382,520,382,-40 F,0,210721,212721,1
Sprite,Background,Centre,"sb\pixel.png",0,0 L,210765,4 R,0,0,1200,0,6.283185 V,0,0,1200,4,4,4,-4 F,0,107266,114325,0.8 C,0,210765,,119,214,244 M,0,210765,212765,470,520,470,-40 F,0,210765,212765,1
Sprite,Background,Centre,"sb\pixel.png",0,0 L,210810,4 R,0,0,1200,0,6.283185 V,0,0,1200,4,4,4,-4 F,0,107266,114325,0.8 C,0,210810,,119,214,244 M,0,210810,212810,25,520,25,-40 F,0,210810,212810,1
Sprite,Background,Centre,"sb\pixel.png",0,0 L,210854,4 R,0,0,1200,0,6.283185 V,0,0,1200,4,4,4,-4 F,0,107266,114325,0.8 C,0,210854,,86,191,237 M,0,210854,212854,684,520,684,-40 F,0,210854,212854,1
Sprite,Background,Centre,"sb\pixel.png",0,0 L,210898,4 R,0,0,1200,0,6.283185 V,0,0,1200,4,4,4,-4 F,0,107266,114325,0.8 C,0,210898,,86,191,237 M,0,210898,212898,156,520,156,-40 F,0,210898,212898,1
Sprite,Background,Centre,"sb\pixel.png",0,0 L,210942,4 R,0,0,1200,0,6.283185 V,0,0,1200,4,4,4,-4 F,0,107266,114325,0.8 C,0,210942,,119,214,244 M,0,210942,212942,664,520,664,-40 F,0,210942,212942,1
Sprite,Background,Centre,"sb\pixel.png",0,0 L,210986,4 R,0,0,1200,0,6.283185 V,0,0,1200,4,4,4,-4 F,0,107266,114325,0.8 C,0,210986,,86,191,237 M,0,210986,212986,48,520,48,-40 F,0,210986,212986,1
Sprite,Background,Centre,"sb\pixel.png",0,0 L,211030,4 R,0,0,1200,0,6.283185 V,0,0,1200,4,4,4,-4 F,0,107266,114325,0.8 C,0,211030,,119,214,244 M,0,211030,213030,484,520,484,-40 F,0,211030,213030,1
Sprite,Background,Centre,"sb\pixel.png",0,0 L,211074,4 R,0,0,1200,0,6.283185 V,0,0,1200,4,4,4,-4 F,0,107266,114325,0.8 C,0,211074,,86,191,237 M,0,211074,213074,428,520,428,-40 F,0,211074,213074,1
Sprite,Background,Centre,"sb\pixel.png",0,0 L,211118,4 R,0,0,1200,0,6.283185 V,0,0,1200,4,4,4,-4 F,0,107266,114325,0.8 C,0,211118,,86,191,237 M,0,211118,213118,14,520,14,-40 F,0,211118,213118,1
Sprite,Background,Centre,"sb\pixel.png",0,0 L,211163,4 R,0,0,1200,0,6.283185 V,0,0,1200,4,4,4,-4 F,0,107266,114325,0.8 C,0,211163,,119,214,244 M,0,211163,213163,107,520,107,-40 F,0,211163,213163,1
Sprite,Background,Centre,"sb\pixel.png",0,0 L,211207,4 R,0,0,1200,0,6.283185 V,0,0,1200,4,4,4,-4 F,0,107266,114325,0.8 C,0,211207,,119,214,244 M,0,211207,213207,298,520,298,-40 F,0,211207,213207,1
Sprite,Background,Centre,"sb\pixel.png",0,0 L,211251,4 R,0,0,1200,0,6.283185 V,0,0,1200,4,4,4,-4 F,0,107266,114325,0.8 C,0,211251,,119,214,244 M,0,211251,213251,-106,520,-106,-40 F,0,211251,213251,1
Sprite,Background,Centre,"sb\pixel.png",0,0 L,211295,4 R,0,0,1200,0,6.283185 V,0,0,1200,4,4,4,-4 F,0,107266,114325,0.8 C,0,211295,,119,214,244 M,0,211295,213295,-84,520,-84,-40 F,0,211295,213295,1
Sprite,Background,Centre,"sb\pixel.png",0,0 L,211339,4 R,0,0,1200,0,6.283185 V,0,0,1200,4,4,4,-4 F,0,107266,114325,0.8 C,0,211339,,86,191,237 M,0,211339,213339,114,520,114,-40 F,0,211339,213339,1
Sprite,Background,Centre,"sb\pixel.png",0,0 L,211383,4 R,0,0,1200,0,6.283185 V,0,0,1200,4,4,4,-4 F,0,107266,114325,0.8 C,0,211383,,86,191,237 M,0,211383,213383,630,520,630,-40 F,0,211383,213383,1
Sprite,Background,Centre,"sb\pixel.png",0,0 L,211427,4 R,0,0,1200,0,6.283185 V,0,0,1200,4,4,4,-4 F,0,107266,114325,0.8 C,0,211427,,119,214,244 M,0,211427,213427,163,520,163,-40 F,0,211427,213427,1
Sprite,Background,Centre,"sb\pixel.png",0,0 L,211471,4 R,0,0,1200,0,6.283185 V,0,0,1200,4,4,4,-4 F,0,107266,114325,0.8 C,0,211471,,119,214,244 M,0,211471,213471,250,520,250,-40 F,0,211471,213471,1
Sprite,Background,Centre,"sb\pixel.png",0,0 L,211515,4 R,0,0,1200,0,6.283185 V,0,0,1200,4,4,4,-4 F,0,107266,114325,0.8 C,0,211515,,119,214,244 M,0,211515,213515,426,520,426,-40 F,0,211515,213515,1
Sprite,Background,Centre,"sb\pixel.png",0,0 L,211560,4 R,0,0,1200,0,6.283185 V,0,0,1200,4,4,4,-4 F,0,107266,114325,0.8 C,0,211560,,86,191,237 M,0,211560,213560,-13,520,-13,-40 F,0,211560,213560,1
Sprite,Background,Centre,"sb\pixel.png",0,0 L,211604,4 R,0,0,1200,0,6.283185 V,0,0,1200,4,4,4,-4 F,0,107266,114325,0.8 C,0,211604,,119,214,244 M,0,211604,213604,372,520,372,-40 F,0,211604,213604,1
Sprite,Background,Centre,"sb\pixel.png",0,0 L,211648,4 R,0,0,1200,0,6.283185 V,0,0,1200,4,4,4,-4 F,0,107266,114325,0.8 C,0,211648,,86,191,237 M,0,211648,213648,633,520,633,-40 F,0,211648,213648,1
Sprite,Background,Centre,"sb\pixel.png",0,0 L,211692,4 R,0,0,1200,0,6.283185 V,0,0,1200,4,4,4,-4 F,0,107266,114325,0.8 C,0,211692,,119,214,244 M,0,211692,213692,165,520,165,-40 F,0,211692,213692,1
Sprite,Background,Centre,"sb\pixel.png",0,0 L,211736,4 R,0,0,1200,0,6.283185 V,0,0,1200,4,4,4,-4 F,0,107266,114325,0.8 C,0,211736,,119,214,244 M,0,211736,213736,72,520,72,-40 F,0,211736,213736,1
Sprite,Background,Centre,"sb\pixel.png",0,0 L,211780,4 R,0,0,1200,0,6.283185 V,0,0,1200,4,4,4,-4 F,0,107266,114325,0.8 C,0,211780,,86,191,237 M,0,211780,213780,252,520,252,-40 F,0,211780,213780,1
Sprite,Background,Centre,"sb\pixel.png",0,0 L,211824,4 R,0,0,1200,0,6.283185 V,0,0,1200,4,4,4,-4 F,0,107266,114325,0.8 C,0,211824,,119,214,244 M,0,211824,213824,145,520,145,-40 F,0,211824,213824,1
Sprite,Background,Centre,"sb\pixel.png",0,0 L,211868,4 R,0,0,1200,0,6.283185 V,0,0,1200,4,4,4,-4 F,0,107266,114325,0.8 C,0,211868,,119,214,244 M,0,211868,213868,132,520,132,-40 F,0,211868,213868,1
Sprite,Background,Centre,"sb\pixel.png",0,0 L,211913,4 R,0,0,1200,0,6.283185 V,0,0,1200,4,4,4,-4 F,0,107266,114325,0.8 C,0,211913,,119,214,244 M,0,211913,213913,690,520,690,-40 F,0,211913,213913,1
Sprite,Background,Centre,"sb\pixel.png",0,0 L,211957,4 R,0,0,1200,0,6.283185 V,0,0,1200,4,4,4,-4 F,0,107266,114325,0.8 C,0,211957,,119,214,244 M,0,211957,213957,-70,520,-70,-40 F,0,211957,213957,1
Sprite,Background,Centre,"sb\pixel.png",0,0 L,212001,4 R,0,0,1200,0,6.283185 V,0,0,1200,4,4,4,-4 F,0,107266,114325,0.8 C,0,212001,,86,191,237 M,0,212001,214001,7,520,7,-40 F,0,212001,214001,1
Sprite,Background,Centre,"sb\pixel.png",0,0 L,212045,4 R,0,0,1200,0,6.283185 V,0,0,1200,4,4,4,-4 F,0,107266,114325,0.8 C,0,212045,,86,191,237 M,0,212045,214045,155,520,155,-40 F,0,212045,214045,1
Sprite,Background,Centre,"sb\pixel.png",0,0 L,212089,4 R,0,0,1200,0,6.283185 V,0,0,1200,4,4,4,-4 F,0,107266,114325,0.8 C,0,212089,,86,191,237 M,0,212089,214089,443,520,443,-40 F,0,212089,214089,1
Sprite,Background,Centre,"sb\pixel.png",0,0 L,212133,4 R,0,0,1200,0,6.283185 V,0,0,1200,4,4,4,-4 F,0,107266,114325,0.8 C,0,212133,,119,214,244 M,0,212133,214133,-4,520,-4,-40 F,0,212133,214133,1
Sprite,Background,Centre,"sb\pixel.png",0,0 L,212177,4 R,0,0,1200,0,6.283185 V,0,0,1200,4,4,4,-4 F,0,107266,114325,0.8 C,0,212177,,86,191,237 M,0,212177,214177,34,520,34,-40 F,0,212177,214177,1
Sprite,Background,Centre,"sb\pixel.png",0,0 L,212221,4 R,0,0,1200,0,6.283185 V,0,0,1200,4,4,4,-4 F,0,107266,114325,0.8 C,0,212221,,86,191,237 M,0,212221,214221,-3,520,-3,-40 F,0,212221,214221,1
Sprite,Background,Centre,"sb\pixel.png",0,0 L,212265,4 R,0,0,1200,0,6.283185 V,0,0,1200,4,4,4,-4 F,0,107266,114325,0.8 C,0,212265,,86,191,237 M,0,212265,214265,344,520,344,-40 F,0,212265,214265,1
Sprite,Background,Centre,"sb\pixel.png",0,0 L,212310,4 R,0,0,1200,0,6.283185 V,0,0,1200,4,4,4,-4 F,0,107266,114325,0.8 C,0,212310,,86,191,237 M,0,212310,214310,541,520,541,-40 F,0,212310,214310,1
Sprite,Background,Centre,"sb\pixel.png",0,0 L,212354,4 R,0,0,1200,0,6.283185 V,0,0,1200,4,4,4,-4 F,0,107266,114325,0.8 C,0,212354,,119,214,244 M,0,212354,214354,242,520,242,-40 F,0,212354,214354,1
Sprite,Background,Centre,"sb\pixel.png",0,0 L,212398,4 R,0,0,1200,0,6.283185 V,0,0,1200,4,4,4,-4 F,0,107266,114325,0.8 C,0,212398,,119,214,244 M,0,212398,214398,237,520,237,-40 F,0,212398,214398,1
Sprite,Background,Centre,"sb\pixel.png",0,0 L,212442,4 R,0,0,1200,0,6.283185 V,0,0,1200,4,4,4,-4 F,0,107266,114325,0.8 C,0,212442,,86,191,237 M,0,212442,214442,682,520,682,-40 F,0,212442,214442,1
Sprite,Background,Centre,"sb\pixel.png",0,0 L,212486,4 R,0,0,1200,0,6.283185 V,0,0,1200,4,4,4,-4 F,0,107266,114325,0.8 C,0,212486,,86,191,237 M,0,212486,214486,-52,520,-52,-40 F,0,212486,214486,1
Sprite,Background,Centre,"sb\pixel.png",0,0 L,212530,4 R,0,0,1200,0,6.283185 V,0,0,1200,4,4,4,-4 F,0,107266,114325,0.8 C,0,212530,,86,191,237 M,0,212530,214530,580,520,580,-40 F,0,212530,214530,1
Sprite,Background,Centre,"sb\pixel.png",0,0 L,212574,4 R,0,0,1200,0,6.283185 V,0,0,1200,4,4,4,-4 F,0,107266,114325,0.8 C,0,212574,,119,214,244 M,0,212574,214574,291,520,291,-40 F,0,212574,214574,1
Sprite,Background,Centre,"sb\pixel.png",0,0 L,212618,4 R,0,0,1200,0,6.283185 V,0,0,1200,4,4,4,-4 F,0,107266,114325,0.8 C,0,212618,,119,214,244 M,0,212618,214618,236,520,236,-40 F,0,212618,214618,1
Sprite,Background,Centre,"sb\pixel.png",0,0 L,212663,4 R,0,0,1200,0,6.283185 V,0,0,1200,4,4,4,-4 F,0,107266,114325,0.8 C,0,212663,,119,214,244 M,0,212663,214663,355,520,355,-40 F,0,212663,214663,1
Sprite,Background,Centre,"sb\pixel.png",0,0 L,212707,4 R,0,0,1200,0,6.283185 V,0,0,1200,4,4,4,-4 F,0,107266,114325,0.8 C,0,212707,,119,214,244 M,0,212707,214707,-50,520,-50,-40 F,0,212707,214707,1
Sprite,Background,Centre,"sb\pixel.png",0,0 L,212751,4 R,0,0,1200,0,6.283185 V,0,0,1200,4,4,4,-4 F,0,107266,114325,0.8 C,0,212751,,119,214,244 M,0,212751,214751,660,520,660,-40 F,0,212751,214751,1
Sprite,Background,Centre,"sb\pixel.png",0,0 L,212795,4 R,0,0,1200,0,6.283185 V,0,0,1200,4,4,4,-4 F,0,107266,114325,0.8 C,0,212795,,86,191,237 M,0,212795,214795,116,520,116,-40 F,0,212795,214795,1
Sprite,Background,Centre,"sb\pixel.png",0,0 L,212839,4 R,0,0,1200,0,6.283185 V,0,0,1200,4,4,4,-4 F,0,107266,114325,0.8 C,0,212839,,119,214,244 M,0,212839,214839,287,520,287,-40 F,0,212839,214839,1
Sprite,Background,Centre,"sb\pixel.png",0,0 L,212883,4 R,0,0,1200,0,6.283185 V,0,0,1200,4,4,4,-4 F,0,107266,114325,0.8 C,0,212883,,119,214,244 M,0,212883,214883,642,520,642,-40 F,0,212883,214883,1
Sprite,Background,Centre,"sb\pixel.png",0,0 L,212927,4 R,0,0,1200,0,6.283185 V,0,0,1200,4,4,4,-4 F,0,107266,114325,0.8 C,0,212927,,119,214,244 M,0,212927,214927,737,520,737,-40 F,0,212927,214927,1
Sprite,Background,Centre,"sb\pixel.png",0,0 L,212971,4 R,0,0,1200,0,6.283185 V,0,0,1200,4,4,4,-4 F,0,107266,114325,0.8 C,0,212971,,86,191,237 M,0,212971,214971,174,520,174,-40 F,0,212971,214971,1
Sprite,Background,Centre,"sb\pixel.png",0,0 L,213015,4 R,0,0,1200,0,6.283185 V,0,0,1200,4,4,4,-4 F,0,107266,114325,0.8 C,0,213015,,86,191,237 M,0,213015,215015,-81,520,-81,-40 F,0,213015,215015,1
Sprite,Background,Centre,"sb\pixel.png",0,0 L,213060,4 R,0,0,1200,0,6.283185 V,0,0,1200,4,4,4,-4 F,0,107266,114325,0.8 C,0,213060,,86,191,237 M,0,213060,215060,445,520,445,-40 F,0,213060,215060,1
Sprite,Background,Centre,"sb\pixel.png",0,0 L,213104,4 R,0,0,1200,0,6.283185 V,0,0,1200,4,4,4,-4 F,0,107266,114325,0.8 C,0,213104,,86,191,237 M,0,213104,215104,504,520,504,-40 F,0,213104,215104,1
Sprite,Background,Centre,"sb\pixel.png",0,0 L,213148,4 R,0,0,1200,0,6.283185 V,0,0,1200,4,4,4,-4 F,0,107266,114325,0.8 C,0,213148,,86,191,237 M,0,213148,215148,661,520,661,-40 F,0,213148,215148,1
Sprite,Background,Centre,"sb\pixel.png",0,0 L,213192,4 R,0,0,1200,0,6.283185 V,0,0,1200,4,4,4,-4 F,0,107266,114325,0.8 C,0,213192,,119,214,244 M,0,213192,215192,327,520,327,-40 F,0,213192,215192,1
Sprite,Background,Centre,"sb\pixel.png",0,0 L,213236,4 R,0,0,1200,0,6.283185 V,0,0,1200,4,4,4,-4 F,0,107266,114325,0.8 C,0,213236,,86,191,237 M,0,213236,215236,588,520,588,-40 F,0,213236,215236,1
Sprite,Background,Centre,"sb\pixel.png",0,0 L,213280,4 R,0,0,1200,0,6.283185 V,0,0,1200,4,4,4,-4 F,0,107266,114325,0.8 C,0,213280,,86,191,237 M,0,213280,215280,657,520,657,-40 F,0,213280,215280,1
Sprite,Background,Centre,"sb\pixel.png",0,0 L,213324,4 R,0,0,1200,0,6.283185 V,0,0,1200,4,4,4,-4 F,0,107266,114325,0.8 C,0,213324,,86,191,237 M,0,213324,215324,-38,520,-38,-40 F,0,213324,215324,1
Sprite,Background,Centre,"sb\pixel.png",0,0 L,213368,4 R,0,0,1200,0,6.283185 V,0,0,1200,4,4,4,-4 F,0,107266,114325,0.8 C,0,213368,,86,191,237 M,0,213368,215368,593,520,593,-40 F,0,213368,215368,1
Sprite,Background,Centre,"sb\pixel.png",0,0 L,213413,4 R,0,0,1200,0,6.283185 V,0,0,1200,4,4,4,-4 F,0,107266,114325,0.8 C,0,213413,,119,214,244 M,0,213413,215413,34,520,34,-40 F,0,213413,215413,1
Sprite,Background,Centre,"sb\pixel.png",0,0 L,213457,4 R,0,0,1200,0,6.283185 V,0,0,1200,4,4,4,-4 F,0,107266,114325,0.8 C,0,213457,,119,214,244 M,0,213457,215457,331,520,331,-40 F,0,213457,215457,1
Sprite,Background,Centre,"sb\pixel.png",0,0 L,213501,4 R,0,0,1200,0,6.283185 V,0,0,1200,4,4,4,-4 F,0,107266,114325,0.8 C,0,213501,,86,191,237 M,0,213501,215501,486,520,486,-40 F,0,213501,215501,1
Sprite,Background,Centre,"sb\pixel.png",0,0 L,213545,4 R,0,0,1200,0,6.283185 V,0,0,1200,4,4,4,-4 F,0,107266,114325,0.8 C,0,213545,,86,191,237 M,0,213545,215545,159,520,159,-40 F,0,213545,215545,1
Sprite,Background,Centre,"sb\pixel.png",0,0 L,213589,4 R,0,0,1200,0,6.283185 V,0,0,1200,4,4,4,-4 F,0,107266,114325,0.8 C,0,213589,,119,214,244 M,0,213589,215589,475,520,475,-40 F,0,213589,215589,1
Sprite,Background,Centre,"sb\pixel.png",0,0 L,213633,4 R,0,0,1200,0,6.283185 V,0,0,1200,4,4,4,-4 F,0,107266,114325,0.8 C,0,213633,,86,191,237 M,0,213633,215633,402,520,402,-40 F,0,213633,215633,1
Sprite,Background,Centre,"sb\pixel.png",0,0 L,213677,4 R,0,0,1200,0,6.283185 V,0,0,1200,4,4,4,-4 F,0,107266,114325,0.8 C,0,213677,,86,191,237 M,0,213677,215677,625,520,625,-40 F,0,213677,215677,1
Sprite,Background,Centre,"sb\pixel.png",0,0 L,213721,4 R,0,0,1200,0,6.283185 V,0,0,1200,4,4,4,-4 F,0,107266,114325,0.8 C,0,213721,,86,191,237 M,0,213721,215721,103,520,103,-40 F,0,213721,215721,1
Sprite,Background,Centre,"sb\pixel.png",0,0 L,213765,4 R,0,0,1200,0,6.283185 V,0,0,1200,4,4,4,-4 F,0,107266,114325,0.8 C,0,213765,,86,191,237 M,0,213765,215765,463,520,463,-40 F,0,213765,215765,1
Sprite,Background,Centre,"sb\pixel.png",0,0 L,213810,4 R,0,0,1200,0,6.283185 V,0,0,1200,4,4,4,-4 F,0,107266,114325,0.8 C,0,213810,,86,191,237 M,0,213810,215810,585,520,585,-40 F,0,213810,215810,1
Sprite,Background,Centre,"sb\pixel.png",0,0 L,213854,4 R,0,0,1200,0,6.283185 V,0,0,1200,4,4,4,-4 F,0,107266,114325,0.8 C,0,213854,,86,191,237 M,0,213854,215854,298,520,298,-40 F,0,213854,215854,1
Sprite,Background,Centre,"sb\pixel.png",0,0 L,213898,4 R,0,0,1200,0,6.283185 V,0,0,1200,4,4,4,-4 F,0,107266,114325,0.8 C,0,213898,,119,214,244 M,0,213898,215898,77,520,77,-40 F,0,213898,215898,1
Sprite,Background,Centre,"sb\pixel.png",0,0 L,213942,4 R,0,0,1200,0,6.283185 V,0,0,1200,4,4,4,-4 F,0,107266,114325,0.8 C,0,213942,,86,191,237 M,0,213942,215942,475,520,475,-40 F,0,213942,215942,1
Sprite,Background,Centre,"sb\pixel.png",0,0 L,213986,4 R,0,0,1200,0,6.283185 V,0,0,1200,4,4,4,-4 F,0,107266,114325,0.8 C,0,213986,,86,191,237 M,0,213986,215986,247,520,247,-40 F,0,213986,215986,1
Sprite,Background,Centre,"sb\pixel.png",0,0 L,214030,4 R,0,0,1200,0,6.283185 V,0,0,1200,4,4,4,-4 F,0,107266,114325,0.8 C,0,214030,,86,191,237 M,0,214030,216030,717,520,717,-40 F,0,214030,216030,1
Sprite,Background,Centre,"sb\pixel.png",0,0 L,214074,4 R,0,0,1200,0,6.283185 V,0,0,1200,4,4,4,-4 F,0,107266,114325,0.8 C,0,214074,,119,214,244 M,0,214074,216074,96,520,96,-40 F,0,214074,216074,1
Sprite,Background,Centre,"sb\pixel.png",0,0 L,214118,4 R,0,0,1200,0,6.283185 V,0,0,1200,4,4,4,-4 F,0,107266,114325,0.8 C,0,214118,,119,214,244 M,0,214118,216118,129,520,129,-40 F,0,214118,216118,1
Sprite,Background,Centre,"sb\pixel.png",0,0 L,214163,4 R,0,0,1200,0,6.283185 V,0,0,1200,4,4,4,-4 F,0,107266,114325,0.8 C,0,214163,,119,214,244 M,0,214163,216163,181,520,181,-40 F,0,214163,216163,1
Sprite,Background,Centre,"sb\pixel.png",0,0 L,214207,4 R,0,0,1200,0,6.283185 V,0,0,1200,4,4,4,-4 F,0,107266,114325,0.8 C,0,214207,,86,191,237 M,0,214207,216207,171,520,171,-40 F,0,214207,216207,1
Sprite,Background,Centre,"sb\pixel.png",0,0 L,214251,4 R,0,0,1200,0,6.283185 V,0,0,1200,4,4,4,-4 F,0,107266,114325,0.8 C,0,214251,,119,214,244 M,0,214251,216251,-102,520,-102,-40 F,0,214251,216251,1
Sprite,Background,Centre,"sb\pixel.png",0,0 L,214295,4 R,0,0,1200,0,6.283185 V,0,0,1200,4,4,4,-4 F,0,107266,114325,0.8 C,0,214295,,119,214,244 M,0,214295,216295,229,520,229,-40 F,0,214295,216295,1
Sprite,Background,Centre,"sb\pixel.png",0,0 L,214339,4 R,0,0,1200,0,6.283185 V,0,0,1200,4,4,4,-4 F,0,107266,114325,0.8 C,0,214339,,86,191,237 M,0,214339,216339,-16,520,-16,-40 F,0,214339,216339,1
Sprite,Background,Centre,"sb\pixel.png",0,0 L,214383,4 R,0,0,1200,0,6.283185 V,0,0,1200,4,4,4,-4 F,0,107266,114325,0.8 C,0,214383,,86,191,237 M,0,214383,216383,723,520,723,-40 F,0,214383,216383,1
Sprite,Background,Centre,"sb\pixel.png",0,0 L,214427,4 R,0,0,1200,0,6.283185 V,0,0,1200,4,4,4,-4 F,0,107266,114325,0.8 C,0,214427,,119,214,244 M,0,214427,216427,258,520,258,-40 F,0,214427,216427,1
Sprite,Background,Centre,"sb\pixel.png",0,0 L,214471,4 R,0,0,1200,0,6.283185 V,0,0,1200,4,4,4,-4 F,0,107266,114325,0.8 C,0,214471,,86,191,237 M,0,214471,216471,307,520,307,-40 F,0,214471,216471,1
Sprite,Background,Centre,"sb\pixel.png",0,0 L,214515,4 R,0,0,1200,0,6.283185 V,0,0,1200,4,4,4,-4 F,0,107266,114325,0.8 C,0,214515,,119,214,244 M,0,214515,216515,130,520,130,-40 F,0,214515,216515,1
Sprite,Background,Centre,"sb\pixel.png",0,0 L,221619,4 R,0,0,1200,0,6.283185 V,0,0,1200,4,4,4,-4 F,0,107266,114325,0.8 C,0,221619,,119,214,244 M,0,221619,223619,621,520,621,-40 F,0,221619,223619,1
Sprite,Background,Centre,"sb\pixel.png",0,0 L,221663,4 R,0,0,1200,0,6.283185 V,0,0,1200,4,4,4,-4 F,0,107266,114325,0.8 C,0,221663,,119,214,244 M,0,221663,223663,319,520,319,-40 F,0,221663,223663,1
Sprite,Background,Centre,"sb\pixel.png",0,0 L,221707,4 R,0,0,1200,0,6.283185 V,0,0,1200,4,4,4,-4 F,0,107266,114325,0.8 C,0,221707,,119,214,244 M,0,221707,223707,568,520,568,-40 F,0,221707,223707,1
Sprite,Background,Centre,"sb\pixel.png",0,0 L,221751,4 R,0,0,1200,0,6.283185 V,0,0,1200,4,4,4,-4 F,0,107266,114325,0.8 C,0,221751,,119,214,244 M,0,221751,223751,452,520,452,-40 F,0,221751,223751,1
Sprite,Background,Centre,"sb\pixel.png",0,0 L,221795,4 R,0,0,1200,0,6.283185 V,0,0,1200,4,4,4,-4 F,0,107266,114325,0.8 C,0,221795,,86,191,237 M,0,221795,223795,-11,520,-11,-40 F,0,221795,223795,1
Sprite,Background,Centre,"sb\pixel.png",0,0 L,221839,4 R,0,0,1200,0,6.283185 V,0,0,1200,4,4,4,-4 F,0,107266,114325,0.8 C,0,221839,,119,214,244 M,0,221839,223839,390,520,390,-40 F,0,221839,223839,1
Sprite,Background,Centre,"sb\pixel.png",0,0 L,221883,4 R,0,0,1200,0,6.283185 V,0,0,1200,4,4,4,-4 F,0,107266,114325,0.8 C,0,221883,,119,214,244 M,0,221883,223883,614,520,614,-40 F,0,221883,223883,1
Sprite,Background,Centre,"sb\pixel.png",0,0 L,221927,4 R,0,0,1200,0,6.283185 V,0,0,1200,4,4,4,-4 F,0,107266,114325,0.8 C,0,221927,,86,191,237 M,0,221927,223927,362,520,362,-40 F,0,221927,223927,1
Sprite,Background,Centre,"sb\pixel.png",0,0 L,221971,4 R,0,0,1200,0,6.283185 V,0,0,1200,4,4,4,-4 F,0,107266,114325,0.8 C,0,221971,,86,191,237 M,0,221971,223971,84,520,84,-40 F,0,221971,223971,1
Sprite,Background,Centre,"sb\pixel.png",0,0 L,222016,4 R,0,0,1200,0,6.283185 V,0,0,1200,4,4,4,-4 F,0,107266,114325,0.8 C,0,222016,,86,191,237 M,0,222016,224016,438,520,438,-40 F,0,222016,224016,1
Sprite,Background,Centre,"sb\pixel.png",0,0 L,222060,4 R,0,0,1200,0,6.283185 V,0,0,1200,4,4,4,-4 F,0,107266,114325,0.8 C,0,222060,,86,191,237 M,0,222060,224060,541,520,541,-40 F,0,222060,224060,1
Sprite,Background,Centre,"sb\pixel.png",0,0 L,222104,4 R,0,0,1200,0,6.283185 V,0,0,1200,4,4,4,-4 F,0,107266,114325,0.8 C,0,222104,,119,214,244 M,0,222104,224104,150,520,150,-40 F,0,222104,224104,1
Sprite,Background,Centre,"sb\pixel.png",0,0 L,222148,4 R,0,0,1200,0,6.283185 V,0,0,1200,4,4,4,-4 F,0,107266,114325,0.8 C,0,222148,,119,214,244 M,0,222148,224148,442,520,442,-40 F,0,222148,224148,1
Sprite,Background,Centre,"sb\pixel.png",0,0 L,222192,4 R,0,0,1200,0,6.283185 V,0,0,1200,4,4,4,-4 F,0,107266,114325,0.8 C,0,222192,,119,214,244 M,0,222192,224192,342,520,342,-40 F,0,222192,224192,1
Sprite,Background,Centre,"sb\pixel.png",0,0 L,222236,4 R,0,0,1200,0,6.283185 V,0,0,1200,4,4,4,-4 F,0,107266,114325,0.8 C,0,222236,,119,214,244 M,0,222236,224236,50,520,50,-40 F,0,222236,224236,1
Sprite,Background,Centre,"sb\pixel.png",0,0 L,222280,4 R,0,0,1200,0,6.283185 V,0,0,1200,4,4,4,-4 F,0,107266,114325,0.8 C,0,222280,,119,214,244 M,0,222280,224280,-71,520,-71,-40 F,0,222280,224280,1
Sprite,Background,Centre,"sb\pixel.png",0,0 L,222324,4 R,0,0,1200,0,6.283185 V,0,0,1200,4,4,4,-4 F,0,107266,114325,0.8 C,0,222324,,86,191,237 M,0,222324,224324,96,520,96,-40 F,0,222324,224324,1
Sprite,Background,Centre,"sb\pixel.png",0,0 L,222369,4 R,0,0,1200,0,6.283185 V,0,0,1200,4,4,4,-4 F,0,107266,114325,0.8 C,0,222369,,119,214,244 M,0,222369,224369,201,520,201,-40 F,0,222369,224369,1
Sprite,Background,Centre,"sb\pixel.png",0,0 L,222413,4 R,0,0,1200,0,6.283185 V,0,0,1200,4,4,4,-4 F,0,107266,114325,0.8 C,0,222413,,86,191,237 M,0,222413,224413,332,520,332,-40 F,0,222413,224413,1
Sprite,Background,Centre,"sb\pixel.png",0,0 L,222457,4 R,0,0,1200,0,6.283185 V,0,0,1200,4,4,4,-4 F,0,107266,114325,0.8 C,0,222457,,119,214,244 M,0,222457,224457,347,520,347,-40 F,0,222457,224457,1
Sprite,Background,Centre,"sb\pixel.png",0,0 L,222501,4 R,0,0,1200,0,6.283185 V,0,0,1200,4,4,4,-4 F,0,107266,114325,0.8 C,0,222501,,86,191,237 M,0,222501,224501,-75,520,-75,-40 F,0,222501,224501,1
Sprite,Background,Centre,"sb\pixel.png",0,0 L,222545,4 R,0,0,1200,0,6.283185 V,0,0,1200,4,4,4,-4 F,0,107266,114325,0.8 C,0,222545,,86,191,237 M,0,222545,224545,-103,520,-103,-40 F,0,222545,224545,1
Sprite,Background,Centre,"sb\pixel.png",0,0 L,222589,4 R,0,0,1200,0,6.283185 V,0,0,1200,4,4,4,-4 F,0,107266,114325,0.8 C,0,222589,,86,191,237 M,0,222589,224589,392,520,392,-40 F,0,222589,224589,1
Sprite,Background,Centre,"sb\pixel.png",0,0 L,222633,4 R,0,0,1200,0,6.283185 V,0,0,1200,4,4,4,-4 F,0,107266,114325,0.8 C,0,222633,,86,191,237 M,0,222633,224633,723,520,723,-40 F,0,222633,224633,1
Sprite,Background,Centre,"sb\pixel.png",0,0 L,222677,4 R,0,0,1200,0,6.283185 V,0,0,1200,4,4,4,-4 F,0,107266,114325,0.8 C,0,222677,,86,191,237 M,0,222677,224677,5,520,5,-40 F,0,222677,224677,1
Sprite,Background,Centre,"sb\pixel.png",0,0 L,222721,4 R,0,0,1200,0,6.283185 V,0,0,1200,4,4,4,-4 F,0,107266,114325,0.8 C,0,222721,,86,191,237 M,0,222721,224721,-83,520,-83,-40 F,0,222721,224721,1
Sprite,Background,Centre,"sb\pixel.png",0,0 L,222766,4 R,0,0,1200,0,6.283185 V,0,0,1200,4,4,4,-4 F,0,107266,114325,0.8 C,0,222766,,119,214,244 M,0,222766,224766,141,520,141,-40 F,0,222766,224766,1
Sprite,Background,Centre,"sb\pixel.png",0,0 L,222810,4 R,0,0,1200,0,6.283185 V,0,0,1200,4,4,4,-4 F,0,107266,114325,0.8 C,0,222810,,119,214,244 M,0,222810,224810,368,520,368,-40 F,0,222810,224810,1
Sprite,Background,Centre,"sb\pixel.png",0,0 L,222854,4 R,0,0,1200,0,6.283185 V,0,0,1200,4,4,4,-4 F,0,107266,114325,0.8 C,0,222854,,119,214,244 M,0,222854,224854,596,520,596,-40 F,0,222854,224854,1
Sprite,Background,Centre,"sb\pixel.png",0,0 L,222898,4 R,0,0,1200,0,6.283185 V,0,0,1200,4,4,4,-4 F,0,107266,114325,0.8 C,0,222898,,119,214,244 M,0,222898,224898,551,520,551,-40 F,0,222898,224898,1
Sprite,Background,Centre,"sb\pixel.png",0,0 L,222942,4 R,0,0,1200,0,6.283185 V,0,0,1200,4,4,4,-4 F,0,107266,114325,0.8 C,0,222942,,86,191,237 M,0,222942,224942,310,520,310,-40 F,0,222942,224942,1
Sprite,Background,Centre,"sb\pixel.png",0,0 L,222986,4 R,0,0,1200,0,6.283185 V,0,0,1200,4,4,4,-4 F,0,107266,114325,0.8 C,0,222986,,86,191,237 M,0,222986,224986,659,520,659,-40 F,0,222986,224986,1
Sprite,Background,Centre,"sb\pixel.png",0,0 L,223030,4 R,0,0,1200,0,6.283185 V,0,0,1200,4,4,4,-4 F,0,107266,114325,0.8 C,0,223030,,86,191,237 M,0,223030,225030,525,520,525,-40 F,0,223030,225030,1
Sprite,Background,Centre,"sb\pixel.png",0,0 L,223074,4 R,0,0,1200,0,6.283185 V,0,0,1200,4,4,4,-4 F,0,107266,114325,0.8 C,0,223074,,86,191,237 M,0,223074,225074,685,520,685,-40 F,0,223074,225074,1
Sprite,Background,Centre,"sb\pixel.png",0,0 L,223119,4 R,0,0,1200,0,6.283185 V,0,0,1200,4,4,4,-4 F,0,107266,114325,0.8 C,0,223119,,119,214,244 M,0,223119,225119,-89,520,-89,-40 F,0,223119,225119,1
Sprite,Background,Centre,"sb\pixel.png",0,0 L,223163,4 R,0,0,1200,0,6.283185 V,0,0,1200,4,4,4,-4 F,0,107266,114325,0.8 C,0,223163,,119,214,244 M,0,223163,225163,173,520,173,-40 F,0,223163,225163,1
Sprite,Background,Centre,"sb\pixel.png",0,0 L,223207,4 R,0,0,1200,0,6.283185 V,0,0,1200,4,4,4,-4 F,0,107266,114325,0.8 C,0,223207,,119,214,244 M,0,223207,225207,227,520,227,-40 F,0,223207,225207,1
Sprite,Background,Centre,"sb\pixel.png",0,0 L,223251,4 R,0,0,1200,0,6.283185 V,0,0,1200,4,4,4,-4 F,0,107266,114325,0.8 C,0,223251,,86,191,237 M,0,223251,225251,693,520,693,-40 F,0,223251,225251,1
Sprite,Background,Centre,"sb\pixel.png",0,0 L,223295,4 R,0,0,1200,0,6.283185 V,0,0,1200,4,4,4,-4 F,0,107266,114325,0.8 C,0,223295,,86,191,237 M,0,223295,225295,479,520,479,-40 F,0,223295,225295,1
Sprite,Background,Centre,"sb\pixel.png",0,0 L,223339,4 R,0,0,1200,0,6.283185 V,0,0,1200,4,4,4,-4 F,0,107266,114325,0.8 C,0,223339,,86,191,237 M,0,223339,225339,509,520,509,-40 F,0,223339,225339,1
Sprite,Background,Centre,"sb\pixel.png",0,0 L,223383,4 R,0,0,1200,0,6.283185 V,0,0,1200,4,4,4,-4 F,0,107266,114325,0.8 C,0,223383,,86,191,237 M,0,223383,225383,257,520,257,-40 F,0,223383,225383,1
Sprite,Background,Centre,"sb\pixel.png",0,0 L,223427,4 R,0,0,1200,0,6.283185 V,0,0,1200,4,4,4,-4 F,0,107266,114325,0.8 C,0,223427,,86,191,237 M,0,223427,225427,635,520,635,-40 F,0,223427,225427,1
Sprite,Background,Centre,"sb\pixel.png",0,0 L,223471,4 R,0,0,1200,0,6.283185 V,0,0,1200,4,4,4,-4 F,0,107266,114325,0.8 C,0,223471,,119,214,244 M,0,223471,225471,7,520,7,-40 F,0,223471,225471,1
Sprite,Background,Centre,"sb\pixel.png",0,0 L,223516,4 R,0,0,1200,0,6.283185 V,0,0,1200,4,4,4,-4 F,0,107266,114325,0.8 C,0,223516,,86,191,237 M,0,223516,225516,530,520,530,-40 F,0,223516,225516,1
Sprite,Background,Centre,"sb\pixel.png",0,0 L,223560,4 R,0,0,1200,0,6.283185 V,0,0,1200,4,4,4,-4 F,0,107266,114325,0.8 C,0,223560,,119,214,244 M,0,223560,225560,206,520,206,-40 F,0,223560,225560,1
Sprite,Background,Centre,"sb\pixel.png",0,0 L,223604,4 R,0,0,1200,0,6.283185 V,0,0,1200,4,4,4,-4 F,0,107266,114325,0.8 C,0,223604,,119,214,244 M,0,223604,225604,173,520,173,-40 F,0,223604,225604,1
Sprite,Background,Centre,"sb\pixel.png",0,0 L,223648,4 R,0,0,1200,0,6.283185 V,0,0,1200,4,4,4,-4 F,0,107266,114325,0.8 C,0,223648,,119,214,244 M,0,223648,225648,22,520,22,-40 F,0,223648,225648,1
Sprite,Background,Centre,"sb\pixel.png",0,0 L,223692,4 R,0,0,1200,0,6.283185 V,0,0,1200,4,4,4,-4 F,0,107266,114325,0.8 C,0,223692,,119,214,244 M,0,223692,225692,595,520,595,-40 F,0,223692,225692,1
Sprite,Background,Centre,"sb\pixel.png",0,0 L,223736,4 R,0,0,1200,0,6.283185 V,0,0,1200,4,4,4,-4 F,0,107266,114325,0.8 C,0,223736,,119,214,244 M,0,223736,225736,-85,520,-85,-40 F,0,223736,225736,1
Sprite,Background,Centre,"sb\pixel.png",0,0 L,223780,4 R,0,0,1200,0,6.283185 V,0,0,1200,4,4,4,-4 F,0,107266,114325,0.8 C,0,223780,,119,214,244 M,0,223780,225780,636,520,636,-40 F,0,223780,225780,1
Sprite,Background,Centre,"sb\pixel.png",0,0 L,223824,4 R,0,0,1200,0,6.283185 V,0,0,1200,4,4,4,-4 F,0,107266,114325,0.8 C,0,223824,,119,214,244 M,0,223824,225824,-96,520,-96,-40 F,0,223824,225824,1
Sprite,Background,Centre,"sb\pixel.png",0,0 L,223869,4 R,0,0,1200,0,6.283185 V,0,0,1200,4,4,4,-4 F,0,107266,114325,0.8 C,0,223869,,86,191,237 M,0,223869,225869,378,520,378,-40 F,0,223869,225869,1
Sprite,Background,Centre,"sb\pixel.png",0,0 L,223913,4 R,0,0,1200,0,6.283185 V,0,0,1200,4,4,4,-4 F,0,107266,114325,0.8 C,0,223913,,86,191,237 M,0,223913,225913,111,520,111,-40 F,0,223913,225913,1
Sprite,Background,Centre,"sb\pixel.png",0,0 L,223957,4 R,0,0,1200,0,6.283185 V,0,0,1200,4,4,4,-4 F,0,107266,114325,0.8 C,0,223957,,86,191,237 M,0,223957,225957,37,520,37,-40 F,0,223957,225957,1
Sprite,Background,Centre,"sb\pixel.png",0,0 L,224001,4 R,0,0,1200,0,6.283185 V,0,0,1200,4,4,4,-4 F,0,107266,114325,0.8 C,0,224001,,86,191,237 M,0,224001,226001,204,520,204,-40 F,0,224001,226001,1
Sprite,Background,Centre,"sb\pixel.png",0,0 L,224045,4 R,0,0,1200,0,6.283185 V,0,0,1200,4,4,4,-4 F,0,107266,114325,0.8 C,0,224045,,119,214,244 M,0,224045,226045,297,520,297,-40 F,0,224045,226045,1
Sprite,Background,Centre,"sb\pixel.png",0,0 L,224089,4 R,0,0,1200,0,6.283185 V,0,0,1200,4,4,4,-4 F,0,107266,114325,0.8 C,0,224089,,119,214,244 M,0,224089,226089,294,520,294,-40 F,0,224089,226089,1
Sprite,Background,Centre,"sb\pixel.png",0,0 L,224133,4 R,0,0,1200,0,6.283185 V,0,0,1200,4,4,4,-4 F,0,107266,114325,0.8 C,0,224133,,86,191,237 M,0,224133,226133,716,520,716,-40 F,0,224133,226133,1
Sprite,Background,Centre,"sb\pixel.png",0,0 L,224177,4 R,0,0,1200,0,6.283185 V,0,0,1200,4,4,4,-4 F,0,107266,114325,0.8 C,0,224177,,119,214,244 M,0,224177,226177,563,520,563,-40 F,0,224177,226177,1
Sprite,Background,Centre,"sb\pixel.png",0,0 L,224221,4 R,0,0,1200,0,6.283185 V,0,0,1200,4,4,4,-4 F,0,107266,114325,0.8 C,0,224221,,119,214,244 M,0,224221,226221,590,520,590,-40 F,0,224221,226221,1
Sprite,Background,Centre,"sb\pixel.png",0,0 L,224266,4 R,0,0,1200,0,6.283185 V,0,0,1200,4,4,4,-4 F,0,107266,114325,0.8 C,0,224266,,86,191,237 M,0,224266,226266,576,520,576,-40 F,0,224266,226266,1
Sprite,Background,Centre,"sb\pixel.png",0,0 L,224310,4 R,0,0,1200,0,6.283185 V,0,0,1200,4,4,4,-4 F,0,107266,114325,0.8 C,0,224310,,86,191,237 M,0,224310,226310,366,520,366,-40 F,0,224310,226310,1
Sprite,Background,Centre,"sb\pixel.png",0,0 L,224354,4 R,0,0,1200,0,6.283185 V,0,0,1200,4,4,4,-4 F,0,107266,114325,0.8 C,0,224354,,119,214,244 M,0,224354,226354,-49,520,-49,-40 F,0,224354,226354,1
Sprite,Background,Centre,"sb\pixel.png",0,0 L,224398,4 R,0,0,1200,0,6.283185 V,0,0,1200,4,4,4,-4 F,0,107266,114325,0.8 C,0,224398,,119,214,244 M,0,224398,226398,20,520,20,-40 F,0,224398,226398,1
Sprite,Background,Centre,"sb\pixel.png",0,0 L,224442,4 R,0,0,1200,0,6.283185 V,0,0,1200,4,4,4,-4 F,0,107266,114325,0.8 C,0,224442,,86,191,237 M,0,224442,226442,324,520,324,-40 F,0,224442,226442,1
Sprite,Background,Centre,"sb\pixel.png",0,0 L,224486,4 R,0,0,1200,0,6.283185 V,0,0,1200,4,4,4,-4 F,0,107266,114325,0.8 C,0,224486,,86,191,237 M,0,224486,226486,583,520,583,-40 F,0,224486,226486,1
Sprite,Background,Centre,"sb\pixel.png",0,0 L,224530,4 R,0,0,1200,0,6.283185 V,0,0,1200,4,4,4,-4 F,0,107266,114325,0.8 C,0,224530,,86,191,237 M,0,224530,226530,592,520,592,-40 F,0,224530,226530,1
Sprite,Background,Centre,"sb\pixel.png",0,0 L,224574,4 R,0,0,1200,0,6.283185 V,0,0,1200,4,4,4,-4 F,0,107266,114325,0.8 C,0,224574,,119,214,244 M,0,224574,226574,480,520,480,-40 F,0,224574,226574,1
Sprite,Background,Centre,"sb\pixel.png",0,0 L,224619,4 R,0,0,1200,0,6.283185 V,0,0,1200,4,4,4,-4 F,0,107266,114325,0.8 C,0,224619,,119,214,244 M,0,224619,226619,207,520,207,-40 F,0,224619,226619,1
Sprite,Background,Centre,"sb\pixel.png",0,0 L,224663,4 R,0,0,1200,0,6.283185 V,0,0,1200,4,4,4,-4 F,0,107266,114325,0.8 C,0,224663,,119,214,244 M,0,224663,226663,187,520,187,-40 F,0,224663,226663,1
Sprite,Background,Centre,"sb\pixel.png",0,0 L,224707,4 R,0,0,1200,0,6.283185 V,0,0,1200,4,4,4,-4 F,0,107266,114325,0.8 C,0,224707,,86,191,237 M,0,224707,226707,159,520,159,-40 F,0,224707,226707,1
Sprite,Background,Centre,"sb\pixel.png",0,0 L,224751,4 R,0,0,1200,0,6.283185 V,0,0,1200,4,4,4,-4 F,0,107266,114325,0.8 C,0,224751,,86,191,237 M,0,224751,226751,380,520,380,-40 F,0,224751,226751,1
Sprite,Background,Centre,"sb\pixel.png",0,0 L,224795,4 R,0,0,1200,0,6.283185 V,0,0,1200,4,4,4,-4 F,0,107266,114325,0.8 C,0,224795,,119,214,244 M,0,224795,226795,513,520,513,-40 F,0,224795,226795,1
Sprite,Background,Centre,"sb\pixel.png",0,0 L,224839,4 R,0,0,1200,0,6.283185 V,0,0,1200,4,4,4,-4 F,0,107266,114325,0.8 C,0,224839,,119,214,244 M,0,224839,226839,620,520,620,-40 F,0,224839,226839,1
Sprite,Background,Centre,"sb\pixel.png",0,0 L,224883,4 R,0,0,1200,0,6.283185 V,0,0,1200,4,4,4,-4 F,0,107266,114325,0.8 C,0,224883,,119,214,244 M,0,224883,226883,43,520,43,-40 F,0,224883,226883,1
Sprite,Background,Centre,"sb\pixel.png",0,0 L,224927,4 R,0,0,1200,0,6.283185 V,0,0,1200,4,4,4,-4 F,0,107266,114325,0.8 C,0,224927,,86,191,237 M,0,224927,226927,403,520,403,-40 F,0,224927,226927,1
Sprite,Background,Centre,"sb\pixel.png",0,0 L,224971,4 R,0,0,1200,0,6.283185 V,0,0,1200,4,4,4,-4 F,0,107266,114325,0.8 C,0,224971,,86,191,237 M,0,224971,226971,95,520,95,-40 F,0,224971,226971,1
Sprite,Background,Centre,"sb\pixel.png",0,0 L,225016,4 R,0,0,1200,0,6.283185 V,0,0,1200,4,4,4,-4 F,0,107266,114325,0.8 C,0,225016,,119,214,244 M,0,225016,227016,96,520,96,-40 F,0,225016,227016,1
Sprite,Background,Centre,"sb\pixel.png",0,0 L,225060,4 R,0,0,1200,0,6.283185 V,0,0,1200,4,4,4,-4 F,0,107266,114325,0.8 C,0,225060,,86,191,237 M,0,225060,227060,317,520,317,-40 F,0,225060,227060,1
Sprite,Background,Centre,"sb\pixel.png",0,0 L,225104,4 R,0,0,1200,0,6.283185 V,0,0,1200,4,4,4,-4 F,0,107266,114325,0.8 C,0,225104,,119,214,244 M,0,225104,227104,461,520,461,-40 F,0,225104,227104,1
Sprite,Background,Centre,"sb\pixel.png",0,0 L,225148,4 R,0,0,1200,0,6.283185 V,0,0,1200,4,4,4,-4 F,0,107266,114325,0.8 C,0,225148,,86,191,237 M,0,225148,227148,386,520,386,-40 F,0,225148,227148,1
Sprite,Background,Centre,"sb\pixel.png",0,0 L,225192,4 R,0,0,1200,0,6.283185 V,0,0,1200,4,4,4,-4 F,0,107266,114325,0.8 C,0,225192,,86,191,237 M,0,225192,227192,283,520,283,-40 F,0,225192,227192,1
Sprite,Background,Centre,"sb\pixel.png",0,0 L,225236,4 R,0,0,1200,0,6.283185 V,0,0,1200,4,4,4,-4 F,0,107266,114325,0.8 C,0,225236,,86,191,237 M,0,225236,227236,672,520,672,-40 F,0,225236,227236,1
Sprite,Background,Centre,"sb\pixel.png",0,0 L,225280,4 R,0,0,1200,0,6.283185 V,0,0,1200,4,4,4,-4 F,0,107266,114325,0.8 C,0,225280,,86,191,237 M,0,225280,227280,161,520,161,-40 F,0,225280,227280,1
Sprite,Background,Centre,"sb\pixel.png",0,0 L,225324,4 R,0,0,1200,0,6.283185 V,0,0,1200,4,4,4,-4 F,0,107266,114325,0.8 C,0,225324,,86,191,237 M,0,225324,227324,217,520,217,-40 F,0,225324,227324,1
Sprite,Background,Centre,"sb\pixel.png",0,0 L,225369,4 R,0,0,1200,0,6.283185 V,0,0,1200,4,4,4,-4 F,0,107266,114325,0.8 C,0,225369,,86,191,237 M,0,225369,227369,49,520,49,-40 F,0,225369,227369,1
Sprite,Background,Centre,"sb\pixel.png",0,0 L,225413,4 R,0,0,1200,0,6.283185 V,0,0,1200,4,4,4,-4 F,0,107266,114325,0.8 C,0,225413,,119,214,244 M,0,225413,227413,705,520,705,-40 F,0,225413,227413,1
Sprite,Background,Centre,"sb\pixel.png",0,0 L,225457,4 R,0,0,1200,0,6.283185 V,0,0,1200,4,4,4,-4 F,0,107266,114325,0.8 C,0,225457,,119,214,244 M,0,225457,227457,702,520,702,-40 F,0,225457,227457,1
Sprite,Background,Centre,"sb\pixel.png",0,0 L,225501,4 R,0,0,1200,0,6.283185 V,0,0,1200,4,4,4,-4 F,0,107266,114325,0.8 C,0,225501,,86,191,237 M,0,225501,227501,253,520,253,-40 F,0,225501,227501,1
Sprite,Background,Centre,"sb\pixel.png",0,0 L,225545,4 R,0,0,1200,0,6.283185 V,0,0,1200,4,4,4,-4 F,0,107266,114325,0.8 C,0,225545,,86,191,237 M,0,225545,227545,-27,520,-27,-40 F,0,225545,227545,1
Sprite,Background,Centre,"sb\pixel.png",0,0 L,225589,4 R,0,0,1200,0,6.283185 V,0,0,1200,4,4,4,-4 F,0,107266,114325,0.8 C,0,225589,,119,214,244 M,0,225589,227589,25,520,25,-40 F,0,225589,227589,1
Sprite,Background,Centre,"sb\pixel.png",0,0 L,225633,4 R,0,0,1200,0,6.283185 V,0,0,1200,4,4,4,-4 F,0,107266,114325,0.8 C,0,225633,,119,214,244 M,0,225633,227633,-42,520,-42,-40 F,0,225633,227633,1
Sprite,Background,Centre,"sb\pixel.png",0,0 L,225677,4 R,0,0,1200,0,6.283185 V,0,0,1200,4,4,4,-4 F,0,107266,114325,0.8 C,0,225677,,119,214,244 M,0,225677,227677,710,520,710,-40 F,0,225677,227677,1
Sprite,Background,Centre,"sb\pixel.png",0,0 L,225721,4 R,0,0,1200,0,6.283185 V,0,0,1200,4,4,4,-4 F,0,107266,114325,0.8 C,0,225721,,119,214,244 M,0,225721,227721,230,520,230,-40 F,0,225721,227721,1
Sprite,Background,Centre,"sb\pixel.png",0,0 L,225766,4 R,0,0,1200,0,6.283185 V,0,0,1200,4,4,4,-4 F,0,107266,114325,0.8 C,0,225766,,86,191,237 M,0,225766,227766,274,520,274,-40 F,0,225766,227766,1
Sprite,Background,Centre,"sb\pixel.png",0,0 L,225810,4 R,0,0,1200,0,6.283185 V,0,0,1200,4,4,4,-4 F,0,107266,114325,0.8 C,0,225810,,86,191,237 M,0,225810,227810,643,520,643,-40 F,0,225810,227810,1
Sprite,Background,Centre,"sb\pixel.png",0,0 L,225854,4 R,0,0,1200,0,6.283185 V,0,0,1200,4,4,4,-4 F,0,107266,114325,0.8 C,0,225854,,119,214,244 M,0,225854,227854,294,520,294,-40 F,0,225854,227854,1
Sprite,Background,Centre,"sb\pixel.png",0,0 L,225898,4 R,0,0,1200,0,6.283185 V,0,0,1200,4,4,4,-4 F,0,107266,114325,0.8 C,0,225898,,119,214,244 M,0,225898,227898,600,520,600,-40 F,0,225898,227898,1
Sprite,Background,Centre,"sb\pixel.png",0,0 L,225942,4 R,0,0,1200,0,6.283185 V,0,0,1200,4,4,4,-4 F,0,107266,114325,0.8 C,0,225942,,86,191,237 M,0,225942,227942,172,520,172,-40 F,0,225942,227942,1
Sprite,Background,Centre,"sb\pixel.png",0,0 L,225986,4 R,0,0,1200,0,6.283185 V,0,0,1200,4,4,4,-4 F,0,107266,114325,0.8 C,0,225986,,86,191,237 M,0,225986,227986,519,520,519,-40 F,0,225986,227986,1
Sprite,Background,Centre,"sb\pixel.png",0,0 L,226030,4 R,0,0,1200,0,6.283185 V,0,0,1200,4,4,4,-4 F,0,107266,114325,0.8 C,0,226030,,119,214,244 M,0,226030,228030,645,520,645,-40 F,0,226030,228030,1
Sprite,Background,Centre,"sb\pixel.png",0,0 L,226074,4 R,0,0,1200,0,6.283185 V,0,0,1200,4,4,4,-4 F,0,107266,114325,0.8 C,0,226074,,86,191,237 M,0,226074,228074,492,520,492,-40 F,0,226074,228074,1
Sprite,Background,Centre,"sb\pixel.png",0,0 L,226119,4 R,0,0,1200,0,6.283185 V,0,0,1200,4,4,4,-4 F,0,107266,114325,0.8 C,0,226119,,86,191,237 M,0,226119,228119,-33,520,-33,-40 F,0,226119,228119,1
Sprite,Background,Centre,"sb\pixel.png",0,0 L,226163,4 R,0,0,1200,0,6.283185 V,0,0,1200,4,4,4,-4 F,0,107266,114325,0.8 C,0,226163,,86,191,237 M,0,226163,228163,557,520,557,-40 F,0,226163,228163,1
Sprite,Background,Centre,"sb\pixel.png",0,0 L,226207,4 R,0,0,1200,0,6.283185 V,0,0,1200,4,4,4,-4 F,0,107266,114325,0.8 C,0,226207,,119,214,244 M,0,226207,228207,460,520,460,-40 F,0,226207,228207,1
Sprite,Background,Centre,"sb\pixel.png",0,0 L,226251,4 R,0,0,1200,0,6.283185 V,0,0,1200,4,4,4,-4 F,0,107266,114325,0.8 C,0,226251,,86,191,237 M,0,226251,228251,404,520,404,-40 F,0,226251,228251,1
Sprite,Background,Centre,"sb\pixel.png",0,0 L,226295,4 R,0,0,1200,0,6.283185 V,0,0,1200,4,4,4,-4 F,0,107266,114325,0.8 C,0,226295,,86,191,237 M,0,226295,228295,450,520,450,-40 F,0,226295,228295,1
Sprite,Background,Centre,"sb\pixel.png",0,0 L,226339,4 R,0,0,1200,0,6.283185 V,0,0,1200,4,4,4,-4 F,0,107266,114325,0.8 C,0,226339,,86,191,237 M,0,226339,228339,-28,520,-28,-40 F,0,226339,228339,1
Sprite,Background,Centre,"sb\pixel.png",0,0 L,226383,4 R,0,0,1200,0,6.283185 V,0,0,1200,4,4,4,-4 F,0,107266,114325,0.8 C,0,226383,,119,214,244 M,0,226383,228383,611,520,611,-40 F,0,226383,228383,1
Sprite,Background,Centre,"sb\pixel.png",0,0 L,226427,4 R,0,0,1200,0,6.283185 V,0,0,1200,4,4,4,-4 F,0,107266,114325,0.8 C,0,226427,,86,191,237 M,0,226427,228427,621,520,621,-40 F,0,226427,228427,1
Sprite,Background,Centre,"sb\pixel.png",0,0 L,226471,4 R,0,0,1200,0,6.283185 V,0,0,1200,4,4,4,-4 F,0,107266,114325,0.8 C,0,226471,,119,214,244 M,0,226471,228471,273,520,273,-40 F,0,226471,228471,1
Sprite,Background,Centre,"sb\pixel.png",0,0 L,226516,4 R,0,0,1200,0,6.283185 V,0,0,1200,4,4,4,-4 F,0,107266,114325,0.8 C,0,226516,,86,191,237 M,0,226516,228516,183,520,183,-40 F,0,226516,228516,1
Sprite,Background,Centre,"sb\pixel.png",0,0 L,226560,4 R,0,0,1200,0,6.283185 V,0,0,1200,4,4,4,-4 F,0,107266,114325,0.8 C,0,226560,,86,191,237 M,0,226560,228560,499,520,499,-40 F,0,226560,228560,1
Sprite,Background,Centre,"sb\pixel.png",0,0 L,226604,4 R,0,0,1200,0,6.283185 V,0,0,1200,4,4,4,-4 F,0,107266,114325,0.8 C,0,226604,,86,191,237 M,0,226604,228604,46,520,46,-40 F,0,226604,228604,1
Sprite,Background,Centre,"sb\pixel.png",0,0 L,226648,4 R,0,0,1200,0,6.283185 V,0,0,1200,4,4,4,-4 F,0,107266,114325,0.8 C,0,226648,,86,191,237 M,0,226648,228648,389,520,389,-40 F,0,226648,228648,1
Sprite,Background,Centre,"sb\pixel.png",0,0 L,226692,4 R,0,0,1200,0,6.283185 V,0,0,1200,4,4,4,-4 F,0,107266,114325,0.8 C,0,226692,,86,191,237 M,0,226692,228692,482,520,482,-40 F,0,226692,228692,1
Sprite,Background,Centre,"sb\pixel.png",0,0 L,226736,4 R,0,0,1200,0,6.283185 V,0,0,1200,4,4,4,-4 F,0,107266,114325,0.8 C,0,226736,,119,214,244 M,0,226736,228736,41,520,41,-40 F,0,226736,228736,1
Sprite,Background,Centre,"sb\pixel.png",0,0 L,226780,4 R,0,0,1200,0,6.283185 V,0,0,1200,4,4,4,-4 F,0,107266,114325,0.8 C,0,226780,,119,214,244 M,0,226780,228780,740,520,740,-40 F,0,226780,228780,1
Sprite,Background,Centre,"sb\pixel.png",0,0 L,226824,4 R,0,0,1200,0,6.283185 V,0,0,1200,4,4,4,-4 F,0,107266,114325,0.8 C,0,226824,,119,214,244 M,0,226824,228824,204,520,204,-40 F,0,226824,228824,1
Sprite,Background,Centre,"sb\pixel.png",0,0 L,226869,4 R,0,0,1200,0,6.283185 V,0,0,1200,4,4,4,-4 F,0,107266,114325,0.8 C,0,226869,,119,214,244 M,0,226869,228869,18,520,18,-40 F,0,226869,228869,1
Sprite,Background,Centre,"sb\pixel.png",0,0 L,226913,4 R,0,0,1200,0,6.283185 V,0,0,1200,4,4,4,-4 F,0,107266,114325,0.8 C,0,226913,,86,191,237 M,0,226913,228913,149,520,149,-40 F,0,226913,228913,1
Sprite,Background,Centre,"sb\pixel.png",0,0 L,226957,4 R,0,0,1200,0,6.283185 V,0,0,1200,4,4,4,-4 F,0,107266,114325,0.8 C,0,226957,,119,214,244 M,0,226957,228957,356,520,356,-40 F,0,226957,228957,1
Sprite,Background,Centre,"sb\pixel.png",0,0 L,227001,4 R,0,0,1200,0,6.283185 V,0,0,1200,4,4,4,-4 F,0,107266,114325,0.8 C,0,227001,,119,214,244 M,0,227001,229001,-49,520,-49,-40 F,0,227001,229001,1
Sprite,Background,Centre,"sb\pixel.png",0,0 L,227045,4 R,0,0,1200,0,6.283185 V,0,0,1200,4,4,4,-4 F,0,107266,114325,0.8 C,0,227045,,86,191,237 M,0,227045,229045,720,520,720,-40 F,0,227045,229045,1
Sprite,Background,Centre,"sb\pixel.png",0,0 L,227089,4 R,0,0,1200,0,6.283185 V,0,0,1200,4,4,4,-4 F,0,107266,114325,0.8 C,0,227089,,119,214,244 M,0,227089,229089,-105,520,-105,-40 F,0,227089,229089,1
Sprite,Background,Centre,"sb\pixel.png",0,0 L,227133,4 R,0,0,1200,0,6.283185 V,0,0,1200,4,4,4,-4 F,0,107266,114325,0.8 C,0,227133,,119,214,244 M,0,227133,229133,364,520,364,-40 F,0,227133,229133,1
Sprite,Background,Centre,"sb\pixel.png",0,0 L,227177,4 R,0,0,1200,0,6.283185 V,0,0,1200,4,4,4,-4 F,0,107266,114325,0.8 C,0,227177,,86,191,237 M,0,227177,229177,667,520,667,-40 F,0,227177,229177,1
Sprite,Background,Centre,"sb\pixel.png",0,0 L,227221,4 R,0,0,1200,0,6.283185 V,0,0,1200,4,4,4,-4 F,0,107266,114325,0.8 C,0,227221,,86,191,237 M,0,227221,229221,269,520,269,-40 F,0,227221,229221,1
Sprite,Background,Centre,"sb\pixel.png",0,0 L,227266,4 R,0,0,1200,0,6.283185 V,0,0,1200,4,4,4,-4 F,0,107266,114325,0.8 C,0,227266,,86,191,237 M,0,227266,229266,512,520,512,-40 F,0,227266,229266,1
Sprite,Background,Centre,"sb\pixel.png",0,0 L,227310,4 R,0,0,1200,0,6.283185 V,0,0,1200,4,4,4,-4 F,0,107266,114325,0.8 C,0,227310,,86,191,237 M,0,227310,229310,641,520,641,-40 F,0,227310,229310,1
Sprite,Background,Centre,"sb\pixel.png",0,0 L,227354,4 R,0,0,1200,0,6.283185 V,0,0,1200,4,4,4,-4 F,0,107266,114325,0.8 C,0,227354,,86,191,237 M,0,227354,229354,548,520,548,-40 F,0,227354,229354,1
Sprite,Background,Centre,"sb\pixel.png",0,0 L,227398,4 R,0,0,1200,0,6.283185 V,0,0,1200,4,4,4,-4 F,0,107266,114325,0.8 C,0,227398,,119,214,244 M,0,227398,229398,102,520,102,-40 F,0,227398,229398,1
Sprite,Background,Centre,"sb\pixel.png",0,0 L,227442,4 R,0,0,1200,0,6.283185 V,0,0,1200,4,4,4,-4 F,0,107266,114325,0.8 C,0,227442,,86,191,237 M,0,227442,229442,346,520,346,-40 F,0,227442,229442,1
Sprite,Background,Centre,"sb\pixel.png",0,0 L,227486,4 R,0,0,1200,0,6.283185 V,0,0,1200,4,4,4,-4 F,0,107266,114325,0.8 C,0,227486,,119,214,244 M,0,227486,229486,247,520,247,-40 F,0,227486,229486,1
Sprite,Background,Centre,"sb\pixel.png",0,0 L,227530,4 R,0,0,1200,0,6.283185 V,0,0,1200,4,4,4,-4 F,0,107266,114325,0.8 C,0,227530,,119,214,244 M,0,227530,229530,576,520,576,-40 F,0,227530,229530,1
Sprite,Background,Centre,"sb\pixel.png",0,0 L,227574,4 R,0,0,1200,0,6.283185 V,0,0,1200,4,4,4,-4 F,0,107266,114325,0.8 C,0,227574,,119,214,244 M,0,227574,229574,17,520,17,-40 F,0,227574,229574,1
Sprite,Background,Centre,"sb\pixel.png",0,0 L,227619,4 R,0,0,1200,0,6.283185 V,0,0,1200,4,4,4,-4 F,0,107266,114325,0.8 C,0,227619,,86,191,237 M,0,227619,229619,-43,520,-43,-40 F,0,227619,229619,1
Sprite,Background,Centre,"sb\pixel.png",0,0 L,227663,4 R,0,0,1200,0,6.283185 V,0,0,1200,4,4,4,-4 F,0,107266,114325,0.8 C,0,227663,,86,191,237 M,0,227663,229663,348,520,348,-40 F,0,227663,229663,1
Sprite,Background,Centre,"sb\pixel.png",0,0 L,227707,4 R,0,0,1200,0,6.283185 V,0,0,1200,4,4,4,-4 F,0,107266,114325,0.8 C,0,227707,,119,214,244 M,0,227707,229707,374,520,374,-40 F,0,227707,229707,1
Sprite,Background,Centre,"sb\pixel.png",0,0 L,227751,4 R,0,0,1200,0,6.283185 V,0,0,1200,4,4,4,-4 F,0,107266,114325,0.8 C,0,227751,,119,214,244 M,0,227751,229751,443,520,443,-40 F,0,227751,229751,1
Sprite,Background,Centre,"sb\pixel.png",0,0 L,227795,4 R,0,0,1200,0,6.283185 V,0,0,1200,4,4,4,-4 F,0,107266,114325,0.8 C,0,227795,,119,214,244 M,0,227795,229795,398,520,398,-40 F,0,227795,229795,1
Sprite,Background,Centre,"sb\pixel.png",0,0 L,227839,4 R,0,0,1200,0,6.283185 V,0,0,1200,4,4,4,-4 F,0,107266,114325,0.8 C,0,227839,,119,214,244 M,0,227839,229839,621,520,621,-40 F,0,227839,229839,1
Sprite,Background,Centre,"sb\pixel.png",0,0 L,227883,4 R,0,0,1200,0,6.283185 V,0,0,1200,4,4,4,-4 F,0,107266,114325,0.8 C,0,227883,,86,191,237 M,0,227883,229883,-106,520,-106,-40 F,0,227883,229883,1
Sprite,Background,Centre,"sb\pixel.png",0,0 L,227927,4 R,0,0,1200,0,6.283185 V,0,0,1200,4,4,4,-4 F,0,107266,114325,0.8 C,0,227927,,119,214,244 M,0,227927,229927,538,520,538,-40 F,0,227927,229927,1
Sprite,Background,Centre,"sb\pixel.png",0,0 L,227971,4 R,0,0,1200,0,6.283185 V,0,0,1200,4,4,4,-4 F,0,107266,114325,0.8 C,0,227971,,119,214,244 M,0,227971,229971,549,520,549,-40 F,0,227971,229971,1
Sprite,Background,Centre,"sb\pixel.png",0,0 L,228016,4 R,0,0,1200,0,6.283185 V,0,0,1200,4,4,4,-4 F,0,107266,114325,0.8 C,0,228016,,119,214,244 M,0,228016,230016,204,520,204,-40 F,0,228016,230016,1
Sprite,Background,Centre,"sb\pixel.png",0,0 L,228060,4 R,0,0,1200,0,6.283185 V,0,0,1200,4,4,4,-4 F,0,107266,114325,0.8 C,0,228060,,86,191,237 M,0,228060,230060,416,520,416,-40 F,0,228060,230060,1
Sprite,Background,Centre,"sb\pixel.png",0,0 L,228104,4 R,0,0,1200,0,6.283185 V,0,0,1200,4,4,4,-4 F,0,107266,114325,0.8 C,0,228104,,119,214,244 M,0,228104,230104,98,520,98,-40 F,0,228104,230104,1
Sprite,Background,Centre,"sb\pixel.png",0,0 L,228148,4 R,0,0,1200,0,6.283185 V,0,0,1200,4,4,4,-4 F,0,107266,114325,0.8 C,0,228148,,119,214,244 M,0,228148,230148,168,520,168,-40 F,0,228148,230148,1
Sprite,Background,Centre,"sb\pixel.png",0,0 L,228192,4 R,0,0,1200,0,6.283185 V,0,0,1200,4,4,4,-4 F,0,107266,114325,0.8 C,0,228192,,119,214,244 M,0,228192,230192,486,520,486,-40 F,0,228192,230192,1
Sprite,Background,Centre,"sb\pixel.png",0,0 L,228236,4 R,0,0,1200,0,6.283185 V,0,0,1200,4,4,4,-4 F,0,107266,114325,0.8 C,0,228236,,86,191,237 M,0,228236,230236,640,520,640,-40 F,0,228236,230236,1
Sprite,Background,Centre,"sb\pixel.png",0,0 L,228280,4 R,0,0,1200,0,6.283185 V,0,0,1200,4,4,4,-4 F,0,107266,114325,0.8 C,0,228280,,86,191,237 M,0,228280,230280,641,520,641,-40 F,0,228280,230280,1
Sprite,Background,Centre,"sb\pixel.png",0,0 L,228324,4 R,0,0,1200,0,6.283185 V,0,0,1200,4,4,4,-4 F,0,107266,114325,0.8 C,0,228324,,119,214,244 M,0,228324,230324,39,520,39,-40 F,0,228324,230324,1
Sprite,Background,Centre,"sb\pixel.png",0,0 L,228369,4 R,0,0,1200,0,6.283185 V,0,0,1200,4,4,4,-4 F,0,107266,114325,0.8 C,0,228369,,119,214,244 M,0,228369,230369,-83,520,-83,-40 F,0,228369,230369,1
Sprite,Background,Centre,"sb\pixel.png",0,0 L,228413,4 R,0,0,1200,0,6.283185 V,0,0,1200,4,4,4,-4 F,0,107266,114325,0.8 C,0,228413,,86,191,237 M,0,228413,230413,206,520,206,-40 F,0,228413,230413,1
Sprite,Background,Centre,"sb\pixel.png",0,0 L,228457,4 R,0,0,1200,0,6.283185 V,0,0,1200,4,4,4,-4 F,0,107266,114325,0.8 C,0,228457,,86,191,237 M,0,228457,230457,72,520,72,-40 F,0,228457,230457,1
Sprite,Background,Centre,"sb\pixel.png",0,0 L,228501,4 R,0,0,1200,0,6.283185 V,0,0,1200,4,4,4,-4 F,0,107266,114325,0.8 C,0,228501,,119,214,244 M,0,228501,230501,187,520,187,-40 F,0,228501,230501,1
Sprite,Background,Centre,"sb\pixel.png",0,0 L,228545,4 R,0,0,1200,0,6.283185 V,0,0,1200,4,4,4,-4 F,0,107266,114325,0.8 C,0,228545,,119,214,244 M,0,228545,230545,690,520,690,-40 F,0,228545,230545,1
Sprite,Background,Centre,"sb\pixel.png",0,0 L,228589,4 R,0,0,1200,0,6.283185 V,0,0,1200,4,4,4,-4 F,0,107266,114325,0.8 C,0,228589,,86,191,237 M,0,228589,230589,-48,520,-48,-40 F,0,228589,230589,1
Sprite,Background,Centre,"sb\pixel.png",0,0 L,228633,4 R,0,0,1200,0,6.283185 V,0,0,1200,4,4,4,-4 F,0,107266,114325,0.8 C,0,228633,,86,191,237 M,0,228633,230633,-14,520,-14,-40 F,0,228633,230633,1
Sprite,Background,Centre,"sb\pixel.png",0,0 L,228677,4 R,0,0,1200,0,6.283185 V,0,0,1200,4,4,4,-4 F,0,107266,114325,0.8 C,0,228677,,119,214,244 M,0,228677,230677,47,520,47,-40 F,0,228677,230677,1
//Storyboard Layer 1 (Fail)
//Storyboard Layer 2 (Pass)
//Storyboard Layer 3 (Foreground)
//Storyboard Sound Samples

[TimingPoints]
2796,352.941176470588,4,2,1,70,1,0
25384,-125,4,2,1,40,0,0
28207,-500,4,2,1,40,0,0
28560,-125,4,2,1,40,0,0
33854,-500,4,2,1,40,0,0
34207,-125,4,2,1,40,0,0
35619,-166.666666666667,4,2,1,30,0,0
36678,-166.666666666667,4,2,1,50,0,0
47972,-166.666666666667,4,2,1,45,0,0
53619,-166.666666666667,4,2,1,35,0,0
55031,-166.666666666667,4,2,1,40,0,0
56443,-166.666666666667,4,2,1,45,0,0
57148,-166.666666666667,4,2,1,50,0,0
57854,-166.666666666667,4,2,1,55,0,0
58207,-166.666666666667,4,2,1,60,0,0
58560,-166.666666666667,4,2,1,65,0,0
58913,-166.666666666667,4,2,1,70,0,0
59266,-50,4,2,1,80,0,0
59531,-83.3333333333333,4,2,1,80,0,0
59795,-62.5,4,2,1,80,0,0
60148,-50,4,2,1,80,0,0
60325,-500,4,2,1,80,0,0
60590,-500,4,2,1,5,0,0
60854,-100,4,2,1,50,0,0
61031,-83.3333333333333,4,2,1,80,0,0
61384,-62.5,4,2,1,80,0,0
61560,-50,4,2,1,80,0,0
62090,-83.3333333333333,4,2,1,80,0,0
62619,-62.5,4,2,1,80,0,0
62972,-50,4,2,1,80,0,0
63148,-500,4,2,1,80,0,0
63413,-500,4,2,1,5,0,0
63678,-83.3333333333333,4,2,1,60,0,0
63854,-83.3333333333333,4,2,1,70,0,0
64207,-62.5,4,2,1,80,0,0
64384,-50,4,2,1,80,0,0
64913,-83.3333333333333,4,2,1,80,0,0
65443,-62.5,4,2,1,80,0,0
65795,-50,4,2,1,80,0,0
65972,-500,4,2,1,80,0,0
66237,-500,4,2,1,5,0,0
66501,-500,4,2,1,80,0,0
66678,-83.3333333333333,4,2,1,80,0,0
67031,-62.5,4,2,1,80,0,0
67207,-50,4,2,1,80,0,0
67737,-83.3333333333333,4,2,1,80,0,0
68266,-62.5,4,2,1,80,0,0
68619,-50,4,2,1,80,0,0
68795,-500,4,2,1,80,0,0
69060,-500,4,2,1,5,0,0
69384,-125,4,2,1,65,0,0
69501,-83.3333333333333,4,2,1,80,0,0
69854,-62.5,4,2,1,80,0,0
70031,-50,4,2,1,80,0,0
70560,-50,4,2,1,80,0,0
70825,-83.3333333333333,4,2,1,80,0,0
71089,-62.5,4,2,1,80,0,0
71442,-50,4,2,1,80,0,0
71619,-500,4,2,1,80,0,0
71884,-500,4,2,1,5,0,0
72148,-100,4,2,1,50,0,0
72325,-83.3333333333333,4,2,1,80,0,0
72678,-62.5,4,2,1,80,0,0
72854,-50,4,2,1,80,0,0
73384,-83.3333333333333,4,2,1,80,0,0
73913,-62.5,4,2,1,80,0,0
74266,-50,4,2,1,80,0,0
74442,-500,4,2,1,80,0,0
74707,-500,4,2,1,5,0,0
74972,-333.333333333333,4,2,1,80,0,0
75148,-83.3333333333333,4,2,1,60,0,0
75325,-83.3333333333333,4,2,1,70,0,0
75501,-62.5,4,2,1,80,0,0
75678,-50,4,2,1,80,0,0
76207,-83.3333333333333,4,2,1,80,0,0
76737,-62.5,4,2,1,80,0,0
77089,-50,4,2,1,80,0,0
77266,-500,4,2,1,80,0,0
77531,-500,4,2,1,5,0,0
77795,-500,4,2,1,80,0,0
77972,-83.3333333333333,4,2,1,80,0,0
78325,-62.5,4,2,1,80,0,0
78501,-50,4,2,1,80,0,0
79031,-83.3333333333333,4,2,1,80,0,0
79560,-62.5,4,2,1,80,0,0
79913,-50,4,2,1,80,0,0
80089,-500,4,2,1,80,0,0
80354,-500,4,2,1,5,0,0
80795,-83.3333333333333,4,2,1,80,0,0
81148,-62.5,4,2,1,80,0,0
81325,-50,4,2,1,80,0,0
81854,-50,4,2,1,80,0,0
82031,-83.3333333333333,4,2,1,80,0,0
82383,-62.5,4,2,1,80,0,0
82736,-50,4,2,1,80,0,0
82913,-500,4,2,1,80,0,0
83178,-500,4,2,1,5,0,0
83442,-100,4,2,1,50,0,0
83619,-83.3333333333333,4,2,1,80,0,0
83972,-62.5,4,2,1,80,0,0
84148,-50,4,2,1,80,0,0
84678,-83.3333333333333,4,2,1,80,0,0
84943,-71.4285714285714,4,2,1,80,0,0
85207,-62.5,4,2,1,80,0,0
85560,-50,4,2,1,80,0,0
85736,-500,4,2,1,80,0,0
86001,-500,4,2,1,5,0,0
86266,-100,4,2,1,80,0,0
86619,-83.3333333333333,4,2,1,80,0,0
86795,-62.5,4,2,1,80,0,0
86972,-50,4,2,1,80,0,0
87501,-83.3333333333333,4,2,1,80,0,0
88031,-62.5,4,2,1,80,0,0
88383,-50,4,2,1,80,0,0
88560,-500,4,2,1,80,0,0
88825,-500,4,2,1,5,0,0
89090,-500,4,2,1,80,0,0
89266,-83.3333333333333,4,2,1,80,0,0
89619,-62.5,4,2,1,80,0,0
89795,-50,4,2,1,80,0,0
90325,-83.3333333333333,4,2,1,80,0,0
90854,-62.5,4,2,1,80,0,0
91207,-50,4,2,1,80,0,0
91383,-500,4,2,1,80,0,0
91648,-333.333333333333,4,2,1,5,0,0
91972,-125,4,2,1,65,0,0
92089,-83.3333333333333,4,2,1,80,0,0
92442,-62.5,4,2,1,80,0,0
92619,-50,4,2,1,80,0,0
92795,-150.00000015,4,2,1,80,0,0
93148,-50,4,2,1,80,0,0
93413,-83.3333333333333,4,2,1,80,0,0
93677,-62.5,4,2,1,80,0,0
94030,-50,4,2,1,80,0,0
94207,-500,4,2,1,80,0,0
94472,-333.333333333333,4,2,1,5,0,0
94736,-100,4,2,1,50,0,0
94913,-83.3333333333333,4,2,1,80,0,0
95266,-62.5,4,2,1,80,0,0
95442,-50,4,2,1,80,0,0
95972,-83.3333333333333,4,2,1,80,0,0
96501,-62.5,4,2,1,80,0,0
96854,-50,4,2,1,80,0,0
97030,-500,4,2,1,80,0,0
97295,-500,4,2,1,5,0,0
97560,-333.333333333333,4,2,1,80,0,0
97736,-83.3333333333333,4,2,1,60,0,0
97913,-83.3333333333333,4,2,1,70,0,0
98089,-62.5,4,2,1,80,0,0
98266,-50,4,2,1,80,0,0
98795,-83.3333333333333,4,2,1,80,0,0
99325,-62.5,4,2,1,80,0,0
99677,-50,4,2,1,80,0,0
99854,-500,4,2,1,80,0,0
100119,-500,4,2,1,5,0,0
100384,-500,4,2,1,80,0,0
100560,-83.3333333333333,4,2,1,80,0,0
100913,-62.5,4,2,1,80,0,0
101089,-50,4,2,1,80,0,0
101619,-83.3333333333333,4,2,1,80,0,0
102148,-62.5,4,2,1,80,0,0
102501,-50,4,2,1,80,0,0
102677,-500,4,2,1,80,0,0
102942,-333.333333333333,4,2,1,5,0,0
103207,-333.333333333333,4,2,1,60,0,0
103560,-83.3333333333333,4,2,1,60,0,0
104090,-250,4,2,1,60,0,0
115737,-111.111111111111,4,2,1,40,0,0
118560,-333.333333333333,4,2,1,40,0,0
118913,-111.111111111111,4,2,1,40,0,0
124207,-333.333333333333,4,2,1,40,0,0
124560,-111.111111111111,4,2,1,40,0,0
129854,-333.333333333333,4,2,1,40,0,0
130207,-111.111111111111,4,2,1,40,0,0
135501,-333.333333333333,4,2,1,40,0,0
135854,-111.111111111111,4,2,1,40,0,0
136913,-142.857142857143,4,2,1,30,0,0
137619,-142.857142857143,4,2,1,35,0,0
138325,-142.857142857143,4,2,1,60,0,0
149619,-142.857142857143,4,2,1,45,0,0
155266,-166.666666666667,4,2,1,35,0,0
156678,-166.666666666667,4,2,1,40,0,0
158090,-166.666666666667,4,2,1,45,0,0
158795,-166.666666666667,4,2,1,50,0,0
159501,-166.666666666667,4,2,1,55,0,0
159854,-166.666666666667,4,2,1,60,0,0
160207,-166.666666666667,4,2,1,65,0,0
160560,-166.666666666667,4,2,1,70,0,0
160913,-50,4,2,1,80,0,0
161178,-83.3333333333333,4,2,1,80,0,0
161442,-62.5,4,2,1,80,0,0
161619,-55.5555555555556,4,2,1,80,0,0
161972,-500,4,2,1,80,0,0
162237,-500,4,2,1,5,0,0
162501,-100,4,2,1,50,0,0
162678,-83.3333333333333,4,2,1,80,0,0
163031,-62.5,4,2,1,80,0,0
163207,-50,4,2,1,80,0,0
163737,-83.3333333333333,4,2,1,80,0,0
164266,-62.5,4,2,1,80,0,0
164619,-50,4,2,1,80,0,0
164795,-500,4,2,1,80,0,0
165060,-500,4,2,1,5,0,0
165325,-83.3333333333333,4,2,1,80,0,0
165501,-83.3333333333333,4,2,1,60,0,0
165678,-83.3333333333333,4,2,1,70,0,0
165854,-62.5,4,2,1,80,0,0
166031,-50,4,2,1,80,0,0
166560,-83.3333333333333,4,2,1,80,0,0
167090,-62.5,4,2,1,80,0,0
167442,-50,4,2,1,80,0,0
167619,-500,4,2,1,80,0,0
167884,-500,4,2,1,5,0,0
168148,-500,4,2,1,80,0,0
168325,-83.3333333333333,4,2,1,80,0,0
168678,-62.5,4,2,1,80,0,0
168854,-50,4,2,1,80,0,0
169384,-83.3333333333333,4,2,1,80,0,0
169913,-62.5,4,2,1,80,0,0
170266,-50,4,2,1,80,0,0
170442,-500,4,2,1,80,0,0
170707,-500,4,2,1,5,0,0
171031,-125,4,2,1,65,0,0
171148,-83.3333333333333,4,2,1,80,0,0
171501,-62.5,4,2,1,80,0,0
171678,-83.3333333333333,4,2,1,80,0,0
171854,-250,4,2,1,80,0,0
172207,-50,4,2,1,80,0,0
172472,-83.3333333333333,4,2,1,80,0,0
172736,-62.5,4,2,1,80,0,0
173089,-50,4,2,1,80,0,0
173266,-500,4,2,1,80,0,0
173531,-500,4,2,1,5,0,0
173795,-100,4,2,1,50,0,0
173972,-83.3333333333333,4,2,1,80,0,0
174325,-62.5,4,2,1,80,0,0
174501,-50,4,2,1,80,0,0
175031,-83.3333333333333,4,2,1,80,0,0
175560,-62.5,4,2,1,80,0,0
175913,-50,4,2,1,80,0,0
176089,-500,4,2,1,80,0,0
176354,-500,4,2,1,5,0,0
176619,-333.333333333333,4,2,1,80,0,0
176795,-83.3333333333333,4,2,1,60,0,0
176972,-83.3333333333333,4,2,1,70,0,0
177148,-62.5,4,2,1,80,0,0
177325,-50,4,2,1,80,0,0
177854,-83.3333333333333,4,2,1,80,0,0
178384,-62.5,4,2,1,80,0,0
178736,-50,4,2,1,80,0,0
178913,-500,4,2,1,80,0,0
179178,-500,4,2,1,5,0,0
179442,-500,4,2,1,80,0,0
179619,-83.3333333333333,4,2,1,80,0,0
179972,-62.5,4,2,1,80,0,0
180148,-50,4,2,1,80,0,0
180678,-83.3333333333333,4,2,1,80,0,0
181207,-62.5,4,2,1,80,0,0
181560,-50,4,2,1,80,0,0
181736,-500,4,2,1,80,0,0
182001,-500,4,2,1,5,0,0
182442,-83.3333333333333,4,2,1,80,0,0
182795,-62.5,4,2,1,80,0,0
182972,-50,4,2,1,80,0,0
183501,-50,4,2,1,80,0,0
183678,-83.3333333333333,4,2,1,80,0,0
184030,-62.5,4,2,1,80,0,0
184383,-50,4,2,1,80,0,0
184560,-500,4,2,1,80,0,0
184825,-500,4,2,1,5,0,0
185089,-100,4,2,1,50,0,0
185266,-83.3333333333333,4,2,1,80,0,0
185619,-62.5,4,2,1,80,0,0
185795,-50,4,2,1,80,0,0
186325,-83.3333333333333,4,2,1,80,0,0
186590,-71.4285714285714,4,2,1,80,0,0
186854,-62.5,4,2,1,80,0,0
187207,-50,4,2,1,80,0,0
187383,-500,4,2,1,80,0,0
187648,-500,4,2,1,5,0,0
187913,-100,4,2,1,80,0,0
188090,-83.3333333333333,4,2,1,80,0,0
188442,-62.5,4,2,1,80,0,0
188619,-50,4,2,1,80,0,0
189148,-83.3333333333333,4,2,1,80,0,0
189678,-62.5,4,2,1,80,0,0
190030,-50,4,2,1,80,0,0
190207,-500,4,2,1,80,0,0
190472,-500,4,2,1,5,0,0
190737,-500,4,2,1,80,0,0
190913,-83.3333333333333,4,2,1,80,0,0
191266,-62.5,4,2,1,80,0,0
191442,-50,4,2,1,80,0,0
191972,-83.3333333333333,4,2,1,80,0,0
192501,-62.5,4,2,1,80,0,0
192854,-50,4,2,1,80,0,0
193030,-500,4,2,1,80,0,0
193295,-333.333333333333,4,2,1,5,0,0
193619,-125,4,2,1,65,0,0
193736,-83.3333333333333,4,2,1,80,0,0
194089,-62.5,4,2,1,80,0,0
194266,-50,4,2,1,80,0,0
194443,-150.000015000001,4,2,1,80,0,0
194795,-50,4,2,1,80,0,0
195060,-83.3333333333333,4,2,1,80,0,0
195324,-62.5,4,2,1,80,0,0
195677,-50,4,2,1,80,0,0
195854,-500,4,2,1,80,0,0
196119,-333.333333333333,4,2,1,5,0,0
196383,-100,4,2,1,50,0,0
196560,-83.3333333333333,4,2,1,80,0,0
196913,-62.5,4,2,1,80,0,0
197089,-50,4,2,1,80,0,0
197619,-83.3333333333333,4,2,1,80,0,0
198148,-62.5,4,2,1,80,0,0
198501,-50,4,2,1,80,0,0
198677,-500,4,2,1,80,0,0
198942,-500,4,2,1,5,0,0
199207,-333.333333333333,4,2,1,80,0,0
199383,-83.3333333333333,4,2,1,80,0,0
199736,-62.5,4,2,1,80,0,0
199913,-50,4,2,1,80,0,0
200442,-83.3333333333333,4,2,1,80,0,0
200972,-62.5,4,2,1,80,0,0
201324,-50,4,2,1,80,0,0
201501,-500,4,2,1,80,0,0
201766,-500,4,2,1,5,0,0
202031,-500,4,2,1,80,0,0
202207,-83.3333333333333,4,2,1,80,0,0
202560,-62.5,4,2,1,80,0,0
202736,-50,4,2,1,80,0,0
203266,-83.3333333333333,4,2,1,80,0,0
203795,-62.5,4,2,1,80,0,0
204148,-50,4,2,1,80,0,0
204324,-500,4,2,1,80,0,0
204589,-333.333333333333,4,2,1,5,0,0
204854,-333.333333333333,4,2,1,60,0,0
205207,-83.3333333333333,4,2,1,60,0,0
205737,-71.4285714285714,4,2,1,60,0,0

[Colours]
Combo1 : 118,120,192
Combo2 : 143,216,224
Combo3 : 174,179,221
Combo4 : 145,188,191

[HitObjects]
115,44,25384,6,0,L|99:126,1,84,0|0,1:0|0:0,0:0:0:0:
97,134,25648,1,0,0:0:0:0:
95,142,25737,1,0,0:0:0:0:
70,280,25913,1,8,0:0:0:0:
224,195,26090,5,0,0:0:0:0:
224,195,26178,1,0,0:0:0:0:
224,195,26266,1,0,0:0:0:0:
306,373,26443,1,8,0:0:0:0:
176,331,26619,5,0,0:0:0:0:
176,331,26707,1,0,0:0:0:0:
176,331,26795,2,0,L|217:322,1,42,0|0,1:0|0:0,0:0:0:0:
312,245,26972,2,0,L|354:254,1,42,0|0,1:0|0:0,0:0:0:0:
470,337,27148,6,0,L|387:354,1,84,0|0,3:0|0:0,0:0:0:0:
306,373,27413,1,0,0:0:0:0:
306,373,27501,2,0,L|313:331,3,42,0|0|0|0,0:0|0:0|0:0|0:0,0:0:0:0:
353,253,27854,2,0,L|345:211,1,42,0|0,3:0|1:0,0:0:0:0:
250,97,28031,5,0,1:0:0:0:
250,97,28119,1,0,1:0:0:0:
250,97,28207,6,0,L|243:127,1,31.5,0|0,1:0|0:0,0:0:0:0:
243,128,28560,6,0,L|283:118,1,42,0|0,1:0|0:0,0:0:0:0:
418,82,28737,1,8,0:0:0:0:
274,6,28913,5,0,0:0:0:0:
253,3,29001,1,0,0:0:0:0:
232,5,29089,1,0,0:0:0:0:
212,13,29177,1,0,0:0:0:0:
195,25,29265,1,8,0:0:0:0:
84,129,29443,5,0,0:0:0:0:
84,129,29531,1,0,0:0:0:0:
84,129,29619,2,0,L|78:87,1,42,0|0,1:0|0:0,0:0:0:0:
166,169,29795,2,0,L|171:127,1,42,0|0,1:0|0:0,0:0:0:0:
98,289,29972,1,0,3:0:0:0:
15,248,30148,1,0,1:0:0:0:
240,253,30325,5,0,0:0:0:0:
260,257,30413,1,0,0:0:0:0:
281,261,30501,1,0,0:0:0:0:
301,265,30589,1,0,0:0:0:0:
322,269,30678,2,0,L|362:258,3,42,0|0|0|0,0:0|0:0|0:0|0:0,0:0:0:0:
463,336,31031,6,0,B|444:294|444:294|452:257,1,84,0|0,1:0|0:0,0:0:0:0:
454,249,31295,1,0,0:0:0:0:
456,240,31384,1,0,0:0:0:0:
451,206,31472,1,0,0:0:0:0:
446,172,31560,2,0,L|455:131,1,42,8|0,0:0|0:0,0:0:0:0:
343,56,31737,5,0,0:0:0:0:
345,65,31825,1,0,0:0:0:0:
347,74,31914,1,0,0:0:0:0:
342,108,32002,1,0,0:0:0:0:
337,142,32090,2,0,L|346:182,1,42,8|0,0:0|0:0,0:0:0:0:
284,291,32266,5,0,0:0:0:0:
284,291,32354,1,0,0:0:0:0:
284,291,32443,2,0,L|242:282,1,42,0|0,1:0|0:0,0:0:0:0:
225,359,32619,2,0,L|183:350,1,42,0|0,1:0|0:0,0:0:0:0:
70,292,32795,2,0,L|82:208,1,84,0|0,3:0|0:0,0:0:0:0:
48,70,33148,5,0,0:0:0:0:
63,96,33236,1,0,0:0:0:0:
85,115,33324,1,0,0:0:0:0:
113,123,33412,1,0,0:0:0:0:
142,122,33501,2,0,P|163:119|184:119,1,42,0|0,3:0|0:0,0:0:0:0:
304,167,33678,5,0,1:0:0:0:
304,167,33766,1,0,1:0:0:0:
304,167,33854,6,0,L|297:204,1,31.5,0|0,1:0|0:0,0:0:0:0:
299,198,34207,6,0,L|306:239,1,42,0|0,1:0|0:0,0:0:0:0:
342,377,34384,1,8,0:0:0:0:
424,278,34560,5,0,0:0:0:0:
424,278,34648,1,0,0:0:0:0:
424,278,34737,2,0,L|382:285,1,42
245,321,34914,1,8,0:0:0:0:
405,182,35090,5,0,0:0:0:0:
405,182,35178,1,0,0:0:0:0:
405,182,35266,2,0,L|410:140,1,42,0|0,1:0|0:0,0:0:0:0:
494,166,35443,2,0,L|488:124,1,42,0|0,1:0|0:0,0:0:0:0:
410,13,35619,6,0,P|378:10|348:18,1,62.9999980773926,0|0,3:0|0:0,0:0:0:0:
344,22,35884,1,0,0:0:0:0:
340,27,35972,1,0,0:0:0:0:
336,32,36060,1,0,0:0:0:0:
238,137,36236,1,0,0:0:0:0:
238,137,36325,1,0,0:0:0:0:
99,34,36678,5,4,0:1:0:0:
45,33,47972,5,0,1:0:0:0:
75,196,48678,1,0,1:0:0:0:
124,31,49384,5,0,1:0:0:0:
124,31,49913,1,0,0:0:0:0:
154,194,50090,1,0,1:0:0:0:
274,159,50795,5,0,1:0:0:0:
274,159,50971,1,0,0:0:0:0:
244,322,51324,1,0,0:0:0:0:
244,322,51501,1,0,1:0:0:0:
353,161,52207,5,0,1:0:0:0:
353,161,52384,1,0,0:0:0:0:
323,324,52737,1,0,0:0:0:0:
323,324,52913,1,0,1:0:0:0:
323,324,53619,5,0,1:0:0:0:
310,321,53972,1,0,1:0:0:0:
297,319,54325,1,0,1:0:0:0:
284,316,54678,1,0,1:0:0:0:
261,180,55031,5,0,1:0:0:0:
248,183,55384,1,0,1:0:0:0:
235,185,55737,1,0,1:0:0:0:
222,188,56090,1,0,1:0:0:0:
118,281,56443,5,0,1:0:0:0:
177,320,56619,1,0,1:0:0:0:
216,261,56795,1,0,1:0:0:0:
157,222,56972,1,0,1:0:0:0:
113,355,57148,5,0,1:0:0:0:
84,217,57324,1,0,1:0:0:0:
222,188,57501,1,0,1:0:0:0:
251,326,57677,1,0,1:0:0:0:
50,293,57854,5,0,1:0:0:0:
45,290,57943,1,0,1:0:0:0:
37,284,58031,1,0,1:0:0:0:
27,276,58119,1,0,1:0:0:0:
16,264,58207,1,0,1:0:0:0:
6,247,58295,1,0,1:0:0:0:
1,225,58384,1,0,1:0:0:0:
2,199,58472,1,0,1:0:0:0:
13,173,58560,1,0,1:0:0:0:
34,149,58648,1,0,1:0:0:0:
66,135,58737,1,0,1:0:0:0:
103,135,58825,1,0,1:0:0:0:
139,153,58913,1,0,1:0:0:0:
174,179,59001,1,0,1:0:0:0:
221,181,59090,1,0,1:0:0:0:
263,153,59178,1,0,1:0:0:0:
283,109,59266,6,2,P|215:162|297:188,1,210,4|0,1:0|0:0,0:1:0:0:
401,102,59531,2,0,B|342:126|342:126|281:108,1,125.999996154785,0|0,1:0|0:0,0:0:0:0:
298,33,59795,2,0,B|337:17|337:17|377:29,1,84,0|0,1:0|0:0,0:0:0:0:
512,142,59972,1,8,0:1:0:0:
417,366,60148,6,0,L|434:262,1,105,2|0,0:0|0:0,0:0:0:0:
443,257,60325,2,0,L|437:288,1,31.5,0|0,1:0|0:0,0:0:0:0:
219,280,60854,6,0,L|193:284,2,26.25,0|0|0,0:0|0:0|0:0,0:0:0:0:
237,279,61031,6,0,L|248:217,1,62.9999980773926,2|0,1:2|0:0,0:0:0:0:
251,277,61207,2,0,L|263:215,1,62.9999980773926,2|0,1:2|0:0,0:0:0:0:
135,114,61384,2,0,L|151:196,1,84,8|0,0:1|0:0,0:0:0:0:
354,45,61560,6,0,P|302:46|260:76,1,105,2|0,1:2|0:0,0:0:0:0:
262,85,61737,2,0,P|399:81|372:216,1,315,0|0,1:0|0:0,0:0:0:0:
154,271,62090,6,0,P|157:209|119:161,1,125.999996154785,0|0,1:0|0:0,0:0:0:0:
237,333,62354,2,0,P|289:299|350:309,1,125.999996154785,0|0,1:0|0:0,0:0:0:0:
262,85,62619,2,0,P|262:125|285:160,1,84,0|0,1:0|1:0,0:0:0:0:
440,280,62795,1,8,0:1:0:0:
130,380,62972,6,0,L|26:359,1,105,2|0,0:0|0:0,0:0:0:0:
23,352,63148,2,0,L|53:357,1,31.5,0|0,1:0|0:0,0:0:0:0:
122,132,63678,6,0,P|142:155|150:185,1,62.9999980773926,0|0,1:0|0:0,0:0:0:0:
127,242,63854,2,0,P|145:216|150:186,1,62.9999980773926,0|0,0:0|0:0,0:0:0:0:
61,73,64031,2,0,P|31:65|0:64,1,62.9999980773926,0|0,1:0|0:0,0:0:0:0:
230,167,64207,2,0,P|271:166|311:152,1,84,8|0,0:1|0:0,0:0:0:0:
471,0,64384,6,0,L|437:98,1,105,2|0,1:2|0:0,0:0:0:0:
445,109,64560,2,0,B|477:9|477:9|512:216,1,315,0|0,1:0|0:0,0:0:0:0:
490,372,64913,6,0,B|427:380|427:380|369:357,1,125.999996154785,0|0,1:0|0:0,0:0:0:0:
171,285,65178,2,0,B|234:277|234:277|292:300,1,125.999996154785,0|0,1:0|0:0,0:0:0:0:
453,275,65443,2,0,B|411:286|411:286|372:271,1,84,0|0,1:0|0:0,0:0:0:0:
200,173,65619,1,8,0:1:0:0:
8,202,65795,6,0,P|59:211|107:191,1,105,2|0,0:0|0:0,0:0:0:0:
113,197,65972,2,0,L|117:228,1,31.5,0|0,1:0|0:0,0:0:0:0:
117,228,66501,5,0,1:0:0:0:
300,284,66678,6,0,L|362:293,1,62.9999980773926,2|0,0:0|0:0,0:0:0:0:
296,257,66854,2,0,L|358:266,1,62.9999980773926,2|0,1:2|0:0,0:0:0:0:
512,359,67031,2,0,L|428:346,1,84,8|0,0:1|0:0,0:0:0:0:
486,143,67207,6,0,B|508:190|508:190|497:241,1,105,2|0,1:2|0:0,0:0:0:0:
488,244,67384,2,0,B|498:192|498:192|477:145|477:145|404:126|404:126|354:148|354:148|276:129,1,315,0|0,1:0|0:0,0:0:0:0:
102,76,67737,6,0,P|163:73|212:34,1,125.999996154785,0|0,1:0|0:0,0:0:0:0:
162,253,68001,2,0,P|128:200|70:178,1,125.999996154785,0|0,1:0|0:0,0:0:0:0:
276,129,68266,2,0,P|258:166|259:208,1,84,0|0,1:0|0:0,0:0:0:0:
300,347,68443,1,8,0:1:0:0:
512,237,68619,6,0,L|408:219,1,105,2|0,0:0|0:0,0:0:0:0:
405,228,68795,2,0,L|406:259,1,31.5,0|0,1:0|0:0,0:0:0:0:
312,43,69384,6,0,L|308:15,1,28
312,43,69501,6,0,L|375:33,1,62.9999980773926,0|0,1:0|0:0,0:0:0:0:
315,58,69678,2,0,L|378:48,1,62.9999980773926,0|0,1:0|0:0,0:0:0:0:
512,144,69854,2,0,L|430:131,1,84,8|0,0:1|0:0,0:0:0:0:
275,244,70031,6,0,P|260:194|271:143,1,105,2|0,1:2|0:0,0:0:0:0:
281,142,70207,2,0,B|257:188|281:237|281:237|305:285|288:360|219:382|169:361,1,315,0|0,1:2|0:0,0:0:0:0:
88,200,70560,6,0,P|163:161|148:245,1,210,4|0,1:0|0:0,0:0:0:0:
23,273,70825,2,0,P|-7:219|-1:157,1,125.999996154785,0|0,1:0|0:0,0:0:0:0:
168,150,71090,2,0,P|190:184|188:225,1,84,0|0,1:0|0:0,0:0:0:0:
150,356,71266,1,8,0:1:0:0:
384,232,71443,6,0,P|398:183|380:135,1,105,2|0,0:0|0:0,0:0:0:0:
369,129,71619,2,0,L|338:136,1,31.5,0|0,1:0|0:0,0:0:0:0:
204,62,72148,6,0,L|207:88,2,26.25,0|0|0,0:0|0:0|0:0,0:0:0:0:
202,48,72325,6,0,P|170:46|140:55,1,62.9999980773926,0|0,1:0|0:0,0:0:0:0:
200,37,72501,2,0,P|168:35|138:44,1,62.9999980773926,0|0,1:0|0:0,0:0:0:0:
6,127,72678,2,0,P|47:129|81:153,1,84,8|0,0:1|0:0,0:0:0:0:
161,336,72854,6,0,P|109:344|62:324,1,105,2|0,1:2|0:0,0:0:0:0:
63,316,73031,2,0,P|201:293|171:156,1,315,0|0,1:0|0:0,0:0:0:0:
19,49,73384,6,0,B|80:66|80:66|138:43,1,125.999996154785,0|0,1:0|0:0,0:0:0:0:
289,162,73648,2,0,B|230:139|230:139|169:156,1,125.999996154785,0|0,1:0|0:0,0:0:0:0:
283,41,73913,2,0,L|361:70,1,84,0|0,1:0|0:0,0:0:0:0:
511,130,74090,1,8,0:1:0:0:
377,303,74266,6,0,B|367:251|367:251|387:203,1,105,2|0,0:0|0:0,0:0:0:0:
396,200,74443,2,0,L|384:229,1,31.5,0|0,1:0|0:0,0:0:0:0:
383,229,74972,5,0,1:0:0:0:
128,327,75148,6,0,B|157:314|157:314|188:316,1,62.9999980773926,0|0,0:0|0:0,0:0:0:0:
244,337,75325,2,0,B|218:318|218:318|188:316,1,62.9999980773926,0|0,1:0|0:0,0:0:0:0:
18,375,75501,2,0,B|33:334|33:334|25:294,1,84,8|0,0:1|0:0,0:0:0:0:
109,68,75678,6,0,L|131:171,1,105,2|0,1:2|0:0,0:0:0:0:
141,167,75854,2,0,B|119:66|119:66|227:44|208:125|322:95,1,315,0|0,1:0|0:0,0:0:0:0:
469,4,76207,6,0,P|430:52|429:114,1,125.999996154785,0|0,1:0|0:0,0:0:0:0:
473,305,76472,2,0,P|511:256|512:194,1,125.999996154785,0|0,1:0|0:0,0:0:0:0:
321,95,76737,2,0,P|306:134|310:175,1,84,0|0,1:0|0:0,0:0:0:0:
370,338,76913,1,8,0:1:0:0:
510,60,77090,6,0,P|460:73|428:114,1,105,2|0,0:0|0:0,0:0:0:0:
428,122,77266,2,0,L|431:154,1,31.5,0|0,1:0|0:0,0:0:0:0:
430,153,77795,5,0,1:0:0:0:
254,284,77972,6,0,L|193:268,1,62.9999980773926,2|0,1:2|0:0,0:0:0:0:
249,300,78148,2,0,L|188:284,1,62.9999980773926,2|0,1:2|0:0,0:0:0:0:
84,384,78325,2,0,L|165:362,1,84,8|0,0:1|0:0,0:0:0:0:
0,178,78501,6,0,P|-12:228|4:277,1,105,2|0,1:2|0:0,0:0:0:0:
16,276,78678,2,0,P|48:140|179:188,1,315,0|0,1:0|0:0,0:0:0:0:
306,362,79031,6,0,B|360:327|360:327|422:339,1,125.999996154785,0|0,1:0|0:0,0:0:0:0:
286,189,79295,2,0,B|289:253|289:253|247:300,1,125.999996154785,0|0,1:0|0:0,0:0:0:0:
424,252,79560,2,0,B|387:227|387:227|374:189,1,84,0|0,1:0|0:0,0:0:0:0:
334,34,79737,1,8,0:1:0:0:
512,122,79913,6,0,L|407:109,1,105,2|0,0:0|0:0,0:0:0:0:
400,113,80090,2,0,L|368:109,1,31.5,0|0,1:0|0:0,0:0:0:0:
368,109,80795,6,0,L|306:122,1,62.9999980773926,0|0,1:0|0:0,0:0:0:0:
363,119,80972,2,0,L|301:132,1,62.9999980773926,0|0,1:0|0:0,0:0:0:0:
164,46,81148,2,0,L|246:63,1,84,8|0,0:0|0:0,0:0:0:0:
19,239,81325,6,0,L|48:138,1,105,2|0,1:0|0:0,0:0:0:0:
55,152,81501,2,2,B|28:246|28:246|93:281|179:253|204:177,1,315,0|0,1:0|0:0,0:1:0:0:
369,9,81854,6,0,P|353:58|367:108,1,105,4|0,1:0|0:0,0:0:0:0:
482,222,82031,2,0,L|512:215,1,31.4999990386963,2|0,0:0|0:0,0:0:0:0:
482,222,82207,6,0,L|420:236,1,62.9999980773926,2|0,0:0|0:0,0:0:0:0:
231,290,82384,2,0,L|312:308,1,84,0|0,1:0|0:0,0:0:0:0:
478,341,82560,1,8,0:1:0:0:
367,108,82737,6,0,P|315:100|267:119,1,105,2|0,0:0|0:0,0:0:0:0:
266,130,82913,2,0,P|279:121|294:116,1,31.5,0|0,1:0|0:0,0:0:0:0:
109,311,83443,6,0,L|83:305,2,26.25
121,321,83619,6,0,L|182:307,1,62.9999980773926,2|0,1:2|0:0,0:0:0:0:
131,330,83795,2,0,L|192:316,1,62.9999980773926,2|0,1:2|0:0,0:0:0:0:
313,186,83972,2,0,L|230:168,1,84,8|0,0:1|0:0,0:0:0:0:
53,181,84148,6,0,P|44:129|63:81,1,105,2|0,1:2|0:0,0:0:0:0:
74,82,84325,2,0,P|101:217|231:168,1,315,0|0,1:0|0:0,0:0:0:0:
310,12,84678,6,0,P|259:48|197:47,1,125.999996154785,0|0,1:0|0:0,0:0:0:0:
372,186,84943,2,0,B|293:204|300:153|229:167,1,146.999995513916,0|0,1:0|0:0,0:0:0:0:
399,27,85207,2,0,P|395:67|414:105,1,84,0|0,1:0|0:0,0:0:0:0:
499,219,85384,1,8,0:1:0:0:
401,377,85560,6,0,L|416:273,1,105,2|0,0:0|0:0,0:0:0:0:
411,265,85737,2,0,L|406:296,1,31.5,0|0,1:0|0:0,0:0:0:0:
301,71,86266,6,0,L|250:82,1,52.5,0|0,1:0|0:0,0:0:0:0:
199,94,86443,2,0,L|250:83,1,52.5
362,58,86619,2,0,L|301:71,1,62.9999980773926,0|0,1:0|0:0,0:0:0:0:
466,238,86795,6,0,L|383:220,1,84,8|0,0:1|0:0,0:0:0:0:
78,191,86972,6,0,B|56:238|56:238|63:290,1,105,2|0,1:2|0:0,0:0:0:0:
71,292,87148,2,0,B|65:239|65:239|87:192|87:192|77:128|77:128|115:114|132:81|132:81|160:102|199:95,1,315,0|0,1:0|0:0,0:0:0:0:
384,221,87501,6,0,L|371:95,1,125.999996154785,0|0,1:0|0:0,0:0:0:0:
200,95,87766,2,0,L|212:220,1,125.999996154785,0|0,1:0|0:0,0:0:0:0:
308,334,88031,2,0,L|299:250,1,84,0|0,1:0|0:0,0:0:0:0:
282,66,88207,1,8,0:1:0:0:
470,184,88384,6,0,P|478:235|457:282,1,105,2|0,0:0|0:0,0:0:0:0:
453,290,88560,2,0,L|458:321,1,31.5,0|0,1:0|0:0,0:0:0:0:
458,321,89090,5,0,1:0:0:0:
378,158,89266,6,0,L|384:221,1,62.9999980773926,2|0,0:0|0:0,0:0:0:0:
366,160,89443,2,0,L|371:222,1,62.9999980773926,2|0,1:2|0:0,0:0:0:0:
258,105,89619,2,0,L|265:21,1,84,8|0,0:0|0:0,0:0:0:0:
172,278,89795,6,0,P|120:284|73:262,1,105,2|0,1:2|0:0,0:0:0:0:
76,253,89972,2,0,P|215:236|184:98,1,315,0|0,1:0|0:0,0:0:0:0:
0,0,90325,6,0,P|-14:60|12:115,1,125.999996154785,0|0,1:0|0:0,0:0:0:0:
198,215,90590,2,0,P|212:154|185:99,1,125.999996154785,0|0,1:0|0:0,0:0:0:0:
0,232,90854,2,0,P|40:231|76:253,1,84,0|0,1:0|0:0,0:0:0:0:
162,354,91031,1,8,0:1:0:0:
294,177,91207,6,0,P|242:175|200:206,1,105,2|0,0:0|0:0,0:0:0:0:
198,215,91384,2,0,L|201:246,1,31.5,0|0,1:0|0:0,0:0:0:0:
290,376,91972,6,0,L|262:381,1,28,0|0,0:0|0:0,0:0:0:0:
306,374,92090,6,0,P|294:344|295:313,1,62.9999980773926,0|0,1:0|0:0,0:0:0:0:
318,372,92266,2,0,P|306:342|307:311,1,62.9999980773926,0|0,1:0|0:0,0:0:0:0:
438,208,92443,2,0,P|448:248|439:289,1,84,8|0,0:1|0:0,0:0:0:0:
425,67,92619,6,0,L|321:79,1,105,2|0,0:0|0:0,0:0:0:0:
112,103,92795,6,2,L|216:91,1,105,0|0,1:0|0:0,0:1:0:0:
78,17,93148,6,2,P|175:3|217:92,1,210,4|0,1:0|0:0,0:1:0:0:
83,177,93413,2,0,P|89:115|136:75,1,125.999996154785,0|0,1:0|0:0,0:0:0:0:
276,148,93678,2,0,P|240:169|198:170,1,84,0|0,1:0|0:0,0:0:0:0:
2,147,93854,1,8,0:1:0:0:
121,351,94031,6,0,L|140:247,1,105,2|0,0:0|0:0,0:0:0:0:
147,243,94207,2,0,L|178:250,1,31.5,0|0,1:0|0:0,0:0:0:0:
377,329,94737,6,0,L|374:363,2,35,0|0|0,0:0|0:0|0:0,0:0:0:0:
379,313,94913,6,0,L|316:311,1,62.9999980773926,2|0,1:2|0:0,0:0:0:0:
380,300,95090,2,0,L|317:298,1,62.9999980773926,2|0,1:2|0:0,0:0:0:0:
198,170,95266,2,0,L|281:167,1,84,8|0,0:1|0:0,0:0:0:0:
474,55,95443,6,0,P|481:106|463:154,1,105,2|0,1:2|0:0,0:0:0:0:
471,154,95619,2,0,P|447:13|307:36,1,315,0|0,1:0|0:0,0:0:0:0:
198,170,95972,6,0,P|138:188|80:166,1,125.999996154785,0|0,1:0|0:0,0:0:0:0:
88,46,96237,2,0,P|147:27|205:49,1,125.999996154785,0|0,1:0|0:0,0:0:0:0:
314,120,96501,2,0,P|355:120|393:101,1,84,0|0,1:0|0:0,0:0:0:0:
511,5,96678,1,8,0:1:0:0:
473,205,96854,6,0,P|476:256|505:299,1,105,2|0,0:0|0:0,0:0:0:0:
512,305,97031,2,0,L|507:336,1,31.5,0|0,1:0|0:0,0:0:0:0:
507,336,97560,5,0,1:0:0:0:
383,224,97737,6,0,P|352:217|321:222,1,62.9999980773926,0|0,0:0|0:0,0:0:0:0:
260,220,97913,2,0,P|290:226|321:221,1,62.9999980773926,0|0,1:0|0:0,0:0:0:0:
466,93,98090,2,0,P|433:66|393:57,1,84,8|0,0:1|0:0,0:0:0:0:
222,19,98266,6,0,L|234:123,1,105,2|0,1:2|0:0,0:0:0:0:
225,127,98443,2,0,B|212:22|212:22|158:66|88:47|88:47|117:73|117:115,1,315,0|0,1:0|0:0,0:0:0:0:
48,211,98795,6,0,P|98:175|117:116,1,125.999996154785,0|0,1:0|0:0,0:0:0:0:
240,309,99060,2,0,P|189:273|171:213,1,125.999996154785,0|0,1:0|0:0,0:0:0:0:
57,362,99325,2,0,P|98:357|136:339,1,84,0|0,1:0|0:0,0:0:0:0:
260,220,99501,1,8,0:1:0:0:
392,362,99678,6,0,L|496:371,1,105,2|0,0:0|0:0,0:0:0:0:
504,368,99854,2,0,L|499:336,1,31.5,0|0,1:0|0:0,0:0:0:0:
499,336,100384,5,0,1:0:0:0:
217,143,100560,6,0,L|280:136,1,62.9999980773926,2|0,0:0|0:0,0:0:0:0:
222,160,100737,2,0,L|284:152,1,62.9999980773926,2|0,1:2|0:0,0:0:0:0:
435,253,100913,2,0,L|351:242,1,84,8|0,0:1|0:0,0:0:0:0:
493,26,101090,6,0,B|486:79|486:79|512:125,1,105,2|0,1:2|0:0,0:0:0:0:
503,131,101267,2,0,B|478:86|478:86|483:33|483:33|429:1|380:30|380:30|331:58|282:33,1,315,0|0,1:0|0:0,0:0:0:0:
149,14,101619,6,0,B|172:74|172:74|147:130,1,125.999996154785,0|0,1:0|0:0,0:0:0:0:
240,241,101884,2,0,B|217:181|217:181|241:124,1,125.999996154785,0|0,1:0|0:0,0:0:0:0:
148,234,102148,2,0,L|177:312,1,84,0|0,1:0|0:0,0:0:0:0:
317,182,102325,1,8,0:1:0:0:
71,82,102501,6,0,P|56:131|70:181,1,105,2|0,0:0|0:0,0:0:0:0:
75,189,102678,2,0,L|69:219,1,31.5,0|0,1:0|0:0,0:0:0:0:
69,219,103207,5,0,0:0:0:0:
185,320,103384,5,0,0:0:0:0:
185,320,103472,1,0,0:0:0:0:
185,320,103560,2,0,L|246:306,1,62.9999980773926,8|0,0:1|0:0,0:0:0:0:
400,272,103737,2,0,L|338:285,1,62.9999980773926,0|2,0:0|0:0,0:0:0:0:
277,220,103913,2,0,L|338:206,1,62.9999980773926,0|2,0:0|0:0,0:0:0:0:
461,337,104090,6,0,L|399:350,1,62.9999980773926,8|0,0:1|0:0,0:0:0:0:
317,368,104443,5,4,1:0:0:0:
71,134,115737,6,0,L|164:119,1,94.499997116089,0|0,1:0|0:0,0:0:0:0:
172,124,116001,1,0,0:0:0:0:
179,129,116090,1,0,0:0:0:0:
185,166,116178,1,0,0:0:0:0:
191,203,116266,1,8,0:0:0:0:
107,342,116443,5,0,0:0:0:0:
100,337,116531,1,0,0:0:0:0:
93,332,116620,1,0,0:0:0:0:
87,295,116708,1,0,0:0:0:0:
81,258,116796,1,8,0:0:0:0:
227,342,116972,5,0,0:0:0:0:
227,342,117060,1,0,0:0:0:0:
227,342,117148,2,0,L|272:330,1,47.2499985580445,0|0,1:0|0:0,0:0:0:0:
346,357,117325,2,0,L|391:345,1,47.2499985580445,0|0,1:0|0:0,0:0:0:0:
512,240,117501,6,0,P|471:264|424:265,1,94.499997116089,0|0,3:0|1:0,0:0:0:0:
353,209,117766,1,0,0:0:0:0:
353,209,117854,2,0,L|360:162,3,47.2499985580445
297,48,118207,6,0,L|289:94,1,47.2499985580445,0|0,3:0|0:0,0:0:0:0:
261,254,118384,1,0,0:0:0:0:
261,254,118472,1,0,0:0:0:0:
261,254,118560,6,0,L|214:246,1,47.2499985580445,0|0,1:0|0:0,0:0:0:0:
214,246,118913,6,0,L|160:258,1,47.2499985580445,0|0,1:0|0:0,0:0:0:0:
21,306,119090,1,8,0:0:0:0:
32,134,119266,5,0,0:0:0:0:
39,135,119354,1,0,0:0:0:0:
48,137,119443,1,0,0:0:0:0:
58,173,119531,1,0,0:0:0:0:
69,208,119619,1,8,0:0:0:0:
127,362,119795,5,0,0:0:0:0:
127,362,119884,1,0,0:0:0:0:
127,362,119972,2,0,L|173:351,1,47.2499985580445,0|0,1:0|0:0,0:0:0:0:
250,369,120148,2,0,L|296:358,1,47.2499985580445,0|0,1:0|0:0,0:0:0:0:
383,242,120325,6,0,L|336:252,1,47.2499985580445,0|0,3:0|0:0,0:0:0:0:
260,235,120501,2,0,L|213:245,1,47.2499985580445,0|0,1:0|0:0,0:0:0:0:
139,133,120678,5,0,0:0:0:0:
139,133,120766,1,0,0:0:0:0:
138,132,120854,2,0,P|145:155|142:178,1,47.2499985580445,0|0,0:0|0:0,0:0:0:0:
52,298,121031,2,0,L|60:251,1,47.2499985580445,0|0,0:0|0:0,0:0:0:0:
68,204,121207,2,0,L|59:250,1,47.2499985580445,0|0,0:0|0:0,0:0:0:0:
40,378,121384,5,0,1:0:0:0:
40,378,121560,1,0,1:0:0:0:
180,314,121737,5,0,0:0:0:0:
180,314,121825,1,0,0:0:0:0:
180,314,121913,2,0,L|226:323,1,47.2499985580445,8|0,0:0|0:0,0:0:0:0:
320,349,122090,1,0,0:0:0:0:
343,350,122178,1,0,0:0:0:0:
366,344,122266,1,0,0:0:0:0:
385,331,122354,1,0,0:0:0:0:
400,313,122442,1,8,0:0:0:0:
442,183,122619,5,0,0:0:0:0:
442,183,122707,1,0,0:0:0:0:
442,183,122795,2,0,L|487:169,1,47.2499985580445,0|0,1:0|0:0,0:0:0:0:
468,93,122972,2,0,L|422:106,1,47.2499985580445,0|0,1:0|0:0,0:0:0:0:
323,170,123148,6,0,P|321:217|296:256,1,94.499997116089,0|0,3:0|1:0,0:0:0:0:
232,321,123413,1,0,0:0:0:0:
232,321,123501,2,0,L|236:368,3,47.2499985580445
166,255,123854,6,0,L|170:208,1,47.2499985580445,0|0,3:0|0:0,0:0:0:0:
163,20,124031,1,0,1:0:0:0:
163,20,124119,1,0,1:0:0:0:
163,20,124207,6,0,L|168:67,1,47.2499985580445,0|0,1:0|0:0,0:0:0:0:
168,67,124560,6,0,L|121:73,1,47.2499985580445,0|0,1:0|0:0,0:0:0:0:
1,90,124737,1,8,0:0:0:0:
112,159,124913,5,0,0:0:0:0:
120,154,125001,1,0,0:0:0:0:
128,149,125090,1,0,0:0:0:0:
125,111,125178,1,0,0:0:0:0:
122,73,125266,1,8,0:0:0:0:
2,191,125443,5,0,0:0:0:0:
2,191,125531,1,0,0:0:0:0:
2,191,125619,2,0,L|48:200,1,47.2499985580445,0|0,1:0|0:0,0:0:0:0:
128,149,125795,2,0,L|174:158,1,47.2499985580445,0|0,1:0|0:0,0:0:0:0:
249,107,125972,1,0,3:0:0:0:
411,215,126148,2,0,P|420:193|420:170,1,47.2499985580445,0|0,1:0|0:0,0:0:0:0:
331,61,126325,5,0,0:0:0:0:
309,51,126413,1,0,0:0:0:0:
286,48,126501,1,0,0:0:0:0:
262,51,126589,1,0,0:0:0:0:
240,60,126678,2,0,L|248:106,1,47.2499985580445,0|0,0:0|0:0,0:0:0:0:
304,207,126854,2,0,L|312:160,1,47.2499985580445,0|0,0:0|0:0,0:0:0:0:
203,252,127031,5,0,1:0:0:0:
295,335,127207,1,0,0:0:0:0:
302,341,127295,1,0,0:0:0:0:
309,347,127384,1,0,0:0:0:0:
346,340,127472,1,0,0:0:0:0:
383,334,127560,1,8,0:0:0:0:
512,236,127737,5,0,0:0:0:0:
505,242,127825,1,0,0:0:0:0:
498,248,127914,1,0,0:0:0:0:
461,241,128002,1,0,0:0:0:0:
424,235,128090,1,8,0:0:0:0:
284,204,128266,5,0,0:0:0:0:
284,204,128354,1,0,0:0:0:0:
284,204,128443,2,0,L|292:157,1,47.2499985580445,0|0,1:0|0:0,0:0:0:0:
372,138,128619,2,0,L|364:185,1,47.2499985580445,0|0,1:0|0:0,0:0:0:0:
311,76,128795,6,0,L|319:29,1,47.2499985580445,0|0,3:0|0:0,0:0:0:0:
399,10,128971,2,0,L|390:56,1,47.2499985580445,0|0,1:0|0:0,0:0:0:0:
228,32,129148,5,0,0:0:0:0:
201,40,129236,1,0,0:0:0:0:
179,57,129324,1,0,0:0:0:0:
163,80,129412,1,0,0:0:0:0:
157,108,129501,2,0,P|160:131|170:153,1,47.2499985580445,0|0,3:0|0:0,0:0:0:0:
238,241,129678,5,0,1:0:0:0:
238,241,129766,1,0,1:0:0:0:
238,241,129854,6,0,P|216:231|193:229,1,47.2499985580445,0|0,1:0|0:0,0:0:0:0:
193,229,130207,6,0,P|170:233|146:231,1,47.2499985580445,0|0,1:0|0:0,0:0:0:0:
25,189,130384,1,8,0:0:0:0:
92,347,130560,5,0,0:0:0:0:
99,341,130648,1,0,0:0:0:0:
106,334,130737,1,0,0:0:0:0:
143,339,130825,1,0,0:0:0:0:
180,344,130913,1,8,0:0:0:0:
317,373,131090,5,0,0:0:0:0:
317,373,131178,1,0,0:0:0:0:
317,373,131266,2,0,L|311:326,1,47.2499985580445,0|0,1:0|0:0,0:0:0:0:
411,360,131443,2,0,L|406:314,1,47.2499985580445,0|0,1:0|0:0,0:0:0:0:
348,248,131619,6,0,L|342:201,1,47.2499985580445,0|0,3:0|0:0,0:0:0:0:
442,235,131796,2,0,L|437:189,1,47.2499985580445,0|0,1:0|0:0,0:0:0:0:
379,128,131972,5,0,0:0:0:0:
356,120,132060,1,0,0:0:0:0:
333,119,132148,1,0,0:0:0:0:
310,125,132236,1,0,0:0:0:0:
290,138,132325,2,0,P|269:149|246:152,1,47.2499985580445,0|0,3:0|0:0,0:0:0:0:
111,125,132501,1,0,0:0:0:0:
203,41,132678,5,0,1:0:0:0:
203,41,132854,1,0,1:0:0:0:
113,216,133031,5,0,0:0:0:0:
67,205,133119,1,0,0:0:0:0:
21,195,133207,1,8,0:0:0:0:
120,329,133384,5,0,0:0:0:0:
120,329,133472,1,0,0:0:0:0:
120,329,133560,1,0,0:0:0:0:
166,318,133648,1,0,0:0:0:0:
212,308,133736,1,8,0:0:0:0:
400,247,133913,5,0,0:0:0:0:
400,247,134001,1,0,0:0:0:0:
400,247,134090,2,0,L|354:233,1,47.2499985580445,0|0,1:0|0:0,0:0:0:0:
263,205,134266,2,0,L|217:191,1,47.2499985580445,0|0,1:0|0:0,0:0:0:0:
257,321,134443,6,0,L|211:307,1,47.2499985580445,0|0,3:0|0:0,0:0:0:0:
120,279,134619,2,0,L|74:265,1,47.2499985580445,0|0,1:0|0:0,0:0:0:0:
21,174,134795,5,0,0:0:0:0:
30,152,134883,1,0,0:0:0:0:
46,135,134971,1,0,0:0:0:0:
67,125,135059,1,0,0:0:0:0:
91,124,135148,2,0,L|137:133,1,47.2499985580445,0|0,3:0|0:0,0:0:0:0:
286,166,135325,5,0,1:0:0:0:
286,166,135413,1,0,1:0:0:0:
286,166,135501,6,0,L|280:119,1,47.2499985580445,0|0,1:0|0:0,0:0:0:0:
280,119,135854,6,0,L|326:128,1,47.2499985580445,0|0,1:0|0:0,0:0:0:0:
459,153,136031,1,8,0:0:0:0:
363,296,136207,5,0,0:0:0:0:
355,302,136295,1,0,0:0:0:0:
347,308,136384,1,0,0:0:0:0:
309,302,136472,1,0,0:0:0:0:
271,297,136560,1,8,0:0:0:0:
106,265,136737,5,0,0:0:0:0:
106,265,136825,1,0,0:0:0:0:
106,265,136913,2,0,L|113:229,3,36.749998878479,0|0|0|0,1:0|0:0|1:0|0:0,0:0:0:0:
48,167,137266,2,0,L|41:203,3,36.749998878479,0|0|0|0,3:0|0:0|1:0|0:0,0:0:0:0:
128,113,137619,5,0,0:0:0:0:
154,100,137707,1,0,0:0:0:0:
186,95,137795,1,0,0:0:0:0:
221,105,137884,1,0,0:0:0:0:
253,129,137972,1,8,0:0:0:0:
283,160,138060,1,0,0:0:0:0:
328,174,138148,1,0,0:0:0:0:
378,161,138237,1,0,0:0:0:0:
418,123,138325,5,4,0:1:0:0:
418,123,149619,5,4,1:0:0:0:
235,76,150325,1,0,1:0:0:0:
235,170,151031,5,0,1:0:0:0:
235,170,151560,1,0,0:0:0:0:
418,123,151737,1,0,1:0:0:0:
418,217,152443,5,0,1:0:0:0:
418,217,152619,1,0,0:0:0:0:
235,170,152972,1,0,0:0:0:0:
235,170,153149,1,0,1:0:0:0:
235,264,153854,5,0,1:0:0:0:
235,264,154030,1,0,0:0:0:0:
418,217,154383,1,0,0:0:0:0:
418,217,154560,1,0,1:0:0:0:
418,311,155266,5,0,1:0:0:0:
418,217,155619,1,0,1:0:0:0:
418,123,155972,1,0,1:0:0:0:
418,29,156325,1,0,1:0:0:0:
235,358,156678,5,0,1:0:0:0:
235,264,157031,1,0,1:0:0:0:
235,170,157384,1,0,1:0:0:0:
235,76,157737,1,0,1:0:0:0:
444,333,158090,5,0,1:0:0:0:
384,259,158266,1,0,1:0:0:0:
283,239,158443,1,0,1:0:0:0:
185,288,158619,1,0,1:0:0:0:
444,333,158795,5,0,1:0:0:0:
424,110,158972,1,0,1:0:0:0:
481,221,159148,1,0,1:0:0:0:
293,88,159325,1,0,1:0:0:0:
185,288,159501,5,0,1:0:0:0:
199,313,159590,1,0,1:0:0:0:
229,326,159678,1,0,1:0:0:0:
263,313,159766,1,0,1:0:0:0:
276,274,159854,1,0,1:0:0:0:
248,238,159943,1,0,1:0:0:0:
200,233,160031,1,0,1:0:0:0:
157,261,160119,1,0,1:0:0:0:
115,297,160207,1,0,1:0:0:0:
56,300,160295,1,0,1:0:0:0:
7,259,160384,1,0,1:0:0:0:
0,193,160472,1,0,1:0:0:0:
46,141,160560,1,0,1:0:0:0:
119,135,160648,1,0,1:0:0:0:
188,169,160737,1,0,1:0:0:0:
266,151,160825,1,0,1:0:0:0:
302,75,160913,6,0,P|251:65|206:90,1,105,6|0,1:0|0:0,0:0:0:0:
125,216,161090,1,0,0:0:0:0:
125,216,161178,2,0,L|131:289,1,62.9999980773926,0|0,1:0|0:0,0:0:0:0:
333,287,161354,1,0,0:0:0:0:
333,287,161443,2,0,L|326:203,1,84,0|0,1:0|0:0,0:0:0:0:
241,20,161619,6,0,L|147:4,1,94.499997116089,8|0,0:1|0:0,0:0:0:0:
302,75,161795,2,0,L|395:59,1,94.499997116089,2|0,0:0|0:0,0:0:0:0:
242,127,161972,6,0,L|210:122,1,31.5,0|0,1:0|0:0,0:0:0:0:
12,55,162501,6,0,L|7:30,2,26.25,0|0|0,0:0|0:0|0:0,0:0:0:0:
16,73,162678,6,0,L|80:59,1,62.9999980773926,0|0,1:0|0:0,0:0:0:0:
20,91,162854,2,0,L|84:77,1,62.9999980773926,0|0,1:0|0:0,0:0:0:0:
242,127,163031,2,0,L|159:109,1,84,8|0,0:1|0:0,0:0:0:0:
45,234,163207,6,0,P|88:205|140:202,1,105,2|0,1:2|0:0,0:0:0:0:
142,210,163384,2,0,B|84:200|47:242|47:242|69:318|166:334|216:280,1,315,0|0,1:0|0:0,0:0:0:0:
370,127,163737,6,0,L|431:114,1,62.9999980773926,0|0,1:0|0:0,0:0:0:0:
242,127,163913,1,0,0:0:0:0:
242,127,164001,2,0,L|180:114,1,62.9999980773926,0|0,1:0|0:0,0:0:0:0:
306,198,164178,1,0,0:0:0:0:
306,198,164266,1,0,1:0:0:0:
311,273,164354,1,0,1:0:0:0:
317,348,164442,1,8,0:1:0:0:
512,213,164619,6,0,P|460:217|415:192,1,105,2|0,0:0|0:0,0:0:0:0:
410,199,164795,2,0,L|405:231,1,31.5,0|0,1:0|0:0,0:0:0:0:
405,230,165325,5,0,1:0:0:0:
309,100,165501,6,0,L|246:94,1,62.9999980773926,0|0,0:0|0:0,0:0:0:0:
184,89,165678,2,0,L|246:94,1,62.9999980773926,0|0,1:0|0:0,0:0:0:0:
405,16,165854,2,0,L|321:23,1,84,8|0,0:1|0:0,0:0:0:0:
115,33,166031,6,0,P|91:78|99:129,1,105,2|0,1:2|0:0,0:0:0:0:
91,134,166207,2,0,P|141:8|246:93,1,315,0|0,1:0|0:0,0:0:0:0:
180,245,166560,6,0,B|150:233|150:233|119:235,1,62.9999980773926,0|0,1:0|0:0,0:0:0:0:
103,343,166737,1,0,0:0:0:0:
103,343,166825,2,0,B|133:355|133:355|163:352,1,62.9999980773926,0|0,1:0|0:0,0:0:0:0:
299,314,167001,1,0,0:0:0:0:
299,314,167089,2,0,L|236:307,1,62.9999980773926,0|0,1:0|0:0,0:0:0:0:
46,280,167266,1,8,0:1:0:0:
259,163,167443,6,0,L|273:58,1,105,2|0,0:0|0:0,0:0:0:0:
281,53,167619,2,0,L|276:84,1,31.5,0|0,1:0|0:0,0:0:0:0:
275,84,168148,5,0,1:0:0:0:
458,172,168325,6,0,L|451:110,1,62.9999980773926,2|0,0:0|0:0,0:0:0:0:
470,164,168501,2,0,L|464:101,1,62.9999980773926,2|0,1:2|0:0,0:0:0:0:
346,0,168678,2,0,L|355:83,1,84,8|0,0:1|0:0,0:0:0:0:
387,295,168854,6,0,L|491:281,1,105,2|0,1:2|0:0,0:0:0:0:
488,293,169031,2,0,B|385:305|385:305|341:275|341:275|332:330|280:367|225:360,1,315,0|0,1:0|0:0,0:0:0:0:
217,199,169384,6,0,P|234:226|239:257,1,62.9999980773926,0|0,1:0|0:0,0:0:0:0:
136,324,169560,1,0,0:0:0:0:
136,324,169648,2,0,P|140:293|157:266,1,62.9999980773926,0|0,1:0|0:0,0:0:0:0:
290,165,169825,1,0,0:0:0:0:
290,165,169913,2,0,P|258:191|217:199,1,84,0|0,1:0|0:0,0:0:0:0:
32,167,170090,1,8,0:1:0:0:
155,0,170266,6,0,P|168:50|159:101,1,105,2|0,0:0|0:0,0:0:0:0:
156,108,170443,2,0,P|151:123|149:138,1,31.5,0|0,1:0|0:0,0:0:0:0:
354,117,171031,6,0,L|357:89,1,28
354,117,171148,6,0,P|327:100|296:96,1,62.9999980773926,0|0,1:2|0:0,0:0:0:0:
353,133,171325,2,0,P|326:116|295:112,1,62.9999980773926,0|0,1:2|0:0,0:0:0:0:
423,217,171501,6,0,P|459:197|500:200,1,84,8|0,0:1|0:0,0:0:0:0:
351,148,171678,2,0,P|324:131|293:127,1,62.9999980773926,0|0,1:0|0:0,0:0:0:0:
287,269,171854,6,0,P|298:240|297:208,1,63,0|0,0:0|0:0,1:0:0:0:
78,335,172207,6,0,P|0:300|73:256,1,210,4|0,1:0|0:0,1:0:0:0:
295,331,172472,2,0,L|287:269,1,62.9999980773926,0|0,1:0|0:0,0:0:0:0:
158,112,172648,1,0,0:0:0:0:
158,112,172737,2,0,L|169:195,1,84,0|0,1:0|0:0,0:0:0:0:
189,373,172913,1,8,0:1:0:0:
18,185,173090,6,0,L|34:81,1,105,2|0,0:0|0:0,0:0:0:0:
35,73,173266,2,0,L|65:79,1,31.5,0|0,1:0|0:0,0:0:0:0:
229,183,173795,6,0,L|221:208,2,26.25,0|0|0,0:0|0:0|0:0,0:0:0:0:
234,169,173972,6,0,P|202:172|173:161,1,62.9999980773926,0|0,1:0|0:0,0:0:0:0:
188,58,174148,2,0,P|219:55|248:66,1,62.9999980773926,0|0,1:0|0:0,0:0:0:0:
239,281,174325,2,0,P|197:281|163:258,1,84,8|0,0:1|0:0,0:0:0:0:
352,46,174501,6,0,B|374:91|374:91|365:145,1,105,2|0,1:2|0:0,0:0:0:0:
374,143,174678,2,0,B|382:88|382:88|360:44|360:44|321:40|298:20|298:20|264:50|208:46|208:46|249:67,1,315,0|0,1:0|0:0,0:0:0:0:
455,172,175031,6,0,L|463:109,1,62.9999980773926,0|0,1:0|0:0,0:0:0:0:
389,271,175207,1,0,0:0:0:0:
389,271,175295,2,0,L|397:333,1,62.9999980773926,0|0,1:0|0:0,0:0:0:0:
293,187,175472,1,0,0:0:0:0:
293,187,175560,2,0,L|210:202,1,84,0|0,1:0|0:0,0:0:0:0:
41,237,175737,1,8,0:1:0:0:
182,340,175913,6,0,L|284:315,1,105,2|0,0:0|0:0,0:0:0:0:
290,309,176090,2,0,L|285:277,1,31.5,0|0,1:0|0:0,0:0:0:0:
285,277,176619,5,0,1:0:0:0:
364,111,176795,6,0,P|380:137|386:168,1,62.9999980773926
370,228,176972,2,0,P|384:200|387:168,1,62.9999980773926,0|0,1:0|0:0,0:0:0:0:
304,50,177148,2,0,P|283:86|281:128,1,84,8|0,0:1|0:0,0:0:0:0:
303,381,177325,6,0,L|285:277,1,105,2|0,1:2|0:0,0:0:0:0:
291,272,177501,2,0,B|308:372|308:372|375:389|456:328|453:254,1,315,0|0,1:0|0:0,0:0:0:0:
389,68,177854,6,0,B|357:61|357:61|327:65,1,62.9999980773926,0|0,1:0|0:0,0:0:0:0:
451,121,178031,1,0,0:0:0:0:
451,121,178119,2,0,B|482:126|482:126|512:118,1,62.9999980773926,0|0,1:0|0:0,0:0:0:0:
369,227,178295,1,0,0:0:0:0:
369,227,178384,2,0,P|363:185|376:145,1,84,0|0,1:0|0:0,0:0:0:0:
464,43,178560,1,8,0:1:0:0:
260,126,178737,6,0,L|156:106,1,105,2|0,0:0|0:0,0:0:0:0:
149,111,178913,2,0,L|118:105,1,31.5,0|0,1:0|0:0,0:0:0:0:
118,105,179443,5,0,1:0:0:0:
219,238,179619,6,0,L|157:251,1,62.9999980773926,2|0,0:0|0:0,0:0:0:0:
214,227,179795,2,0,L|152:240,1,62.9999980773926,2|0,1:2|0:0,0:0:0:0:
147,352,179972,2,0,L|229:333,1,84,8|0,0:1|0:0,0:0:0:0:
392,289,180148,6,0,P|397:237|376:189,1,105,2|0,1:2|0:0,0:0:0:0:
385,188,180325,2,0,P|372:331|228:333,1,315,0|0,1:0|0:0,0:0:0:0:
108,240,180678,6,0,B|105:207|105:207|113:178,1,62.9999980773926,0|0,1:0|0:0,0:0:0:0:
264,99,180854,1,0,0:0:0:0:
264,99,180943,2,0,B|267:132|267:132|258:160,1,62.9999980773926,0|0,1:0|0:0,0:0:0:0:
122,53,181119,1,0,0:0:0:0:
122,53,181207,2,0,L|204:38,1,84,0|0,1:0|0:0,0:0:0:0:
364,9,181384,1,8,0:1:0:0:
443,181,181560,6,0,L|430:285,1,105,2|0,0:0|0:0,0:0:0:0:
420,295,181737,2,0,L|388:291,1,31.5,0|0,1:0|0:0,0:0:0:0:
388,291,182443,6,0,L|325:282,1,62.9999980773926,0|0,1:0|0:0,0:0:0:0:
385,298,182619,2,0,L|322:289,1,62.9999980773926,0|0,1:0|0:0,0:0:0:0:
218,202,182795,2,0,L|301:190,1,84,8|0,0:1|0:0,0:0:0:0:
172,359,182972,6,0,P|120:358|75:331,1,105,2|0,1:0|0:0,0:0:0:0:
72,341,183148,2,2,P|213:345|219:203,1,315,0|0,1:0|0:0,1:0:0:0:
46,104,183501,6,0,P|36:154|55:202,1,105,4|0,1:0|0:0,0:0:0:0:
154,49,183678,2,0,L|122:53,1,31.4999990386963,2|0,0:0|0:0,0:0:0:0:
154,49,183854,2,0,L|216:39,1,62.9999980773926,2|0,0:0|0:0,0:0:0:0:
353,151,184031,2,0,L|270:137,1,84,0|0,1:0|0:0,0:0:0:0:
46,104,184207,1,8,0:1:0:0:
318,15,184384,6,0,P|369:21|407:56,1,105,2|0,0:0|0:0,0:0:0:0:
411,64,184560,2,0,L|409:95,1,31.5,0|0,1:0|0:0,0:0:0:0:
379,288,185090,6,0,L|381:261,2,26.25,0|0|0,0:0|0:0|0:0,0:0:0:0:
377,306,185266,6,0,L|315:293,1,62.9999980773926,2|0,1:2|0:0,0:0:0:0:
375,324,185443,2,0,L|313:311,1,62.9999980773926,2|0,1:2|0:0,0:0:0:0:
152,376,185619,2,0,L|234:359,1,84,8|0,0:1|0:0,0:0:0:0:
71,194,185795,6,0,B|49:241|49:241|60:292,1,105,2|0,1:2|0:0,0:0:0:0:
51,292,185972,2,0,B|41:240|41:240|62:193|62:193|135:174|135:174|185:196|185:196|263:177,1,315,0|0,1:0|0:0,0:0:0:0:
350,38,186325,6,0,P|348:69|360:98,1,62.9999980773926,0|0,1:0|0:0,0:0:0:0:
436,182,186501,1,0,0:0:0:0:
436,182,186590,2,0,L|506:162,1,73.4999977569581,0|0,1:0|0:0,0:0:0:0:
512,296,186766,1,0,0:0:0:0:
512,296,186854,2,0,L|431:272,1,84,0|0,1:0|0:0,0:0:0:0:
259,221,187031,1,8,0:1:0:0:
356,384,187207,6,0,L|344:279,1,105,2|0,0:0|0:0,0:0:0:0:
340,275,187384,2,0,L|308:280,1,31.5,0|0,1:0|0:0,0:0:0:0:
308,279,187913,5,0,1:0:0:0:
157,303,188090,6,0,L|167:240,1,62.9999980773926,2|0,0:0|0:0,0:0:0:0:
177,178,188266,2,0,L|166:240,1,62.9999980773926,0|0,1:0|0:0,0:0:0:0:
81,360,188443,2,0,L|67:277,1,84,8|0,0:1|0:0,0:0:0:0:
74,28,188619,6,0,L|47:131,1,105,2|0,1:2|0:0,0:0:0:0:
57,124,188795,2,0,B|82:27|82:27|160:22|212:104|176:177,1,315,0|0,1:0|0:0,0:0:0:0:
81,360,189148,6,0,L|19:347,1,62.9999980773926,0|0,1:0|0:0,0:0:0:0:
154,266,189325,1,0,0:0:0:0:
154,266,189413,2,0,L|92:278,1,62.9999980773926,0|0,1:0|0:0,0:0:0:0:
194,360,189590,1,0,0:0:0:0:
194,360,189678,2,0,L|276:342,1,84,0|0,1:0|0:0,0:0:0:0:
462,293,189854,1,8,0:1:0:0:
347,183,190031,6,0,P|327:136|339:86,1,105,2|0,0:0|0:0,0:0:0:0:
346,81,190207,2,0,L|376:87,1,31.5,0|0,1:0|0:0,0:0:0:0:
376,87,190737,5,0,1:0:0:0:
442,192,190913,6,0,P|450:223|448:254,1,62.9999980773926,2|0,0:0|0:0,0:0:0:0:
453,188,191090,2,0,P|461:218|458:249,1,62.9999980773926,2|0,1:2|0:0,0:0:0:0:
273,126,191266,2,0,P|262:85|271:45,1,84,8|0,0:1|0:0,0:0:0:0:
320,309,191443,6,0,P|280:342|228:346,1,105,2|0,1:2|0:0,0:0:0:0:
224,338,191619,2,0,P|328:251|214:178,1,315,0|0,1:0|0:0,0:0:0:0:
61,310,191972,6,0,L|47:248,1,62.9999980773926,0|0,1:0|0:0,0:0:0:0:
140,128,192148,1,0,0:0:0:0:
140,128,192237,2,0,L|126:189,1,62.9999980773926,0|0,1:0|0:0,0:0:0:0:
0,74,192413,1,0,0:0:0:0:
0,74,192501,2,0,P|40:81|80:67,1,84,0|0,1:0|0:0,0:0:0:0:
213,0,192678,1,8,0:1:0:0:
315,203,192854,6,0,L|214:178,1,105,2|0,0:0|0:0,0:0:0:0:
211,170,193031,2,0,L|241:177,1,31.5,0|0,1:0|0:0,0:0:0:0:
438,265,193619,6,0,L|410:258,1,28,0|0,0:0|0:0,0:0:0:0:
454,269,193737,6,0,L|465:207,1,62.9999980773926,0|0,1:0|0:0,0:0:0:0:
463,272,193913,2,0,L|474:210,1,62.9999980773926,0|0,1:0|0:0,0:0:0:0:
373,73,194090,2,0,L|389:155,1,84,8|0,0:1|0:0,0:0:0:0:
443,357,194266,6,0,L|342:327,1,105,2|0,1:2|0:0,0:0:0:0:
162,275,194443,6,2,L|262:304,1,105,0|0,1:0|0:0,0:1:0:0:
72,346,194795,6,0,B|89:307|68:268|68:268|88:233|88:233|64:186|84:148,1,210,4|0,1:0|0:0,0:0:0:0:
231,104,195060,2,0,P|235:135|227:165,1,62.9999980773926,0|0,1:0|0:0,0:0:0:0:
70,41,195237,1,0,0:0:0:0:
70,41,195325,2,0,P|104:63|146:64,1,84,0|0,1:0|0:0,0:0:0:0:
297,12,195501,1,8,0:1:0:0:
227,165,195678,6,0,L|247:267,1,105,2|0,0:0|0:0,0:0:0:0:
250,276,195854,2,0,L|242:307,1,31.5,0|0,1:0|0:0,0:0:0:0:
415,145,196384,6,0,L|440:149,2,26.25,0|0|0,0:0|0:0|0:0,0:0:0:0:
393,143,196560,6,0,P|401:112|399:81,1,62.9999980773926,0|0,1:0|0:0,0:0:0:0:
379,142,196737,2,0,P|386:111|384:80,1,62.9999980773926,0|0,1:0|0:0,0:0:0:0:
287,209,196913,2,0,P|278:250|290:291,1,84,8|0,0:1|0:0,0:0:0:0:
186,52,197090,6,0,B|133:38|133:38|85:53,1,105,2|0,1:2|0:0,0:0:0:0:
86,43,197266,2,0,B|130:29|130:29|182:41|182:41|228:51|259:15|259:15|295:37|300:93|260:125,1,315,0|0,1:0|0:0,0:0:0:0:
189,212,197619,6,0,L|127:199,1,62.9999980773926,0|0,1:0|0:0,0:0:0:0:
294,295,197795,1,0,0:0:0:0:
294,295,197884,2,0,L|355:282,1,62.9999980773926,0|0,1:0|0:0,0:0:0:0:
205,384,198060,1,0,0:0:0:0:
205,384,198148,2,0,P|194:343|204:303,1,84,0|0,1:0|0:0,0:0:0:0:
260,125,198325,1,8,0:1:0:0:
357,284,198501,6,0,L|459:263,1,105,2|0,0:0|0:0,0:0:0:0:
466,269,198678,2,0,L|472:299,1,31.5,0|0,1:0|0:0,0:0:0:0:
472,299,199207,5,0,1:0:0:0:
419,147,199384,6,0,P|413:116|422:85,1,62.9999980773926
425,25,199560,2,0,P|430:55|421:86,1,62.9999980773926,0|0,1:0|0:0,0:0:0:0:
325,209,199737,2,0,P|283:213|244:197,1,84,8|0,0:1|0:0,0:0:0:0:
69,162,199913,6,0,L|90:58,1,105,2|0,0:0|0:0,0:0:0:0:
102,58,200090,2,0,B|80:161|80:161|187:171|163:86|272:96,1,315,0|0,1:0|0:0,0:0:0:0:
422,178,200443,6,0,L|440:240,1,62.9999980773926,0|0,1:0|0:0,0:0:0:0:
441,87,200619,1,0,0:0:0:0:
441,87,200707,2,0,L|485:39,1,62.9999980773926,0|0,1:0|0:0,0:0:0:0:
354,116,200884,1,0,0:0:0:0:
354,116,200972,2,0,L|271:96,1,84,0|0,1:0|0:0,0:0:0:0:
107,44,201148,1,8,0:1:0:0:
162,234,201325,6,0,P|184:187|178:136,1,105,2|0,0:0|0:0,0:0:0:0:
172,130,201501,2,0,L|140:133,1,31.5,0|0,1:0|0:0,0:0:0:0:
140,133,202031,5,0,1:0:0:0:
46,289,202207,6,0,L|51:351,1,62.9999980773926,2|0,0:0|0:0,0:0:0:0:
57,290,202384,2,0,L|62:352,1,62.9999980773926,2|0,1:2|0:0,0:0:0:0:
147,216,202560,2,0,L|139:132,1,84,8|0,0:1|0:0,0:0:0:0:
246,311,202737,6,0,P|293:330|343:316,1,105,2|0,1:2|0:0,0:0:0:0:
343,309,202913,2,0,P|223:255|328:177,1,315,0|0,1:0|0:0,0:0:0:0:
489,200,203266,6,0,P|491:231|502:260,1,62.9999980773926,0|0,1:0|0:0,0:0:0:0:
407,354,203443,1,0,0:0:0:0:
407,354,203531,2,0,P|420:325|421:294,1,62.9999980773926,0|0,1:0|0:0,0:0:0:0:
328,177,203707,1,0,0:0:0:0:
328,177,203795,2,0,P|289:192|247:189,1,84,0|0,1:0|0:0,0:0:0:0:
106,137,203972,1,8,0:1:0:0:
283,36,204148,6,0,P|335:40|375:73,1,105,2|0,0:0|0:0,0:0:0:0:
380,81,204325,2,0,L|411:77,1,31.5,0|0,1:0|0:0,0:0:0:0:
411,77,204854,5,0,1:0:0:0:
494,190,205031,1,0,0:0:0:0:
474,215,205119,1,0,0:0:0:0:
444,228,205207,1,8,0:1:0:0:
411,226,205295,2,0,P|380:222|349:227,1,62.9999980773926,0|0,0:0|0:0,0:0:0:0:
221,286,205472,5,0,0:0:0:0:
221,286,205560,2,0,L|231:223,1,62.9999980773926,2|0,0:0|0:0,0:0:0:0:
185,68,205737,2,0,L|220:285,1,220.499993270874,0|0,1:0|0:0,0:0:0:0:
256,384,206090,5,4,1:0:0:0:
