osu file format v14

[General]
AudioFilename: audio.mp3
AudioLeadIn: 0
PreviewTime: 59178
Countdown: 0
SampleSet: Soft
StackLeniency: 0.4
Mode: 0
LetterboxInBreaks: 0
EpilepsyWarning: 1
WidescreenStoryboard: 1

[Editor]
Bookmarks: 25384,36678,47972,59266,70560,81854,93148,104443,115737,138325,149619,160913,172207,183501,194795,206090
DistanceSpacing: 0.9
BeatDivisor: 4
GridSize: 16
TimelineZoom: 1.7

[Metadata]
Title:Treason
TitleUnicode:Treason
Artist:Dictate
ArtistUnicode:Dictate
Creator:Realazy
Version:Kalibe's Normal
Source:
Tags:enkrypton lowcombofc lcfc kalibe toybot pishifat neurofunk neuro featured artist fa mappers guild
BeatmapID:1778357
BeatmapSetID:848976

[Difficulty]
HPDrainRate:4
CircleSize:3.5
OverallDifficulty:4
ApproachRate:5.5
SliderMultiplier:1.2
SliderTickRate:1

[Events]
//Background and Video events
0,0,"treason.png",0,0
//Break Periods
2,36877,46847
2,104643,114612
2,138525,148494
//Storyboard Layer 0 (Background)
Sprite,Background,Centre,"treason.png",320,240 F,0,0,,0
Sprite,Background,Centre,"sb/desat.png",320,240 S,0,0,,0.4444444 F,0,0,59266,1
Sprite,Background,Centre,"sb/pixel.png",320,240 V,0,0,,1920,1080 C,0,0,,0,0,0 F,0,0,25384,1
Sprite,Background,Centre,"sb/pixel.png",320,240 V,0,0,,1920,1080 C,0,0,,0,0,0 F,0,25384,25737,1,0.5 F,0,25384,25736,0.2,0.5 F,0,26795,27148,0.2,0.5 F,0,28207,28560,0.2,0.5 F,0,29619,29972,0.2,0.5 F,0,31031,31384,0.2,0.5 F,0,32442,32795,0.2,0.5 F,0,33854,34207,0.2,0.5 F,0,35266,35619,0.2,0.5 F,0,35619,36678,0.5,1 F,0,36678,37031,1,0.5 F,0,37031,47972,0.5
Sprite,Background,Centre,"sb/pixel.png",320,240 V,0,0,,1920,1080 C,0,0,,0,0,0 F,0,47972,48678,0.5,0.3 F,0,48678,56443,0.3,0
Sprite,Background,Centre,"sb/normal.png",320,240 S,0,0,,0.4444444 F,0,0,,0 F,0,59266,103737,1 F,0,103737,104443,1,0
Sprite,Background,Centre,"sb/light.png",320,240 S,0,0,,0.4444444 F,0,0,,0 F,0,59266,59596,1,0 F,0,61737,62067,1,0 F,0,64560,64890,1,0 F,0,67384,67714,1,0 F,0,73031,73361,1,0 F,0,75854,76184,1,0 F,0,78678,79008,1,0 F,0,84325,84655,1,0 F,0,87148,87478,1,0 F,0,89972,90302,1,0 F,0,95619,95949,1,0 F,0,98443,98773,1,0 F,0,101266,101596,1,0 F,0,62090,62420,1,0 F,0,64913,65243,1,0 F,0,67736,68066,1,0 F,0,70559,70889,1,0 F,0,73382,73712,1,0 F,0,76205,76535,1,0 F,0,79028,79358,1,0 F,0,81851,82181,1,0 F,0,84674,85004,1,0 F,0,87497,87827,1,0 F,0,90320,90650,1,0 F,0,93143,93473,1,0 F,0,95966,96296,1,0 F,0,98789,99119,1,0 F,0,101612,101942,1,0
Sprite,Background,Centre,"sb/zoomlight.png",320,240 S,0,0,,0.4444444 F,0,0,,0 F,0,60325,60655,1,0 F,0,63148,63478,1,0 F,0,65971,66301,1,0 F,0,68794,69124,1,0 F,0,71617,71947,1,0 F,0,74440,74770,1,0 F,0,77263,77593,1,0 F,0,80086,80416,1,0 F,0,82909,83239,1,0 F,0,85732,86062,1,0 F,0,88555,88885,1,0 F,0,91378,91708,1,0 F,0,94201,94531,1,0 F,0,97024,97354,1,0 F,0,99847,100177,1,0 F,0,102670,103000,1,0
Sprite,Background,Centre,"sb/desat.png",320,240 S,0,0,,0.4444444 F,0,115736,,0 F,0,115737,160913,1
Sprite,Background,Centre,"sb/pixel.png",320,240 V,0,0,,1920,1080 C,0,0,,0,0,0 F,0,115736,,0 F,0,115737,116443,1,0.5 F,0,117148,117500,0.2,0.5 F,0,118559,118912,0.2,0.5 F,0,119971,120324,0.2,0.5 F,0,121383,121736,0.2,0.5 F,0,122795,123147,0.2,0.5 F,0,124206,124559,0.2,0.5 F,0,125618,125971,0.2,0.5 F,0,127030,127383,0.2,0.5 F,0,128442,128795,0.2,0.5 F,0,129853,130206,0.2,0.5 F,0,131265,131618,0.2,0.5 F,0,132677,133030,0.2,0.5 F,0,134089,134442,0.2,0.5 F,0,135500,135853,0.2,0.5 F,0,136912,137265,0.2,0.5 F,0,138325,138501,0.5,0.8 F,0,138501,149619,0.8
Sprite,Background,Centre,"sb/pixel.png",320,240 V,0,0,,1920,1080 C,0,0,,0,0,0 F,0,149619,,0 F,0,149619,149795,0.8,0.5 F,0,149795,158090,0.5 F,0,158090,160913,0.5,0.3
Sprite,Background,Centre,"sb/normal.png",320,240 S,0,0,,0.4444444 F,0,0,,0 F,0,160913,205384,1 F,0,205384,206090,1,0
Sprite,Background,Centre,"sb/light.png",320,240 S,0,0,,0.4444444 F,0,0,,0 F,0,160913,161266,1,0 F,0,163384,163737,1,0 F,0,166207,166560,1,0 F,0,169031,169384,1,0 F,0,174678,175031,1,0 F,0,177501,177854,1,0 F,0,180325,180678,1,0 F,0,185972,186325,1,0 F,0,188795,189148,1,0 F,0,191619,191972,1,0 F,0,197266,197619,1,0 F,0,200090,200443,1,0 F,0,202913,203266,1,0 F,0,163737,164090,1,0 F,0,166560,166913,1,0 F,0,169383,169736,1,0 F,0,172206,172559,1,0 F,0,175029,175382,1,0 F,0,177852,178205,1,0 F,0,180675,181028,1,0 F,0,183498,183851,1,0 F,0,186321,186674,1,0 F,0,189144,189497,1,0 F,0,191967,192320,1,0 F,0,194790,195143,1,0 F,0,197613,197966,1,0 F,0,200436,200789,1,0 F,0,203259,203612,1,0
Sprite,Background,Centre,"sb/zoomlight.png",320,240 S,0,0,,0.4444444 F,0,0,,0 F,0,161972,162325,1,0 F,0,164795,165148,1,0 F,0,167618,167971,1,0 F,0,170441,170794,1,0 F,0,173264,173617,1,0 F,0,176087,176440,1,0 F,0,178910,179263,1,0 F,0,181733,182086,1,0 F,0,184556,184909,1,0 F,0,187379,187732,1,0 F,0,190202,190555,1,0 F,0,193025,193378,1,0 F,0,195848,196201,1,0 F,0,198671,199024,1,0 F,0,201494,201847,1,0 F,0,204317,204670,1,0
Sprite,Background,Centre,"sb/w/2795\0054.png",66.75,131.5 S,0,2795,,0.5 F,19,2796,3096,0,1 F,0,5619,22560,1 F,0,22560,25384,1,0
Sprite,Background,Centre,"sb/w/2795\0072.png",88.25,131.5 S,0,2795,,0.5 F,19,2798,3098,0,1 F,0,5619,22560,1 F,0,22560,25384,1,0
Sprite,Background,Centre,"sb/w/2795\0065.png",109.75,131.5 S,0,2795,,0.5 F,19,2805,3105,0,1 F,0,5619,22560,1 F,0,22560,25384,1,0
Sprite,Background,Centre,"sb/w/2795\0061.png",129.25,131.5 S,0,2795,,0.5 F,19,2817,3117,0,1 F,0,5619,22560,1 F,0,22560,25384,1,0
Sprite,Background,Centre,"sb/w/2795\0073.png",148.75,131.5 S,0,2795,,0.5 F,19,2834,3134,0,1 F,0,5619,22560,1 F,0,22560,25384,1,0
Sprite,Background,Centre,"sb/w/2795\006f.png",170.25,131.5 S,0,2795,,0.5 F,19,2856,3156,0,1 F,0,5619,22560,1 F,0,22560,25384,1,0
Sprite,Background,Centre,"sb/w/2795\006e.png",192.5,131.5 S,0,2795,,0.5 F,19,2883,3183,0,1 F,0,5619,22560,1 F,0,22560,25384,1,0
Sprite,Background,Centre,"sb/pixel.png",0,0 F,0,2795,,1 V,0,2795,,12,21 MY,0,2795,,129 MX,19,2795,3215,56,210 F,0,3215,3568,0 F,0,3568,3921,1 F,0,3921,4274,0 F,0,4274,4627,1 F,0,4627,4980,0 F,0,4980,5333,1
Sprite,Background,Centre,"sb/w/5619\0044.png",64.5,158 S,0,5619,,0.5 F,19,5620,5920,0,1 F,0,8162,22560,1 F,0,22560,25384,1,0
Sprite,Background,Centre,"sb/w/5619\0069.png",74,158 S,0,5619,,0.5 F,19,5622,5922,0,1 F,0,8162,22560,1 F,0,22560,25384,1,0
Sprite,Background,Centre,"sb/w/5619\0063.png",83.5,158 S,0,5619,,0.5 F,19,5629,5929,0,1 F,0,8162,22560,1 F,0,22560,25384,1,0
Sprite,Background,Centre,"sb/w/5619\0074.png",98.5,158 S,0,5619,,0.5 F,19,5641,5941,0,1 F,0,8162,22560,1 F,0,22560,25384,1,0
Sprite,Background,Centre,"sb/w/5619\0061.png",112,158 S,0,5619,,0.5 F,19,5658,5958,0,1 F,0,8162,22560,1 F,0,22560,25384,1,0
Sprite,Background,Centre,"sb/w/5619\0074.png",125.5,158 S,0,5619,,0.5 F,19,5680,5980,0,1 F,0,8162,22560,1 F,0,22560,25384,1,0
Sprite,Background,Centre,"sb/w/5619\0065.png",140.5,158 S,0,5619,,0.5 F,19,5707,6007,0,1 F,0,8162,22560,1 F,0,22560,25384,1,0
Sprite,Background,Centre,"sb/pixel.png",0,0 F,0,5619,,1 V,0,5619,,12,15 MY,0,5619,,156 MX,19,5619,6099,50,154 F,0,6099,6452,0 F,0,6452,6805,1 F,0,6805,7158,0 F,0,7158,7511,1 F,0,7511,7864,0 F,0,7864,8217,1
Sprite,Background,Centre,"sb/w/8443\004d.png",65.75,183 S,0,8443,,0.5 F,19,8444,8744,0,1 F,0,11266,22560,1 F,0,22560,25384,1,0
Sprite,Background,Centre,"sb/w/8443\0061.png",80.5,183 S,0,8443,,0.5 F,19,8446,8746,0,1 F,0,11266,22560,1 F,0,22560,25384,1,0
Sprite,Background,Centre,"sb/w/8443\0070.png",94,183 S,0,8443,,0.5 F,19,8453,8753,0,1 F,0,11266,22560,1 F,0,22560,25384,1,0
Sprite,Background,Centre,"sb/w/8443\0070.png",109,183 S,0,8443,,0.5 F,19,8465,8765,0,1 F,0,11266,22560,1 F,0,22560,25384,1,0
Sprite,Background,Centre,"sb/w/8443\0065.png",124,183 S,0,8443,,0.5 F,19,8482,8782,0,1 F,0,11266,22560,1 F,0,22560,25384,1,0
Sprite,Background,Centre,"sb/w/8443\0072.png",139,183 S,0,8443,,0.5 F,19,8504,8804,0,1 F,0,11266,22560,1 F,0,22560,25384,1,0
Sprite,Background,Centre,"sb/w/8443\003a.png",149.5,183 S,0,8443,,0.5 F,19,8531,8831,0,1 F,0,11266,22560,1 F,0,22560,25384,1,0
Sprite,Background,Centre,"sb/w/8443\0052.png",167,183 S,0,8443,,0.5 F,19,8563,8863,0,1 F,0,11266,22560,1 F,0,22560,25384,1,0
Sprite,Background,Centre,"sb/w/8443\0065.png",182,183 S,0,8443,,0.5 F,19,8600,8900,0,1 F,0,11266,22560,1 F,0,22560,25384,1,0
Sprite,Background,Centre,"sb/w/8443\0061.png",195.5,183 S,0,8443,,0.5 F,19,8642,8942,0,1 F,0,11266,22560,1 F,0,22560,25384,1,0
Sprite,Background,Centre,"sb/w/8443\006c.png",209,183 S,0,8443,,0.5 F,19,8689,8989,0,1 F,0,11266,22560,1 F,0,22560,25384,1,0
Sprite,Background,Centre,"sb/w/8443\0061.png",222.5,183 S,0,8443,,0.5 F,19,8741,9041,0,1 F,0,11266,22560,1 F,0,22560,25384,1,0
Sprite,Background,Centre,"sb/w/8443\007a.png",235.25,183 S,0,8443,,0.5 F,19,8798,9098,0,1 F,0,11266,22560,1 F,0,22560,25384,1,0
Sprite,Background,Centre,"sb/w/8443\0079.png",249.5,183 S,0,8443,,0.5 F,19,8860,9160,0,1 F,0,11266,22560,1 F,0,22560,25384,1,0
Sprite,Background,Centre,"sb/pixel.png",0,0 F,0,8443,,1 V,0,8443,,12,15 MY,0,8443,,181 MX,19,8443,9343,57,263 F,0,9343,9696,0 F,0,9696,10049,1 F,0,10049,10402,0 F,0,10402,10755,1 F,0,10755,11108,0 F,0,11108,11461,1
Sprite,Background,Centre,"sb/w/11266\0044.png",64.5,233 S,0,11266,,0.5 F,19,11267,11567,0,1 F,0,14090,22560,1 F,0,22560,25384,1,0
Sprite,Background,Centre,"sb/w/11266\0069.png",74,233 S,0,11266,,0.5 F,19,11269,11569,0,1 F,0,14090,22560,1 F,0,22560,25384,1,0
Sprite,Background,Centre,"sb/w/11266\0066.png",83.5,233 S,0,11266,,0.5 F,19,11276,11576,0,1 F,0,14090,22560,1 F,0,22560,25384,1,0
Sprite,Background,Centre,"sb/w/11266\0066.png",98.5,233 S,0,11266,,0.5 F,19,11288,11588,0,1 F,0,14090,22560,1 F,0,22560,25384,1,0
Sprite,Background,Centre,"sb/w/11266\0069.png",108,233 S,0,11266,,0.5 F,19,11305,11605,0,1 F,0,14090,22560,1 F,0,22560,25384,1,0
Sprite,Background,Centre,"sb/w/11266\0063.png",117.5,233 S,0,11266,,0.5 F,19,11327,11627,0,1 F,0,14090,22560,1 F,0,22560,25384,1,0
Sprite,Background,Centre,"sb/w/11266\0075.png",132.5,233 S,0,11266,,0.5 F,19,11354,11654,0,1 F,0,14090,22560,1 F,0,22560,25384,1,0
Sprite,Background,Centre,"sb/w/11266\006c.png",147.5,233 S,0,11266,,0.5 F,19,11386,11686,0,1 F,0,14090,22560,1 F,0,22560,25384,1,0
Sprite,Background,Centre,"sb/w/11266\0074.png",162.5,233 S,0,11266,,0.5 F,19,11423,11723,0,1 F,0,14090,22560,1 F,0,22560,25384,1,0
Sprite,Background,Centre,"sb/w/11266\0079.png",177.5,233 S,0,11266,,0.5 F,19,11465,11765,0,1 F,0,14090,22560,1 F,0,22560,25384,1,0
Sprite,Background,Centre,"sb/w/11266\003a.png",188,233 S,0,11266,,0.5 F,19,11512,11812,0,1 F,0,14090,22560,1 F,0,22560,25384,1,0
Sprite,Background,Centre,"sb/pixel.png",0,0 F,0,11266,,1 V,0,11266,,12,15 MY,0,11266,,231 MX,19,11266,11926,57,197 F,0,11926,12279,0 F,0,12279,12632,1 F,0,12632,12985,0 F,0,12985,13338,1 F,0,13338,13691,0 F,0,13691,14044,1
Sprite,Background,Centre,"sb/w/14090\004b.png",63.75,258 S,0,14090,,0.5 F,19,14091,14391,0,1 F,0,16913,22560,1 F,0,22560,25384,1,0
Sprite,Background,Centre,"sb/w/14090\0061.png",76.5,258 S,0,14090,,0.5 F,19,14093,14393,0,1 F,0,16913,22560,1 F,0,22560,25384,1,0
Sprite,Background,Centre,"sb/w/14090\006c.png",90,258 S,0,14090,,0.5 F,19,14100,14400,0,1 F,0,16913,22560,1 F,0,22560,25384,1,0
Sprite,Background,Centre,"sb/w/14090\0069.png",99.5,258 S,0,14090,,0.5 F,19,14112,14412,0,1 F,0,16913,22560,1 F,0,22560,25384,1,0
Sprite,Background,Centre,"sb/w/14090\0062.png",109,258 S,0,14090,,0.5 F,19,14129,14429,0,1 F,0,16913,22560,1 F,0,22560,25384,1,0
Sprite,Background,Centre,"sb/w/14090\0065.png",124,258 S,0,14090,,0.5 F,19,14151,14451,0,1 F,0,16913,22560,1 F,0,22560,25384,1,0
Sprite,Background,Centre,"sb/w/14090\0027.png",133.75,258 S,0,14090,,0.5 F,19,14178,14478,0,1 F,0,16913,22560,1 F,0,22560,25384,1,0
Sprite,Background,Centre,"sb/w/14090\0073.png",143.5,258 S,0,14090,,0.5 F,19,14210,14510,0,1 F,0,16913,22560,1 F,0,22560,25384,1,0
Sprite,Background,Centre,"sb/w/14090\004e.png",166,258 S,0,14090,,0.5 F,19,14247,14547,0,1 F,0,16913,22560,1 F,0,22560,25384,1,0
Sprite,Background,Centre,"sb/w/14090\006f.png",181.5,258 S,0,14090,,0.5 F,19,14289,14589,0,1 F,0,16913,22560,1 F,0,22560,25384,1,0
Sprite,Background,Centre,"sb/w/14090\0072.png",196.5,258 S,0,14090,,0.5 F,19,14336,14636,0,1 F,0,16913,22560,1 F,0,22560,25384,1,0
Sprite,Background,Centre,"sb/w/14090\006d.png",212.75,258 S,0,14090,,0.5 F,19,14388,14688,0,1 F,0,16913,22560,1 F,0,22560,25384,1,0
Sprite,Background,Centre,"sb/w/14090\0061.png",227.5,258 S,0,14090,,0.5 F,19,14445,14745,0,1 F,0,16913,22560,1 F,0,22560,25384,1,0
Sprite,Background,Centre,"sb/w/14090\006c.png",241,258 S,0,14090,,0.5 F,19,14507,14807,0,1 F,0,16913,22560,1 F,0,22560,25384,1,0
Sprite,Background,Centre,"sb/pixel.png",0,0 F,0,14090,,1 V,0,14090,,12,15 MY,0,14090,,256 MX,19,14090,14990,57,254.5 F,0,14990,15343,0 F,0,15343,15696,1 F,0,15696,16049,0 F,0,16049,16402,1 F,0,16402,16755,0 F,0,16755,17108,1
Sprite,Background,Centre,"sb/w/16913\0053.png",64.5,308 S,0,16913,,0.5 F,19,16914,17214,0,1 F,0,19737,22560,1 F,0,22560,25384,1,0
Sprite,Background,Centre,"sb/w/16913\0074.png",79.5,308 S,0,16913,,0.5 F,19,16916,17216,0,1 F,0,19737,22560,1 F,0,22560,25384,1,0
Sprite,Background,Centre,"sb/w/16913\006f.png",94.5,308 S,0,16913,,0.5 F,19,16923,17223,0,1 F,0,19737,22560,1 F,0,22560,25384,1,0
Sprite,Background,Centre,"sb/w/16913\0072.png",109.5,308 S,0,16913,,0.5 F,19,16935,17235,0,1 F,0,19737,22560,1 F,0,22560,25384,1,0
Sprite,Background,Centre,"sb/w/16913\0079.png",124.5,308 S,0,16913,,0.5 F,19,16952,17252,0,1 F,0,19737,22560,1 F,0,22560,25384,1,0
Sprite,Background,Centre,"sb/w/16913\0062.png",139.5,308 S,0,16913,,0.5 F,19,16974,17274,0,1 F,0,19737,22560,1 F,0,22560,25384,1,0
Sprite,Background,Centre,"sb/w/16913\006f.png",154.5,308 S,0,16913,,0.5 F,19,17001,17301,0,1 F,0,19737,22560,1 F,0,22560,25384,1,0
Sprite,Background,Centre,"sb/w/16913\0061.png",168,308 S,0,16913,,0.5 F,19,17033,17333,0,1 F,0,19737,22560,1 F,0,22560,25384,1,0
Sprite,Background,Centre,"sb/w/16913\0072.png",181.5,308 S,0,16913,,0.5 F,19,17070,17370,0,1 F,0,19737,22560,1 F,0,22560,25384,1,0
Sprite,Background,Centre,"sb/w/16913\0064.png",196.5,308 S,0,16913,,0.5 F,19,17112,17412,0,1 F,0,19737,22560,1 F,0,22560,25384,1,0
Sprite,Background,Centre,"sb/w/16913\003a.png",207,308 S,0,16913,,0.5 F,19,17159,17459,0,1 F,0,19737,22560,1 F,0,22560,25384,1,0
Sprite,Background,Centre,"sb/pixel.png",0,0 F,0,16913,,1 V,0,16913,,12,15 MY,0,16913,,306 MX,19,16913,17573,57,216 F,0,17573,17926,0 F,0,17926,18279,1 F,0,18279,18632,0 F,0,18632,18985,1 F,0,18985,19338,0 F,0,19338,19691,1
Sprite,Background,Centre,"sb/w/19737\0045.png",64.5,333 S,0,19737,,0.5 F,19,19738,20038,0,1 F,0,22560,,1 F,0,22560,25384,1,0
Sprite,Background,Centre,"sb/w/19737\006e.png",80,333 S,0,19737,,0.5 F,19,19740,20040,0,1 F,0,22560,,1 F,0,22560,25384,1,0
Sprite,Background,Centre,"sb/w/19737\006b.png",94.75,333 S,0,19737,,0.5 F,19,19747,20047,0,1 F,0,22560,,1 F,0,22560,25384,1,0
Sprite,Background,Centre,"sb/w/19737\0072.png",109,333 S,0,19737,,0.5 F,19,19759,20059,0,1 F,0,22560,,1 F,0,22560,25384,1,0
Sprite,Background,Centre,"sb/w/19737\0079.png",124,333 S,0,19737,,0.5 F,19,19776,20076,0,1 F,0,22560,,1 F,0,22560,25384,1,0
Sprite,Background,Centre,"sb/w/19737\0070.png",139,333 S,0,19737,,0.5 F,19,19798,20098,0,1 F,0,22560,,1 F,0,22560,25384,1,0
Sprite,Background,Centre,"sb/w/19737\0074.png",154,333 S,0,19737,,0.5 F,19,19825,20125,0,1 F,0,22560,,1 F,0,22560,25384,1,0
Sprite,Background,Centre,"sb/w/19737\006f.png",169,333 S,0,19737,,0.5 F,19,19857,20157,0,1 F,0,22560,,1 F,0,22560,25384,1,0
Sprite,Background,Centre,"sb/w/19737\006e.png",184.5,333 S,0,19737,,0.5 F,19,19894,20194,0,1 F,0,22560,,1 F,0,22560,25384,1,0
Sprite,Background,Centre,"sb/pixel.png",0,0 F,0,19737,,1 V,0,19737,,12,15 MY,0,19737,,331 MX,19,19737,20277,57,198.5 F,0,20277,20630,0 F,0,20630,20983,1 F,0,20983,21336,0 F,0,21336,21689,1 F,0,21689,22042,0 F,0,22042,22395,1
Sprite,Background,Centre,"sb/w/208913\0054.png",160,251.5 S,0,208913,,0.5 F,19,208914,209214,0,1 F,0,211737,212089,1,0
Sprite,Background,Centre,"sb/w/208913\0068.png",181.5,251.5 S,0,208913,,0.5 F,19,208916,209216,0,1 F,0,211737,212089,1,0
Sprite,Background,Centre,"sb/w/208913\0061.png",201,251.5 S,0,208913,,0.5 F,19,208923,209223,0,1 F,0,211737,212089,1,0
Sprite,Background,Centre,"sb/w/208913\006e.png",221.25,251.5 S,0,208913,,0.5 F,19,208935,209235,0,1 F,0,211737,212089,1,0
Sprite,Background,Centre,"sb/w/208913\006b.png",242.5,251.5 S,0,208913,,0.5 F,19,208952,209252,0,1 F,0,211737,212089,1,0
Sprite,Background,Centre,"sb/w/208913\0073.png",263,251.5 S,0,208913,,0.5 F,19,208974,209274,0,1 F,0,211737,212089,1,0
Sprite,Background,Centre,"sb/w/208913\0066.png",294.5,251.5 S,0,208913,,0.5 F,19,209001,209301,0,1 F,0,211737,212089,1,0
Sprite,Background,Centre,"sb/w/208913\006f.png",316,251.5 S,0,208913,,0.5 F,19,209033,209333,0,1 F,0,211737,212089,1,0
Sprite,Background,Centre,"sb/w/208913\0072.png",337.5,251.5 S,0,208913,,0.5 F,19,209070,209370,0,1 F,0,211737,212089,1,0
Sprite,Background,Centre,"sb/w/208913\0050.png",369,251.5 S,0,208913,,0.5 F,19,209112,209412,0,1 F,0,211737,212089,1,0
Sprite,Background,Centre,"sb/w/208913\006c.png",390.5,251.5 S,0,208913,,0.5 F,19,209159,209459,0,1 F,0,211737,212089,1,0
Sprite,Background,Centre,"sb/w/208913\0061.png",410,251.5 S,0,208913,,0.5 F,19,209211,209511,0,1 F,0,211737,212089,1,0
Sprite,Background,Centre,"sb/w/208913\0079.png",429.5,251.5 S,0,208913,,0.5 F,19,209268,209568,0,1 F,0,211737,212089,1,0
Sprite,Background,Centre,"sb/w/208913\0069.png",443.25,251.5 S,0,208913,,0.5 F,19,209330,209630,0,1 F,0,211737,212089,1,0
Sprite,Background,Centre,"sb/w/208913\006e.png",457.75,251.5 S,0,208913,,0.5 F,19,209397,209697,0,1 F,0,211737,212089,1,0
Sprite,Background,Centre,"sb/w/208913\0067.png",480,251.5 S,0,208913,,0.5 F,19,209469,209769,0,1 F,0,211737,212089,1,0
Sprite,Background,Centre,"sb/pixel.png",0,0 F,0,208913,,1 V,0,208913,,12,21 MY,0,208913,,249 MX,19,208913,209993,149.25,496.75 F,0,209993,210346,0 F,0,210346,210699,1 F,0,210699,211052,0 F,0,211052,211405,1
Sprite,Background,Centre,"sb/star.png",0,0 M,16,36678,39404,320,240,348.7015,-12.37318 F,0,36678,39404,1,0 S,0,36678,39404,0,0.05
Sprite,Background,Centre,"sb/star.png",0,0 M,16,36728,39286,320,240,225.8344,203.4783 F,0,36728,39286,1,0 S,0,36728,39286,0,0.05
Sprite,Background,Centre,"sb/star.png",0,0 M,16,36778,39684,320,240,478.4108,217.5053 F,0,36778,39684,1,0 S,0,36778,39684,0,0.05
Sprite,Background,Centre,"sb/star.png",0,0 M,16,36828,39101,320,240,200.5637,264.8791 F,0,36828,39101,1,0 S,0,36828,39101,0,0.05
Sprite,Background,Centre,"sb/star.png",0,0 M,16,36878,39510,320,240,485.9509,221.3107 F,0,36878,39510,1,0 S,0,36878,39510,0,0.05
Sprite,Background,Centre,"sb/star.png",0,0 M,16,36928,38958,320,240,584.8868,232.2538 F,0,36928,38958,1,0 S,0,36928,38958,0,0.05
Sprite,Background,Centre,"sb/star.png",0,0 M,16,36978,39655,320,240,372.2395,123.1452 F,0,36978,39655,1,0 S,0,36978,39655,0,0.05
Sprite,Background,Centre,"sb/star.png",0,0 M,16,37028,39876,320,240,610.7817,300.4566 F,0,37028,39876,1,0 S,0,37028,39876,0,0.05
Sprite,Background,Centre,"sb/star.png",0,0 M,16,37078,39777,320,240,485.6672,167.0934 F,0,37078,39777,1,0 S,0,37078,39777,0,0.05
Sprite,Background,Centre,"sb/star.png",0,0 M,16,37128,39815,320,240,482.3642,330.7407 F,0,37128,39815,1,0 S,0,37128,39815,0,0.05
Sprite,Background,Centre,"sb/star.png",0,0 M,16,37178,39365,320,240,272.3927,395.8927 F,0,37178,39365,1,0 S,0,37178,39365,0,0.05
Sprite,Background,Centre,"sb/star.png",0,0 M,16,37228,40216,320,240,337.0862,30.69624 F,0,37228,40216,1,0 S,0,37228,40216,0,0.05
Sprite,Background,Centre,"sb/star.png",0,0 M,16,37278,39308,320,240,239.9036,360.87 F,0,37278,39308,1,0 S,0,37278,39308,0,0.05
Sprite,Background,Centre,"sb/star.png",0,0 M,16,37328,40285,320,240,282.657,68.00726 F,0,37328,40285,1,0 S,0,37328,40285,0,0.05
Sprite,Background,Centre,"sb/star.png",0,0 M,16,37378,39496,320,240,418.4613,174.9664 F,0,37378,39496,1,0 S,0,37378,39496,0,0.05
Sprite,Background,Centre,"sb/star.png",0,0 M,16,37428,40222,320,240,190.8142,275.5954 F,0,37428,40222,1,0 S,0,37428,40222,0,0.05
Sprite,Background,Centre,"sb/star.png",0,0 M,16,37478,39624,320,240,231.3197,296.221 F,0,37478,39624,1,0 S,0,37478,39624,0,0.05
Sprite,Background,Centre,"sb/star.png",0,0 M,16,37528,40246,320,240,116.5827,255.4075 F,0,37528,40246,1,0 S,0,37528,40246,0,0.05
Sprite,Background,Centre,"sb/star.png",0,0 M,16,37578,39772,320,240,442.7603,0.6448114 F,0,37578,39772,1,0 S,0,37578,39772,0,0.05
Sprite,Background,Centre,"sb/star.png",0,0 M,16,37628,40363,320,240,207.2177,1.30322 F,0,37628,40363,1,0 S,0,37628,40363,0,0.05
Sprite,Background,Centre,"sb/star.png",0,0 M,16,37678,40302,320,240,402.3211,176.445 F,0,37678,40302,1,0 S,0,37678,40302,0,0.05
Sprite,Background,Centre,"sb/star.png",0,0 M,16,37728,40624,320,240,357.507,179.7155 F,0,37728,40624,1,0 S,0,37728,40624,0,0.05
Sprite,Background,Centre,"sb/star.png",0,0 M,16,37778,39948,320,240,417.929,53.10187 F,0,37778,39948,1,0 S,0,37778,39948,0,0.05
Sprite,Background,Centre,"sb/star.png",0,0 M,16,37828,40047,320,240,23.04707,274.9279 F,0,37828,40047,1,0 S,0,37828,40047,0,0.05
Sprite,Background,Centre,"sb/star.png",0,0 M,16,37878,40530,320,240,403.5811,26.79774 F,0,37878,40530,1,0 S,0,37878,40530,0,0.05
Sprite,Background,Centre,"sb/star.png",0,0 M,16,37928,40028,320,240,274.3112,12.54333 F,0,37928,40028,1,0 S,0,37928,40028,0,0.05
Sprite,Background,Centre,"sb/star.png",0,0 M,16,37978,40103,320,240,423.0136,496.0551 F,0,37978,40103,1,0 S,0,37978,40103,0,0.05
Sprite,Background,Centre,"sb/star.png",0,0 M,16,38028,40504,320,240,235.4936,404.5712 F,0,38028,40504,1,0 S,0,38028,40504,0,0.05
Sprite,Background,Centre,"sb/star.png",0,0 M,16,38078,40749,320,240,403.6486,95.45965 F,0,38078,40749,1,0 S,0,38078,40749,0,0.05
Sprite,Background,Centre,"sb/star.png",0,0 M,16,38128,40937,320,240,342.5724,-6.970621 F,0,38128,40937,1,0 S,0,38128,40937,0,0.05
Sprite,Background,Centre,"sb/star.png",0,0 M,16,38178,41115,320,240,198.2583,222.4509 F,0,38178,41115,1,0 S,0,38178,41115,0,0.05
Sprite,Background,Centre,"sb/star.png",0,0 M,16,38228,40891,320,240,289.584,369.4753 F,0,38228,40891,1,0 S,0,38228,40891,0,0.05
Sprite,Background,Centre,"sb/star.png",0,0 M,16,38278,41098,320,240,360.5645,336.8479 F,0,38278,41098,1,0 S,0,38278,41098,0,0.05
Sprite,Background,Centre,"sb/star.png",0,0 M,16,38328,40396,320,240,247.8445,47.05029 F,0,38328,40396,1,0 S,0,38328,40396,0,0.05
Sprite,Background,Centre,"sb/star.png",0,0 M,16,38378,41008,320,240,370.3248,516.4569 F,0,38378,41008,1,0 S,0,38378,41008,0,0.05
Sprite,Background,Centre,"sb/star.png",0,0 M,16,38428,41356,320,240,373.4205,201.2412 F,0,38428,41356,1,0 S,0,38428,41356,0,0.05
Sprite,Background,Centre,"sb/star.png",0,0 M,16,38478,41156,320,240,363.2426,298.814 F,0,38478,41156,1,0 S,0,38478,41156,0,0.05
Sprite,Background,Centre,"sb/star.png",0,0 M,16,38528,40634,320,240,513.2717,181.2627 F,0,38528,40634,1,0 S,0,38528,40634,0,0.05
Sprite,Background,Centre,"sb/star.png",0,0 M,16,38578,41068,320,240,281.7801,161.8448 F,0,38578,41068,1,0 S,0,38578,41068,0,0.05
Sprite,Background,Centre,"sb/star.png",0,0 M,16,38628,41197,320,240,241.9056,168.3253 F,0,38628,41197,1,0 S,0,38628,41197,0,0.05
Sprite,Background,Centre,"sb/star.png",0,0 M,16,38678,40683,320,240,402.6347,126.9889 F,0,38678,40683,1,0 S,0,38678,40683,0,0.05
Sprite,Background,Centre,"sb/star.png",0,0 M,16,38728,40790,320,240,286.5036,124.7698 F,0,38728,40790,1,0 S,0,38728,40790,0,0.05
Sprite,Background,Centre,"sb/star.png",0,0 M,16,38778,41736,320,240,94.60001,433.4007 F,0,38778,41736,1,0 S,0,38778,41736,0,0.05
Sprite,Background,Centre,"sb/star.png",0,0 M,16,38828,41350,320,240,200.1024,235.0431 F,0,38828,41350,1,0 S,0,38828,41350,0,0.05
Sprite,Background,Centre,"sb/star.png",0,0 M,16,38878,41409,320,240,307.789,302.8243 F,0,38878,41409,1,0 S,0,38878,41409,0,0.05
Sprite,Background,Centre,"sb/star.png",0,0 M,16,38928,41424,320,240,122.2364,69.67515 F,0,38928,41424,1,0 S,0,38928,41424,0,0.05
Sprite,Background,Centre,"sb/star.png",0,0 M,16,38978,41082,320,240,128.266,375.8788 F,0,38978,41082,1,0 S,0,38978,41082,0,0.05
Sprite,Background,Centre,"sb/star.png",0,0 M,16,39028,41961,320,240,294.4903,162.0689 F,0,39028,41961,1,0 S,0,39028,41961,0,0.05
Sprite,Background,Centre,"sb/star.png",0,0 M,16,39078,41693,320,240,218.1206,4.055973 F,0,39078,41693,1,0 S,0,39078,41693,0,0.05
Sprite,Background,Centre,"sb/star.png",0,0 M,16,39128,41697,320,240,357.1852,325.2424 F,0,39128,41697,1,0 S,0,39128,41697,0,0.05
Sprite,Background,Centre,"sb/star.png",0,0 M,16,39178,41787,320,240,431.9816,237.9697 F,0,39178,41787,1,0 S,0,39178,41787,0,0.05
Sprite,Background,Centre,"sb/star.png",0,0 M,16,39228,41796,320,240,314.4183,304.7599 F,0,39228,41796,1,0 S,0,39228,41796,0,0.05
Sprite,Background,Centre,"sb/star.png",0,0 M,16,39278,42120,320,240,203.2679,87.5611 F,0,39278,42120,1,0 S,0,39278,42120,0,0.05
Sprite,Background,Centre,"sb/star.png",0,0 M,16,39328,41844,320,240,577.8798,376.9746 F,0,39328,41844,1,0 S,0,39328,41844,0,0.05
Sprite,Background,Centre,"sb/star.png",0,0 M,16,39378,41890,320,240,354.2641,158.9446 F,0,39378,41890,1,0 S,0,39378,41890,0,0.05
Sprite,Background,Centre,"sb/star.png",0,0 M,16,39428,42070,320,240,137.5481,177.069 F,0,39428,42070,1,0 S,0,39428,42070,0,0.05
Sprite,Background,Centre,"sb/star.png",0,0 M,16,39478,42150,320,240,224.9961,522.4504 F,0,39478,42150,1,0 S,0,39478,42150,0,0.05
Sprite,Background,Centre,"sb/star.png",0,0 M,16,39528,41592,320,240,154.9379,257.6206 F,0,39528,41592,1,0 S,0,39528,41592,0,0.05
Sprite,Background,Centre,"sb/star.png",0,0 M,16,39578,41794,320,240,328.2968,306.4843 F,0,39578,41794,1,0 S,0,39578,41794,0,0.05
Sprite,Background,Centre,"sb/star.png",0,0 M,16,39628,41778,320,240,166.546,288.7122 F,0,39628,41778,1,0 S,0,39628,41778,0,0.05
Sprite,Background,Centre,"sb/star.png",0,0 M,16,39678,41697,320,240,379.2651,105.4762 F,0,39678,41697,1,0 S,0,39678,41697,0,0.05
Sprite,Background,Centre,"sb/star.png",0,0 M,16,39728,41930,320,240,593.2133,291.366 F,0,39728,41930,1,0 S,0,39728,41930,0,0.05
Sprite,Background,Centre,"sb/star.png",0,0 M,16,39778,42287,320,240,609.7635,228.2901 F,0,39778,42287,1,0 S,0,39778,42287,0,0.05
Sprite,Background,Centre,"sb/star.png",0,0 M,16,39828,41844,320,240,282.2859,449.6346 F,0,39828,41844,1,0 S,0,39828,41844,0,0.05
Sprite,Background,Centre,"sb/star.png",0,0 M,16,39878,42845,320,240,347.253,45.90395 F,0,39878,42845,1,0 S,0,39878,42845,0,0.05
Sprite,Background,Centre,"sb/star.png",0,0 M,16,39928,42252,320,240,473.0815,215.6882 F,0,39928,42252,1,0 S,0,39928,42252,0,0.05
Sprite,Background,Centre,"sb/star.png",0,0 M,16,39978,42863,320,240,310.4756,532.8452 F,0,39978,42863,1,0 S,0,39978,42863,0,0.05
Sprite,Background,Centre,"sb/star.png",0,0 M,16,40028,42160,320,240,439.4271,486.6032 F,0,40028,42160,1,0 S,0,40028,42160,0,0.05
Sprite,Background,Centre,"sb/star.png",0,0 M,16,40078,42960,320,240,360.6263,58.49102 F,0,40078,42960,1,0 S,0,40078,42960,0,0.05
Sprite,Background,Centre,"sb/star.png",0,0 M,16,40128,42642,320,240,457.8145,232.8472 F,0,40128,42642,1,0 S,0,40128,42642,0,0.05
Sprite,Background,Centre,"sb/star.png",0,0 M,16,40178,42211,320,240,480.694,393.1713 F,0,40178,42211,1,0 S,0,40178,42211,0,0.05
Sprite,Background,Centre,"sb/star.png",0,0 M,16,40228,42422,320,240,168.2068,154.9423 F,0,40228,42422,1,0 S,0,40228,42422,0,0.05
Sprite,Background,Centre,"sb/star.png",0,0 M,16,40278,42539,320,240,326.2726,366.845 F,0,40278,42539,1,0 S,0,40278,42539,0,0.05
Sprite,Background,Centre,"sb/star.png",0,0 M,16,40328,43112,320,240,256.8876,186.0943 F,0,40328,43112,1,0 S,0,40328,43112,0,0.05
Sprite,Background,Centre,"sb/star.png",0,0 M,16,40378,42937,320,240,204.7099,419.1011 F,0,40378,42937,1,0 S,0,40378,42937,0,0.05
Sprite,Background,Centre,"sb/star.png",0,0 M,16,40428,42451,320,240,373.274,188.6397 F,0,40428,42451,1,0 S,0,40428,42451,0,0.05
Sprite,Background,Centre,"sb/star.png",0,0 M,16,40478,43188,320,240,161.2942,17.87059 F,0,40478,43188,1,0 S,0,40478,43188,0,0.05
Sprite,Background,Centre,"sb/star.png",0,0 M,16,40528,42783,320,240,205.5429,258.8568 F,0,40528,42783,1,0 S,0,40528,42783,0,0.05
Sprite,Background,Centre,"sb/star.png",0,0 M,16,40578,42773,320,240,49.37875,254.3226 F,0,40578,42773,1,0 S,0,40578,42773,0,0.05
Sprite,Background,Centre,"sb/star.png",0,0 M,16,40628,43265,320,240,232.3026,334.6053 F,0,40628,43265,1,0 S,0,40628,43265,0,0.05
Sprite,Background,Centre,"sb/star.png",0,0 M,16,40678,42922,320,240,90.99233,49.31836 F,0,40678,42922,1,0 S,0,40678,42922,0,0.05
Sprite,Background,Centre,"sb/star.png",0,0 M,16,40728,42729,320,240,606.5396,169.8569 F,0,40728,42729,1,0 S,0,40728,42729,0,0.05
Sprite,Background,Centre,"sb/star.png",0,0 M,16,40778,42935,320,240,524.1215,371.8463 F,0,40778,42935,1,0 S,0,40778,42935,0,0.05
Sprite,Background,Centre,"sb/star.png",0,0 M,16,40828,43018,320,240,370.0672,281.4521 F,0,40828,43018,1,0 S,0,40828,43018,0,0.05
Sprite,Background,Centre,"sb/star.png",0,0 M,16,40878,43610,320,240,360.1183,176.6318 F,0,40878,43610,1,0 S,0,40878,43610,0,0.05
Sprite,Background,Centre,"sb/star.png",0,0 M,16,40928,43570,320,240,330.1404,432.7334 F,0,40928,43570,1,0 S,0,40928,43570,0,0.05
Sprite,Background,Centre,"sb/star.png",0,0 M,16,40978,43815,320,240,70.3027,325.7162 F,0,40978,43815,1,0 S,0,40978,43815,0,0.05
Sprite,Background,Centre,"sb/star.png",0,0 M,16,41028,43935,320,240,77.75902,301.8005 F,0,41028,43935,1,0 S,0,41028,43935,0,0.05
Sprite,Background,Centre,"sb/star.png",0,0 M,16,41078,43418,320,240,101.2913,348.1782 F,0,41078,43418,1,0 S,0,41078,43418,0,0.05
Sprite,Background,Centre,"sb/star.png",0,0 M,16,41128,43775,320,240,88.34302,50.96021 F,0,41128,43775,1,0 S,0,41128,43775,0,0.05
Sprite,Background,Centre,"sb/star.png",0,0 M,16,41178,43267,320,240,524.6464,227.9649 F,0,41178,43267,1,0 S,0,41178,43267,0,0.05
Sprite,Background,Centre,"sb/star.png",0,0 M,16,41228,44101,320,240,439.3759,380.0193 F,0,41228,44101,1,0 S,0,41228,44101,0,0.05
Sprite,Background,Centre,"sb/star.png",0,0 M,16,41278,43279,320,240,231.2387,73.1395 F,0,41278,43279,1,0 S,0,41278,43279,0,0.05
Sprite,Background,Centre,"sb/star.png",0,0 M,16,41328,43707,320,240,199.1954,476.9858 F,0,41328,43707,1,0 S,0,41328,43707,0,0.05
Sprite,Background,Centre,"sb/star.png",0,0 M,16,41378,44164,320,240,405.8754,82.94456 F,0,41378,44164,1,0 S,0,41378,44164,0,0.05
Sprite,Background,Centre,"sb/star.png",0,0 M,16,41428,43969,320,240,413.6548,393.7165 F,0,41428,43969,1,0 S,0,41428,43969,0,0.05
Sprite,Background,Centre,"sb/star.png",0,0 M,16,41478,44112,320,240,245.7592,412.7203 F,0,41478,44112,1,0 S,0,41478,44112,0,0.05
Sprite,Background,Centre,"sb/star.png",0,0 M,16,41528,43777,320,240,77.80294,301.9724 F,0,41528,43777,1,0 S,0,41528,43777,0,0.05
Sprite,Background,Centre,"sb/star.png",0,0 M,16,41578,44499,320,240,367.5607,365.2756 F,0,41578,44499,1,0 S,0,41578,44499,0,0.05
Sprite,Background,Centre,"sb/star.png",0,0 M,16,41628,43778,320,240,379.6049,446.5726 F,0,41628,43778,1,0 S,0,41628,43778,0,0.05
Sprite,Background,Centre,"sb/star.png",0,0 M,16,41678,44212,320,240,345.7662,64.88545 F,0,41678,44212,1,0 S,0,41678,44212,0,0.05
Sprite,Background,Centre,"sb/star.png",0,0 M,16,41728,44210,320,240,250.5014,268.1947 F,0,41728,44210,1,0 S,0,41728,44210,0,0.05
Sprite,Background,Centre,"sb/star.png",0,0 M,16,41778,43897,320,240,76.01963,139.1557 F,0,41778,43897,1,0 S,0,41778,43897,0,0.05
Sprite,Background,Centre,"sb/star.png",0,0 M,16,41828,44530,320,240,529.0037,260.4315 F,0,41828,44530,1,0 S,0,41828,44530,0,0.05
Sprite,Background,Centre,"sb/star.png",0,0 M,16,41878,44447,320,240,483.8596,233.2143 F,0,41878,44447,1,0 S,0,41878,44447,0,0.05
Sprite,Background,Centre,"sb/star.png",0,0 M,16,41928,44050,320,240,303.4285,318.2648 F,0,41928,44050,1,0 S,0,41928,44050,0,0.05
Sprite,Background,Centre,"sb/star.png",0,0 M,16,41978,44608,320,240,311.2019,488.8445 F,0,41978,44608,1,0 S,0,41978,44608,0,0.05
Sprite,Background,Centre,"sb/star.png",0,0 M,16,42028,44291,320,240,270.0468,257.7111 F,0,42028,44291,1,0 S,0,42028,44291,0,0.05
Sprite,Background,Centre,"sb/star.png",0,0 M,16,42078,44372,320,240,434.9816,7.921915 F,0,42078,44372,1,0 S,0,42078,44372,0,0.05
Sprite,Background,Centre,"sb/star.png",0,0 M,16,42128,44658,320,240,404.998,514.1247 F,0,42128,44658,1,0 S,0,42128,44658,0,0.05
Sprite,Background,Centre,"sb/star.png",0,0 M,16,42178,45123,320,240,528.1489,80.88365 F,0,42178,45123,1,0 S,0,42178,45123,0,0.05
Sprite,Background,Centre,"sb/star.png",0,0 M,16,42228,44694,320,240,158.4836,445.0206 F,0,42228,44694,1,0 S,0,42228,44694,0,0.05
Sprite,Background,Centre,"sb/star.png",0,0 M,16,42278,44829,320,240,210.0645,301.5645 F,0,42278,44829,1,0 S,0,42278,44829,0,0.05
Sprite,Background,Centre,"sb/star.png",0,0 M,16,42328,44718,320,240,239.3266,107.6489 F,0,42328,44718,1,0 S,0,42328,44718,0,0.05
Sprite,Background,Centre,"sb/star.png",0,0 M,16,42378,44978,320,240,560.5009,92.74748 F,0,42378,44978,1,0 S,0,42378,44978,0,0.05
Sprite,Background,Centre,"sb/star.png",0,0 M,16,42428,44727,320,240,199.0147,423.7459 F,0,42428,44727,1,0 S,0,42428,44727,0,0.05
Sprite,Background,Centre,"sb/star.png",0,0 M,16,42478,44944,320,240,371.417,483.6335 F,0,42478,44944,1,0 S,0,42478,44944,0,0.05
Sprite,Background,Centre,"sb/star.png",0,0 M,16,42528,45437,320,240,435.8758,103.5676 F,0,42528,45437,1,0 S,0,42528,45437,0,0.05
Sprite,Background,Centre,"sb/star.png",0,0 M,16,42578,45527,320,240,203.021,242.2186 F,0,42578,45527,1,0 S,0,42578,45527,0,0.05
Sprite,Background,Centre,"sb/star.png",0,0 M,16,42628,44955,320,240,313.0256,336.7489 F,0,42628,44955,1,0 S,0,42628,44955,0,0.05
Sprite,Background,Centre,"sb/star.png",0,0 M,16,42678,45293,320,240,485.0402,132.4326 F,0,42678,45293,1,0 S,0,42678,45293,0,0.05
Sprite,Background,Centre,"sb/star.png",0,0 M,16,42728,45088,320,240,377.8899,8.116925 F,0,42728,45088,1,0 S,0,42728,45088,0,0.05
Sprite,Background,Centre,"sb/star.png",0,0 M,16,42778,44897,320,240,263.3128,190.8923 F,0,42778,44897,1,0 S,0,42778,44897,0,0.05
Sprite,Background,Centre,"sb/star.png",0,0 M,16,42828,45465,320,240,397.5881,64.37514 F,0,42828,45465,1,0 S,0,42828,45465,0,0.05
Sprite,Background,Centre,"sb/star.png",0,0 M,16,42878,45742,320,240,241.7293,315.8597 F,0,42878,45742,1,0 S,0,42878,45742,0,0.05
Sprite,Background,Centre,"sb/star.png",0,0 M,16,42928,45520,320,240,507.7575,344.7479 F,0,42928,45520,1,0 S,0,42928,45520,0,0.05
Sprite,Background,Centre,"sb/star.png",0,0 M,16,42978,45511,320,240,480.8678,490.8497 F,0,42978,45511,1,0 S,0,42978,45511,0,0.05
Sprite,Background,Centre,"sb/star.png",0,0 M,16,43028,45508,320,240,357.4405,293.1339 F,0,43028,45508,1,0 S,0,43028,45508,0,0.05
Sprite,Background,Centre,"sb/star.png",0,0 M,16,43078,46063,320,240,290.9026,291.3259 F,0,43078,46063,1,0 S,0,43078,46063,0,0.05
Sprite,Background,Centre,"sb/star.png",0,0 M,16,43128,45162,320,240,159.715,160.3149 F,0,43128,45162,1,0 S,0,43128,45162,0,0.05
Sprite,Background,Centre,"sb/star.png",0,0 M,16,43178,46037,320,240,398.9499,310.7313 F,0,43178,46037,1,0 S,0,43178,46037,0,0.05
Sprite,Background,Centre,"sb/star.png",0,0 M,16,43228,45385,320,240,440.9259,29.2254 F,0,43228,45385,1,0 S,0,43228,45385,0,0.05
Sprite,Background,Centre,"sb/star.png",0,0 M,16,43278,46032,320,240,369.8179,338.0723 F,0,43278,46032,1,0 S,0,43278,46032,0,0.05
Sprite,Background,Centre,"sb/star.png",0,0 M,16,43328,45451,320,240,237.0559,195.7702 F,0,43328,45451,1,0 S,0,43328,45451,0,0.05
Sprite,Background,Centre,"sb/star.png",0,0 M,16,43378,46107,320,240,354.3019,494.7006 F,0,43378,46107,1,0 S,0,43378,46107,0,0.05
Sprite,Background,Centre,"sb/star.png",0,0 M,16,43428,45828,320,240,308.562,299.918 F,0,43428,45828,1,0 S,0,43428,45828,0,0.05
Sprite,Background,Centre,"sb/star.png",0,0 M,16,43478,45962,320,240,211.496,153.1214 F,0,43478,45962,1,0 S,0,43478,45962,0,0.05
Sprite,Background,Centre,"sb/star.png",0,0 M,16,43528,45943,320,240,407.2244,472.1549 F,0,43528,45943,1,0 S,0,43528,45943,0,0.05
Sprite,Background,Centre,"sb/star.png",0,0 M,16,43578,45680,320,240,238.0293,226.9692 F,0,43578,45680,1,0 S,0,43578,45680,0,0.05
Sprite,Background,Centre,"sb/star.png",0,0 M,16,43628,46383,320,240,293.6086,99.45643 F,0,43628,46383,1,0 S,0,43628,46383,0,0.05
Sprite,Background,Centre,"sb/star.png",0,0 M,16,43678,46134,320,240,258.957,203.7405 F,0,43678,46134,1,0 S,0,43678,46134,0,0.05
Sprite,Background,Centre,"sb/star.png",0,0 M,16,43728,45768,320,240,181.2509,440.7105 F,0,43728,45768,1,0 S,0,43728,45768,0,0.05
Sprite,Background,Centre,"sb/star.png",0,0 M,16,43778,46477,320,240,99.72211,290.5337 F,0,43778,46477,1,0 S,0,43778,46477,0,0.05
Sprite,Background,Centre,"sb/star.png",0,0 M,16,43828,46372,320,240,90.60441,360.2442 F,0,43828,46372,1,0 S,0,43828,46372,0,0.05
Sprite,Background,Centre,"sb/star.png",0,0 M,16,43878,46783,320,240,380.81,100.6941 F,0,43878,46783,1,0 S,0,43878,46783,0,0.05
Sprite,Background,Centre,"sb/star.png",0,0 M,16,43928,46509,320,240,343.3449,475.8474 F,0,43928,46509,1,0 S,0,43928,46509,0,0.05
Sprite,Background,Centre,"sb/star.png",0,0 M,16,43978,46901,320,240,515.7371,229.8508 F,0,43978,46901,1,0 S,0,43978,46901,0,0.05
Sprite,Background,Centre,"sb/star.png",0,0 M,16,44028,46080,320,240,419.8874,398.087 F,0,44028,46080,1,0 S,0,44028,46080,0,0.05
Sprite,Background,Centre,"sb/star.png",0,0 M,16,44078,47043,320,240,175.2147,308.0971 F,0,44078,47043,1,0 S,0,44078,47043,0,0.05
Sprite,Background,Centre,"sb/star.png",0,0 M,16,44128,47051,320,240,280.0286,191.3042 F,0,44128,47051,1,0 S,0,44128,47051,0,0.05
Sprite,Background,Centre,"sb/star.png",0,0 M,16,44178,46485,320,240,518.1726,16.10582 F,0,44178,46485,1,0 S,0,44178,46485,0,0.05
Sprite,Background,Centre,"sb/star.png",0,0 M,16,44228,46682,320,240,499.1125,360.7257 F,0,44228,46682,1,0 S,0,44228,46682,0,0.05
Sprite,Background,Centre,"sb/star.png",0,0 M,16,44278,47270,320,240,530.4766,310.5945 F,0,44278,47270,1,0 S,0,44278,47270,0,0.05
Sprite,Background,Centre,"sb/star.png",0,0 M,16,44328,47210,320,240,202.5203,431.8945 F,0,44328,47210,1,0 S,0,44328,47210,0,0.05
Sprite,Background,Centre,"sb/star.png",0,0 M,16,44378,47193,320,240,38.01728,206.2103 F,0,44378,47193,1,0 S,0,44378,47193,0,0.05
Sprite,Background,Centre,"sb/star.png",0,0 M,16,44428,46612,320,240,187.4652,357.318 F,0,44428,46612,1,0 S,0,44428,46612,0,0.05
Sprite,Background,Centre,"sb/star.png",0,0 M,16,44478,46855,320,240,186.1585,360.3597 F,0,44478,46855,1,0 S,0,44478,46855,0,0.05
Sprite,Background,Centre,"sb/star.png",0,0 M,16,44528,46818,320,240,384.8258,-9.723079 F,0,44528,46818,1,0 S,0,44528,46818,0,0.05
Sprite,Background,Centre,"sb/star.png",0,0 M,16,44578,47306,320,240,172.8112,206.2886 F,0,44578,47306,1,0 S,0,44578,47306,0,0.05
Sprite,Background,Centre,"sb/star.png",0,0 M,16,44628,47052,320,240,285.4683,298.5796 F,0,44628,47052,1,0 S,0,44628,47052,0,0.05
Sprite,Background,Centre,"sb/star.png",0,0 M,16,44678,47594,320,240,179.1538,40.75554 F,0,44678,47594,1,0 S,0,44678,47594,0,0.05
Sprite,Background,Centre,"sb/star.png",0,0 M,16,44728,47551,320,240,377.7652,147.5652 F,0,44728,47551,1,0 S,0,44728,47551,0,0.05
Sprite,Background,Centre,"sb/star.png",0,0 M,16,44778,47335,320,240,312.6931,78.16487 F,0,44778,47335,1,0 S,0,44778,47335,0,0.05
Sprite,Background,Centre,"sb/star.png",0,0 M,16,44828,47549,320,240,501.9504,315.5186 F,0,44828,47549,1,0 S,0,44828,47549,0,0.05
Sprite,Background,Centre,"sb/star.png",0,0 M,16,44878,47060,320,240,364.7087,199.9859 F,0,44878,47060,1,0 S,0,44878,47060,0,0.05
Sprite,Background,Centre,"sb/star.png",0,0 M,16,44928,47582,320,240,235.7995,170.781 F,0,44928,47582,1,0 S,0,44928,47582,0,0.05
Sprite,Background,Centre,"sb/star.png",0,0 M,16,44978,47619,320,240,543.6271,139.9205 F,0,44978,47619,1,0 S,0,44978,47619,0,0.05
Sprite,Background,Centre,"sb/star.png",0,0 M,16,45028,47073,320,240,138.2679,200.3838 F,0,45028,47073,1,0 S,0,45028,47073,0,0.05
Sprite,Background,Centre,"sb/star.png",0,0 M,16,45078,47335,320,240,346.9346,286.8031 F,0,45078,47335,1,0 S,0,45078,47335,0,0.05
Sprite,Background,Centre,"sb/star.png",0,0 M,16,45128,47202,320,240,302.6368,470.3465 F,0,45128,47202,1,0 S,0,45128,47202,0,0.05
Sprite,Background,Centre,"sb/star.png",0,0 M,16,45178,47736,320,240,176.4518,114.0043 F,0,45178,47736,1,0 S,0,45178,47736,0,0.05
Sprite,Background,Centre,"sb/star.png",0,0 M,16,45228,47944,320,240,578.6845,106.7209 F,0,45228,47944,1,0 S,0,45228,47944,0,0.05
Sprite,Background,Centre,"sb/star.png",0,0 M,16,45278,47963,320,240,233.6316,-45.20958 F,0,45278,47963,1,0 S,0,45278,47963,0,0.05
Sprite,Background,Centre,"sb/star.png",0,0 M,16,45328,48008,320,240,511.9403,314.7991 F,0,45328,48008,1,0 S,0,45328,48008,0,0.05
Sprite,Background,Centre,"sb/star.png",0,0 M,16,45378,48019,320,240,514.9388,151.7114 F,0,45378,48019,1,0 S,0,45378,48019,0,0.05
Sprite,Background,Centre,"sb/star.png",0,0 M,16,45428,47748,320,240,339.6038,165.5373 F,0,45428,47748,1,0 S,0,45428,47748,0,0.05
Sprite,Background,Centre,"sb/star.png",0,0 M,16,45478,48384,320,240,353.2657,299.3076 F,0,45478,48384,1,0 S,0,45478,48384,0,0.05
Sprite,Background,Centre,"sb/star.png",0,0 M,16,45528,48454,320,240,255.2907,476.3 F,0,45528,48454,1,0 S,0,45528,48454,0,0.05
Sprite,Background,Centre,"sb/star.png",0,0 M,16,45578,47979,320,240,352.9782,504.9555 F,0,45578,47979,1,0 S,0,45578,47979,0,0.05
Sprite,Background,Centre,"sb/star.png",0,0 M,16,45628,47745,320,240,356.0663,427.5639 F,0,45628,47745,1,0 S,0,45628,47745,0,0.05
Sprite,Background,Centre,"sb/star.png",0,0 M,16,45678,48350,320,240,293.4268,72.08971 F,0,45678,48350,1,0 S,0,45678,48350,0,0.05
Sprite,Background,Centre,"sb/star.png",0,0 M,16,45728,48208,320,240,409.2219,251.8094 F,0,45728,48208,1,0 S,0,45728,48208,0,0.05
Sprite,Background,Centre,"sb/star.png",0,0 M,16,45778,48225,320,240,467.9117,315.3534 F,0,45778,48225,1,0 S,0,45778,48225,0,0.05
Sprite,Background,Centre,"sb/star.png",0,0 M,16,45828,48787,320,240,331.4849,531.774 F,0,45828,48787,1,0 S,0,45828,48787,0,0.05
Sprite,Background,Centre,"sb/star.png",0,0 M,16,45878,48784,320,240,482.6624,480.0853 F,0,45878,48784,1,0 S,0,45878,48784,0,0.05
Sprite,Background,Centre,"sb/star.png",0,0 M,16,45928,48801,320,240,435.5758,144.3849 F,0,45928,48801,1,0 S,0,45928,48801,0,0.05
Sprite,Background,Centre,"sb/star.png",0,0 M,16,45978,48579,320,240,558.8431,86.34469 F,0,45978,48579,1,0 S,0,45978,48579,0,0.05
Sprite,Background,Centre,"sb/star.png",0,0 M,16,46028,48403,320,240,266.7014,165.0116 F,0,46028,48403,1,0 S,0,46028,48403,0,0.05
Sprite,Background,Centre,"sb/star.png",0,0 M,16,46078,48171,320,240,364.1133,36.73166 F,0,46078,48171,1,0 S,0,46078,48171,0,0.05
Sprite,Background,Centre,"sb/star.png",0,0 M,16,46128,48450,320,240,425.7277,312.1503 F,0,46128,48450,1,0 S,0,46128,48450,0,0.05
Sprite,Background,Centre,"sb/star.png",0,0 M,16,46178,48871,320,240,149.2287,325.5463 F,0,46178,48871,1,0 S,0,46178,48871,0,0.05
Sprite,Background,Centre,"sb/star.png",0,0 M,16,46228,48711,320,240,352.2589,280.7843 F,0,46228,48711,1,0 S,0,46228,48711,0,0.05
Sprite,Background,Centre,"sb/star.png",0,0 M,16,46278,48612,320,240,230.0723,243.6066 F,0,46278,48612,1,0 S,0,46278,48612,0,0.05
Sprite,Background,Centre,"sb/star.png",0,0 M,16,46328,49239,320,240,151.697,31.43799 F,0,46328,49239,1,0 S,0,46328,49239,0,0.05
Sprite,Background,Centre,"sb/star.png",0,0 M,16,46378,49093,320,240,545.5183,415.8906 F,0,46378,49093,1,0 S,0,46378,49093,0,0.05
Sprite,Background,Centre,"sb/star.png",0,0 M,16,46428,49352,320,240,344.1686,190.5948 F,0,46428,49352,1,0 S,0,46428,49352,0,0.05
Sprite,Background,Centre,"sb/star.png",0,0 M,16,46478,48615,320,240,142.784,276.8168 F,0,46478,48615,1,0 S,0,46478,48615,0,0.05
Sprite,Background,Centre,"sb/star.png",0,0 M,16,46528,48868,320,240,197.438,109.541 F,0,46528,48868,1,0 S,0,46528,48868,0,0.05
Sprite,Background,Centre,"sb/hit/r.png",87,112 S,7,47972,49377,0.25,0.5 F,6,47972,49377,1,0
Sprite,Background,Centre,"sb/hit/r.png",450,311 S,7,49384,50789,0.25,0.5 F,6,49384,50789,1,0
Sprite,Background,Centre,"sb/hit/r.png",375,194 S,7,50795,51495,0.25,0.5 F,6,50795,51495,1,0
Sprite,Background,Centre,"sb/hit/r.png",528,205 S,7,51501,52201,0.25,0.5 F,6,51501,52201,1,0
Sprite,Background,Centre,"sb/hit/r.png",339,99 S,7,52207,53436,0.25,0.5 F,6,52207,53436,1,0
Sprite,Background,Centre,"sb/hit/r.png",246,233 S,7,52913,53613,0.25,0.5 F,6,52913,53613,1,0
Sprite,Background,Centre,"sb/hit/r.png",68,356 S,7,53619,54671,0.25,0.5 F,6,53619,54671,1,0
Sprite,Background,Centre,"sb/hit/r.png",256,406 S,7,54325,55377,0.25,0.5 F,6,54325,55377,1,0
Sprite,Background,Centre,"sb/hit/r.png",350,222 S,7,55031,56083,0.25,0.5 F,6,55031,56083,1,0
Sprite,Background,Centre,"sb/hit/r.png",350,222 S,7,55031,56083,0.25,0.5 F,6,55031,56083,1,0
Sprite,Background,Centre,"sb/hit/r.png",159,135 S,7,55737,56789,0.25,0.5 F,6,55737,56789,1,0
Sprite,Background,Centre,"sb/hit/r.png",320,248 S,7,56443,58554,0.25,0.5 F,6,56443,58554,1,0
Sprite,Background,Centre,"sb/hit/r.png",320,248 S,7,56443,58554,0.25,0.5 F,6,56443,58554,1,0
Sprite,Background,Centre,"sb/bar.png",0,0 F,0,103737,104443,1,0 V,0,59266,,35,1 C,0,59266,,86,191,237 M,0,59266,,110,297 M,0,59266,59288,110,297,117.4486,297.8763 M,0,59288,59310,117.4486,297.8763,124.8973,298.7526 M,0,59310,59332,124.8973,298.7526,132.3459,299.6289 M,0,59332,59354,132.3459,299.6289,139.7945,300.5052 M,0,59354,59376,139.7945,300.5052,147.2431,301.3815 M,0,59376,59398,147.2431,301.3815,154.6918,302.2579 M,0,59398,59420,154.6918,302.2579,162.1404,303.1342 M,0,59420,59442,162.1404,303.1342,169.589,304.0105 M,0,59442,59464,169.589,304.0105,177.0377,304.8868 M,0,59464,59486,177.0377,304.8868,181.7344,310.358 M,0,59486,59508,181.7344,310.358,186.0228,316.511 M,0,59508,59530,186.0228,316.511,190.3113,322.664 M,0,59530,59552,190.3113,322.664,194.5997,328.817 M,0,59552,59574,194.5997,328.817,198.8882,334.97 M,0,59574,59596,198.8882,334.97,204.7288,338.7662 M,0,59596,59618,204.7288,338.7662,212.0753,340.2757 M,0,59618,59641,212.0753,340.2757,219.4218,341.7853 M,0,59641,59663,219.4218,341.7853,226.7683,343.2949 M,0,59663,59685,226.7683,343.2949,234.1148,344.8044 M,0,59685,59707,234.1148,344.8044,241.4613,346.314 M,0,59707,59729,241.4613,346.314,248.8078,347.8235 M,0,59729,59751,248.8078,347.8235,256.1544,349.3331 M,0,59751,59773,256.1544,349.3331,263.5009,350.8427 M,0,59773,59795,263.5009,350.8427,270.8474,352.3522 M,0,59795,59972,270.8474,352.3522,313,395 M,0,59972,59994,313,395,318.8565,390.3148 M,0,59994,60016,318.8565,390.3148,324.713,385.6296 M,0,60016,60038,324.713,385.6296,330.5695,380.9444 M,0,60038,60060,330.5695,380.9444,336.4261,376.2592 M,0,60060,60082,336.4261,376.2592,342.2826,371.5739 M,0,60082,60104,342.2826,371.5739,348.1391,366.8887 M,0,60104,60126,348.1391,366.8887,353.9956,362.2035 M,0,60126,60148,353.9956,362.2035,359.8521,357.5183 M,0,60148,60170,359.8521,357.5183,366.3336,355.959 M,0,60170,60192,366.3336,355.959,373.5413,358.0324 M,0,60192,60214,373.5413,358.0324,380.749,360.1059 M,0,60214,60236,380.749,360.1059,387.9566,362.1793 M,0,60236,60258,387.9566,362.1793,395.1643,364.2527 M,0,60258,60280,395.1643,364.2527,402.372,366.3262 M,0,60280,60302,402.372,366.3262,409.5797,368.3997 M,0,60302,60324,409.5797,368.3997,416.7874,370.4731 M,0,60324,61031,416.7874,370.4731,540,164 M,0,61031,61053,540,164,540.6689,156.5299 M,0,61053,61075,540.6689,156.5299,541.3379,149.0598 M,0,61075,61097,541.3379,149.0598,542.0069,141.5897 M,0,61097,61119,542.0069,141.5897,542.6759,134.1196 M,0,61119,61141,542.6759,134.1196,543.3448,126.6495 M,0,61141,61163,543.3448,126.6495,544.0138,119.1794 M,0,61163,61185,544.0138,119.1794,544.6827,111.7093 M,0,61185,61207,544.6827,111.7093,545.3517,104.2392 M,0,61207,61229,545.3517,104.2392,544.6827,111.7093 M,0,61229,61251,544.6827,111.7093,544.0138,119.1794 M,0,61251,61273,544.0138,119.1794,543.3448,126.6495 M,0,61273,61295,543.3448,126.6495,542.6759,134.1196 M,0,61295,61317,542.6759,134.1196,542.0069,141.5897 M,0,61317,61339,542.0069,141.5897,541.3379,149.0598 M,0,61339,61361,541.3379,149.0598,540.6689,156.5299 M,0,61361,61383,540.6689,156.5299,540,164 M,0,61383,61560,540,164,513,218 M,0,61560,61737,513,218 M,0,61737,62090,513,218,411,153 M,0,62090,62112,411,153,409.8908,145.5825 M,0,62112,62134,409.8908,145.5825,408.7817,138.1649 M,0,62134,62156,408.7817,138.1649,407.6725,130.7474 M,0,62156,62178,407.6725,130.7474,406.5634,123.3299 M,0,62178,62200,406.5634,123.3299,405.4542,115.9124 M,0,62200,62222,405.4542,115.9124,404.345,108.4948 M,0,62222,62244,404.345,108.4948,403.2359,101.0773 M,0,62244,62266,403.2359,101.0773,402.1267,93.65976 M,0,62266,62288,402.1267,93.65976,401.0175,86.24223 M,0,62288,62310,401.0175,86.24223,399.9084,78.8247 M,0,62310,62332,399.9084,78.8247,398.7992,71.40717 M,0,62332,62354,398.7992,71.40717,397.69,63.98964 M,0,62354,62376,397.69,63.98964,398.7992,71.40717 M,0,62376,62398,398.7992,71.40717,399.9084,78.8247 M,0,62398,62420,399.9084,78.8247,401.0175,86.24223 M,0,62420,62442,401.0175,86.24223,402.1267,93.65976 M,0,62442,62465,402.1267,93.65976,403.2359,101.0773 M,0,62465,62487,403.2359,101.0773,404.345,108.4948 M,0,62487,62509,404.345,108.4948,405.4542,115.9124 M,0,62509,62531,405.4542,115.9124,406.5634,123.3299 M,0,62531,62553,406.5634,123.3299,407.6725,130.7474 M,0,62553,62575,407.6725,130.7474,408.7817,138.1649 M,0,62575,62597,408.7817,138.1649,409.8908,145.5825 M,0,62597,62619,409.8908,145.5825,411,153 M,0,62619,62795,411,153,375,201 M,0,62795,62817,375,201,367.73,202.8431 M,0,62817,62839,367.73,202.8431,360.46,204.6862 M,0,62839,62861,360.46,204.6862,353.19,206.5293 M,0,62861,62883,353.19,206.5293,345.92,208.3724 M,0,62883,62905,345.92,208.3724,338.65,210.2155 M,0,62905,62927,338.65,210.2155,331.38,212.0586 M,0,62927,62949,331.38,212.0586,324.11,213.9017 M,0,62949,62971,324.11,213.9017,316.84,215.7448 M,0,62971,62993,316.84,215.7448,309.5699,217.5879 M,0,62993,63015,309.5699,217.5879,302.5693,217.9855 M,0,63015,63037,302.5693,217.9855,296.4514,213.6473 M,0,63037,63059,296.4514,213.6473,290.3333,209.3091 M,0,63059,63081,290.3333,209.3091,284.2153,204.9709 M,0,63081,63103,284.2153,204.9709,278.0974,200.6327 M,0,63103,63125,278.0974,200.6327,271.9794,196.2944 M,0,63125,63147,271.9794,196.2944,265.8614,191.9562 M,0,63147,63678,265.8614,191.9562,118,87 M,0,63678,63700,118,87,112.8463,92.44127 M,0,63700,63722,112.8463,92.44127,107.8211,97.9841 M,0,63722,63744,107.8211,97.9841,103.1292,103.8129 M,0,63744,63766,103.1292,103.8129,98.78657,109.908 M,0,63766,63788,98.78657,109.908,94.80819,116.2488 M,0,63788,63810,94.80819,116.2488,91.20773,122.814 M,0,63810,63832,91.20773,122.814,87.99767,129.5815 M,0,63832,63854,87.99767,129.5815,85.18919,136.5286 M,0,63854,63876,85.18919,136.5286,82.79225,143.6317 M,0,63876,63898,82.79225,143.6317,81.09677,150.9319 M,0,63898,63920,81.09677,150.9319,79.60699,158.2634 M,0,63920,63942,79.60699,158.2634,78.54985,165.6702 M,0,63942,63964,78.54985,165.6702,77.92902,173.1272 M,0,63964,63986,77.92902,173.1272,77.74675,180.6092 M,0,63986,64008,77.74675,180.6092,78.00389,188.0907 M,0,64008,64030,78.00389,188.0907,78.69982,195.5466 M,0,64030,64207,78.69982,195.5466,124,234 M,0,64207,64229,124,234,126.7946,240.9525 M,0,64229,64251,126.7946,240.9525,129.4103,247.9572 M,0,64251,64273,129.4103,247.9572,131.5588,255.12 M,0,64273,64295,131.5588,255.12,133.2309,262.4103 M,0,64295,64317,133.2309,262.4103,134.419,269.797 M,0,64317,64339,134.419,269.797,135.1178,277.2484 M,0,64339,64361,135.1178,277.2484,135.3238,284.7327 M,0,64361,64383,135.3238,284.7327,135.0357,292.2177 M,0,64383,64560,135.0357,292.2177,108,346 M,0,64560,64913,108,346,200,422 M,0,64913,64935,200,422,201.4561,414.6427 M,0,64935,64957,201.4561,414.6427,202.9123,407.2854 M,0,64957,64979,202.9123,407.2854,204.3684,399.9281 M,0,64979,65001,204.3684,399.9281,205.8245,392.5709 M,0,65001,65023,205.8245,392.5709,207.2807,385.2136 M,0,65023,65045,207.2807,385.2136,208.7368,377.8563 M,0,65045,65067,208.7368,377.8563,210.1929,370.499 M,0,65067,65089,210.1929,370.499,211.649,363.1417 M,0,65089,65111,211.649,363.1417,213.1052,355.7844 M,0,65111,65133,213.1052,355.7844,214.5613,348.4271 M,0,65133,65155,214.5613,348.4271,216.0174,341.0698 M,0,65155,65177,216.0174,341.0698,217.4736,333.7125 M,0,65177,65199,217.4736,333.7125,216.0174,341.0698 M,0,65199,65221,216.0174,341.0698,214.5613,348.4271 M,0,65221,65243,214.5613,348.4271,213.1052,355.7844 M,0,65243,65265,213.1052,355.7844,211.649,363.1417 M,0,65265,65288,211.649,363.1417,210.1929,370.499 M,0,65288,65310,210.1929,370.499,208.7368,377.8563 M,0,65310,65332,208.7368,377.8563,207.2807,385.2136 M,0,65332,65354,207.2807,385.2136,205.8245,392.5709 M,0,65354,65376,205.8245,392.5709,204.3684,399.9281 M,0,65376,65398,204.3684,399.9281,202.9123,407.2854 M,0,65398,65420,202.9123,407.2854,201.4561,414.6427 M,0,65420,65442,201.4561,414.6427,200,422 M,0,65442,65619,200,422,258,437 M,0,65619,65641,258,437,265.1663,434.7889 M,0,65641,65663,265.1663,434.7889,272.3454,432.623 M,0,65663,65685,272.3454,432.623,279.558,430.5713 M,0,65685,65707,279.558,430.5713,286.8023,428.6342 M,0,65707,65729,286.8023,428.6342,294.0765,426.8124 M,0,65729,65751,294.0765,426.8124,301.3789,425.1062 M,0,65751,65773,301.3789,425.1062,308.7075,423.5161 M,0,65773,65795,308.7075,423.5161,316.0606,422.0425 M,0,65795,65817,316.0606,422.0425,323.4362,420.6857 M,0,65817,65839,323.4362,420.6857,330.8328,419.4461 M,0,65839,65861,330.8328,419.4461,338.2482,418.324 M,0,65861,65883,338.2482,418.324,345.6905,417.398 M,0,65883,65905,345.6905,417.398,353.1381,416.5244 M,0,65905,65927,353.1381,416.5244,360.5987,415.7692 M,0,65927,65949,360.5987,415.7692,368.0704,415.1324 M,0,65949,65971,368.0704,415.1324,375.5514,414.6143 M,0,65971,66501,375.5514,414.6143,523,311 M,0,66501,66678,523,311 M,0,66678,66700,523,311,520.382,303.9746 M,0,66700,66722,520.382,303.9746,517.8301,296.9314 M,0,66722,66744,517.8301,296.9314,515.5395,289.7976 M,0,66744,66766,515.5395,289.7976,513.5132,282.5822 M,0,66766,66788,513.5132,282.5822,511.7539,275.2944 M,0,66788,66810,511.7539,275.2944,510.4725,267.9075 M,0,66810,66832,510.4725,267.9075,509.3256,260.5052 M,0,66832,66854,509.3256,260.5052,508.3161,253.0758 M,0,66854,67031,508.3161,253.0758,463,213 M,0,67031,67053,463,213,465.4641,205.9183 M,0,67053,67075,465.4641,205.9183,467.8223,198.8053 M,0,67075,67097,467.8223,198.8053,469.9257,191.6126 M,0,67097,67119,469.9257,191.6126,471.7716,184.3494 M,0,67119,67141,471.7716,184.3494,473.3576,177.0247 M,0,67141,67163,473.3576,177.0247,474.6818,169.6479 M,0,67163,67185,474.6818,169.6479,475.7424,162.2281 M,0,67185,67207,475.7424,162.2281,476.6019,154.7788 M,0,67207,67384,476.6019,154.7788,495,97 M,0,67384,67737,495,97,379,63 M,0,67737,67759,379,63,371.545,63.82005 M,0,67759,67781,371.545,63.82005,364.0899,64.64011 M,0,67781,67803,364.0899,64.64011,356.6349,65.46016 M,0,67803,67825,356.6349,65.46016,349.1799,66.28021 M,0,67825,67847,349.1799,66.28021,341.7249,67.10027 M,0,67847,67869,341.7249,67.10027,334.2698,67.92032 M,0,67869,67891,334.2698,67.92032,326.8148,68.74037 M,0,67891,67913,326.8148,68.74037,319.3597,69.56042 M,0,67913,67935,319.3597,69.56042,311.9047,70.38049 M,0,67935,67957,311.9047,70.38049,304.4497,71.20054 M,0,67957,67979,304.4497,71.20054,296.9946,72.02059 M,0,67979,68001,296.9946,72.02059,289.5396,72.84064 M,0,68001,68023,289.5396,72.84064,296.9946,72.02059 M,0,68023,68045,296.9946,72.02059,304.4497,71.20054 M,0,68045,68067,304.4497,71.20054,311.9047,70.38049 M,0,68067,68089,311.9047,70.38049,319.3597,69.56042 M,0,68089,68112,319.3597,69.56042,326.8148,68.74037 M,0,68112,68134,326.8148,68.74037,334.2698,67.92032 M,0,68134,68156,334.2698,67.92032,341.7249,67.10027 M,0,68156,68178,341.7249,67.10027,349.1799,66.28021 M,0,68178,68200,349.1799,66.28021,356.6349,65.46016 M,0,68200,68222,356.6349,65.46016,364.0899,64.64011 M,0,68222,68244,364.0899,64.64011,371.545,63.82005 M,0,68244,68266,371.545,63.82005,379,63 M,0,68266,68443,379,63,391,121 M,0,68443,68465,391,121,388.6748,128.1305 M,0,68465,68487,388.6748,128.1305,386.3497,135.261 M,0,68487,68509,386.3497,135.261,384.0245,142.3914 M,0,68509,68531,384.0245,142.3914,381.6994,149.5219 M,0,68531,68553,381.6994,149.5219,379.3742,156.6524 M,0,68553,68575,379.3742,156.6524,377.0491,163.7828 M,0,68575,68597,377.0491,163.7828,376.8929,171.0181 M,0,68597,68619,376.8929,171.0181,378.5199,178.3395 M,0,68619,68641,378.5199,178.3395,380.1469,185.6609 M,0,68641,68663,380.1469,185.6609,381.7738,192.9823 M,0,68663,68685,381.7738,192.9823,380.1724,200.1935 M,0,68685,68707,380.1724,200.1935,378.0498,207.3868 M,0,68707,68729,378.0498,207.3868,375.9272,214.5802 M,0,68729,68751,375.9272,214.5802,373.8045,221.7736 M,0,68751,68773,373.8045,221.7736,371.6819,228.9669 M,0,68773,68795,371.6819,228.9669,369.5593,236.1603 M,0,68795,69501,369.5593,236.1603,219,423 M,0,69501,69678,219,423 M,0,69678,69854,219,423 M,0,69854,69876,219,423,211.8849,420.6283 M,0,69876,69898,211.8849,420.6283,204.7697,418.2566 M,0,69898,69920,204.7697,418.2566,197.6546,415.8849 M,0,69920,69942,197.6546,415.8849,190.5395,413.5132 M,0,69942,69964,190.5395,413.5132,183.4244,411.1414 M,0,69964,69986,183.4244,411.1414,176.3092,408.7697 M,0,69986,70008,176.3092,408.7697,169.1941,406.398 M,0,70008,70030,169.1941,406.398,162.079,404.0263 M,0,70030,70052,162.079,404.0263,169.1941,406.398 M,0,70052,70074,169.1941,406.398,176.3092,408.7697 M,0,70074,70096,176.3092,408.7697,183.4244,411.1414 M,0,70096,70118,183.4244,411.1414,190.5395,413.5132 M,0,70118,70140,190.5395,413.5132,197.6546,415.8849 M,0,70140,70162,197.6546,415.8849,204.7697,418.2566 M,0,70162,70184,204.7697,418.2566,211.8849,420.6283 M,0,70184,70206,211.8849,420.6283,219,423 M,0,70206,70560,219,423,296,331 M,0,70560,70582,296,331,294.7209,323.6099 M,0,70582,70604,294.7209,323.6099,293.4419,316.2198 M,0,70604,70626,293.4419,316.2198,292.1628,308.8296 M,0,70626,70648,292.1628,308.8296,290.8838,301.4395 M,0,70648,70670,290.8838,301.4395,289.6047,294.0493 M,0,70670,70692,289.6047,294.0493,288.3256,286.6592 M,0,70692,70714,288.3256,286.6592,287.0466,279.2691 M,0,70714,70736,287.0466,279.2691,285.7675,271.879 M,0,70736,70758,285.7675,271.879,284.4885,264.4888 M,0,70758,70780,284.4885,264.4888,283.2094,257.0987 M,0,70780,70802,283.2094,257.0987,281.9303,249.7086 M,0,70802,70824,281.9303,249.7086,280.6513,242.3185 M,0,70824,70846,280.6513,242.3185,281.9303,249.7086 M,0,70846,70868,281.9303,249.7086,283.2094,257.0987 M,0,70868,70890,283.2094,257.0987,284.4885,264.4888 M,0,70890,70912,284.4885,264.4888,285.7675,271.879 M,0,70912,70935,285.7675,271.879,287.0466,279.2691 M,0,70935,70957,287.0466,279.2691,288.3256,286.6592 M,0,70957,70979,288.3256,286.6592,289.6047,294.0493 M,0,70979,71001,289.6047,294.0493,290.8838,301.4395 M,0,71001,71023,290.8838,301.4395,292.1628,308.8296 M,0,71023,71045,292.1628,308.8296,293.4419,316.2198 M,0,71045,71067,293.4419,316.2198,294.7209,323.6099 M,0,71067,71089,294.7209,323.6099,296,331 M,0,71089,71266,296,331,330,379 M,0,71266,71288,330,379,336.8807,376.0478 M,0,71288,71310,336.8807,376.0478,343.8288,373.3379 M,0,71310,71332,343.8288,373.3379,350.9929,371.2588 M,0,71332,71354,350.9929,371.2588,358.3168,369.8272 M,0,71354,71376,358.3168,369.8272,365.7432,369.0552 M,0,71376,71398,365.7432,369.0552,373.2135,368.9495 M,0,71398,71420,373.2135,368.9495,380.6691,369.5122 M,0,71420,71442,380.6691,369.5122,388.0511,370.7399 M,0,71442,71464,388.0511,370.7399,395.3011,372.6245 M,0,71464,71486,395.3011,372.6245,402.1965,375.5423 M,0,71486,71508,402.1965,375.5423,408.9288,378.7488 M,0,71508,71530,408.9288,378.7488,415.3486,382.5442 M,0,71530,71552,415.3486,382.5442,421.4055,386.8988 M,0,71552,71574,421.4055,386.8988,427.0515,391.7789 M,0,71574,71596,427.0515,391.7789,432.2416,397.1465 M,0,71596,71618,432.2416,397.1465,437.0736,402.8717 M,0,71618,72325,437.0736,402.8717,565,199 M,0,72325,72501,565,199 M,0,72501,72678,565,199 M,0,72678,72700,565,199,560.2269,204.7724 M,0,72700,72722,560.2269,204.7724,555.2911,210.3758 M,0,72722,72744,555.2911,210.3758,549.923,215.568 M,0,72744,72766,549.923,215.568,544.1559,220.3161 M,0,72766,72788,544.1559,220.3161,538.0262,224.5898 M,0,72788,72810,538.0262,224.5898,531.5724,228.3618 M,0,72810,72832,531.5724,228.3618,524.8348,231.6077 M,0,72832,72854,524.8348,231.6077,517.8557,234.3065 M,0,72854,72876,517.8557,234.3065,510.679,236.4405 M,0,72876,72898,510.679,236.4405,503.3496,237.9953 M,0,72898,72920,503.3496,237.9953,495.9138,238.9601 M,0,72920,72942,495.9138,238.9601,488.4238,238.907 M,0,72942,72964,488.4238,238.907,480.9625,238.6115 M,0,72964,72986,480.9625,238.6115,473.5476,237.721 M,0,72986,73008,473.5476,237.721,466.2258,236.2409 M,0,73008,73030,466.2258,236.2409,459.0435,234.1803 M,0,73030,73384,459.0435,234.1803,374,148 M,0,73384,73406,374,148,375.4106,140.6338 M,0,73406,73428,375.4106,140.6338,376.8211,133.2677 M,0,73428,73450,376.8211,133.2677,378.2316,125.9015 M,0,73450,73472,378.2316,125.9015,379.6422,118.5353 M,0,73472,73494,379.6422,118.5353,381.0527,111.1692 M,0,73494,73516,381.0527,111.1692,382.4633,103.803 M,0,73516,73538,382.4633,103.803,383.8738,96.43684 M,0,73538,73560,383.8738,96.43684,385.2843,89.07069 M,0,73560,73582,385.2843,89.07069,386.6949,81.70452 M,0,73582,73604,386.6949,81.70452,388.1054,74.33836 M,0,73604,73626,388.1054,74.33836,389.516,66.97219 M,0,73626,73648,389.516,66.97219,390.9265,59.60603 M,0,73648,73670,390.9265,59.60603,389.516,66.97219 M,0,73670,73692,389.516,66.97219,388.1054,74.33836 M,0,73692,73714,388.1054,74.33836,386.6949,81.70452 M,0,73714,73736,386.6949,81.70452,385.2843,89.07069 M,0,73736,73759,385.2843,89.07069,383.8738,96.43684 M,0,73759,73781,383.8738,96.43684,382.4633,103.803 M,0,73781,73803,382.4633,103.803,381.0527,111.1692 M,0,73803,73825,381.0527,111.1692,379.6422,118.5353 M,0,73825,73847,379.6422,118.5353,378.2316,125.9015 M,0,73847,73869,378.2316,125.9015,376.8211,133.2677 M,0,73869,73891,376.8211,133.2677,375.4106,140.6338 M,0,73891,73913,375.4106,140.6338,374,148 M,0,73913,74090,374,148,325,183 M,0,74090,74112,325,183,325.7883,190.4585 M,0,74112,74134,325.7883,190.4585,326.5766,197.9169 M,0,74134,74156,326.5766,197.9169,327.3649,205.3754 M,0,74156,74178,327.3649,205.3754,328.1532,212.8338 M,0,74178,74200,328.1532,212.8338,328.9415,220.2923 M,0,74200,74222,328.9415,220.2923,329.7298,227.7507 M,0,74222,74244,329.7298,227.7507,330.518,235.2092 M,0,74244,74266,330.518,235.2092,331.3063,242.6677 M,0,74266,74288,331.3063,242.6677,332.0946,250.1261 M,0,74288,74310,332.0946,250.1261,332.8829,257.5846 M,0,74310,74332,332.8829,257.5846,333.6712,265.043 M,0,74332,74354,333.6712,265.043,334.4595,272.5015 M,0,74354,74376,334.4595,272.5015,335.2478,279.96 M,0,74376,74398,335.2478,279.96,336.0361,287.4184 M,0,74398,74420,336.0361,287.4184,336.8244,294.8769 M,0,74420,74442,336.8244,294.8769,337.6127,302.3353 M,0,74442,74972,337.6127,302.3353,203,423 M,0,74972,74994,203,423,207.3838,416.9219 M,0,74994,75016,207.3838,416.9219,211.6033,410.7454 M,0,75016,75038,211.6033,410.7454,215.4257,404.315 M,0,75038,75060,215.4257,404.315,218.8361,397.6559 M,0,75060,75082,218.8361,397.6559,221.8207,390.7943 M,0,75082,75104,221.8207,390.7943,224.3678,383.7571 M,0,75104,75126,224.3678,383.7571,226.4671,376.572 M,0,75126,75148,226.4671,376.572,228.1101,369.267 M,0,75148,75170,228.1101,369.267,229.2901,361.8709 M,0,75170,75192,229.2901,361.8709,230.0021,354.4128 M,0,75192,75214,230.0021,354.4128,230.243,346.922 M,0,75214,75236,230.243,346.922,230.0115,339.4279 M,0,75236,75258,230.0115,339.4279,229.0084,332.0013 M,0,75258,75280,229.0084,332.0013,227.7952,324.6203 M,0,75280,75302,227.7952,324.6203,226.1196,317.33 M,0,75302,75324,226.1196,317.33,223.9879,310.1591 M,0,75324,75501,223.9879,310.1591,180,268 M,0,75501,75523,180,268,180.0963,260.5049 M,0,75523,75545,180.0963,260.5049,180.3428,253.0234 M,0,75545,75567,180.3428,253.0234,180.9823,245.5646 M,0,75567,75589,180.9823,245.5646,182.0131,238.1488 M,0,75589,75611,182.0131,238.1488,183.4325,230.7964 M,0,75611,75633,183.4325,230.7964,185.2369,223.5274 M,0,75633,75655,185.2369,223.5274,187.4214,216.3616 M,0,75655,75677,187.4214,216.3616,189.9804,209.3187 M,0,75677,75854,189.9804,209.3187,236,171 M,0,75854,76207,236,171,152,85 M,0,76207,76229,152,85,144.6066,86.26023 M,0,76229,76251,144.6066,86.26023,137.2133,87.52046 M,0,76251,76273,137.2133,87.52046,129.8199,88.7807 M,0,76273,76295,129.8199,88.7807,122.4265,90.04092 M,0,76295,76317,122.4265,90.04092,115.0332,91.30116 M,0,76317,76339,115.0332,91.30116,107.6398,92.56139 M,0,76339,76361,107.6398,92.56139,100.2465,93.82162 M,0,76361,76383,100.2465,93.82162,92.8531,95.08186 M,0,76383,76405,92.8531,95.08186,85.45973,96.34209 M,0,76405,76427,85.45973,96.34209,78.06637,97.60233 M,0,76427,76449,78.06637,97.60233,70.673,98.86256 M,0,76449,76471,70.673,98.86256,64,100 M,0,76471,76493,64,100,70.673,98.86256 M,0,76493,76515,70.673,98.86256,78.06637,97.60233 M,0,76515,76537,78.06637,97.60233,85.45973,96.34209 M,0,76537,76559,85.45973,96.34209,92.8531,95.08186 M,0,76559,76582,92.8531,95.08186,100.2465,93.82162 M,0,76582,76604,100.2465,93.82162,107.6398,92.56139 M,0,76604,76626,107.6398,92.56139,115.0332,91.30116 M,0,76626,76648,115.0332,91.30116,122.4265,90.04092 M,0,76648,76670,122.4265,90.04092,129.8199,88.7807 M,0,76670,76692,129.8199,88.7807,137.2133,87.52046 M,0,76692,76714,137.2133,87.52046,144.6066,86.26023 M,0,76714,76736,144.6066,86.26023,152,85 M,0,76736,76913,152,85,208,63 M,0,76913,76935,208,63,215.4875,63.43197 M,0,76935,76957,215.4875,63.43197,222.9751,63.86395 M,0,76957,76979,222.9751,63.86395,230.4626,64.29592 M,0,76979,77001,230.4626,64.29592,237.9502,64.7279 M,0,77001,77023,237.9502,64.7279,245.4377,65.15987 M,0,77023,77045,245.4377,65.15987,252.9253,65.59184 M,0,77045,77067,252.9253,65.59184,260.3352,66.24212 M,0,77067,77089,260.3352,66.24212,266.4153,70.6333 M,0,77089,77111,266.4153,70.6333,272.4954,75.02448 M,0,77111,77133,272.4954,75.02448,278.7062,79.07305 M,0,77133,77155,278.7062,79.07305,286.1664,79.8448 M,0,77155,77177,286.1664,79.8448,293.6265,80.61654 M,0,77177,77199,293.6265,80.61654,301.0867,81.38828 M,0,77199,77221,301.0867,81.38828,308.5469,82.16003 M,0,77221,77243,308.5469,82.16003,316.0071,82.93177 M,0,77243,77265,316.0071,82.93177,323.4673,83.70351 M,0,77265,77795,323.4673,83.70351,495,137 M,0,77795,77972,495,137 M,0,77972,77994,495,137,499.2885,143.1338 M,0,77994,78016,499.2885,143.1338,503.2888,149.4159 M,0,78016,78038,503.2888,149.4159,506.6182,156.0791 M,0,78038,78060,506.6182,156.0791,509.2411,163.0526 M,0,78060,78082,509.2411,163.0526,511.1291,170.2622 M,0,78082,78104,511.1291,170.2622,512.2615,177.6312 M,0,78104,78126,512.2615,177.6312,512.6255,185.0812 M,0,78126,78148,512.6255,185.0812,512.2164,192.5327 M,0,78148,78325,512.2164,192.5327,548,240 M,0,78325,78347,548,240,547.8792,247.481 M,0,78347,78369,547.8792,247.481,547.495,254.9112 M,0,78369,78391,547.495,254.9112,546.3429,262.2656 M,0,78391,78413,546.3429,262.2656,544.4338,269.4669 M,0,78413,78435,544.4338,269.4669,541.7861,276.4391 M,0,78435,78457,541.7861,276.4391,538.4257,283.1082 M,0,78457,78479,538.4257,283.1082,534.448,289.4595 M,0,78479,78501,534.448,289.4595,530,295 M,0,78501,78678,530,295,487,338 M,0,78678,79031,487,338,373,376 M,0,79031,79053,373,376,372.7243,368.5056 M,0,79053,79075,372.7243,368.5056,372.3874,361.0152 M,0,79075,79097,372.3874,361.0152,371.9017,353.5328 M,0,79097,79119,371.9017,353.5328,371.2676,346.0615 M,0,79119,79141,371.2676,346.0615,370.4853,338.6042 M,0,79141,79163,370.4853,338.6042,369.555,331.1637 M,0,79163,79185,369.555,331.1637,368.4772,323.743 M,0,79185,79207,368.4772,323.743,367.2521,316.3451 M,0,79207,79229,367.2521,316.3451,365.8804,308.9728 M,0,79229,79251,365.8804,308.9728,364.3625,301.6289 M,0,79251,79273,364.3625,301.6289,362.6991,294.3165 M,0,79273,79295,362.6991,294.3165,360.8992,287.0358 M,0,79295,79317,360.8992,287.0358,362.6991,294.3165 M,0,79317,79339,362.6991,294.3165,364.3625,301.6289 M,0,79339,79361,364.3625,301.6289,365.8804,308.9728 M,0,79361,79383,365.8804,308.9728,367.2521,316.3451 M,0,79383,79406,367.2521,316.3451,368.4772,323.743 M,0,79406,79428,368.4772,323.743,369.555,331.1637 M,0,79428,79450,369.555,331.1637,370.4853,338.6042 M,0,79450,79472,370.4853,338.6042,371.2676,346.0615 M,0,79472,79494,371.2676,346.0615,371.9017,353.5328 M,0,79494,79516,371.9017,353.5328,372.3874,361.0152 M,0,79516,79538,372.3874,361.0152,372.7243,368.5056 M,0,79538,79560,372.7243,368.5056,373,376 M,0,79560,79737,373,376,394,432 M,0,79737,79759,394,432,388.5983,426.8115 M,0,79759,79781,388.5983,426.8115,383.0627,421.8007 M,0,79781,79803,383.0627,421.8007,377.1457,417.2441 M,0,79803,79825,377.1457,417.2441,370.8838,413.1703 M,0,79825,79847,370.8838,413.1703,364.3156,409.6049 M,0,79847,79869,364.3156,409.6049,357.4816,406.5707 M,0,79869,79891,357.4816,406.5707,350.424,404.0871 M,0,79891,79913,350.424,404.0871,343.1862,402.1704 M,0,79913,79935,343.1862,402.1704,335.813,400.8336 M,0,79935,79957,335.813,400.8336,328.3319,400.469 M,0,79957,79979,328.3319,400.469,320.8665,400.3921 M,0,79979,80001,320.8665,400.3921,313.4175,400.908 M,0,80001,80023,313.4175,400.908,306.0314,402.0136 M,0,80023,80045,306.0314,402.0136,298.7541,403.7026 M,0,80045,80067,298.7541,403.7026,291.6307,405.9648 M,0,80067,80089,291.6307,405.9648,284.7058,408.787 M,0,80089,80795,284.7058,408.787,136,219 M,0,80795,80972,136,219 M,0,80972,81148,136,219 M,0,81148,81170,136,219,137.3942,211.6307 M,0,81170,81192,137.3942,211.6307,138.7884,204.2614 M,0,81192,81214,138.7884,204.2614,140.1826,196.8922 M,0,81214,81236,140.1826,196.8922,141.5768,189.5229 M,0,81236,81258,141.5768,189.5229,142.9709,182.1536 M,0,81258,81280,142.9709,182.1536,144.3651,174.7843 M,0,81280,81302,144.3651,174.7843,145.7593,167.4151 M,0,81302,81324,145.7593,167.4151,147.1535,160.0458 M,0,81324,81346,147.1535,160.0458,145.7593,167.4151 M,0,81346,81368,145.7593,167.4151,144.3651,174.7843 M,0,81368,81390,144.3651,174.7843,142.9709,182.1536 M,0,81390,81412,142.9709,182.1536,141.5768,189.5229 M,0,81412,81434,141.5768,189.5229,140.1826,196.8922 M,0,81434,81456,140.1826,196.8922,138.7884,204.2614 M,0,81456,81478,138.7884,204.2614,137.3942,211.6307 M,0,81478,81500,137.3942,211.6307,136,219 M,0,81500,81854,136,219,78,324 M,0,81854,81876,78,324,85.24914,322.0768 M,0,81876,81898,85.24914,322.0768,92.50316,320.1727 M,0,81898,81920,92.50316,320.1727,99.77016,318.3188 M,0,81920,81942,99.77016,318.3188,107.0498,316.515 M,0,81942,81964,107.0498,316.515,114.3417,314.7614 M,0,81964,81986,114.3417,314.7614,121.6456,313.0582 M,0,81986,82008,121.6456,313.0582,128.961,311.4054 M,0,82008,82030,128.961,311.4054,136.2878,309.8031 M,0,82030,82052,136.2878,309.8031,143.6254,308.2513 M,0,82052,82074,143.6254,308.2513,150.9736,306.7503 M,0,82074,82096,150.9736,306.7503,158.3385,305.3338 M,0,82096,82118,158.3385,305.3338,165.7077,303.9402 M,0,82118,82140,165.7077,303.9402,173.0863,302.5975 M,0,82140,82162,173.0863,302.5975,180.4739,301.3056 M,0,82162,82184,180.4739,301.3056,187.8704,300.0648 M,0,82184,82206,187.8704,300.0648,195.2752,298.875 M,0,82206,82229,195.2752,298.875,202.6881,297.7363 M,0,82229,82251,202.6881,297.7363,210.1087,296.6487 M,0,82251,82273,210.1087,296.6487,217.5366,295.6125 M,0,82273,82295,217.5366,295.6125,224.9716,294.6273 M,0,82295,82317,224.9716,294.6273,232.4132,293.6936 M,0,82317,82339,232.4132,293.6936,239.8653,292.848 M,0,82339,82361,239.8653,292.848,247.3196,292.0229 M,0,82361,82383,247.3196,292.0229,254.7771,291.2263 M,0,82383,82560,254.7771,291.2263,304,324 M,0,82560,82582,304,324,310.4944,320.2814 M,0,82582,82604,310.4944,320.2814,316.8028,316.3266 M,0,82604,82626,316.8028,316.3266,322.6731,311.7433 M,0,82626,82648,322.6731,311.7433,328.0435,306.5792 M,0,82648,82670,328.0435,306.5792,332.8575,300.8876 M,0,82670,82692,332.8575,300.8876,337.0638,294.7275 M,0,82692,82714,337.0638,294.7275,340.6176,288.1624 M,0,82714,82736,340.6176,288.1624,343.4802,281.2605 M,0,82736,82758,343.4802,281.2605,345.6203,274.0933 M,0,82758,82780,345.6203,274.0933,347.0135,266.7354 M,0,82780,82802,347.0135,266.7354,347.6433,259.2635 M,0,82802,82824,347.6433,259.2635,346.9476,251.8123 M,0,82824,82846,346.9476,251.8123,345.9589,244.4326 M,0,82846,82868,345.9589,244.4326,344.217,237.1917 M,0,82868,82890,344.217,237.1917,341.7393,230.1653 M,0,82890,82912,341.7393,230.1653,338.7707,223.2923 M,0,82912,83619,338.7707,223.2923,153,69 M,0,83619,83795,153,69 M,0,83795,83972,153,69 M,0,83972,83994,153,69,151.4118,76.32993 M,0,83994,84016,151.4118,76.32993,149.8237,83.65985 M,0,84016,84038,149.8237,83.65985,148.2355,90.98977 M,0,84038,84060,148.2355,90.98977,146.6474,98.31969 M,0,84060,84082,146.6474,98.31969,145.0592,105.6496 M,0,84082,84104,145.0592,105.6496,143.4711,112.9795 M,0,84104,84126,143.4711,112.9795,141.8829,120.3095 M,0,84126,84148,141.8829,120.3095,140.2948,127.6394 M,0,84148,84325,140.2948,127.6394,167,181 M,0,84325,84678,167,181,207,293 M,0,84678,84700,207,293,205.1588,300.2704 M,0,84700,84722,205.1588,300.2704,203.3421,307.5467 M,0,84722,84744,203.3421,307.5467,201.5825,314.8371 M,0,84744,84766,201.5825,314.8371,199.8803,322.1411 M,0,84766,84788,199.8803,322.1411,198.2355,329.4582 M,0,84788,84810,198.2355,329.4582,196.6482,336.7881 M,0,84810,84832,196.6482,336.7881,195.1186,344.1302 M,0,84832,84854,195.1186,344.1302,193.6467,351.4841 M,0,84854,84876,193.6467,351.4841,192.2326,358.8494 M,0,84876,84898,192.2326,358.8494,190.8764,366.2256 M,0,84898,84920,190.8764,366.2256,189.5782,373.6122 M,0,84920,84942,189.5782,373.6122,188.3381,381.0088 M,0,84942,84964,188.3381,381.0088,189.5782,373.6122 M,0,84964,84986,189.5782,373.6122,190.8764,366.2256 M,0,84986,85008,190.8764,366.2256,192.2326,358.8494 M,0,85008,85030,192.2326,358.8494,193.6467,351.4841 M,0,85030,85053,193.6467,351.4841,195.1186,344.1302 M,0,85053,85075,195.1186,344.1302,196.6482,336.7881 M,0,85075,85097,196.6482,336.7881,198.2355,329.4582 M,0,85097,85119,198.2355,329.4582,199.8803,322.1411 M,0,85119,85141,199.8803,322.1411,201.5825,314.8371 M,0,85141,85163,201.5825,314.8371,203.3421,307.5467 M,0,85163,85185,203.3421,307.5467,205.1588,300.2704 M,0,85185,85207,205.1588,300.2704,207,293 M,0,85207,85384,207,293,259,264 M,0,85384,85406,259,264,266.4164,262.8831 M,0,85406,85428,266.4164,262.8831,273.8321,261.762 M,0,85428,85450,273.8321,261.762,281.246,260.629 M,0,85450,85472,281.246,260.629,288.6581,259.4844 M,0,85472,85494,288.6581,259.4844,296.0685,258.3282 M,0,85494,85516,296.0685,258.3282,303.4769,257.1601 M,0,85516,85538,303.4769,257.1601,310.8835,255.9802 M,0,85538,85560,310.8835,255.9802,318.2883,254.789 M,0,85560,85582,318.2883,254.789,325.6912,253.5858 M,0,85582,85604,325.6912,253.5858,333.0909,252.3633 M,0,85604,85626,333.0909,252.3633,340.4896,251.1352 M,0,85626,85648,340.4896,251.1352,347.8864,249.8954 M,0,85648,85670,347.8864,249.8954,355.2813,248.6438 M,0,85670,85692,355.2813,248.6438,362.6741,247.3807 M,0,85692,85714,362.6741,247.3807,370.0649,246.1056 M,0,85714,85736,370.0649,246.1056,377.4537,244.8191 M,0,85736,86266,377.4537,244.8191,530,149 M,0,86266,86288,530,149,523.1959,152.1073 M,0,86288,86310,523.1959,152.1073,516.5569,155.4513 M,0,86310,86332,516.5569,155.4513,510.3206,159.5046 M,0,86332,86354,510.3206,159.5046,504.561,164.2204 M,0,86354,86376,504.561,164.2204,499.347,169.5449 M,0,86376,86398,499.347,169.5449,494.7417,175.4168 M,0,86398,86420,494.7417,175.4168,490.8016,181.7688 M,0,86420,86442,490.8016,181.7688,487.5761,188.5277 M,0,86442,86464,487.5761,188.5277,485.6693,195.7606 M,0,86464,86486,485.6693,195.7606,484.1267,203.0309 M,0,86486,86508,484.1267,203.0309,483.3893,210.4291 M,0,86508,86530,483.3893,210.4291,483.4666,217.8685 M,0,86530,86552,483.4666,217.8685,484.3593,225.2616 M,0,86552,86574,484.3593,225.2616,486.0587,232.5211 M,0,86574,86596,486.0587,232.5211,488.5475,239.5609 M,0,86596,86618,488.5475,239.5609,491.7991,246.297 M,0,86618,86795,491.7991,246.297,533,290 M,0,86795,86817,533,290,531.348,297.3158 M,0,86817,86839,531.348,297.3158,529.696,304.6316 M,0,86839,86861,529.696,304.6316,528.0441,311.9474 M,0,86861,86883,528.0441,311.9474,526.3922,319.2632 M,0,86883,86905,526.3922,319.2632,524.7402,326.579 M,0,86905,86927,524.7402,326.579,523.0883,333.8948 M,0,86927,86949,523.0883,333.8948,521.4363,341.2107 M,0,86949,86971,521.4363,341.2107,519.7844,348.5265 M,0,86971,87148,519.7844,348.5265,508,407 M,0,87148,87501,508,407,397,360 M,0,87501,87523,397,360,394.2734,353.0132 M,0,87523,87545,394.2734,353.0132,391.5469,346.0263 M,0,87545,87567,391.5469,346.0263,388.8203,339.0395 M,0,87567,87589,388.8203,339.0395,386.0937,332.0527 M,0,87589,87611,386.0937,332.0527,383.3672,325.0659 M,0,87611,87633,383.3672,325.0659,381.3075,318.0604 M,0,87633,87655,381.3075,318.0604,383.6403,310.9324 M,0,87655,87677,383.6403,310.9324,385.9731,303.8044 M,0,87677,87699,385.9731,303.8044,388.3059,296.6765 M,0,87699,87721,388.3059,296.6765,390.6387,289.5485 M,0,87721,87743,390.6387,289.5485,392.9715,282.4205 M,0,87743,87765,392.9715,282.4205,395.3043,275.2925 M,0,87765,87787,395.3043,275.2925,392.9715,282.4205 M,0,87787,87809,392.9715,282.4205,390.6387,289.5485 M,0,87809,87831,390.6387,289.5485,388.3059,296.6765 M,0,87831,87853,388.3059,296.6765,385.9731,303.8044 M,0,87853,87876,385.9731,303.8044,383.6403,310.9324 M,0,87876,87898,383.6403,310.9324,381.3075,318.0604 M,0,87898,87920,381.3075,318.0604,383.3672,325.0659 M,0,87920,87942,383.3672,325.0659,386.0937,332.0527 M,0,87942,87964,386.0937,332.0527,388.8203,339.0395 M,0,87964,87986,388.8203,339.0395,391.5469,346.0263 M,0,87986,88008,391.5469,346.0263,394.2734,353.0132 M,0,88008,88030,394.2734,353.0132,397,360 M,0,88030,88207,397,360,356,404 M,0,88207,88229,356,404,348.6632,405.5563 M,0,88229,88251,348.6632,405.5563,341.3265,407.1125 M,0,88251,88273,341.3265,407.1125,333.9897,408.6689 M,0,88273,88295,333.9897,408.6689,326.653,410.2251 M,0,88295,88317,326.653,410.2251,319.3162,411.7814 M,0,88317,88339,319.3162,411.7814,311.9795,413.3377 M,0,88339,88361,311.9795,413.3377,304.6427,414.894 M,0,88361,88383,304.6427,414.894,297.306,416.4503 M,0,88383,88405,297.306,416.4503,289.9692,418.0065 M,0,88405,88427,289.9692,418.0065,282.6324,419.5628 M,0,88427,88449,282.6324,419.5628,275.2957,421.1191 M,0,88449,88471,275.2957,421.1191,267.9589,422.6754 M,0,88471,88493,267.9589,422.6754,260.6222,424.2317 M,0,88493,88515,260.6222,424.2317,253.2854,425.7879 M,0,88515,88537,253.2854,425.7879,245.9487,427.3442 M,0,88537,88559,245.9487,427.3442,238.6119,428.9005 M,0,88559,89090,238.6119,428.9005,75,351 M,0,89090,89266,75,351 M,0,89266,89288,75,351,80.97757,346.4803 M,0,89288,89310,80.97757,346.4803,87.00925,342.0565 M,0,89310,89332,87.00925,342.0565,93.28214,337.9769 M,0,89332,89354,93.28214,337.9769,99.77785,334.2542 M,0,89354,89376,99.77785,334.2542,106.4774,330.8999 M,0,89376,89398,106.4774,330.8999,113.3611,327.9247 M,0,89398,89420,113.3611,327.9247,120.5226,325.7176 M,0,89420,89442,120.5226,325.7176,127.7067,323.6356 M,0,89442,89619,127.7067,323.6356,172,282 M,0,89619,89641,172,282,177.9776,286.5197 M,0,89641,89663,177.9776,286.5197,184.0092,290.9435 M,0,89663,89685,184.0092,290.9435,190.2821,295.0231 M,0,89685,89707,190.2821,295.0231,196.7778,298.7458 M,0,89707,89729,196.7778,298.7458,203.4774,302.1002 M,0,89729,89751,203.4774,302.1002,210.3611,305.0753 M,0,89751,89773,210.3611,305.0753,217.5226,307.2824 M,0,89773,89795,217.5226,307.2824,224.7067,309.3644 M,0,89795,89972,224.7067,309.3644,283,321 M,0,89972,90325,283,321,363,231 M,0,90325,90347,363,231,370.4159,229.882 M,0,90347,90369,370.4159,229.882,377.8262,228.7326 M,0,90369,90391,377.8262,228.7326,385.2203,227.4827 M,0,90391,90413,385.2203,227.4827,392.5969,226.1325 M,0,90413,90435,392.5969,226.1325,399.9547,224.6824 M,0,90435,90457,399.9547,224.6824,407.2924,223.1325 M,0,90457,90479,407.2924,223.1325,414.6087,221.4831 M,0,90479,90501,414.6087,221.4831,421.8822,219.6551 M,0,90501,90523,421.8822,219.6551,429.1454,217.7896 M,0,90523,90545,429.1454,217.7896,436.3826,215.8258 M,0,90545,90567,436.3826,215.8258,443.5927,213.7638 M,0,90567,90589,443.5927,213.7638,450.7822,211.6289 M,0,90589,90611,450.7822,211.6289,443.5927,213.7638 M,0,90611,90633,443.5927,213.7638,436.3826,215.8258 M,0,90633,90655,436.3826,215.8258,429.1454,217.7896 M,0,90655,90677,429.1454,217.7896,421.8822,219.6551 M,0,90677,90700,421.8822,219.6551,414.6087,221.4831 M,0,90700,90722,414.6087,221.4831,407.2924,223.1325 M,0,90722,90744,407.2924,223.1325,399.9547,224.6824 M,0,90744,90766,399.9547,224.6824,392.5969,226.1325 M,0,90766,90788,392.5969,226.1325,385.2203,227.4827 M,0,90788,90810,385.2203,227.4827,377.8262,228.7326 M,0,90810,90832,377.8262,228.7326,370.4159,229.882 M,0,90832,90854,370.4159,229.882,363,231 M,0,90854,91031,363,231,305,212 M,0,91031,91053,305,212,303.4696,204.6582 M,0,91053,91075,303.4696,204.6582,302.2018,197.2667 M,0,91075,91097,302.2018,197.2667,301.2397,189.8293 M,0,91097,91119,301.2397,189.8293,300.6085,182.3565 M,0,91119,91141,300.6085,182.3565,300.3024,174.8634 M,0,91141,91163,300.3024,174.8634,300.2776,167.3638 M,0,91163,91185,300.2776,167.3638,300.436,159.8656 M,0,91185,91207,300.436,159.8656,300.6298,152.3681 M,0,91207,91229,300.6298,152.3681,300.7063,144.8687 M,0,91229,91251,300.7063,144.8687,300.5422,137.371 M,0,91251,91273,300.5422,137.371,300.0706,129.8865 M,0,91273,91295,300.0706,129.8865,299.2711,122.4299 M,0,91295,91317,299.2711,122.4299,298.1623,115.0129 M,0,91317,91339,298.1623,115.0129,296.7701,107.6437 M,0,91339,91361,296.7701,107.6437,295.1292,100.3258 M,0,91361,91383,295.1292,100.3258,293.278,93.05815 M,0,91383,92090,293.278,93.05815,140,278 M,0,92090,92266,140,278 M,0,92266,92443,140,278 M,0,92443,92465,140,278,133.7585,282.1329 M,0,92465,92487,133.7585,282.1329,127.7038,286.4786 M,0,92487,92509,127.7038,286.4786,122.0932,291.3865 M,0,92509,92531,122.0932,291.3865,116.978,296.8123 M,0,92531,92553,116.978,296.8123,112.4054,302.7067 M,0,92553,92575,112.4054,302.7067,108.4179,309.0164 M,0,92575,92597,108.4179,309.0164,105.0526,315.6841 M,0,92597,92619,105.0526,315.6841,102.3414,322.6497 M,0,92619,92641,102.3414,322.6497,100.3101,329.8497 M,0,92641,92663,100.3101,329.8497,98.97882,337.2187 M,0,92663,92685,98.97882,337.2187,98.36133,344.6895 M,0,92685,92707,98.36133,344.6895,98.95823,352.1515 M,0,92707,92729,98.95823,352.1515,99.85231,359.5501 M,0,92729,92751,99.85231,359.5501,101.4529,366.8301 M,0,92751,92773,101.4529,366.8301,103.7457,373.9249 M,0,92773,92795,103.7457,373.9249,106.4881,380.8927 M,0,92795,93148,106.4881,380.8927,212,440 M,0,93148,93170,212,440,211.4489,432.5203 M,0,93170,93192,211.4489,432.5203,210.8977,425.0406 M,0,93192,93214,210.8977,425.0406,210.3466,417.5608 M,0,93214,93236,210.3466,417.5608,209.7955,410.0811 M,0,93236,93258,209.7955,410.0811,209.2443,402.6014 M,0,93258,93280,209.2443,402.6014,208.6932,395.1217 M,0,93280,93302,208.6932,395.1217,208.142,387.6419 M,0,93302,93324,208.142,387.6419,207.5909,380.1622 M,0,93324,93346,207.5909,380.1622,207.0398,372.6825 M,0,93346,93368,207.0398,372.6825,206.4886,365.2028 M,0,93368,93390,206.4886,365.2028,205.9375,357.7231 M,0,93390,93412,205.9375,357.7231,205.3864,350.2433 M,0,93412,93434,205.3864,350.2433,205.9375,357.7231 M,0,93434,93456,205.9375,357.7231,206.4886,365.2028 M,0,93456,93478,206.4886,365.2028,207.0398,372.6825 M,0,93478,93500,207.0398,372.6825,207.5909,380.1622 M,0,93500,93523,207.5909,380.1622,208.142,387.6419 M,0,93523,93545,208.142,387.6419,208.6932,395.1217 M,0,93545,93567,208.6932,395.1217,209.2443,402.6014 M,0,93567,93589,209.2443,402.6014,209.7955,410.0811 M,0,93589,93611,209.7955,410.0811,210.3466,417.5608 M,0,93611,93633,210.3466,417.5608,210.8977,425.0406 M,0,93633,93655,210.8977,425.0406,211.4489,432.5203 M,0,93655,93677,211.4489,432.5203,212,440 M,0,93677,93854,212,440,264,411 M,0,93854,93876,264,411,271.3859,409.6966 M,0,93876,93898,271.3859,409.6966,278.7718,408.3932 M,0,93898,93920,278.7718,408.3932,286.1576,407.0898 M,0,93920,93942,286.1576,407.0898,293.5435,405.7864 M,0,93942,93964,293.5435,405.7864,300.9294,404.4831 M,0,93964,93986,300.9294,404.4831,308.3152,403.1797 M,0,93986,94008,308.3152,403.1797,315.6292,402.3331 M,0,94008,94030,315.6292,402.3331,322.2576,405.8423 M,0,94030,94052,322.2576,405.8423,328.886,409.3514 M,0,94052,94074,328.886,409.3514,335.9393,410.4566 M,0,94074,94096,335.9393,410.4566,343.369,409.4319 M,0,94096,94118,343.369,409.4319,350.7986,408.4071 M,0,94118,94140,350.7986,408.4071,358.2283,407.3823 M,0,94140,94162,358.2283,407.3823,365.6579,406.3575 M,0,94162,94184,365.6579,406.3575,373.0876,405.3327 M,0,94184,94206,373.0876,405.3327,380.5172,404.308 M,0,94206,94913,380.5172,404.308,554,238 M,0,94913,95090,554,238 M,0,95090,95266,554,238 M,0,95266,95288,554,238,554.9788,230.5646 M,0,95288,95310,554.9788,230.5646,556.0043,223.1367 M,0,95310,95332,556.0043,223.1367,557.1587,215.7276 M,0,95332,95354,557.1587,215.7276,558.4417,208.3396 M,0,95354,95376,558.4417,208.3396,559.8529,200.9749 M,0,95376,95398,559.8529,200.9749,561.392,193.6355 M,0,95398,95420,561.392,193.6355,563.0583,186.3238 M,0,95420,95442,563.0583,186.3238,564.8516,179.0418 M,0,95442,95464,564.8516,179.0418,563.0583,186.3238 M,0,95464,95486,563.0583,186.3238,561.392,193.6355 M,0,95486,95508,561.392,193.6355,559.8529,200.9749 M,0,95508,95530,559.8529,200.9749,558.4417,208.3396 M,0,95530,95552,558.4417,208.3396,557.1587,215.7276 M,0,95552,95574,557.1587,215.7276,556.0043,223.1367 M,0,95574,95596,556.0043,223.1367,554.9788,230.5646 M,0,95596,95618,554.9788,230.5646,554,238 M,0,95618,95972,554,238,467,321 M,0,95972,95994,467,321,469.2357,328.1586 M,0,95994,96016,469.2357,328.1586,471.4283,335.3295 M,0,96016,96038,471.4283,335.3295,473.5045,342.535 M,0,96038,96060,473.5045,342.535,475.4637,349.7733 M,0,96060,96082,475.4637,349.7733,477.3054,357.0425 M,0,96082,96104,477.3054,357.0425,479.0291,364.3408 M,0,96104,96126,479.0291,364.3408,480.6345,371.6662 M,0,96126,96148,480.6345,371.6662,482.1209,379.017 M,0,96148,96170,482.1209,379.017,483.4881,386.3911 M,0,96170,96192,483.4881,386.3911,484.6542,393.7994 M,0,96192,96214,484.6542,393.7994,485.7659,401.2151 M,0,96214,96236,485.7659,401.2151,486.7573,408.6479 M,0,96236,96258,486.7573,408.6479,485.7659,401.2151 M,0,96258,96280,485.7659,401.2151,484.6542,393.7994 M,0,96280,96302,484.6542,393.7994,483.4881,386.3911 M,0,96302,96324,483.4881,386.3911,482.1209,379.017 M,0,96324,96347,482.1209,379.017,480.6345,371.6662 M,0,96347,96369,480.6345,371.6662,479.0291,364.3408 M,0,96369,96391,479.0291,364.3408,477.3054,357.0425 M,0,96391,96413,477.3054,357.0425,475.4637,349.7733 M,0,96413,96435,475.4637,349.7733,473.5045,342.535 M,0,96435,96457,473.5045,342.535,471.4283,335.3295 M,0,96457,96479,471.4283,335.3295,469.2357,328.1586 M,0,96479,96501,469.2357,328.1586,467,321 M,0,96501,96678,467,321,425,277 M,0,96678,96700,425,277,418.1688,280.0599 M,0,96700,96722,418.1688,280.0599,411.2615,282.8532 M,0,96722,96744,411.2615,282.8532,404.114,284.9642 M,0,96744,96766,404.114,284.9642,396.7924,286.3727 M,0,96766,96788,396.7924,286.3727,389.3646,287.0648 M,0,96788,96810,389.3646,287.0648,381.8997,287.0333 M,0,96810,96832,381.8997,287.0333,374.4669,286.2769 M,0,96832,96854,374.4669,286.2769,367.1355,284.8016 M,0,96854,96876,367.1355,284.8016,359.9742,282.6192 M,0,96876,96898,359.9742,282.6192,353.0501,279.7484 M,0,96898,96920,353.0501,279.7484,346.7019,275.7825 M,0,96920,96942,346.7019,275.7825,340.5487,271.5819 M,0,96942,96964,340.5487,271.5819,334.8305,266.8034 M,0,96964,96986,334.8305,266.8034,329.6007,261.4909 M,0,96986,97008,329.6007,261.4909,324.9084,255.6934 M,0,97008,97030,324.9084,255.6934,320.7979,249.4641 M,0,97030,97560,320.7979,249.4641,231,92 M,0,97560,97582,231,92,229.8271,99.40772 M,0,97582,97604,229.8271,99.40772,228.6542,106.8154 M,0,97604,97626,228.6542,106.8154,227.4813,114.2232 M,0,97626,97648,227.4813,114.2232,226.3084,121.6309 M,0,97648,97670,226.3084,121.6309,225.1356,129.0386 M,0,97670,97692,225.1356,129.0386,223.9627,136.4463 M,0,97692,97714,223.9627,136.4463,222.7898,143.854 M,0,97714,97736,222.7898,143.854,221.6169,151.2618 M,0,97736,97758,221.6169,151.2618,220.444,158.6695 M,0,97758,97780,220.444,158.6695,219.2711,166.0772 M,0,97780,97802,219.2711,166.0772,218.0982,173.4849 M,0,97802,97824,218.0982,173.4849,216.9253,180.8926 M,0,97824,97846,216.9253,180.8926,215.7524,188.3004 M,0,97846,97868,215.7524,188.3004,214.5796,195.7081 M,0,97868,97890,214.5796,195.7081,213.4067,203.1158 M,0,97890,97912,213.4067,203.1158,212.2338,210.5235 M,0,97912,98090,212.2338,210.5235,169,253 M,0,98090,98112,169,253,170.2499,260.3951 M,0,98112,98134,170.2499,260.3951,171.4998,267.7902 M,0,98134,98156,171.4998,267.7902,172.7496,275.1854 M,0,98156,98178,172.7496,275.1854,173.9995,282.5805 M,0,98178,98200,173.9995,282.5805,175.2494,289.9756 M,0,98200,98222,175.2494,289.9756,176.4993,297.3707 M,0,98222,98244,176.4993,297.3707,177.7491,304.7658 M,0,98244,98266,177.7491,304.7658,178.999,312.1609 M,0,98266,98443,178.999,312.1609,225,349 M,0,98443,98795,225,349,343,329 M,0,98795,98817,343,329,341.2141,336.2842 M,0,98817,98839,341.2141,336.2842,339.4481,343.5731 M,0,98839,98861,339.4481,343.5731,337.7281,350.873 M,0,98861,98883,337.7281,350.873,336.0544,358.1837 M,0,98883,98905,336.0544,358.1837,334.4271,365.5049 M,0,98905,98927,334.4271,365.5049,332.846,372.8362 M,0,98927,98949,332.846,372.8362,331.3115,380.1773 M,0,98949,98971,331.3115,380.1773,329.8234,387.5281 M,0,98971,98993,329.8234,387.5281,328.3819,394.8881 M,0,98993,99015,328.3819,394.8881,326.987,402.2571 M,0,99015,99037,326.987,402.2571,325.6388,409.6348 M,0,99037,99059,325.6388,409.6348,324.3373,417.021 M,0,99059,99081,324.3373,417.021,325.6388,409.6348 M,0,99081,99103,325.6388,409.6348,326.987,402.2571 M,0,99103,99125,326.987,402.2571,328.3819,394.8881 M,0,99125,99147,328.3819,394.8881,329.8234,387.5281 M,0,99147,99170,329.8234,387.5281,331.3115,380.1773 M,0,99170,99192,331.3115,380.1773,332.846,372.8362 M,0,99192,99214,332.846,372.8362,334.4271,365.5049 M,0,99214,99236,334.4271,365.5049,336.0544,358.1837 M,0,99236,99258,336.0544,358.1837,337.7281,350.873 M,0,99258,99280,337.7281,350.873,339.4481,343.5731 M,0,99280,99302,339.4481,343.5731,341.2141,336.2842 M,0,99302,99324,341.2141,336.2842,343,329 M,0,99324,99501,343,329,386,286 M,0,99501,99523,386,286,389.5977,279.4391 M,0,99523,99545,389.5977,279.4391,392.8656,272.753 M,0,99545,99567,392.8656,272.753,395.3789,265.7471 M,0,99567,99589,395.3789,265.7471,397.1071,258.506 M,0,99589,99611,397.1071,258.506,398.0291,251.1169 M,0,99611,99633,398.0291,251.1169,398.133,243.6687 M,0,99633,99655,398.133,243.6687,397.4171,236.2514 M,0,99655,99677,397.4171,236.2514,395.8891,228.9544 M,0,99677,99699,395.8891,228.9544,393.5669,221.866 M,0,99699,99721,393.5669,221.866,390.4773,215.072 M,0,99721,99743,390.4773,215.072,386.6567,208.6548 M,0,99743,99765,386.6567,208.6548,382.1503,202.6925 M,0,99765,99787,382.1503,202.6925,377.0112,197.258 M,0,99787,99809,377.0112,197.258,371.3007,192.4177 M,0,99809,99831,371.3007,192.4177,365.0865,188.2314 M,0,99831,99853,365.0865,188.2314,358.2444,185.2028 M,0,99853,100384,358.2444,185.2028,196,104 M,0,100384,100560,196,104 M,0,100560,100582,196,104,193.4708,111.0607 M,0,100582,100604,193.4708,111.0607,190.9416,118.1214 M,0,100604,100626,190.9416,118.1214,188.4124,125.182 M,0,100626,100648,188.4124,125.182,185.8832,132.2427 M,0,100648,100670,185.8832,132.2427,183.354,139.3034 M,0,100670,100692,183.354,139.3034,180.8248,146.3641 M,0,100692,100714,180.8248,146.3641,178.2956,153.4247 M,0,100714,100736,178.2956,153.4247,175.7664,160.4854 M,0,100736,100913,175.7664,160.4854,123,189 M,0,100913,100935,123,189,124.8708,196.2629 M,0,100935,100957,124.8708,196.2629,126.7415,203.5259 M,0,100957,100979,126.7415,203.5259,128.6123,210.7888 M,0,100979,101001,128.6123,210.7888,130.483,218.0518 M,0,101001,101023,130.483,218.0518,132.3538,225.3147 M,0,101023,101045,132.3538,225.3147,134.2245,232.5776 M,0,101045,101067,134.2245,232.5776,136.0953,239.8406 M,0,101067,101089,136.0953,239.8406,137.9661,247.1035 M,0,101089,101266,137.9661,247.1035,191,274 M,0,101266,101619,191,274,148,386 M,0,101619,101641,148,386,141.2314,382.7695 M,0,101641,101663,141.2314,382.7695,134.4628,379.5391 M,0,101663,101685,134.4628,379.5391,127.6942,376.3086 M,0,101685,101707,127.6942,376.3086,120.9256,373.0781 M,0,101707,101729,120.9256,373.0781,114.157,369.8477 M,0,101729,101751,114.157,369.8477,107.3884,366.6172 M,0,101751,101773,107.3884,366.6172,100.3103,365.6442 M,0,101773,101795,100.3103,365.6442,92.92208,366.9342 M,0,101795,101817,92.92208,366.9342,85.53386,368.2242 M,0,101817,101839,85.53386,368.2242,78.14563,369.5143 M,0,101839,101861,78.14563,369.5143,70.7574,370.8043 M,0,101861,101883,70.7574,370.8043,63.36918,372.0943 M,0,101883,101905,63.36918,372.0943,70.7574,370.8043 M,0,101905,101927,70.7574,370.8043,78.14563,369.5143 M,0,101927,101949,78.14563,369.5143,85.53386,368.2242 M,0,101949,101971,85.53386,368.2242,92.92208,366.9342 M,0,101971,101994,92.92208,366.9342,100.3103,365.6442 M,0,101994,102016,100.3103,365.6442,107.3884,366.6172 M,0,102016,102038,107.3884,366.6172,114.157,369.8477 M,0,102038,102060,114.157,369.8477,120.9256,373.0781 M,0,102060,102082,120.9256,373.0781,127.6942,376.3086 M,0,102082,102104,127.6942,376.3086,134.4628,379.5391 M,0,102104,102126,134.4628,379.5391,141.2314,382.7695 M,0,102126,102148,141.2314,382.7695,148,386 M,0,102148,102325,148,386,191,428 M,0,102325,102347,191,428,198.4294,426.9732 M,0,102347,102369,198.4294,426.9732,205.8587,425.9464 M,0,102369,102391,205.8587,425.9464,213.2881,424.9195 M,0,102391,102413,213.2881,424.9195,220.7175,423.8927 M,0,102413,102435,220.7175,423.8927,228.1469,422.8659 M,0,102435,102457,228.1469,422.8659,235.5763,421.8391 M,0,102457,102479,235.5763,421.8391,243.0056,420.8122 M,0,102479,102501,243.0056,420.8122,250.435,419.7854 M,0,102501,102523,250.435,419.7854,257.8644,418.7586 M,0,102523,102545,257.8644,418.7586,265.2938,417.7318 M,0,102545,102567,265.2938,417.7318,272.7231,416.7049 M,0,102567,102589,272.7231,416.7049,280.1525,415.6781 M,0,102589,102611,280.1525,415.6781,287.5819,414.6513 M,0,102611,102633,287.5819,414.6513,295.0113,413.6245 M,0,102633,102655,295.0113,413.6245,302.4406,412.5976 M,0,102655,102677,302.4406,412.5976,309.87,411.5708 M,0,102677,103031,309.87,411.5708,403,335 M,0,103031,103053,403,335,410.3949,336.2514 M,0,103053,103075,410.3949,336.2514,417.7897,337.5029 M,0,103075,103097,417.7897,337.5029,425.1846,338.7543 M,0,103097,103119,425.1846,338.7543,432.5794,340.0057 M,0,103119,103141,432.5794,340.0057,439.9743,341.2572 M,0,103141,103163,439.9743,341.2572,447.3691,342.5086 M,0,103163,103185,447.3691,342.5086,454.764,343.7601 M,0,103185,103207,454.764,343.7601,462.1588,345.0115 M,0,103207,103229,462.1588,345.0115,454.764,343.7601 M,0,103229,103251,454.764,343.7601,447.3691,342.5086 M,0,103251,103273,447.3691,342.5086,439.9743,341.2572 M,0,103273,103295,439.9743,341.2572,432.5794,340.0057 M,0,103295,103317,432.5794,340.0057,425.1846,338.7543 M,0,103317,103339,425.1846,338.7543,417.7897,337.5029 M,0,103339,103361,417.7897,337.5029,410.3949,336.2514 M,0,103361,103383,410.3949,336.2514,403,335 M,0,103383,103560,403,335,357,295 M,0,103560,103582,357,295,353.2619,288.515 M,0,103582,103604,353.2619,288.515,349.8066,281.9138 M,0,103604,103626,349.8066,281.9138,347.0247,275.0005 M,0,103626,103648,347.0247,275.0005,344.9438,267.8429 M,0,103648,103670,344.9438,267.8429,343.5849,260.5113 M,0,103670,103692,343.5849,260.5113,342.9621,253.0778 M,0,103692,103714,342.9621,253.0778,343.082,245.6155 M,0,103714,103736,343.082,245.6155,343.9445,238.1978 M,0,103736,103758,343.9445,238.1978,345.5421,230.898 M,0,103758,103780,345.5421,230.898,347.86,223.7881 M,0,103780,103802,347.86,223.7881,350.8769,216.9387 M,0,103802,103824,350.8769,216.9387,354.564,210.4178 M,0,103824,103846,354.564,210.4178,359.2343,204.5682 M,0,103846,103868,359.2343,204.5682,364.1643,198.9824 M,0,103868,103890,364.1643,198.9824,369.626,193.9144 M,0,103890,103912,369.626,193.9144,375.5659,189.414 M,0,103912,104090,375.5659,189.414,429,162 M,0,104090,104443,429,162,542,200
Sprite,Background,Centre,"sb/pixel.png",0,0 M,0,107266,109266,158,520,158,-40 F,0,107266,109266,1 F,0,107266,114325,0.8 L,107266,4 V,0,0,1200,4,4,4,-4 R,0,0,1200,0,6.283185 C,0,107266,,119,214,244
Sprite,Background,Centre,"sb/pixel.png",0,0 M,0,107310,109310,161,520,161,-40 F,0,107310,109310,1 F,0,107266,114325,0.8 L,107310,4 V,0,0,1200,4,4,4,-4 R,0,0,1200,0,6.283185 C,0,107310,,119,214,244
Sprite,Background,Centre,"sb/pixel.png",0,0 M,0,107354,109354,223,520,223,-40 F,0,107354,109354,1 F,0,107266,114325,0.8 L,107354,4 V,0,0,1200,4,4,4,-4 R,0,0,1200,0,6.283185 C,0,107354,,86,191,237
Sprite,Background,Centre,"sb/pixel.png",0,0 M,0,107398,109398,95,520,95,-40 F,0,107398,109398,1 F,0,107266,114325,0.8 L,107398,4 V,0,0,1200,4,4,4,-4 R,0,0,1200,0,6.283185 C,0,107398,,119,214,244
Sprite,Background,Centre,"sb/pixel.png",0,0 M,0,107442,109442,22,520,22,-40 F,0,107442,109442,1 F,0,107266,114325,0.8 L,107442,4 V,0,0,1200,4,4,4,-4 R,0,0,1200,0,6.283185 C,0,107442,,86,191,237
Sprite,Background,Centre,"sb/pixel.png",0,0 M,0,107486,109486,119,520,119,-40 F,0,107486,109486,1 F,0,107266,114325,0.8 L,107486,4 V,0,0,1200,4,4,4,-4 R,0,0,1200,0,6.283185 C,0,107486,,119,214,244
Sprite,Background,Centre,"sb/pixel.png",0,0 M,0,107530,109530,591,520,591,-40 F,0,107530,109530,1 F,0,107266,114325,0.8 L,107530,4 V,0,0,1200,4,4,4,-4 R,0,0,1200,0,6.283185 C,0,107530,,119,214,244
Sprite,Background,Centre,"sb/pixel.png",0,0 M,0,107574,109574,707,520,707,-40 F,0,107574,109574,1 F,0,107266,114325,0.8 L,107574,4 V,0,0,1200,4,4,4,-4 R,0,0,1200,0,6.283185 C,0,107574,,119,214,244
Sprite,Background,Centre,"sb/pixel.png",0,0 M,0,107618,109618,353,520,353,-40 F,0,107618,109618,1 F,0,107266,114325,0.8 L,107618,4 V,0,0,1200,4,4,4,-4 R,0,0,1200,0,6.283185 C,0,107618,,119,214,244
Sprite,Background,Centre,"sb/pixel.png",0,0 M,0,107663,109663,231,520,231,-40 F,0,107663,109663,1 F,0,107266,114325,0.8 L,107663,4 V,0,0,1200,4,4,4,-4 R,0,0,1200,0,6.283185 C,0,107663,,86,191,237
Sprite,Background,Centre,"sb/pixel.png",0,0 M,0,107707,109707,-53,520,-53,-40 F,0,107707,109707,1 F,0,107266,114325,0.8 L,107707,4 V,0,0,1200,4,4,4,-4 R,0,0,1200,0,6.283185 C,0,107707,,119,214,244
Sprite,Background,Centre,"sb/pixel.png",0,0 M,0,107751,109751,456,520,456,-40 F,0,107751,109751,1 F,0,107266,114325,0.8 L,107751,4 V,0,0,1200,4,4,4,-4 R,0,0,1200,0,6.283185 C,0,107751,,119,214,244
Sprite,Background,Centre,"sb/pixel.png",0,0 M,0,107795,109795,359,520,359,-40 F,0,107795,109795,1 F,0,107266,114325,0.8 L,107795,4 V,0,0,1200,4,4,4,-4 R,0,0,1200,0,6.283185 C,0,107795,,119,214,244
Sprite,Background,Centre,"sb/pixel.png",0,0 M,0,107839,109839,415,520,415,-40 F,0,107839,109839,1 F,0,107266,114325,0.8 L,107839,4 V,0,0,1200,4,4,4,-4 R,0,0,1200,0,6.283185 C,0,107839,,86,191,237
Sprite,Background,Centre,"sb/pixel.png",0,0 M,0,107883,109883,50,520,50,-40 F,0,107883,109883,1 F,0,107266,114325,0.8 L,107883,4 V,0,0,1200,4,4,4,-4 R,0,0,1200,0,6.283185 C,0,107883,,86,191,237
Sprite,Background,Centre,"sb/pixel.png",0,0 M,0,107927,109927,429,520,429,-40 F,0,107927,109927,1 F,0,107266,114325,0.8 L,107927,4 V,0,0,1200,4,4,4,-4 R,0,0,1200,0,6.283185 C,0,107927,,119,214,244
Sprite,Background,Centre,"sb/pixel.png",0,0 M,0,107971,109971,-64,520,-64,-40 F,0,107971,109971,1 F,0,107266,114325,0.8 L,107971,4 V,0,0,1200,4,4,4,-4 R,0,0,1200,0,6.283185 C,0,107971,,86,191,237
Sprite,Background,Centre,"sb/pixel.png",0,0 M,0,108016,110016,40,520,40,-40 F,0,108016,110016,1 F,0,107266,114325,0.8 L,108016,4 V,0,0,1200,4,4,4,-4 R,0,0,1200,0,6.283185 C,0,108016,,86,191,237
Sprite,Background,Centre,"sb/pixel.png",0,0 M,0,108060,110060,600,520,600,-40 F,0,108060,110060,1 F,0,107266,114325,0.8 L,108060,4 V,0,0,1200,4,4,4,-4 R,0,0,1200,0,6.283185 C,0,108060,,119,214,244
Sprite,Background,Centre,"sb/pixel.png",0,0 M,0,108104,110104,553,520,553,-40 F,0,108104,110104,1 F,0,107266,114325,0.8 L,108104,4 V,0,0,1200,4,4,4,-4 R,0,0,1200,0,6.283185 C,0,108104,,86,191,237
Sprite,Background,Centre,"sb/pixel.png",0,0 M,0,108148,110148,468,520,468,-40 F,0,108148,110148,1 F,0,107266,114325,0.8 L,108148,4 V,0,0,1200,4,4,4,-4 R,0,0,1200,0,6.283185 C,0,108148,,86,191,237
Sprite,Background,Centre,"sb/pixel.png",0,0 M,0,108192,110192,312,520,312,-40 F,0,108192,110192,1 F,0,107266,114325,0.8 L,108192,4 V,0,0,1200,4,4,4,-4 R,0,0,1200,0,6.283185 C,0,108192,,86,191,237
Sprite,Background,Centre,"sb/pixel.png",0,0 M,0,108236,110236,475,520,475,-40 F,0,108236,110236,1 F,0,107266,114325,0.8 L,108236,4 V,0,0,1200,4,4,4,-4 R,0,0,1200,0,6.283185 C,0,108236,,86,191,237
Sprite,Background,Centre,"sb/pixel.png",0,0 M,0,108280,110280,-16,520,-16,-40 F,0,108280,110280,1 F,0,107266,114325,0.8 L,108280,4 V,0,0,1200,4,4,4,-4 R,0,0,1200,0,6.283185 C,0,108280,,86,191,237
Sprite,Background,Centre,"sb/pixel.png",0,0 M,0,108324,110324,635,520,635,-40 F,0,108324,110324,1 F,0,107266,114325,0.8 L,108324,4 V,0,0,1200,4,4,4,-4 R,0,0,1200,0,6.283185 C,0,108324,,119,214,244
Sprite,Background,Centre,"sb/pixel.png",0,0 M,0,108368,110368,736,520,736,-40 F,0,108368,110368,1 F,0,107266,114325,0.8 L,108368,4 V,0,0,1200,4,4,4,-4 R,0,0,1200,0,6.283185 C,0,108368,,119,214,244
Sprite,Background,Centre,"sb/pixel.png",0,0 M,0,108413,110413,699,520,699,-40 F,0,108413,110413,1 F,0,107266,114325,0.8 L,108413,4 V,0,0,1200,4,4,4,-4 R,0,0,1200,0,6.283185 C,0,108413,,86,191,237
Sprite,Background,Centre,"sb/pixel.png",0,0 M,0,108457,110457,376,520,376,-40 F,0,108457,110457,1 F,0,107266,114325,0.8 L,108457,4 V,0,0,1200,4,4,4,-4 R,0,0,1200,0,6.283185 C,0,108457,,119,214,244
Sprite,Background,Centre,"sb/pixel.png",0,0 M,0,108501,110501,436,520,436,-40 F,0,108501,110501,1 F,0,107266,114325,0.8 L,108501,4 V,0,0,1200,4,4,4,-4 R,0,0,1200,0,6.283185 C,0,108501,,119,214,244
Sprite,Background,Centre,"sb/pixel.png",0,0 M,0,108545,110545,343,520,343,-40 F,0,108545,110545,1 F,0,107266,114325,0.8 L,108545,4 V,0,0,1200,4,4,4,-4 R,0,0,1200,0,6.283185 C,0,108545,,119,214,244
Sprite,Background,Centre,"sb/pixel.png",0,0 M,0,108589,110589,677,520,677,-40 F,0,108589,110589,1 F,0,107266,114325,0.8 L,108589,4 V,0,0,1200,4,4,4,-4 R,0,0,1200,0,6.283185 C,0,108589,,119,214,244
Sprite,Background,Centre,"sb/pixel.png",0,0 M,0,108633,110633,696,520,696,-40 F,0,108633,110633,1 F,0,107266,114325,0.8 L,108633,4 V,0,0,1200,4,4,4,-4 R,0,0,1200,0,6.283185 C,0,108633,,119,214,244
Sprite,Background,Centre,"sb/pixel.png",0,0 M,0,108677,110677,193,520,193,-40 F,0,108677,110677,1 F,0,107266,114325,0.8 L,108677,4 V,0,0,1200,4,4,4,-4 R,0,0,1200,0,6.283185 C,0,108677,,86,191,237
Sprite,Background,Centre,"sb/pixel.png",0,0 M,0,108721,110721,191,520,191,-40 F,0,108721,110721,1 F,0,107266,114325,0.8 L,108721,4 V,0,0,1200,4,4,4,-4 R,0,0,1200,0,6.283185 C,0,108721,,119,214,244
Sprite,Background,Centre,"sb/pixel.png",0,0 M,0,108766,110766,106,520,106,-40 F,0,108766,110766,1 F,0,107266,114325,0.8 L,108766,4 V,0,0,1200,4,4,4,-4 R,0,0,1200,0,6.283185 C,0,108766,,119,214,244
Sprite,Background,Centre,"sb/pixel.png",0,0 M,0,108810,110810,49,520,49,-40 F,0,108810,110810,1 F,0,107266,114325,0.8 L,108810,4 V,0,0,1200,4,4,4,-4 R,0,0,1200,0,6.283185 C,0,108810,,119,214,244
Sprite,Background,Centre,"sb/pixel.png",0,0 M,0,108854,110854,293,520,293,-40 F,0,108854,110854,1 F,0,107266,114325,0.8 L,108854,4 V,0,0,1200,4,4,4,-4 R,0,0,1200,0,6.283185 C,0,108854,,119,214,244
Sprite,Background,Centre,"sb/pixel.png",0,0 M,0,108898,110898,-94,520,-94,-40 F,0,108898,110898,1 F,0,107266,114325,0.8 L,108898,4 V,0,0,1200,4,4,4,-4 R,0,0,1200,0,6.283185 C,0,108898,,119,214,244
Sprite,Background,Centre,"sb/pixel.png",0,0 M,0,108942,110942,555,520,555,-40 F,0,108942,110942,1 F,0,107266,114325,0.8 L,108942,4 V,0,0,1200,4,4,4,-4 R,0,0,1200,0,6.283185 C,0,108942,,86,191,237
Sprite,Background,Centre,"sb/pixel.png",0,0 M,0,108986,110986,353,520,353,-40 F,0,108986,110986,1 F,0,107266,114325,0.8 L,108986,4 V,0,0,1200,4,4,4,-4 R,0,0,1200,0,6.283185 C,0,108986,,86,191,237
Sprite,Background,Centre,"sb/pixel.png",0,0 M,0,109030,111030,-55,520,-55,-40 F,0,109030,111030,1 F,0,107266,114325,0.8 L,109030,4 V,0,0,1200,4,4,4,-4 R,0,0,1200,0,6.283185 C,0,109030,,119,214,244
Sprite,Background,Centre,"sb/pixel.png",0,0 M,0,109074,111074,-29,520,-29,-40 F,0,109074,111074,1 F,0,107266,114325,0.8 L,109074,4 V,0,0,1200,4,4,4,-4 R,0,0,1200,0,6.283185 C,0,109074,,119,214,244
Sprite,Background,Centre,"sb/pixel.png",0,0 M,0,109118,111118,575,520,575,-40 F,0,109118,111118,1 F,0,107266,114325,0.8 L,109118,4 V,0,0,1200,4,4,4,-4 R,0,0,1200,0,6.283185 C,0,109118,,119,214,244
Sprite,Background,Centre,"sb/pixel.png",0,0 M,0,109163,111163,242,520,242,-40 F,0,109163,111163,1 F,0,107266,114325,0.8 L,109163,4 V,0,0,1200,4,4,4,-4 R,0,0,1200,0,6.283185 C,0,109163,,119,214,244
Sprite,Background,Centre,"sb/pixel.png",0,0 M,0,109207,111207,89,520,89,-40 F,0,109207,111207,1 F,0,107266,114325,0.8 L,109207,4 V,0,0,1200,4,4,4,-4 R,0,0,1200,0,6.283185 C,0,109207,,119,214,244
Sprite,Background,Centre,"sb/pixel.png",0,0 M,0,109251,111251,-43,520,-43,-40 F,0,109251,111251,1 F,0,107266,114325,0.8 L,109251,4 V,0,0,1200,4,4,4,-4 R,0,0,1200,0,6.283185 C,0,109251,,86,191,237
Sprite,Background,Centre,"sb/pixel.png",0,0 M,0,109295,111295,519,520,519,-40 F,0,109295,111295,1 F,0,107266,114325,0.8 L,109295,4 V,0,0,1200,4,4,4,-4 R,0,0,1200,0,6.283185 C,0,109295,,86,191,237
Sprite,Background,Centre,"sb/pixel.png",0,0 M,0,109339,111339,-69,520,-69,-40 F,0,109339,111339,1 F,0,107266,114325,0.8 L,109339,4 V,0,0,1200,4,4,4,-4 R,0,0,1200,0,6.283185 C,0,109339,,119,214,244
Sprite,Background,Centre,"sb/pixel.png",0,0 M,0,109383,111383,581,520,581,-40 F,0,109383,111383,1 F,0,107266,114325,0.8 L,109383,4 V,0,0,1200,4,4,4,-4 R,0,0,1200,0,6.283185 C,0,109383,,119,214,244
Sprite,Background,Centre,"sb/pixel.png",0,0 M,0,109427,111427,221,520,221,-40 F,0,109427,111427,1 F,0,107266,114325,0.8 L,109427,4 V,0,0,1200,4,4,4,-4 R,0,0,1200,0,6.283185 C,0,109427,,86,191,237
Sprite,Background,Centre,"sb/pixel.png",0,0 M,0,109471,111471,195,520,195,-40 F,0,109471,111471,1 F,0,107266,114325,0.8 L,109471,4 V,0,0,1200,4,4,4,-4 R,0,0,1200,0,6.283185 C,0,109471,,119,214,244
Sprite,Background,Centre,"sb/pixel.png",0,0 M,0,109516,111516,189,520,189,-40 F,0,109516,111516,1 F,0,107266,114325,0.8 L,109516,4 V,0,0,1200,4,4,4,-4 R,0,0,1200,0,6.283185 C,0,109516,,86,191,237
Sprite,Background,Centre,"sb/pixel.png",0,0 M,0,109560,111560,698,520,698,-40 F,0,109560,111560,1 F,0,107266,114325,0.8 L,109560,4 V,0,0,1200,4,4,4,-4 R,0,0,1200,0,6.283185 C,0,109560,,86,191,237
Sprite,Background,Centre,"sb/pixel.png",0,0 M,0,109604,111604,538,520,538,-40 F,0,109604,111604,1 F,0,107266,114325,0.8 L,109604,4 V,0,0,1200,4,4,4,-4 R,0,0,1200,0,6.283185 C,0,109604,,86,191,237
Sprite,Background,Centre,"sb/pixel.png",0,0 M,0,109648,111648,584,520,584,-40 F,0,109648,111648,1 F,0,107266,114325,0.8 L,109648,4 V,0,0,1200,4,4,4,-4 R,0,0,1200,0,6.283185 C,0,109648,,119,214,244
Sprite,Background,Centre,"sb/pixel.png",0,0 M,0,109692,111692,121,520,121,-40 F,0,109692,111692,1 F,0,107266,114325,0.8 L,109692,4 V,0,0,1200,4,4,4,-4 R,0,0,1200,0,6.283185 C,0,109692,,86,191,237
Sprite,Background,Centre,"sb/pixel.png",0,0 M,0,109736,111736,365,520,365,-40 F,0,109736,111736,1 F,0,107266,114325,0.8 L,109736,4 V,0,0,1200,4,4,4,-4 R,0,0,1200,0,6.283185 C,0,109736,,86,191,237
Sprite,Background,Centre,"sb/pixel.png",0,0 M,0,109780,111780,27,520,27,-40 F,0,109780,111780,1 F,0,107266,114325,0.8 L,109780,4 V,0,0,1200,4,4,4,-4 R,0,0,1200,0,6.283185 C,0,109780,,86,191,237
Sprite,Background,Centre,"sb/pixel.png",0,0 M,0,109824,111824,49,520,49,-40 F,0,109824,111824,1 F,0,107266,114325,0.8 L,109824,4 V,0,0,1200,4,4,4,-4 R,0,0,1200,0,6.283185 C,0,109824,,86,191,237
Sprite,Background,Centre,"sb/pixel.png",0,0 M,0,109868,111868,375,520,375,-40 F,0,109868,111868,1 F,0,107266,114325,0.8 L,109868,4 V,0,0,1200,4,4,4,-4 R,0,0,1200,0,6.283185 C,0,109868,,86,191,237
Sprite,Background,Centre,"sb/pixel.png",0,0 M,0,109913,111913,321,520,321,-40 F,0,109913,111913,1 F,0,107266,114325,0.8 L,109913,4 V,0,0,1200,4,4,4,-4 R,0,0,1200,0,6.283185 C,0,109913,,119,214,244
Sprite,Background,Centre,"sb/pixel.png",0,0 M,0,109957,111957,569,520,569,-40 F,0,109957,111957,1 F,0,107266,114325,0.8 L,109957,4 V,0,0,1200,4,4,4,-4 R,0,0,1200,0,6.283185 C,0,109957,,119,214,244
Sprite,Background,Centre,"sb/pixel.png",0,0 M,0,110001,112001,34,520,34,-40 F,0,110001,112001,1 F,0,107266,114325,0.8 L,110001,4 V,0,0,1200,4,4,4,-4 R,0,0,1200,0,6.283185 C,0,110001,,119,214,244
Sprite,Background,Centre,"sb/pixel.png",0,0 M,0,110045,112045,358,520,358,-40 F,0,110045,112045,1 F,0,107266,114325,0.8 L,110045,4 V,0,0,1200,4,4,4,-4 R,0,0,1200,0,6.283185 C,0,110045,,86,191,237
Sprite,Background,Centre,"sb/pixel.png",0,0 M,0,110089,112089,224,520,224,-40 F,0,110089,112089,1 F,0,107266,114325,0.8 L,110089,4 V,0,0,1200,4,4,4,-4 R,0,0,1200,0,6.283185 C,0,110089,,86,191,237
Sprite,Background,Centre,"sb/pixel.png",0,0 M,0,110133,112133,329,520,329,-40 F,0,110133,112133,1 F,0,107266,114325,0.8 L,110133,4 V,0,0,1200,4,4,4,-4 R,0,0,1200,0,6.283185 C,0,110133,,86,191,237
Sprite,Background,Centre,"sb/pixel.png",0,0 M,0,110177,112177,353,520,353,-40 F,0,110177,112177,1 F,0,107266,114325,0.8 L,110177,4 V,0,0,1200,4,4,4,-4 R,0,0,1200,0,6.283185 C,0,110177,,86,191,237
Sprite,Background,Centre,"sb/pixel.png",0,0 M,0,110221,112221,310,520,310,-40 F,0,110221,112221,1 F,0,107266,114325,0.8 L,110221,4 V,0,0,1200,4,4,4,-4 R,0,0,1200,0,6.283185 C,0,110221,,86,191,237
Sprite,Background,Centre,"sb/pixel.png",0,0 M,0,110266,112266,463,520,463,-40 F,0,110266,112266,1 F,0,107266,114325,0.8 L,110266,4 V,0,0,1200,4,4,4,-4 R,0,0,1200,0,6.283185 C,0,110266,,119,214,244
Sprite,Background,Centre,"sb/pixel.png",0,0 M,0,110310,112310,-8,520,-8,-40 F,0,110310,112310,1 F,0,107266,114325,0.8 L,110310,4 V,0,0,1200,4,4,4,-4 R,0,0,1200,0,6.283185 C,0,110310,,119,214,244
Sprite,Background,Centre,"sb/pixel.png",0,0 M,0,110354,112354,445,520,445,-40 F,0,110354,112354,1 F,0,107266,114325,0.8 L,110354,4 V,0,0,1200,4,4,4,-4 R,0,0,1200,0,6.283185 C,0,110354,,86,191,237
Sprite,Background,Centre,"sb/pixel.png",0,0 M,0,110398,112398,248,520,248,-40 F,0,110398,112398,1 F,0,107266,114325,0.8 L,110398,4 V,0,0,1200,4,4,4,-4 R,0,0,1200,0,6.283185 C,0,110398,,86,191,237
Sprite,Background,Centre,"sb/pixel.png",0,0 M,0,110442,112442,628,520,628,-40 F,0,110442,112442,1 F,0,107266,114325,0.8 L,110442,4 V,0,0,1200,4,4,4,-4 R,0,0,1200,0,6.283185 C,0,110442,,119,214,244
Sprite,Background,Centre,"sb/pixel.png",0,0 M,0,110486,112486,47,520,47,-40 F,0,110486,112486,1 F,0,107266,114325,0.8 L,110486,4 V,0,0,1200,4,4,4,-4 R,0,0,1200,0,6.283185 C,0,110486,,119,214,244
Sprite,Background,Centre,"sb/pixel.png",0,0 M,0,110530,112530,231,520,231,-40 F,0,110530,112530,1 F,0,107266,114325,0.8 L,110530,4 V,0,0,1200,4,4,4,-4 R,0,0,1200,0,6.283185 C,0,110530,,119,214,244
Sprite,Background,Centre,"sb/pixel.png",0,0 M,0,110574,112574,77,520,77,-40 F,0,110574,112574,1 F,0,107266,114325,0.8 L,110574,4 V,0,0,1200,4,4,4,-4 R,0,0,1200,0,6.283185 C,0,110574,,86,191,237
Sprite,Background,Centre,"sb/pixel.png",0,0 M,0,110618,112618,372,520,372,-40 F,0,110618,112618,1 F,0,107266,114325,0.8 L,110618,4 V,0,0,1200,4,4,4,-4 R,0,0,1200,0,6.283185 C,0,110618,,119,214,244
Sprite,Background,Centre,"sb/pixel.png",0,0 M,0,110663,112663,121,520,121,-40 F,0,110663,112663,1 F,0,107266,114325,0.8 L,110663,4 V,0,0,1200,4,4,4,-4 R,0,0,1200,0,6.283185 C,0,110663,,119,214,244
Sprite,Background,Centre,"sb/pixel.png",0,0 M,0,110707,112707,143,520,143,-40 F,0,110707,112707,1 F,0,107266,114325,0.8 L,110707,4 V,0,0,1200,4,4,4,-4 R,0,0,1200,0,6.283185 C,0,110707,,119,214,244
Sprite,Background,Centre,"sb/pixel.png",0,0 M,0,110751,112751,288,520,288,-40 F,0,110751,112751,1 F,0,107266,114325,0.8 L,110751,4 V,0,0,1200,4,4,4,-4 R,0,0,1200,0,6.283185 C,0,110751,,119,214,244
Sprite,Background,Centre,"sb/pixel.png",0,0 M,0,110795,112795,32,520,32,-40 F,0,110795,112795,1 F,0,107266,114325,0.8 L,110795,4 V,0,0,1200,4,4,4,-4 R,0,0,1200,0,6.283185 C,0,110795,,86,191,237
Sprite,Background,Centre,"sb/pixel.png",0,0 M,0,110839,112839,-3,520,-3,-40 F,0,110839,112839,1 F,0,107266,114325,0.8 L,110839,4 V,0,0,1200,4,4,4,-4 R,0,0,1200,0,6.283185 C,0,110839,,119,214,244
Sprite,Background,Centre,"sb/pixel.png",0,0 M,0,110883,112883,524,520,524,-40 F,0,110883,112883,1 F,0,107266,114325,0.8 L,110883,4 V,0,0,1200,4,4,4,-4 R,0,0,1200,0,6.283185 C,0,110883,,86,191,237
Sprite,Background,Centre,"sb/pixel.png",0,0 M,0,110927,112927,41,520,41,-40 F,0,110927,112927,1 F,0,107266,114325,0.8 L,110927,4 V,0,0,1200,4,4,4,-4 R,0,0,1200,0,6.283185 C,0,110927,,86,191,237
Sprite,Background,Centre,"sb/pixel.png",0,0 M,0,110971,112971,60,520,60,-40 F,0,110971,112971,1 F,0,107266,114325,0.8 L,110971,4 V,0,0,1200,4,4,4,-4 R,0,0,1200,0,6.283185 C,0,110971,,119,214,244
Sprite,Background,Centre,"sb/pixel.png",0,0 M,0,111016,113016,93,520,93,-40 F,0,111016,113016,1 F,0,107266,114325,0.8 L,111016,4 V,0,0,1200,4,4,4,-4 R,0,0,1200,0,6.283185 C,0,111016,,86,191,237
Sprite,Background,Centre,"sb/pixel.png",0,0 M,0,111060,113060,546,520,546,-40 F,0,111060,113060,1 F,0,107266,114325,0.8 L,111060,4 V,0,0,1200,4,4,4,-4 R,0,0,1200,0,6.283185 C,0,111060,,119,214,244
Sprite,Background,Centre,"sb/pixel.png",0,0 M,0,111104,113104,150,520,150,-40 F,0,111104,113104,1 F,0,107266,114325,0.8 L,111104,4 V,0,0,1200,4,4,4,-4 R,0,0,1200,0,6.283185 C,0,111104,,86,191,237
Sprite,Background,Centre,"sb/pixel.png",0,0 M,0,111148,113148,497,520,497,-40 F,0,111148,113148,1 F,0,107266,114325,0.8 L,111148,4 V,0,0,1200,4,4,4,-4 R,0,0,1200,0,6.283185 C,0,111148,,86,191,237
Sprite,Background,Centre,"sb/pixel.png",0,0 M,0,111192,113192,114,520,114,-40 F,0,111192,113192,1 F,0,107266,114325,0.8 L,111192,4 V,0,0,1200,4,4,4,-4 R,0,0,1200,0,6.283185 C,0,111192,,86,191,237
Sprite,Background,Centre,"sb/pixel.png",0,0 M,0,111236,113236,120,520,120,-40 F,0,111236,113236,1 F,0,107266,114325,0.8 L,111236,4 V,0,0,1200,4,4,4,-4 R,0,0,1200,0,6.283185 C,0,111236,,119,214,244
Sprite,Background,Centre,"sb/pixel.png",0,0 M,0,111280,113280,335,520,335,-40 F,0,111280,113280,1 F,0,107266,114325,0.8 L,111280,4 V,0,0,1200,4,4,4,-4 R,0,0,1200,0,6.283185 C,0,111280,,119,214,244
Sprite,Background,Centre,"sb/pixel.png",0,0 M,0,111324,113324,235,520,235,-40 F,0,111324,113324,1 F,0,107266,114325,0.8 L,111324,4 V,0,0,1200,4,4,4,-4 R,0,0,1200,0,6.283185 C,0,111324,,86,191,237
Sprite,Background,Centre,"sb/pixel.png",0,0 M,0,111368,113368,-33,520,-33,-40 F,0,111368,113368,1 F,0,107266,114325,0.8 L,111368,4 V,0,0,1200,4,4,4,-4 R,0,0,1200,0,6.283185 C,0,111368,,119,214,244
Sprite,Background,Centre,"sb/pixel.png",0,0 M,0,111413,113413,321,520,321,-40 F,0,111413,113413,1 F,0,107266,114325,0.8 L,111413,4 V,0,0,1200,4,4,4,-4 R,0,0,1200,0,6.283185 C,0,111413,,119,214,244
Sprite,Background,Centre,"sb/pixel.png",0,0 M,0,111457,113457,475,520,475,-40 F,0,111457,113457,1 F,0,107266,114325,0.8 L,111457,4 V,0,0,1200,4,4,4,-4 R,0,0,1200,0,6.283185 C,0,111457,,119,214,244
Sprite,Background,Centre,"sb/pixel.png",0,0 M,0,111501,113501,-106,520,-106,-40 F,0,111501,113501,1 F,0,107266,114325,0.8 L,111501,4 V,0,0,1200,4,4,4,-4 R,0,0,1200,0,6.283185 C,0,111501,,86,191,237
Sprite,Background,Centre,"sb/pixel.png",0,0 M,0,111545,113545,684,520,684,-40 F,0,111545,113545,1 F,0,107266,114325,0.8 L,111545,4 V,0,0,1200,4,4,4,-4 R,0,0,1200,0,6.283185 C,0,111545,,86,191,237
Sprite,Background,Centre,"sb/pixel.png",0,0 M,0,111589,113589,555,520,555,-40 F,0,111589,113589,1 F,0,107266,114325,0.8 L,111589,4 V,0,0,1200,4,4,4,-4 R,0,0,1200,0,6.283185 C,0,111589,,119,214,244
Sprite,Background,Centre,"sb/pixel.png",0,0 M,0,111633,113633,98,520,98,-40 F,0,111633,113633,1 F,0,107266,114325,0.8 L,111633,4 V,0,0,1200,4,4,4,-4 R,0,0,1200,0,6.283185 C,0,111633,,119,214,244
Sprite,Background,Centre,"sb/pixel.png",0,0 M,0,111677,113677,55,520,55,-40 F,0,111677,113677,1 F,0,107266,114325,0.8 L,111677,4 V,0,0,1200,4,4,4,-4 R,0,0,1200,0,6.283185 C,0,111677,,119,214,244
Sprite,Background,Centre,"sb/pixel.png",0,0 M,0,111721,113721,621,520,621,-40 F,0,111721,113721,1 F,0,107266,114325,0.8 L,111721,4 V,0,0,1200,4,4,4,-4 R,0,0,1200,0,6.283185 C,0,111721,,119,214,244
Sprite,Background,Centre,"sb/pixel.png",0,0 M,0,111766,113766,667,520,667,-40 F,0,111766,113766,1 F,0,107266,114325,0.8 L,111766,4 V,0,0,1200,4,4,4,-4 R,0,0,1200,0,6.283185 C,0,111766,,119,214,244
Sprite,Background,Centre,"sb/pixel.png",0,0 M,0,111810,113810,28,520,28,-40 F,0,111810,113810,1 F,0,107266,114325,0.8 L,111810,4 V,0,0,1200,4,4,4,-4 R,0,0,1200,0,6.283185 C,0,111810,,119,214,244
Sprite,Background,Centre,"sb/pixel.png",0,0 M,0,111854,113854,7,520,7,-40 F,0,111854,113854,1 F,0,107266,114325,0.8 L,111854,4 V,0,0,1200,4,4,4,-4 R,0,0,1200,0,6.283185 C,0,111854,,86,191,237
Sprite,Background,Centre,"sb/pixel.png",0,0 M,0,111898,113898,338,520,338,-40 F,0,111898,113898,1 F,0,107266,114325,0.8 L,111898,4 V,0,0,1200,4,4,4,-4 R,0,0,1200,0,6.283185 C,0,111898,,119,214,244
Sprite,Background,Centre,"sb/pixel.png",0,0 M,0,111942,113942,718,520,718,-40 F,0,111942,113942,1 F,0,107266,114325,0.8 L,111942,4 V,0,0,1200,4,4,4,-4 R,0,0,1200,0,6.283185 C,0,111942,,86,191,237
Sprite,Background,Centre,"sb/pixel.png",0,0 M,0,111986,113986,88,520,88,-40 F,0,111986,113986,1 F,0,107266,114325,0.8 L,111986,4 V,0,0,1200,4,4,4,-4 R,0,0,1200,0,6.283185 C,0,111986,,86,191,237
Sprite,Background,Centre,"sb/pixel.png",0,0 M,0,112030,114030,169,520,169,-40 F,0,112030,114030,1 F,0,107266,114325,0.8 L,112030,4 V,0,0,1200,4,4,4,-4 R,0,0,1200,0,6.283185 C,0,112030,,86,191,237
Sprite,Background,Centre,"sb/pixel.png",0,0 M,0,112074,114074,569,520,569,-40 F,0,112074,114074,1 F,0,107266,114325,0.8 L,112074,4 V,0,0,1200,4,4,4,-4 R,0,0,1200,0,6.283185 C,0,112074,,119,214,244
Sprite,Background,Centre,"sb/pixel.png",0,0 M,0,112118,114118,346,520,346,-40 F,0,112118,114118,1 F,0,107266,114325,0.8 L,112118,4 V,0,0,1200,4,4,4,-4 R,0,0,1200,0,6.283185 C,0,112118,,119,214,244
Sprite,Background,Centre,"sb/pixel.png",0,0 M,0,112163,114163,133,520,133,-40 F,0,112163,114163,1 F,0,107266,114325,0.8 L,112163,4 V,0,0,1200,4,4,4,-4 R,0,0,1200,0,6.283185 C,0,112163,,86,191,237
Sprite,Background,Centre,"sb/pixel.png",0,0 M,0,112207,114207,320,520,320,-40 F,0,112207,114207,1 F,0,107266,114325,0.8 L,112207,4 V,0,0,1200,4,4,4,-4 R,0,0,1200,0,6.283185 C,0,112207,,86,191,237
Sprite,Background,Centre,"sb/pixel.png",0,0 M,0,112251,114251,505,520,505,-40 F,0,112251,114251,1 F,0,107266,114325,0.8 L,112251,4 V,0,0,1200,4,4,4,-4 R,0,0,1200,0,6.283185 C,0,112251,,119,214,244
Sprite,Background,Centre,"sb/pixel.png",0,0 M,0,112295,114295,361,520,361,-40 F,0,112295,114295,1 F,0,107266,114325,0.8 L,112295,4 V,0,0,1200,4,4,4,-4 R,0,0,1200,0,6.283185 C,0,112295,,119,214,244
Sprite,Background,Centre,"sb/pixel.png",0,0 M,0,112339,114339,599,520,599,-40 F,0,112339,114339,1 F,0,107266,114325,0.8 L,112339,4 V,0,0,1200,4,4,4,-4 R,0,0,1200,0,6.283185 C,0,112339,,119,214,244
Sprite,Background,Centre,"sb/pixel.png",0,0 M,0,112383,114383,381,520,381,-40 F,0,112383,114383,1 F,0,107266,114325,0.8 L,112383,4 V,0,0,1200,4,4,4,-4 R,0,0,1200,0,6.283185 C,0,112383,,119,214,244
Sprite,Background,Centre,"sb/pixel.png",0,0 M,0,112427,114427,415,520,415,-40 F,0,112427,114427,1 F,0,107266,114325,0.8 L,112427,4 V,0,0,1200,4,4,4,-4 R,0,0,1200,0,6.283185 C,0,112427,,86,191,237
Sprite,Background,Centre,"sb/pixel.png",0,0 M,0,112471,114471,443,520,443,-40 F,0,112471,114471,1 F,0,107266,114325,0.8 L,112471,4 V,0,0,1200,4,4,4,-4 R,0,0,1200,0,6.283185 C,0,112471,,119,214,244
Sprite,Background,Centre,"sb/pixel.png",0,0 M,0,112516,114516,182,520,182,-40 F,0,112516,114516,1 F,0,107266,114325,0.8 L,112516,4 V,0,0,1200,4,4,4,-4 R,0,0,1200,0,6.283185 C,0,112516,,86,191,237
Sprite,Background,Centre,"sb/pixel.png",0,0 M,0,112560,114560,258,520,258,-40 F,0,112560,114560,1 F,0,107266,114325,0.8 L,112560,4 V,0,0,1200,4,4,4,-4 R,0,0,1200,0,6.283185 C,0,112560,,119,214,244
Sprite,Background,Centre,"sb/pixel.png",0,0 M,0,112604,114604,720,520,720,-40 F,0,112604,114604,1 F,0,107266,114325,0.8 L,112604,4 V,0,0,1200,4,4,4,-4 R,0,0,1200,0,6.283185 C,0,112604,,86,191,237
Sprite,Background,Centre,"sb/pixel.png",0,0 M,0,112648,114648,522,520,522,-40 F,0,112648,114648,1 F,0,107266,114325,0.8 L,112648,4 V,0,0,1200,4,4,4,-4 R,0,0,1200,0,6.283185 C,0,112648,,119,214,244
Sprite,Background,Centre,"sb/pixel.png",0,0 M,0,112692,114692,299,520,299,-40 F,0,112692,114692,1 F,0,107266,114325,0.8 L,112692,4 V,0,0,1200,4,4,4,-4 R,0,0,1200,0,6.283185 C,0,112692,,119,214,244
Sprite,Background,Centre,"sb/pixel.png",0,0 M,0,112736,114736,228,520,228,-40 F,0,112736,114736,1 F,0,107266,114325,0.8 L,112736,4 V,0,0,1200,4,4,4,-4 R,0,0,1200,0,6.283185 C,0,112736,,119,214,244
Sprite,Background,Centre,"sb/pixel.png",0,0 M,0,112780,114780,304,520,304,-40 F,0,112780,114780,1 F,0,107266,114325,0.8 L,112780,4 V,0,0,1200,4,4,4,-4 R,0,0,1200,0,6.283185 C,0,112780,,86,191,237
Sprite,Background,Centre,"sb/pixel.png",0,0 M,0,112824,114824,261,520,261,-40 F,0,112824,114824,1 F,0,107266,114325,0.8 L,112824,4 V,0,0,1200,4,4,4,-4 R,0,0,1200,0,6.283185 C,0,112824,,119,214,244
Sprite,Background,Centre,"sb/pixel.png",0,0 M,0,112868,114868,501,520,501,-40 F,0,112868,114868,1 F,0,107266,114325,0.8 L,112868,4 V,0,0,1200,4,4,4,-4 R,0,0,1200,0,6.283185 C,0,112868,,119,214,244
Sprite,Background,Centre,"sb/pixel.png",0,0 M,0,112913,114913,-8,520,-8,-40 F,0,112913,114913,1 F,0,107266,114325,0.8 L,112913,4 V,0,0,1200,4,4,4,-4 R,0,0,1200,0,6.283185 C,0,112913,,86,191,237
Sprite,Background,Centre,"sb/pixel.png",0,0 M,0,112957,114957,502,520,502,-40 F,0,112957,114957,1 F,0,107266,114325,0.8 L,112957,4 V,0,0,1200,4,4,4,-4 R,0,0,1200,0,6.283185 C,0,112957,,119,214,244
Sprite,Background,Centre,"sb/pixel.png",0,0 M,0,113001,115001,559,520,559,-40 F,0,113001,115001,1 F,0,107266,114325,0.8 L,113001,4 V,0,0,1200,4,4,4,-4 R,0,0,1200,0,6.283185 C,0,113001,,119,214,244
Sprite,Background,Centre,"sb/pixel.png",0,0 M,0,113045,115045,352,520,352,-40 F,0,113045,115045,1 F,0,107266,114325,0.8 L,113045,4 V,0,0,1200,4,4,4,-4 R,0,0,1200,0,6.283185 C,0,113045,,86,191,237
Sprite,Background,Centre,"sb/pixel.png",0,0 M,0,113089,115089,608,520,608,-40 F,0,113089,115089,1 F,0,107266,114325,0.8 L,113089,4 V,0,0,1200,4,4,4,-4 R,0,0,1200,0,6.283185 C,0,113089,,119,214,244
Sprite,Background,Centre,"sb/pixel.png",0,0 M,0,113133,115133,669,520,669,-40 F,0,113133,115133,1 F,0,107266,114325,0.8 L,113133,4 V,0,0,1200,4,4,4,-4 R,0,0,1200,0,6.283185 C,0,113133,,86,191,237
Sprite,Background,Centre,"sb/pixel.png",0,0 M,0,113177,115177,-66,520,-66,-40 F,0,113177,115177,1 F,0,107266,114325,0.8 L,113177,4 V,0,0,1200,4,4,4,-4 R,0,0,1200,0,6.283185 C,0,113177,,119,214,244
Sprite,Background,Centre,"sb/pixel.png",0,0 M,0,113221,115221,-88,520,-88,-40 F,0,113221,115221,1 F,0,107266,114325,0.8 L,113221,4 V,0,0,1200,4,4,4,-4 R,0,0,1200,0,6.283185 C,0,113221,,119,214,244
Sprite,Background,Centre,"sb/pixel.png",0,0 M,0,113266,115266,352,520,352,-40 F,0,113266,115266,1 F,0,107266,114325,0.8 L,113266,4 V,0,0,1200,4,4,4,-4 R,0,0,1200,0,6.283185 C,0,113266,,86,191,237
Sprite,Background,Centre,"sb/pixel.png",0,0 M,0,113310,115310,512,520,512,-40 F,0,113310,115310,1 F,0,107266,114325,0.8 L,113310,4 V,0,0,1200,4,4,4,-4 R,0,0,1200,0,6.283185 C,0,113310,,86,191,237
Sprite,Background,Centre,"sb/pixel.png",0,0 M,0,113354,115354,-22,520,-22,-40 F,0,113354,115354,1 F,0,107266,114325,0.8 L,113354,4 V,0,0,1200,4,4,4,-4 R,0,0,1200,0,6.283185 C,0,113354,,119,214,244
Sprite,Background,Centre,"sb/pixel.png",0,0 M,0,113398,115398,63,520,63,-40 F,0,113398,115398,1 F,0,107266,114325,0.8 L,113398,4 V,0,0,1200,4,4,4,-4 R,0,0,1200,0,6.283185 C,0,113398,,119,214,244
Sprite,Background,Centre,"sb/pixel.png",0,0 M,0,113442,115442,163,520,163,-40 F,0,113442,115442,1 F,0,107266,114325,0.8 L,113442,4 V,0,0,1200,4,4,4,-4 R,0,0,1200,0,6.283185 C,0,113442,,119,214,244
Sprite,Background,Centre,"sb/pixel.png",0,0 M,0,113486,115486,534,520,534,-40 F,0,113486,115486,1 F,0,107266,114325,0.8 L,113486,4 V,0,0,1200,4,4,4,-4 R,0,0,1200,0,6.283185 C,0,113486,,119,214,244
Sprite,Background,Centre,"sb/pixel.png",0,0 M,0,113530,115530,-96,520,-96,-40 F,0,113530,115530,1 F,0,107266,114325,0.8 L,113530,4 V,0,0,1200,4,4,4,-4 R,0,0,1200,0,6.283185 C,0,113530,,86,191,237
Sprite,Background,Centre,"sb/pixel.png",0,0 M,0,113574,115574,-62,520,-62,-40 F,0,113574,115574,1 F,0,107266,114325,0.8 L,113574,4 V,0,0,1200,4,4,4,-4 R,0,0,1200,0,6.283185 C,0,113574,,119,214,244
Sprite,Background,Centre,"sb/pixel.png",0,0 M,0,113618,115618,152,520,152,-40 F,0,113618,115618,1 F,0,107266,114325,0.8 L,113618,4 V,0,0,1200,4,4,4,-4 R,0,0,1200,0,6.283185 C,0,113618,,119,214,244
Sprite,Background,Centre,"sb/pixel.png",0,0 M,0,113663,115663,535,520,535,-40 F,0,113663,115663,1 F,0,107266,114325,0.8 L,113663,4 V,0,0,1200,4,4,4,-4 R,0,0,1200,0,6.283185 C,0,113663,,86,191,237
Sprite,Background,Centre,"sb/pixel.png",0,0 M,0,113707,115707,397,520,397,-40 F,0,113707,115707,1 F,0,107266,114325,0.8 L,113707,4 V,0,0,1200,4,4,4,-4 R,0,0,1200,0,6.283185 C,0,113707,,119,214,244
Sprite,Background,Centre,"sb/pixel.png",0,0 M,0,113751,115751,-3,520,-3,-40 F,0,113751,115751,1 F,0,107266,114325,0.8 L,113751,4 V,0,0,1200,4,4,4,-4 R,0,0,1200,0,6.283185 C,0,113751,,119,214,244
Sprite,Background,Centre,"sb/pixel.png",0,0 M,0,113795,115795,287,520,287,-40 F,0,113795,115795,1 F,0,107266,114325,0.8 L,113795,4 V,0,0,1200,4,4,4,-4 R,0,0,1200,0,6.283185 C,0,113795,,119,214,244
Sprite,Background,Centre,"sb/pixel.png",0,0 M,0,113839,115839,-107,520,-107,-40 F,0,113839,115839,1 F,0,107266,114325,0.8 L,113839,4 V,0,0,1200,4,4,4,-4 R,0,0,1200,0,6.283185 C,0,113839,,86,191,237
Sprite,Background,Centre,"sb/pixel.png",0,0 M,0,113883,115883,140,520,140,-40 F,0,113883,115883,1 F,0,107266,114325,0.8 L,113883,4 V,0,0,1200,4,4,4,-4 R,0,0,1200,0,6.283185 C,0,113883,,86,191,237
Sprite,Background,Centre,"sb/pixel.png",0,0 M,0,113927,115927,142,520,142,-40 F,0,113927,115927,1 F,0,107266,114325,0.8 L,113927,4 V,0,0,1200,4,4,4,-4 R,0,0,1200,0,6.283185 C,0,113927,,119,214,244
Sprite,Background,Centre,"sb/pixel.png",0,0 M,0,113971,115971,94,520,94,-40 F,0,113971,115971,1 F,0,107266,114325,0.8 L,113971,4 V,0,0,1200,4,4,4,-4 R,0,0,1200,0,6.283185 C,0,113971,,119,214,244
Sprite,Background,Centre,"sb/pixel.png",0,0 M,0,114016,116016,200,520,200,-40 F,0,114016,116016,1 F,0,107266,114325,0.8 L,114016,4 V,0,0,1200,4,4,4,-4 R,0,0,1200,0,6.283185 C,0,114016,,86,191,237
Sprite,Background,Centre,"sb/pixel.png",0,0 M,0,114060,116060,202,520,202,-40 F,0,114060,116060,1 F,0,107266,114325,0.8 L,114060,4 V,0,0,1200,4,4,4,-4 R,0,0,1200,0,6.283185 C,0,114060,,119,214,244
Sprite,Background,Centre,"sb/pixel.png",0,0 M,0,114104,116104,-91,520,-91,-40 F,0,114104,116104,1 F,0,107266,114325,0.8 L,114104,4 V,0,0,1200,4,4,4,-4 R,0,0,1200,0,6.283185 C,0,114104,,86,191,237
Sprite,Background,Centre,"sb/pixel.png",0,0 M,0,114148,116148,503,520,503,-40 F,0,114148,116148,1 F,0,107266,114325,0.8 L,114148,4 V,0,0,1200,4,4,4,-4 R,0,0,1200,0,6.283185 C,0,114148,,119,214,244
Sprite,Background,Centre,"sb/pixel.png",0,0 M,0,114192,116192,574,520,574,-40 F,0,114192,116192,1 F,0,107266,114325,0.8 L,114192,4 V,0,0,1200,4,4,4,-4 R,0,0,1200,0,6.283185 C,0,114192,,119,214,244
Sprite,Background,Centre,"sb/pixel.png",0,0 M,0,114236,116236,118,520,118,-40 F,0,114236,116236,1 F,0,107266,114325,0.8 L,114236,4 V,0,0,1200,4,4,4,-4 R,0,0,1200,0,6.283185 C,0,114236,,119,214,244
Sprite,Background,Centre,"sb/pixel.png",0,0 M,0,114280,116280,425,520,425,-40 F,0,114280,116280,1 F,0,107266,114325,0.8 L,114280,4 V,0,0,1200,4,4,4,-4 R,0,0,1200,0,6.283185 C,0,114280,,86,191,237
Sprite,Background,Centre,"sb/pixel.png",0,0 M,0,114324,116324,733,520,733,-40 F,0,114324,116324,1 F,0,107266,114325,0.8 L,114324,4 V,0,0,1200,4,4,4,-4 R,0,0,1200,0,6.283185 C,0,114324,,119,214,244
Sprite,Background,Centre,"sb/star.png",0,0 M,16,138678,141324,320,240,172.7193,121.5542 F,0,138678,141324,1,0 S,0,138678,141324,0,0.05
Sprite,Background,Centre,"sb/star.png",0,0 M,16,138728,141021,320,240,258.1986,384.3246 F,0,138728,141021,1,0 S,0,138728,141021,0,0.05
Sprite,Background,Centre,"sb/star.png",0,0 M,16,138778,141543,320,240,436.3369,293.3828 F,0,138778,141543,1,0 S,0,138778,141543,0,0.05
Sprite,Background,Centre,"sb/star.png",0,0 M,16,138828,141596,320,240,160.0005,240.3871 F,0,138828,141596,1,0 S,0,138828,141596,0,0.05
Sprite,Background,Centre,"sb/star.png",0,0 M,16,138878,140888,320,240,533.4105,364.3583 F,0,138878,140888,1,0 S,0,138878,140888,0,0.05
Sprite,Background,Centre,"sb/star.png",0,0 M,16,138928,141647,320,240,260.2017,220.1716 F,0,138928,141647,1,0 S,0,138928,141647,0,0.05
Sprite,Background,Centre,"sb/star.png",0,0 M,16,138978,141545,320,240,447.0168,363.271 F,0,138978,141545,1,0 S,0,138978,141545,0,0.05
Sprite,Background,Centre,"sb/star.png",0,0 M,16,139028,141149,320,240,466.9563,321.4115 F,0,139028,141149,1,0 S,0,139028,141149,0,0.05
Sprite,Background,Centre,"sb/star.png",0,0 M,16,139078,141091,320,240,235.9413,282.0729 F,0,139078,141091,1,0 S,0,139078,141091,0,0.05
Sprite,Background,Centre,"sb/star.png",0,0 M,16,139128,141846,320,240,339.8213,324.712 F,0,139128,141846,1,0 S,0,139128,141846,0,0.05
Sprite,Background,Centre,"sb/star.png",0,0 M,16,139178,141885,320,240,304.7424,169.6352 F,0,139178,141885,1,0 S,0,139178,141885,0,0.05
Sprite,Background,Centre,"sb/star.png",0,0 M,16,139228,142092,320,240,295.9048,-27.91868 F,0,139228,142092,1,0 S,0,139228,142092,0,0.05
Sprite,Background,Centre,"sb/star.png",0,0 M,16,139278,141702,320,240,598.2947,301.4575 F,0,139278,141702,1,0 S,0,139278,141702,0,0.05
Sprite,Background,Centre,"sb/star.png",0,0 M,16,139328,141373,320,240,552.4211,314.2728 F,0,139328,141373,1,0 S,0,139328,141373,0,0.05
Sprite,Background,Centre,"sb/star.png",0,0 M,16,139378,141491,320,240,335.0721,350.9812 F,0,139378,141491,1,0 S,0,139378,141491,0,0.05
Sprite,Background,Centre,"sb/star.png",0,0 M,16,139428,141643,320,240,469.8295,247.1502 F,0,139428,141643,1,0 S,0,139428,141643,0,0.05
Sprite,Background,Centre,"sb/star.png",0,0 M,16,139478,141798,320,240,382.9705,415.0163 F,0,139478,141798,1,0 S,0,139478,141798,0,0.05
Sprite,Background,Centre,"sb/star.png",0,0 M,16,139528,141600,320,240,186.6915,261.3035 F,0,139528,141600,1,0 S,0,139528,141600,0,0.05
Sprite,Background,Centre,"sb/star.png",0,0 M,16,139578,141880,320,240,476.4822,330.9633 F,0,139578,141880,1,0 S,0,139578,141880,0,0.05
Sprite,Background,Centre,"sb/star.png",0,0 M,16,139628,142155,320,240,320.3311,358.9995 F,0,139628,142155,1,0 S,0,139628,142155,0,0.05
Sprite,Background,Centre,"sb/star.png",0,0 M,16,139678,142566,320,240,351.3956,292.3003 F,0,139678,142566,1,0 S,0,139678,142566,0,0.05
Sprite,Background,Centre,"sb/star.png",0,0 M,16,139728,142583,320,240,280.9693,291.977 F,0,139728,142583,1,0 S,0,139728,142583,0,0.05
Sprite,Background,Centre,"sb/star.png",0,0 M,16,139778,142561,320,240,392.7917,194.2029 F,0,139778,142561,1,0 S,0,139778,142561,0,0.05
Sprite,Background,Centre,"sb/star.png",0,0 M,16,139828,142176,320,240,414.0228,319.3014 F,0,139828,142176,1,0 S,0,139828,142176,0,0.05
Sprite,Background,Centre,"sb/star.png",0,0 M,16,139878,142394,320,240,299.8344,61.13315 F,0,139878,142394,1,0 S,0,139878,142394,0,0.05
Sprite,Background,Centre,"sb/star.png",0,0 M,16,139928,142001,320,240,328.8889,290.2194 F,0,139928,142001,1,0 S,0,139928,142001,0,0.05
Sprite,Background,Centre,"sb/star.png",0,0 M,16,139978,142829,320,240,362.9058,-5.275543 F,0,139978,142829,1,0 S,0,139978,142829,0,0.05
Sprite,Background,Centre,"sb/star.png",0,0 M,16,140028,142446,320,240,201.7276,149.3764 F,0,140028,142446,1,0 S,0,140028,142446,0,0.05
Sprite,Background,Centre,"sb/star.png",0,0 M,16,140078,142096,320,240,319.5137,32.00057 F,0,140078,142096,1,0 S,0,140078,142096,0,0.05
Sprite,Background,Centre,"sb/star.png",0,0 M,16,140128,142369,320,240,203.6351,390.1973 F,0,140128,142369,1,0 S,0,140128,142369,0,0.05
Sprite,Background,Centre,"sb/star.png",0,0 M,16,140178,142829,320,240,176.2217,6.753753 F,0,140178,142829,1,0 S,0,140178,142829,0,0.05
Sprite,Background,Centre,"sb/star.png",0,0 M,16,140228,143013,320,240,309.0859,151.6717 F,0,140228,143013,1,0 S,0,140228,143013,0,0.05
Sprite,Background,Centre,"sb/star.png",0,0 M,16,140278,143163,320,240,362.2201,345.8936 F,0,140278,143163,1,0 S,0,140278,143163,0,0.05
Sprite,Background,Centre,"sb/star.png",0,0 M,16,140328,143204,320,240,314.7628,396.9126 F,0,140328,143204,1,0 S,0,140328,143204,0,0.05
Sprite,Background,Centre,"sb/star.png",0,0 M,16,140378,142474,320,240,319.9503,532 F,0,140378,142474,1,0 S,0,140378,142474,0,0.05
Sprite,Background,Centre,"sb/star.png",0,0 M,16,140428,142511,320,240,400.0299,68.78024 F,0,140428,142511,1,0 S,0,140428,142511,0,0.05
Sprite,Background,Centre,"sb/star.png",0,0 M,16,140478,143220,320,240,213.6066,228.6228 F,0,140478,143220,1,0 S,0,140478,143220,0,0.05
Sprite,Background,Centre,"sb/star.png",0,0 M,16,140528,143389,320,240,103.477,265.3333 F,0,140528,143389,1,0 S,0,140528,143389,0,0.05
Sprite,Background,Centre,"sb/star.png",0,0 M,16,140578,143049,320,240,220.5974,105.8056 F,0,140578,143049,1,0 S,0,140578,143049,0,0.05
Sprite,Background,Centre,"sb/star.png",0,0 M,16,140628,143187,320,240,88.49702,356.1352 F,0,140628,143187,1,0 S,0,140628,143187,0,0.05
Sprite,Background,Centre,"sb/star.png",0,0 M,16,140678,143280,320,240,159.926,147.2568 F,0,140678,143280,1,0 S,0,140678,143280,0,0.05
Sprite,Background,Centre,"sb/star.png",0,0 M,16,140728,143283,320,240,140.7665,374.3553 F,0,140728,143283,1,0 S,0,140728,143283,0,0.05
Sprite,Background,Centre,"sb/star.png",0,0 M,16,140778,143227,320,240,167.559,414.8878 F,0,140778,143227,1,0 S,0,140778,143227,0,0.05
Sprite,Background,Centre,"sb/star.png",0,0 M,16,140828,142829,320,240,319.5962,143.0008 F,0,140828,142829,1,0 S,0,140828,142829,0,0.05
Sprite,Background,Centre,"sb/star.png",0,0 M,16,140878,142910,320,240,123.9305,457.7286 F,0,140878,142910,1,0 S,0,140878,142910,0,0.05
Sprite,Background,Centre,"sb/star.png",0,0 M,16,140928,143450,320,240,203.617,297.9223 F,0,140928,143450,1,0 S,0,140928,143450,0,0.05
Sprite,Background,Centre,"sb/star.png",0,0 M,16,140978,143332,320,240,569.3068,373.9221 F,0,140978,143332,1,0 S,0,140978,143332,0,0.05
Sprite,Background,Centre,"sb/star.png",0,0 M,16,141028,143958,320,240,233.1415,390.77 F,0,141028,143958,1,0 S,0,141028,143958,0,0.05
Sprite,Background,Centre,"sb/star.png",0,0 M,16,141078,143915,320,240,363.5342,483.1332 F,0,141078,143915,1,0 S,0,141078,143915,0,0.05
Sprite,Background,Centre,"sb/star.png",0,0 M,16,141128,143308,320,240,271.4165,121.5786 F,0,141128,143308,1,0 S,0,141128,143308,0,0.05
Sprite,Background,Centre,"sb/star.png",0,0 M,16,141178,143259,320,240,204.4577,301.733 F,0,141178,143259,1,0 S,0,141178,143259,0,0.05
Sprite,Background,Centre,"sb/star.png",0,0 M,16,141228,143991,320,240,410.6798,164.4939 F,0,141228,143991,1,0 S,0,141228,143991,0,0.05
Sprite,Background,Centre,"sb/star.png",0,0 M,16,141278,143949,320,240,290.3199,422.6036 F,0,141278,143949,1,0 S,0,141278,143949,0,0.05
Sprite,Background,Centre,"sb/star.png",0,0 M,16,141328,144180,320,240,414.6479,54.78183 F,0,141328,144180,1,0 S,0,141328,144180,0,0.05
Sprite,Background,Centre,"sb/star.png",0,0 M,16,141378,143833,320,240,547.2224,299.9584 F,0,141378,143833,1,0 S,0,141378,143833,0,0.05
Sprite,Background,Centre,"sb/star.png",0,0 M,16,141428,144195,320,240,239.4917,-4.06435 F,0,141428,144195,1,0 S,0,141428,144195,0,0.05
Sprite,Background,Centre,"sb/star.png",0,0 M,16,141478,143592,320,240,491.4366,470.1706 F,0,141478,143592,1,0 S,0,141478,143592,0,0.05
Sprite,Background,Centre,"sb/star.png",0,0 M,16,141528,143750,320,240,402.3746,181.5584 F,0,141528,143750,1,0 S,0,141528,143750,0,0.05
Sprite,Background,Centre,"sb/star.png",0,0 M,16,141578,143925,320,240,529.8063,299.2058 F,0,141578,143925,1,0 S,0,141578,143925,0,0.05
Sprite,Background,Centre,"sb/star.png",0,0 M,16,141628,143878,320,240,510.2805,112.586 F,0,141628,143878,1,0 S,0,141628,143878,0,0.05
Sprite,Background,Centre,"sb/star.png",0,0 M,16,141678,143853,320,240,218.083,297.4623 F,0,141678,143853,1,0 S,0,141678,143853,0,0.05
Sprite,Background,Centre,"sb/star.png",0,0 M,16,141728,144404,320,240,501.5222,28.12572 F,0,141728,144404,1,0 S,0,141728,144404,0,0.05
Sprite,Background,Centre,"sb/star.png",0,0 M,16,141778,144105,320,240,285.8563,128.0928 F,0,141778,144105,1,0 S,0,141778,144105,0,0.05
Sprite,Background,Centre,"sb/star.png",0,0 M,16,141828,144305,320,240,369.6299,-17.25643 F,0,141828,144305,1,0 S,0,141828,144305,0,0.05
Sprite,Background,Centre,"sb/star.png",0,0 M,16,141878,144028,320,240,265.1017,406.1661 F,0,141878,144028,1,0 S,0,141878,144028,0,0.05
Sprite,Background,Centre,"sb/star.png",0,0 M,16,141928,144181,320,240,328.0621,72.19356 F,0,141928,144181,1,0 S,0,141928,144181,0,0.05
Sprite,Background,Centre,"sb/star.png",0,0 M,16,141978,144270,320,240,385.0034,223.7656 F,0,141978,144270,1,0 S,0,141978,144270,0,0.05
Sprite,Background,Centre,"sb/star.png",0,0 M,16,142028,144550,320,240,276.8859,289.9717 F,0,142028,144550,1,0 S,0,142028,144550,0,0.05
Sprite,Background,Centre,"sb/star.png",0,0 M,16,142078,144617,320,240,513.0096,420.1202 F,0,142078,144617,1,0 S,0,142078,144617,0,0.05
Sprite,Background,Centre,"sb/star.png",0,0 M,16,142128,144648,320,240,195.5713,149.2613 F,0,142128,144648,1,0 S,0,142128,144648,0,0.05
Sprite,Background,Centre,"sb/star.png",0,0 M,16,142178,145023,320,240,389.0563,101.2332 F,0,142178,145023,1,0 S,0,142178,145023,0,0.05
Sprite,Background,Centre,"sb/star.png",0,0 M,16,142228,144597,320,240,174.894,404.0282 F,0,142228,144597,1,0 S,0,142228,144597,0,0.05
Sprite,Background,Centre,"sb/star.png",0,0 M,16,142278,144684,320,240,425.4855,19.97998 F,0,142278,144684,1,0 S,0,142278,144684,0,0.05
Sprite,Background,Centre,"sb/star.png",0,0 M,16,142328,144506,320,240,171.3501,180.8122 F,0,142328,144506,1,0 S,0,142328,144506,0,0.05
Sprite,Background,Centre,"sb/star.png",0,0 M,16,142378,145374,320,240,489.6796,362.0239 F,0,142378,145374,1,0 S,0,142378,145374,0,0.05
Sprite,Background,Centre,"sb/star.png",0,0 M,16,142428,144795,320,240,301.002,175.7499 F,0,142428,144795,1,0 S,0,142428,144795,0,0.05
Sprite,Background,Centre,"sb/star.png",0,0 M,16,142478,145079,320,240,343.3031,309.1807 F,0,142478,145079,1,0 S,0,142478,145079,0,0.05
Sprite,Background,Centre,"sb/star.png",0,0 M,16,142528,144814,320,240,146.3724,8.970848 F,0,142528,144814,1,0 S,0,142528,144814,0,0.05
Sprite,Background,Centre,"sb/star.png",0,0 M,16,142578,145523,320,240,382.0141,443.7726 F,0,142578,145523,1,0 S,0,142578,145523,0,0.05
Sprite,Background,Centre,"sb/star.png",0,0 M,16,142628,144682,320,240,398.1162,270.8846 F,0,142628,144682,1,0 S,0,142628,144682,0,0.05
Sprite,Background,Centre,"sb/star.png",0,0 M,16,142678,145421,320,240,471.0832,39.56329 F,0,142678,145421,1,0 S,0,142678,145421,0,0.05
Sprite,Background,Centre,"sb/star.png",0,0 M,16,142728,144830,320,240,133.1613,329.1084 F,0,142728,144830,1,0 S,0,142728,144830,0,0.05
Sprite,Background,Centre,"sb/star.png",0,0 M,16,142778,145734,320,240,431.2876,21.73397 F,0,142778,145734,1,0 S,0,142778,145734,0,0.05
Sprite,Background,Centre,"sb/star.png",0,0 M,16,142828,145763,320,240,231.7947,-5.643708 F,0,142828,145763,1,0 S,0,142828,145763,0,0.05
Sprite,Background,Centre,"sb/star.png",0,0 M,16,142878,145814,320,240,266.6599,183.0893 F,0,142878,145814,1,0 S,0,142878,145814,0,0.05
Sprite,Background,Centre,"sb/star.png",0,0 M,16,142928,145328,320,240,157.0925,318.8806 F,0,142928,145328,1,0 S,0,142928,145328,0,0.05
Sprite,Background,Centre,"sb/star.png",0,0 M,16,142978,145242,320,240,342.3936,149.7363 F,0,142978,145242,1,0 S,0,142978,145242,0,0.05
Sprite,Background,Centre,"sb/star.png",0,0 M,16,143028,145443,320,240,198.3543,491.0843 F,0,143028,145443,1,0 S,0,143028,145443,0,0.05
Sprite,Background,Centre,"sb/star.png",0,0 M,16,143078,145479,320,240,136.0637,283.4562 F,0,143078,145479,1,0 S,0,143078,145479,0,0.05
Sprite,Background,Centre,"sb/star.png",0,0 M,16,143128,145304,320,240,474.3352,262.7297 F,0,143128,145304,1,0 S,0,143128,145304,0,0.05
Sprite,Background,Centre,"sb/star.png",0,0 M,16,143178,145340,320,240,234.8676,132.6618 F,0,143178,145340,1,0 S,0,143178,145340,0,0.05
Sprite,Background,Centre,"sb/star.png",0,0 M,16,143228,145989,320,240,213.9258,122.9007 F,0,143228,145989,1,0 S,0,143228,145989,0,0.05
Sprite,Background,Centre,"sb/star.png",0,0 M,16,143278,145985,320,240,592.7974,250.5165 F,0,143278,145985,1,0 S,0,143278,145985,0,0.05
Sprite,Background,Centre,"sb/star.png",0,0 M,16,143328,145998,320,240,282.3251,387.2569 F,0,143328,145998,1,0 S,0,143328,145998,0,0.05
Sprite,Background,Centre,"sb/star.png",0,0 M,16,143378,146257,320,240,322.8463,455.9812 F,0,143378,146257,1,0 S,0,143378,146257,0,0.05
Sprite,Background,Centre,"sb/star.png",0,0 M,16,143428,145931,320,240,396.6218,126.4302 F,0,143428,145931,1,0 S,0,143428,145931,0,0.05
Sprite,Background,Centre,"sb/star.png",0,0 M,16,143478,145495,320,240,449.6763,373.3419 F,0,143478,145495,1,0 S,0,143478,145495,0,0.05
Sprite,Background,Centre,"sb/star.png",0,0 M,16,143528,146302,320,240,560.7061,184.5964 F,0,143528,146302,1,0 S,0,143528,146302,0,0.05
Sprite,Background,Centre,"sb/star.png",0,0 M,16,143578,145849,320,240,420.0005,155.3779 F,0,143578,145849,1,0 S,0,143578,145849,0,0.05
Sprite,Background,Centre,"sb/star.png",0,0 M,16,143628,146158,320,240,522.4377,338.2037 F,0,143628,146158,1,0 S,0,143628,146158,0,0.05
Sprite,Background,Centre,"sb/star.png",0,0 M,16,143678,146644,320,240,167.6599,431.8788 F,0,143678,146644,1,0 S,0,143678,146644,0,0.05
Sprite,Background,Centre,"sb/star.png",0,0 M,16,143728,146529,320,240,77.14655,248.438 F,0,143728,146529,1,0 S,0,143728,146529,0,0.05
Sprite,Background,Centre,"sb/star.png",0,0 M,16,143778,145829,320,240,279.7327,156.1696 F,0,143778,145829,1,0 S,0,143778,145829,0,0.05
Sprite,Background,Centre,"sb/star.png",0,0 M,16,143828,146825,320,240,169.6685,75.28986 F,0,143828,146825,1,0 S,0,143828,146825,0,0.05
Sprite,Background,Centre,"sb/star.png",0,0 M,16,143878,146300,320,240,333.9278,42.49046 F,0,143878,146300,1,0 S,0,143878,146300,0,0.05
Sprite,Background,Centre,"sb/star.png",0,0 M,16,143928,146426,320,240,315.8315,423.9528 F,0,143928,146426,1,0 S,0,143928,146426,0,0.05
Sprite,Background,Centre,"sb/star.png",0,0 M,16,143978,146051,320,240,388.2429,505.3656 F,0,143978,146051,1,0 S,0,143978,146051,0,0.05
Sprite,Background,Centre,"sb/star.png",0,0 M,16,144028,146646,320,240,384.9562,179.1585 F,0,144028,146646,1,0 S,0,144028,146646,0,0.05
Sprite,Background,Centre,"sb/star.png",0,0 M,16,144078,146974,320,240,184.5841,185.424 F,0,144078,146974,1,0 S,0,144078,146974,0,0.05
Sprite,Background,Centre,"sb/star.png",0,0 M,16,144128,146807,320,240,454.5065,347.2007 F,0,144128,146807,1,0 S,0,144128,146807,0,0.05
Sprite,Background,Centre,"sb/star.png",0,0 M,16,144178,146922,320,240,352.8193,328.0846 F,0,144178,146922,1,0 S,0,144178,146922,0,0.05
Sprite,Background,Centre,"sb/star.png",0,0 M,16,144228,147162,320,240,166.1469,75.82259 F,0,144228,147162,1,0 S,0,144228,147162,0,0.05
Sprite,Background,Centre,"sb/star.png",0,0 M,16,144278,147211,320,240,373.7866,196.7796 F,0,144278,147211,1,0 S,0,144278,147211,0,0.05
Sprite,Background,Centre,"sb/star.png",0,0 M,16,144328,147081,320,240,394.1031,384.0581 F,0,144328,147081,1,0 S,0,144328,147081,0,0.05
Sprite,Background,Centre,"sb/star.png",0,0 M,16,144378,146543,320,240,352.034,196.5279 F,0,144378,146543,1,0 S,0,144378,146543,0,0.05
Sprite,Background,Centre,"sb/star.png",0,0 M,16,144428,146922,320,240,365.1848,370.393 F,0,144428,146922,1,0 S,0,144428,146922,0,0.05
Sprite,Background,Centre,"sb/star.png",0,0 M,16,144478,146680,320,240,383.2651,5.380047 F,0,144478,146680,1,0 S,0,144478,146680,0,0.05
Sprite,Background,Centre,"sb/star.png",0,0 M,16,144528,147162,320,240,372.4018,84.59715 F,0,144528,147162,1,0 S,0,144528,147162,0,0.05
Sprite,Background,Centre,"sb/star.png",0,0 M,16,144578,147439,320,240,222.0293,145.6721 F,0,144578,147439,1,0 S,0,144578,147439,0,0.05
Sprite,Background,Centre,"sb/star.png",0,0 M,16,144628,147104,320,240,112.1826,421.6259 F,0,144628,147104,1,0 S,0,144628,147104,0,0.05
Sprite,Background,Centre,"sb/star.png",0,0 M,16,144678,147611,320,240,263.4138,108.6722 F,0,144678,147611,1,0 S,0,144678,147611,0,0.05
Sprite,Background,Centre,"sb/star.png",0,0 M,16,144728,147299,320,240,207.623,228.151 F,0,144728,147299,1,0 S,0,144728,147299,0,0.05
Sprite,Background,Centre,"sb/star.png",0,0 M,16,144778,147217,320,240,451.799,131.0504 F,0,144778,147217,1,0 S,0,144778,147217,0,0.05
Sprite,Background,Centre,"sb/star.png",0,0 M,16,144828,146959,320,240,135.4156,289.0878 F,0,144828,146959,1,0 S,0,144828,146959,0,0.05
Sprite,Background,Centre,"sb/star.png",0,0 M,16,144878,147239,320,240,197.0009,282.0859 F,0,144878,147239,1,0 S,0,144878,147239,0,0.05
Sprite,Background,Centre,"sb/star.png",0,0 M,16,144928,146963,320,240,424.8343,364.8149 F,0,144928,146963,1,0 S,0,144928,146963,0,0.05
Sprite,Background,Centre,"sb/star.png",0,0 M,16,144978,147007,320,240,466.4104,272.6189 F,0,144978,147007,1,0 S,0,144978,147007,0,0.05
Sprite,Background,Centre,"sb/star.png",0,0 M,16,145028,147392,320,240,285.8641,74.48341 F,0,145028,147392,1,0 S,0,145028,147392,0,0.05
Sprite,Background,Centre,"sb/star.png",0,0 M,16,145078,147393,320,240,305.2949,164.4172 F,0,145078,147393,1,0 S,0,145078,147393,0,0.05
Sprite,Background,Centre,"sb/star.png",0,0 M,16,145128,147519,320,240,277.827,293.3427 F,0,145128,147519,1,0 S,0,145128,147519,0,0.05
Sprite,Background,Centre,"sb/star.png",0,0 M,16,145178,147186,320,240,397.4578,384.5555 F,0,145178,147186,1,0 S,0,145178,147186,0,0.05
Sprite,Background,Centre,"sb/star.png",0,0 M,16,145228,147734,320,240,543.5437,360.5994 F,0,145228,147734,1,0 S,0,145228,147734,0,0.05
Sprite,Background,Centre,"sb/star.png",0,0 M,16,145278,147767,320,240,341.4934,43.17004 F,0,145278,147767,1,0 S,0,145278,147767,0,0.05
Sprite,Background,Centre,"sb/star.png",0,0 M,16,145328,147662,320,240,361.603,192.6905 F,0,145328,147662,1,0 S,0,145328,147662,0,0.05
Sprite,Background,Centre,"sb/star.png",0,0 M,16,145378,147684,320,240,338.0424,304.525 F,0,145378,147684,1,0 S,0,145378,147684,0,0.05
Sprite,Background,Centre,"sb/star.png",0,0 M,16,145428,147761,320,240,397.1273,329.3049 F,0,145428,147761,1,0 S,0,145428,147761,0,0.05
Sprite,Background,Centre,"sb/star.png",0,0 M,16,145478,147832,320,240,521.8856,82.58909 F,0,145478,147832,1,0 S,0,145478,147832,0,0.05
Sprite,Background,Centre,"sb/star.png",0,0 M,16,145528,148011,320,240,159.0679,235.3251 F,0,145528,148011,1,0 S,0,145528,148011,0,0.05
Sprite,Background,Centre,"sb/star.png",0,0 M,16,145578,147928,320,240,472.4955,123.3419 F,0,145578,147928,1,0 S,0,145578,147928,0,0.05
Sprite,Background,Centre,"sb/star.png",0,0 M,16,145628,148595,320,240,391.1893,329.0398 F,0,145628,148595,1,0 S,0,145628,148595,0,0.05
Sprite,Background,Centre,"sb/star.png",0,0 M,16,145678,148475,320,240,267.3882,270.8706 F,0,145678,148475,1,0 S,0,145678,148475,0,0.05
Sprite,Background,Centre,"sb/star.png",0,0 M,16,145728,148261,320,240,381.8636,290.7236 F,0,145728,148261,1,0 S,0,145728,148261,0,0.05
Sprite,Background,Centre,"sb/star.png",0,0 M,16,145778,148064,320,240,57.00151,239.1101 F,0,145778,148064,1,0 S,0,145778,148064,0,0.05
Sprite,Background,Centre,"sb/star.png",0,0 M,16,145828,148196,320,240,437.4643,95.78442 F,0,145828,148196,1,0 S,0,145828,148196,0,0.05
Sprite,Background,Centre,"sb/star.png",0,0 M,16,145878,148249,320,240,194.4718,424.3141 F,0,145878,148249,1,0 S,0,145878,148249,0,0.05
Sprite,Background,Centre,"sb/star.png",0,0 M,16,145928,148098,320,240,267.124,276.0573 F,0,145928,148098,1,0 S,0,145928,148098,0,0.05
Sprite,Background,Centre,"sb/star.png",0,0 M,16,145978,148489,320,240,472.9134,-12.27467 F,0,145978,148489,1,0 S,0,145978,148489,0,0.05
Sprite,Background,Centre,"sb/star.png",0,0 M,16,146028,148610,320,240,321.5155,298.9805 F,0,146028,148610,1,0 S,0,146028,148610,0,0.05
Sprite,Background,Centre,"sb/star.png",0,0 M,16,146078,148539,320,240,500.7101,250.2392 F,0,146078,148539,1,0 S,0,146078,148539,0,0.05
Sprite,Background,Centre,"sb/star.png",0,0 M,16,146128,148795,320,240,319.7244,327.9996 F,0,146128,148795,1,0 S,0,146128,148795,0,0.05
Sprite,Background,Centre,"sb/star.png",0,0 M,16,146178,148360,320,240,225.8162,393.393 F,0,146178,148360,1,0 S,0,146178,148360,0,0.05
Sprite,Background,Centre,"sb/star.png",0,0 M,16,146228,148852,320,240,503.7444,249.6948 F,0,146228,148852,1,0 S,0,146228,148852,0,0.05
Sprite,Background,Centre,"sb/star.png",0,0 M,16,146278,148727,320,240,550.5773,163.2984 F,0,146278,148727,1,0 S,0,146278,148727,0,0.05
Sprite,Background,Centre,"sb/star.png",0,0 M,16,146328,148425,320,240,266.8202,269.8816 F,0,146328,148425,1,0 S,0,146328,148425,0,0.05
Sprite,Background,Centre,"sb/star.png",0,0 M,16,146378,149014,320,240,264.5815,530.7659 F,0,146378,149014,1,0 S,0,146378,149014,0,0.05
Sprite,Background,Centre,"sb/star.png",0,0 M,16,146428,148463,320,240,321.2982,163.0109 F,0,146428,148463,1,0 S,0,146428,148463,0,0.05
Sprite,Background,Centre,"sb/star.png",0,0 M,16,146478,148637,320,240,225.2798,232.714 F,0,146478,148637,1,0 S,0,146478,148637,0,0.05
Sprite,Background,Centre,"sb/star.png",0,0 M,16,146528,149019,320,240,294.7852,402.05 F,0,146528,149019,1,0 S,0,146528,149019,0,0.05
Sprite,Background,Centre,"sb/star.png",0,0 M,16,146578,148883,320,240,422.7842,246.6632 F,0,146578,148883,1,0 S,0,146578,148883,0,0.05
Sprite,Background,Centre,"sb/star.png",0,0 M,16,146628,148797,320,240,265.2697,201.3529 F,0,146628,148797,1,0 S,0,146628,148797,0,0.05
Sprite,Background,Centre,"sb/star.png",0,0 M,16,146678,148778,320,240,255.716,46.39328 F,0,146678,148778,1,0 S,0,146678,148778,0,0.05
Sprite,Background,Centre,"sb/star.png",0,0 M,16,146728,148978,320,240,414.8274,254.9586 F,0,146728,148978,1,0 S,0,146728,148978,0,0.05
Sprite,Background,Centre,"sb/star.png",0,0 M,16,146778,149299,320,240,449.2858,437.4365 F,0,146778,149299,1,0 S,0,146778,149299,0,0.05
Sprite,Background,Centre,"sb/star.png",0,0 M,16,146828,149164,320,240,271.3036,464.7858 F,0,146828,149164,1,0 S,0,146828,149164,0,0.05
Sprite,Background,Centre,"sb/star.png",0,0 M,16,146878,149333,320,240,460.6159,179.6995 F,0,146878,149333,1,0 S,0,146878,149333,0,0.05
Sprite,Background,Centre,"sb/star.png",0,0 M,16,146928,149346,320,240,590.9835,331.4548 F,0,146928,149346,1,0 S,0,146928,149346,0,0.05
Sprite,Background,Centre,"sb/star.png",0,0 M,16,146978,149943,320,240,186.5622,320.8106 F,0,146978,149943,1,0 S,0,146978,149943,0,0.05
Sprite,Background,Centre,"sb/star.png",0,0 M,16,147028,149284,320,240,493.8454,212.5448 F,0,147028,149284,1,0 S,0,147028,149284,0,0.05
Sprite,Background,Centre,"sb/star.png",0,0 M,16,147078,149816,320,240,523.7851,328.0661 F,0,147078,149816,1,0 S,0,147078,149816,0,0.05
Sprite,Background,Centre,"sb/star.png",0,0 M,16,147128,149191,320,240,263.2177,355.8308 F,0,147128,149191,1,0 S,0,147128,149191,0,0.05
Sprite,Background,Centre,"sb/star.png",0,0 M,16,147178,150176,320,240,284.3277,126.4725 F,0,147178,150176,1,0 S,0,147178,150176,0,0.05
Sprite,Background,Centre,"sb/star.png",0,0 M,16,147228,149579,320,240,52.29303,373.169 F,0,147228,149579,1,0 S,0,147228,149579,0,0.05
Sprite,Background,Centre,"sb/star.png",0,0 M,16,147278,149997,320,240,364.5256,100.9551 F,0,147278,149997,1,0 S,0,147278,149997,0,0.05
Sprite,Background,Centre,"sb/star.png",0,0 M,16,147328,149583,320,240,202.4356,373.6511 F,0,147328,149583,1,0 S,0,147328,149583,0,0.05
Sprite,Background,Centre,"sb/star.png",0,0 M,16,147378,149972,320,240,73.06243,303.6147 F,0,147378,149972,1,0 S,0,147378,149972,0,0.05
Sprite,Background,Centre,"sb/star.png",0,0 M,16,147428,149656,320,240,375.9083,255.4356 F,0,147428,149656,1,0 S,0,147428,149656,0,0.05
Sprite,Background,Centre,"sb/star.png",0,0 M,16,147478,149817,320,240,289.751,509.3065 F,0,147478,149817,1,0 S,0,147478,149817,0,0.05
Sprite,Background,Centre,"sb/star.png",0,0 M,16,147528,150486,320,240,259.0372,160.7313 F,0,147528,150486,1,0 S,0,147528,150486,0,0.05
Sprite,Background,Centre,"sb/star.png",0,0 M,16,147578,149762,320,240,518.0173,408.4908 F,0,147578,149762,1,0 S,0,147578,149762,0,0.05
Sprite,Background,Centre,"sb/star.png",0,0 M,16,147628,150351,320,240,143.0957,245.8209 F,0,147628,150351,1,0 S,0,147628,150351,0,0.05
Sprite,Background,Centre,"sb/star.png",0,0 M,16,147678,150637,320,240,172.4402,311.569 F,0,147678,150637,1,0 S,0,147678,150637,0,0.05
Sprite,Background,Centre,"sb/star.png",0,0 M,16,147728,150563,320,240,195.0345,288.3696 F,0,147728,150563,1,0 S,0,147728,150563,0,0.05
Sprite,Background,Centre,"sb/star.png",0,0 M,16,147778,150360,320,240,254.1704,277.9798 F,0,147778,150360,1,0 S,0,147778,150360,0,0.05
Sprite,Background,Centre,"sb/star.png",0,0 M,16,147828,150336,320,240,112.0745,156.6753 F,0,147828,150336,1,0 S,0,147828,150336,0,0.05
Sprite,Background,Centre,"sb/star.png",0,0 M,16,147878,150130,320,240,512.7166,120.0446 F,0,147878,150130,1,0 S,0,147878,150130,0,0.05
Sprite,Background,Centre,"sb/star.png",0,0 M,16,147928,149976,320,240,234.5279,42.7197 F,0,147928,149976,1,0 S,0,147928,149976,0,0.05
Sprite,Background,Centre,"sb/star.png",0,0 M,16,147978,150493,320,240,221.332,93.05233 F,0,147978,150493,1,0 S,0,147978,150493,0,0.05
Sprite,Background,Centre,"sb/star.png",0,0 M,16,148028,150050,320,240,110.3749,337.048 F,0,148028,150050,1,0 S,0,148028,150050,0,0.05
Sprite,Background,Centre,"sb/star.png",0,0 M,16,148078,150132,320,240,372.4146,267.0872 F,0,148078,150132,1,0 S,0,148078,150132,0,0.05
Sprite,Background,Centre,"sb/star.png",0,0 M,16,148128,150183,320,240,372.0742,314.6276 F,0,148128,150183,1,0 S,0,148128,150183,0,0.05
Sprite,Background,Centre,"sb/star.png",0,0 M,16,148178,150492,320,240,529.7701,28.33866 F,0,148178,150492,1,0 S,0,148178,150492,0,0.05
Sprite,Background,Centre,"sb/star.png",0,0 M,16,148228,150532,320,240,435.3056,282.8206 F,0,148228,150532,1,0 S,0,148228,150532,0,0.05
Sprite,Background,Centre,"sb/star.png",0,0 M,16,148278,151214,320,240,82.20486,263.9681 F,0,148278,151214,1,0 S,0,148278,151214,0,0.05
Sprite,Background,Centre,"sb/star.png",0,0 M,16,148328,150346,320,240,511.2784,150.9294 F,0,148328,150346,1,0 S,0,148328,150346,0,0.05
Sprite,Background,Centre,"sb/star.png",0,0 M,16,148378,151004,320,240,416.0025,478.3957 F,0,148378,151004,1,0 S,0,148378,151004,0,0.05
Sprite,Background,Centre,"sb/star.png",0,0 M,16,148428,151135,320,240,94.22885,250.1681 F,0,148428,151135,1,0 S,0,148428,151135,0,0.05
Sprite,Background,Centre,"sb/star.png",0,0 M,16,148478,151212,320,240,354.5189,316.5797 F,0,148478,151212,1,0 S,0,148478,151212,0,0.05
Sprite,Background,Centre,"sb/star.png",0,0 M,16,148528,150955,320,240,421.9939,241.1179 F,0,148528,150955,1,0 S,0,148528,150955,0,0.05
Sprite,Background,Centre,"sb/star.png",0,0 M,16,148578,151416,320,240,291.5794,-42.57436 F,0,148578,151416,1,0 S,0,148578,151416,0,0.05
Sprite,Background,Centre,"sb/star.png",0,0 M,16,148628,151625,320,240,245.6157,473.4352 F,0,148628,151625,1,0 S,0,148628,151625,0,0.05
Sprite,Background,Centre,"sb/star.png",0,0 M,16,148678,151043,320,240,487.5701,171.5803 F,0,148678,151043,1,0 S,0,148678,151043,0,0.05
Sprite,Background,Centre,"sb/star.png",0,0 M,16,148728,150991,320,240,291.4899,146.2387 F,0,148728,150991,1,0 S,0,148728,150991,0,0.05
Sprite,Background,Centre,"sb/star.png",0,0 M,16,148778,151464,320,240,73.12759,384.3953 F,0,148778,151464,1,0 S,0,148778,151464,0,0.05
Sprite,Background,Centre,"sb/star.png",0,0 M,16,148828,151682,320,240,382.7469,195.3701 F,0,148828,151682,1,0 S,0,148828,151682,0,0.05
Sprite,Background,Centre,"sb/star.png",0,0 M,16,148878,151078,320,240,434.3775,108.8749 F,0,148878,151078,1,0 S,0,148878,151078,0,0.05
Sprite,Background,Centre,"sb/star.png",0,0 M,16,148928,151653,320,240,436.3573,148.5397 F,0,148928,151653,1,0 S,0,148928,151653,0,0.05
Sprite,Background,Centre,"sb/star.png",0,0 M,16,148978,151219,320,240,251.8275,357.6797 F,0,148978,151219,1,0 S,0,148978,151219,0,0.05
Sprite,Background,Centre,"sb/star.png",0,0 M,16,149028,151611,320,240,447.6183,264.7702 F,0,149028,151611,1,0 S,0,149028,151611,0,0.05
Sprite,Background,Centre,"sb/star.png",0,0 M,16,149078,152048,320,240,382.3193,-23.73718 F,0,149078,152048,1,0 S,0,149078,152048,0,0.05
Sprite,Background,Centre,"sb/star.png",0,0 M,16,149128,152000,320,240,216.4839,369.7706 F,0,149128,152000,1,0 S,0,149128,152000,0,0.05
Sprite,Background,Centre,"sb/star.png",0,0 M,16,149178,151500,320,240,601.6058,203.201 F,0,149178,151500,1,0 S,0,149178,151500,0,0.05
Sprite,Background,Centre,"sb/star.png",0,0 M,16,149228,151412,320,240,475.8793,385.1573 F,0,149228,151412,1,0 S,0,149228,151412,0,0.05
Sprite,Background,Centre,"sb/star.png",0,0 M,16,149278,152270,320,240,227.674,134.7578 F,0,149278,152270,1,0 S,0,149278,152270,0,0.05
Sprite,Background,Centre,"sb/star.png",0,0 M,16,149328,151814,320,240,322.7973,185.0712 F,0,149328,151814,1,0 S,0,149328,151814,0,0.05
Sprite,Background,Centre,"sb/star.png",0,0 M,16,149378,151455,320,240,585.8995,280.7241 F,0,149378,151455,1,0 S,0,149378,151455,0,0.05
Sprite,Background,Centre,"sb/star.png",0,0 M,16,149428,151708,320,240,295.0334,136.9822 F,0,149428,151708,1,0 S,0,149428,151708,0,0.05
Sprite,Background,Centre,"sb/star.png",0,0 M,16,149478,151615,320,240,244.7053,219.6358 F,0,149478,151615,1,0 S,0,149478,151615,0,0.05
Sprite,Background,Centre,"sb/star.png",0,0 M,16,149528,152368,320,240,102.8718,337.4645 F,0,149528,152368,1,0 S,0,149528,152368,0,0.05
Sprite,Background,Centre,"sb/star.png",0,0 M,16,149578,152543,320,240,388.491,475.2318 F,0,149578,152543,1,0 S,0,149578,152543,0,0.05
Sprite,Background,Centre,"sb/hit/r.png",64,375 S,7,149619,151024,0.25,0.5 F,6,149619,151024,1,0
Sprite,Background,Centre,"sb/hit/r.png",449,253 S,7,151031,152436,0.25,0.5 F,6,151031,152436,1,0
Sprite,Background,Centre,"sb/hit/r.png",86,102 S,7,152443,153143,0.25,0.5 F,6,152443,153143,1,0
Sprite,Background,Centre,"sb/hit/r.png",240,88 S,7,153148,153848,0.25,0.5 F,6,153148,153848,1,0
Sprite,Background,Centre,"sb/hit/r.png",84,238 S,7,153854,155083,0.25,0.5 F,6,153854,155083,1,0
Sprite,Background,Centre,"sb/hit/r.png",287,242 S,7,154560,155260,0.25,0.5 F,6,154560,155260,1,0
Sprite,Background,Centre,"sb/hit/r.png",482,149 S,7,155266,156318,0.25,0.5 F,6,155266,156318,1,0
Sprite,Background,Centre,"sb/hit/r.png",558,345 S,7,155972,157024,0.25,0.5 F,6,155972,157024,1,0
Sprite,Background,Centre,"sb/hit/r.png",367,428 S,7,156678,157730,0.25,0.5 F,6,156678,157730,1,0
Sprite,Background,Centre,"sb/hit/r.png",279,240 S,7,157384,158436,0.25,0.5 F,6,157384,158436,1,0
Sprite,Background,Centre,"sb/hit/r.png",320,248 S,7,158090,160201,0.25,0.5 F,6,158090,160201,1,0
Sprite,Background,Centre,"sb/bar.png",0,0 F,0,205384,206090,1,0 V,0,160913,,35,1 C,0,160913,,86,191,237 M,0,160913,,64,414 M,0,160913,160935,64,414,71.49606,414.2192 M,0,160935,160957,71.49606,414.2192,78.9941,414.0964 M,0,160957,160979,78.9941,414.0964,86.47256,413.5456 M,0,160979,161001,86.47256,413.5456,93.89992,412.518 M,0,161001,161023,93.89992,412.518,101.2305,410.9434 M,0,161023,161045,101.2305,410.9434,108.4005,408.752 M,0,161045,161067,108.4005,408.752,115.3376,405.9091 M,0,161067,161089,115.3376,405.9091,121.9784,402.4302 M,0,161089,161111,121.9784,402.4302,128.2821,398.3712 M,0,161111,161133,128.2821,398.3712,134.26,393.8444 M,0,161133,161155,134.26,393.8444,139.9689,388.9816 M,0,161155,161177,139.9689,388.9816,145.5154,383.9333 M,0,161177,161199,145.5154,383.9333,151.0213,378.8407 M,0,161199,161221,151.0213,378.8407,156.6101,373.8396 M,0,161221,161243,156.6101,373.8396,162.3913,369.063 M,0,161243,161265,162.3913,369.063,168.4379,364.6282 M,0,161265,161287,168.4379,364.6282,174.7864,360.6389 M,0,161287,161310,174.7864,360.6389,181.4268,357.1576 M,0,161310,161332,181.4268,357.1576,188.327,354.2241 M,0,161332,161354,188.327,354.2241,195.4354,351.8388 M,0,161354,161376,195.4354,351.8388,202.696,349.9663 M,0,161376,161398,202.696,349.9663,210.0622,348.5639 M,0,161398,161420,210.0622,348.5639,217.4972,347.5875 M,0,161420,161442,217.4972,347.5875,224.9718,346.9825 M,0,161442,161464,224.9718,346.9825 M,0,161442,161619,224.9718,346.9825,278,374 M,0,161619,161641,278,374,276.2169,366.7152 M,0,161641,161663,276.2169,366.7152,274.4686,359.4225 M,0,161663,161685,274.4686,359.4225,272.8046,352.1101 M,0,161685,161707,272.8046,352.1101,271.225,344.779 M,0,161707,161729,271.225,344.779,269.73,337.4301 M,0,161729,161751,269.73,337.4301,268.3199,330.0644 M,0,161751,161773,268.3199,330.0644,266.9948,322.6829 M,0,161773,161795,266.9948,322.6829,265.7549,315.2866 M,0,161795,161817,265.7549,315.2866,264.6004,307.8763 M,0,161817,161839,264.6004,307.8763,263.5314,300.4532 M,0,161839,161861,263.5314,300.4532,262.5481,293.0182 M,0,161861,161883,262.5481,293.0182,261.6506,285.5723 M,0,161883,161905,261.6506,285.5723,260.8389,278.1164 M,0,161905,161927,260.8389,278.1164,260.1679,270.6467 M,0,161927,161949,260.1679,270.6467,259.5361,263.174 M,0,161949,161971,259.5361,263.174,258.9904,255.6945 M,0,161971,161993,258.9904,255.6945 M,0,161971,162678,258.9904,255.6945,473,363 M,0,162678,162700,473,363,470.882,370.1936 M,0,162700,162722,470.882,370.1936,468.8396,377.4066 M,0,162722,162744,468.8396,377.4066,466.9858,384.6705 M,0,162744,162766,466.9858,384.6705,465.3217,391.9803 M,0,162766,162788,465.3217,391.9803,463.8486,399.3312 M,0,162788,162810,463.8486,399.3312,462.5673,406.7182 M,0,162810,162832,462.5673,406.7182,461.4788,414.1364 M,0,162832,162854,461.4788,414.1364,460.5448,421.5774 M,0,162854,162876,460.5448,421.5774,461.4788,414.1364 M,0,162876,162898,461.4788,414.1364,462.5673,406.7182 M,0,162898,162920,462.5673,406.7182,463.8486,399.3312 M,0,162920,162942,463.8486,399.3312,465.3217,391.9803 M,0,162942,162964,465.3217,391.9803,466.9858,384.6705 M,0,162964,162986,466.9858,384.6705,468.8396,377.4066 M,0,162986,163008,468.8396,377.4066,470.882,370.1936 M,0,163008,163030,470.882,370.1936,473,363 M,0,163030,163052,473,363 M,0,163030,163207,473,363,511,316 M,0,163207,163384,511,316 M,0,163384,163737,511,316,436,222 M,0,163737,163759,436,222,428.6686,223.5813 M,0,163759,163781,428.6686,223.5813,421.3372,225.1626 M,0,163781,163803,421.3372,225.1626,414.0058,226.7439 M,0,163803,163825,414.0058,226.7439,406.6744,228.3251 M,0,163825,163847,406.6744,228.3251,399.343,229.9064 M,0,163847,163869,399.343,229.9064,392.0116,231.4877 M,0,163869,163891,392.0116,231.4877,384.6801,233.069 M,0,163891,163913,384.6801,233.069,377.3487,234.6503 M,0,163913,163935,377.3487,234.6503,370.0173,236.2316 M,0,163935,163957,370.0173,236.2316,362.6859,237.8128 M,0,163957,163979,362.6859,237.8128,355.3545,239.3941 M,0,163979,164001,355.3545,239.3941,348.0231,240.9754 M,0,164001,164023,348.0231,240.9754,355.3545,239.3941 M,0,164023,164045,355.3545,239.3941,362.6859,237.8128 M,0,164045,164067,362.6859,237.8128,370.0173,236.2316 M,0,164067,164089,370.0173,236.2316,377.3487,234.6503 M,0,164089,164111,377.3487,234.6503,384.6801,233.069 M,0,164111,164134,384.6801,233.069,392.0116,231.4877 M,0,164134,164156,392.0116,231.4877,399.343,229.9064 M,0,164156,164178,399.343,229.9064,406.6744,228.3251 M,0,164178,164200,406.6744,228.3251,414.0058,226.7439 M,0,164200,164222,414.0058,226.7439,421.3372,225.1626 M,0,164222,164244,421.3372,225.1626,428.6686,223.5813 M,0,164244,164266,428.6686,223.5813,436,222 M,0,164266,164288,436,222 M,0,164266,164443,436,222,494,209 M,0,164443,164465,494,209,500.2839,204.9507 M,0,164465,164487,500.2839,204.9507,506.3249,200.6448 M,0,164487,164509,506.3249,200.6448,511.787,195.6194 M,0,164509,164531,511.787,195.6194,516.5858,189.9505 M,0,164531,164553,516.5858,189.9505,520.647,183.7232 M,0,164553,164575,520.647,183.7232,523.9066,177.0316 M,0,164575,164597,523.9066,177.0316,526.3123,169.9767 M,0,164597,164619,526.3123,169.9767,527.8245,162.6653 M,0,164619,164641,527.8245,162.6653,528.4163,155.2085 M,0,164641,164663,528.4163,155.2085,528.0745,147.7204 M,0,164663,164685,528.0745,147.7204,526.1439,140.4984 M,0,164685,164707,526.1439,140.4984,523.8806,133.4339 M,0,164707,164729,523.8806,133.4339,520.7559,126.7021 M,0,164729,164751,520.7559,126.7021,516.8165,120.4064 M,0,164751,164773,516.8165,120.4064,512.1212,114.6436 M,0,164773,164795,512.1212,114.6436,506.7398,109.5031 M,0,164795,164817,506.7398,109.5031 M,0,164795,165325,506.7398,109.5031,333,60 M,0,165325,165347,333,60,325.6037,61.24307 M,0,165347,165369,325.6037,61.24307,318.2075,62.48614 M,0,165369,165391,318.2075,62.48614,310.8112,63.72921 M,0,165391,165413,310.8112,63.72921,303.4149,64.97228 M,0,165413,165435,303.4149,64.97228,296.0187,66.21535 M,0,165435,165457,296.0187,66.21535,288.6224,67.45842 M,0,165457,165479,288.6224,67.45842,281.2261,68.70149 M,0,165479,165501,281.2261,68.70149,273.8299,69.94456 M,0,165501,165523,273.8299,69.94456,266.4336,71.18763 M,0,165523,165545,266.4336,71.18763,259.0373,72.4307 M,0,165545,165567,259.0373,72.4307,251.6411,73.67377 M,0,165567,165589,251.6411,73.67377,244.2448,74.91684 M,0,165589,165611,244.2448,74.91684,236.8485,76.15991 M,0,165611,165633,236.8485,76.15991,229.4523,77.40298 M,0,165633,165655,229.4523,77.40298,222.056,78.64606 M,0,165655,165677,222.056,78.64606,214.6597,79.88912 M,0,165677,165699,214.6597,79.88912 M,0,165677,165854,214.6597,79.88912,178,128 M,0,165854,165876,178,128,170.5136,127.549 M,0,165876,165898,170.5136,127.549,163.0271,127.098 M,0,165898,165920,163.0271,127.098,155.5407,126.647 M,0,165920,165942,155.5407,126.647,148.0543,126.196 M,0,165942,165964,148.0543,126.196,140.5679,125.745 M,0,165964,165986,140.5679,125.745,133.0814,125.2941 M,0,165986,166008,133.0814,125.2941,125.595,124.8431 M,0,166008,166030,125.595,124.8431,118.1086,124.3921 M,0,166030,166052,118.1086,124.3921 M,0,166030,166207,118.1086,124.3921,73,164 M,0,166207,166560,73,164,126,271 M,0,166560,166582,126,271,123.9887,278.2252 M,0,166582,166604,123.9887,278.2252,122.003,285.4572 M,0,166604,166626,122.003,285.4572,120.0779,292.7056 M,0,166626,166648,120.0779,292.7056,118.2137,299.9698 M,0,166648,166670,118.2137,299.9698,116.4104,307.2495 M,0,166670,166692,116.4104,307.2495,114.6681,314.544 M,0,166692,166714,114.6681,314.544,112.9871,321.8529 M,0,166714,166736,112.9871,321.8529,111.3673,329.1757 M,0,166736,166758,111.3673,329.1757,109.8089,336.5117 M,0,166758,166780,109.8089,336.5117,108.3121,343.8607 M,0,166780,166802,108.3121,343.8607,106.8768,351.2219 M,0,166802,166824,106.8768,351.2219,105.5033,358.5949 M,0,166824,166846,105.5033,358.5949,106.8768,351.2219 M,0,166846,166868,106.8768,351.2219,108.3121,343.8607 M,0,166868,166890,108.3121,343.8607,109.8089,336.5117 M,0,166890,166912,109.8089,336.5117,111.3673,329.1757 M,0,166912,166934,111.3673,329.1757,112.9871,321.8529 M,0,166934,166957,112.9871,321.8529,114.6681,314.544 M,0,166957,166979,114.6681,314.544,116.4104,307.2495 M,0,166979,167001,116.4104,307.2495,118.2137,299.9698 M,0,167001,167023,118.2137,299.9698,120.0779,292.7056 M,0,167023,167045,120.0779,292.7056,122.003,285.4572 M,0,167045,167067,122.003,285.4572,123.9887,278.2252 M,0,167067,167089,123.9887,278.2252,126,271 M,0,167089,167111,126,271 M,0,167089,167266,126,271,165,225 M,0,167266,167288,165,225,172.2561,223.1596 M,0,167288,167310,172.2561,223.1596,179.5364,221.5657 M,0,167310,167332,179.5364,221.5657,186.936,220.6539 M,0,167332,167354,186.936,220.6539,194.3924,220.4327 M,0,167354,167376,194.3924,220.4327,201.8427,220.905 M,0,167376,167398,201.8427,220.905,209.2237,222.0682 M,0,167398,167420,209.2237,222.0682,216.4727,223.9139 M,0,167420,167442,216.4727,223.9139,223.528,226.4284 M,0,167442,167464,223.528,226.4284,230.1069,229.9998 M,0,167464,167486,230.1069,229.9998,236.4908,233.8432 M,0,167486,167508,236.4908,233.8432,242.4918,238.2633 M,0,167508,167530,242.4918,238.2633,248.0588,243.2232 M,0,167530,167552,248.0588,243.2232,253.1445,248.6816 M,0,167552,167574,253.1445,248.6816,257.7048,254.593 M,0,167574,167596,257.7048,254.593,261.7004,260.9084 M,0,167596,167618,261.7004,260.9084,265.0959,267.5751 M,0,167618,167640,265.0959,267.5751 M,0,167618,168148,265.0959,267.5751,378,407 M,0,168148,168325,378,407 M,0,168325,168347,378,407,374.9566,400.1489 M,0,168347,168369,374.9566,400.1489,372.0192,393.2599 M,0,168369,168391,372.0192,393.2599,369.3885,386.2473 M,0,168391,168413,369.3885,386.2473,367.0697,379.1242 M,0,168413,168435,367.0697,379.1242,365.0673,371.9043 M,0,168435,168457,365.0673,371.9043,363.3853,364.6011 M,0,168457,168479,363.3853,364.6011,362.0271,357.2286 M,0,168479,168501,362.0271,357.2286,360.9954,349.8006 M,0,168501,168523,360.9954,349.8006 M,0,168501,168678,360.9954,349.8006,395,300 M,0,168678,168700,395,300,395.8515,292.5544 M,0,168700,168722,395.8515,292.5544,396.8318,285.1383 M,0,168722,168744,396.8318,285.1383,398.2359,277.7888 M,0,168744,168766,398.2359,277.7888,400.0598,270.5292 M,0,168766,168788,400.0598,270.5292,402.2982,263.3827 M,0,168788,168810,402.2982,263.3827,404.9444,256.3719 M,0,168810,168832,404.9444,256.3719,407.985,249.5161 M,0,168832,168854,407.985,249.5161,411.5181,242.9021 M,0,168854,168876,411.5181,242.9021 M,0,168854,169031,411.5181,242.9021,370,199 M,0,169031,169384,370,199,462,122 M,0,169384,169406,462,122,469.3266,120.3971 M,0,169406,169428,469.3266,120.3971,476.6587,118.8208 M,0,169428,169450,476.6587,118.8208,484.0047,117.311 M,0,169450,169472,484.0047,117.311,491.3641,115.8678 M,0,169472,169494,491.3641,115.8678,498.7364,114.4914 M,0,169494,169516,498.7364,114.4914,506.1208,113.1818 M,0,169516,169538,506.1208,113.1818,513.5169,111.9391 M,0,169538,169560,513.5169,111.9391,520.924,110.7636 M,0,169560,169582,520.924,110.7636,528.3414,109.6552 M,0,169582,169604,528.3414,109.6552,535.7686,108.614 M,0,169604,169626,535.7686,108.614,543.2051,107.6401 M,0,169626,169648,543.2051,107.6401,550.6549,106.7749 M,0,169648,169670,550.6549,106.7749,543.2051,107.6401 M,0,169670,169692,543.2051,107.6401,535.7686,108.614 M,0,169692,169714,535.7686,108.614,528.3414,109.6552 M,0,169714,169736,528.3414,109.6552,520.924,110.7636 M,0,169736,169758,520.924,110.7636,513.5169,111.9391 M,0,169758,169781,513.5169,111.9391,506.1208,113.1818 M,0,169781,169803,506.1208,113.1818,498.7364,114.4914 M,0,169803,169825,498.7364,114.4914,491.3641,115.8678 M,0,169825,169847,491.3641,115.8678,484.0047,117.311 M,0,169847,169869,484.0047,117.311,476.6587,118.8208 M,0,169869,169891,476.6587,118.8208,469.3266,120.3971 M,0,169891,169913,469.3266,120.3971,462,122 M,0,169913,169935,462,122 M,0,169913,170090,462,122,407,95 M,0,170090,170112,407,95,401.7723,89.63907 M,0,170112,170134,401.7723,89.63907,396.3903,84.47374 M,0,170134,170156,396.3903,84.47374,390.5751,79.79868 M,0,170156,170178,390.5751,79.79868,384.3706,75.64966 M,0,170178,170200,384.3706,75.64966,377.8234,72.05858 M,0,170200,170222,377.8234,72.05858,370.9827,69.05334 M,0,170222,170244,370.9827,69.05334,363.9001,66.65758 M,0,170244,170266,363.9001,66.65758,356.6289,64.8905 M,0,170266,170288,356.6289,64.8905,349.2239,63.76673 M,0,170288,170310,349.2239,63.76673,341.7413,63.29622 M,0,170310,170332,341.7413,63.29622,334.2825,63.95499 M,0,170332,170354,334.2825,63.95499,326.8797,64.87288 M,0,170354,170376,326.8797,64.87288,319.5844,66.43608 M,0,170376,170398,319.5844,66.43608,312.4517,68.63314 M,0,170398,170420,312.4517,68.63314,305.5359,71.44794 M,0,170420,170442,305.5359,71.44794,298.8898,74.85982 M,0,170442,170464,298.8898,74.85982 M,0,170442,171148,298.8898,74.85982,98,207 M,0,171148,171325,98,207 M,0,171325,171501,98,207 M,0,171501,171523,98,207,96.93934,199.5754 M,0,171523,171545,96.93934,199.5754,95.87868,192.1508 M,0,171545,171567,95.87868,192.1508,94.81802,184.7261 M,0,171567,171589,94.81802,184.7261,93.75735,177.3015 M,0,171589,171611,93.75735,177.3015,92.6967,169.8769 M,0,171611,171633,92.6967,169.8769,91.63604,162.4523 M,0,171633,171655,91.63604,162.4523,90.57538,155.0276 M,0,171655,171677,90.57538,155.0276,89.51472,147.603 M,0,171677,171699,89.51472,147.603,90.57538,155.0276 M,0,171699,171721,90.57538,155.0276,91.63604,162.4523 M,0,171721,171743,91.63604,162.4523,92.6967,169.8769 M,0,171743,171765,92.6967,169.8769,93.75735,177.3015 M,0,171765,171787,93.75735,177.3015,94.81802,184.7261 M,0,171787,171809,94.81802,184.7261,95.87868,192.1508 M,0,171809,171831,95.87868,192.1508,96.93934,199.5754 M,0,171831,171853,96.93934,199.5754,98,207 M,0,171853,171875,98,207 M,0,171853,172207,98,207,151,314 M,0,172207,172229,151,314,148.738,321.1508 M,0,172229,172251,148.738,321.1508,146.476,328.3015 M,0,172251,172273,146.476,328.3015,144.2141,335.4523 M,0,172273,172295,144.2141,335.4523,141.9521,342.6031 M,0,172295,172317,141.9521,342.6031,139.6901,349.7538 M,0,172317,172339,139.6901,349.7538,137.4281,356.9046 M,0,172339,172361,137.4281,356.9046,135.1662,364.0554 M,0,172361,172383,135.1662,364.0554,132.9042,371.2061 M,0,172383,172405,132.9042,371.2061,130.6422,378.3569 M,0,172405,172427,130.6422,378.3569,128.3802,385.5077 M,0,172427,172449,128.3802,385.5077,126.1183,392.6584 M,0,172449,172471,126.1183,392.6584,123.8563,399.8092 M,0,172471,172493,123.8563,399.8092,126.1183,392.6584 M,0,172493,172515,126.1183,392.6584,128.3802,385.5077 M,0,172515,172537,128.3802,385.5077,130.6422,378.3569 M,0,172537,172559,130.6422,378.3569,132.9042,371.2061 M,0,172559,172581,132.9042,371.2061,135.1662,364.0554 M,0,172581,172604,135.1662,364.0554,137.4281,356.9046 M,0,172604,172626,137.4281,356.9046,139.6901,349.7538 M,0,172626,172648,139.6901,349.7538,141.9521,342.6031 M,0,172648,172670,141.9521,342.6031,144.2141,335.4523 M,0,172670,172692,144.2141,335.4523,146.476,328.3015 M,0,172692,172714,146.476,328.3015,148.738,321.1508 M,0,172714,172736,148.738,321.1508,151,314 M,0,172736,172758,151,314 M,0,172736,172913,151,314,200,296 M,0,172913,172935,200,296,207.2286,297.9994 M,0,172935,172957,207.2286,297.9994,214.4572,299.9988 M,0,172957,172979,214.4572,299.9988,221.6857,301.9982 M,0,172979,173001,221.6857,301.9982,228.9143,303.9976 M,0,173001,173023,228.9143,303.9976,236.1429,305.997 M,0,173023,173045,236.1429,305.997,243.3715,307.9964 M,0,173045,173067,243.3715,307.9964,248.8001,312.2729 M,0,173067,173089,248.8001,312.2729,252.4145,318.8445 M,0,173089,173111,252.4145,318.8445,256.0289,325.4161 M,0,173111,173133,256.0289,325.4161,261.259,330.0028 M,0,173133,173155,261.259,330.0028,268.4274,332.2084 M,0,173155,173177,268.4274,332.2084,275.5957,334.4141 M,0,173177,173199,275.5957,334.4141,282.7641,336.6197 M,0,173199,173221,282.7641,336.6197,289.9324,338.8253 M,0,173221,173243,289.9324,338.8253,297.1008,341.031 M,0,173243,173265,297.1008,341.031,304.2691,343.2366 M,0,173265,173287,304.2691,343.2366 M,0,173265,173972,304.2691,343.2366,531,422 M,0,173972,174148,531,422 M,0,174148,174325,531,422 M,0,174325,174347,531,422,528.7197,414.855 M,0,174347,174369,528.7197,414.855,526.4394,407.7101 M,0,174369,174391,526.4394,407.7101,524.1591,400.5652 M,0,174391,174413,524.1591,400.5652,521.8788,393.4202 M,0,174413,174435,521.8788,393.4202,519.5985,386.2753 M,0,174435,174457,519.5985,386.2753,517.3182,379.1303 M,0,174457,174479,517.3182,379.1303,513.2273,373.475 M,0,174479,174501,513.2273,373.475,506.6557,369.8606 M,0,174501,174523,506.6557,369.8606,500.084,366.2462 M,0,174523,174545,500.084,366.2462,495.2432,361.2638 M,0,174545,174567,495.2432,361.2638,493.2438,354.0352 M,0,174567,174589,493.2438,354.0352,491.2444,346.8066 M,0,174589,174611,491.2444,346.8066,489.245,339.578 M,0,174611,174633,489.245,339.578,487.2456,332.3494 M,0,174633,174655,487.2456,332.3494,485.2462,325.1208 M,0,174655,174677,485.2462,325.1208,483.2468,317.8922 M,0,174677,174699,483.2468,317.8922 M,0,174677,175031,483.2468,317.8922,408,223 M,0,175031,175053,408,223,415.4341,222.0185 M,0,175053,175075,415.4341,222.0185,422.8529,220.9504 M,0,175075,175097,422.8529,220.9504,430.2362,219.6585 M,0,175097,175119,430.2362,219.6585,437.5773,218.1441 M,0,175119,175141,437.5773,218.1441,444.8697,216.4085 M,0,175141,175163,444.8697,216.4085,452.1067,214.4532 M,0,175163,175185,452.1067,214.4532,459.2818,212.2799 M,0,175185,175207,459.2818,212.2799,466.3885,209.8907 M,0,175207,175229,466.3885,209.8907,473.4204,207.2875 M,0,175229,175251,473.4204,207.2875,480.3712,204.4728 M,0,175251,175273,480.3712,204.4728,487.1758,201.3221 M,0,175273,175295,487.1758,201.3221,493.9294,198.0715 M,0,175295,175317,493.9294,198.0715,487.1758,201.3221 M,0,175317,175339,487.1758,201.3221,480.3712,204.4728 M,0,175339,175361,480.3712,204.4728,473.4204,207.2875 M,0,175361,175383,473.4204,207.2875,466.3885,209.8907 M,0,175383,175405,466.3885,209.8907,459.2818,212.2799 M,0,175405,175428,459.2818,212.2799,452.1067,214.4532 M,0,175428,175450,452.1067,214.4532,444.8697,216.4085 M,0,175450,175472,444.8697,216.4085,437.5773,218.1441 M,0,175472,175494,437.5773,218.1441,430.2362,219.6585 M,0,175494,175516,430.2362,219.6585,422.8529,220.9504 M,0,175516,175538,422.8529,220.9504,415.4341,222.0185 M,0,175538,175560,415.4341,222.0185,408,223 M,0,175560,175582,408,223 M,0,175560,175737,408,223,358,256 M,0,175737,175759,358,256,353.5528,249.9793 M,0,175759,175781,353.5528,249.9793,348.9271,244.139 M,0,175781,175803,348.9271,244.139,343.7643,238.7634 M,0,175803,175825,343.7643,238.7634,338.11,233.901 M,0,175825,175847,338.11,233.901,332.0134,229.5957 M,0,175847,175869,332.0134,229.5957,325.5283,225.8871 M,0,175869,175891,325.5283,225.8871,318.7112,222.8097 M,0,175891,175913,318.7112,222.8097,311.6223,220.3928 M,0,175913,175935,311.6223,220.3928,304.2443,219.1316 M,0,175935,175957,304.2443,219.1316,296.8523,218.2116 M,0,175957,175979,296.8523,218.2116,289.4047,217.9993 M,0,175979,176001,289.4047,217.9993,281.9675,218.4971 M,0,176001,176023,281.9675,218.4971,274.607,219.7016 M,0,176023,176045,274.607,219.7016,267.3888,221.6031 M,0,176045,176067,267.3888,221.6031,260.3775,224.1861 M,0,176067,176089,260.3775,224.1861,253.6362,227.4293 M,0,176089,176111,253.6362,227.4293 M,0,176089,176619,253.6362,227.4293,105,329 M,0,176619,176641,105,329,106.9973,321.7709 M,0,176641,176663,106.9973,321.7709,108.9742,314.5364 M,0,176663,176685,108.9742,314.5364,110.9014,307.2885 M,0,176685,176707,110.9014,307.2885,112.7787,300.0274 M,0,176707,176729,112.7787,300.0274,114.6061,292.7537 M,0,176729,176751,114.6061,292.7537,116.3834,285.4675 M,0,176751,176773,116.3834,285.4675,118.1105,278.1693 M,0,176773,176795,118.1105,278.1693,119.7876,270.8593 M,0,176795,176817,119.7876,270.8593,121.4142,263.538 M,0,176817,176839,121.4142,263.538,122.9906,256.2056 M,0,176839,176861,122.9906,256.2056,124.5165,248.8625 M,0,176861,176883,124.5165,248.8625,125.9918,241.5091 M,0,176883,176905,125.9918,241.5091,127.3859,234.1399 M,0,176905,176927,127.3859,234.1399,128.7553,226.7662 M,0,176927,176949,128.7553,226.7662,130.0741,219.3833 M,0,176949,176971,130.0741,219.3833,131.3419,211.9915 M,0,176971,176993,131.3419,211.9915 M,0,176971,177148,131.3419,211.9915,184,183 M,0,177148,177170,184,183,181.426,175.9568 M,0,177170,177192,181.426,175.9568,178.9039,168.8977 M,0,177192,177214,178.9039,168.8977,176.5602,161.7769 M,0,177214,177236,176.5602,161.7769,174.3964,154.5987 M,0,177236,177258,174.3964,154.5987,172.4138,147.3674 M,0,177258,177280,172.4138,147.3674,170.6137,140.0875 M,0,177280,177302,170.6137,140.0875,169.1409,132.7348 M,0,177302,177324,169.1409,132.7348,167.7496,125.369 M,0,177324,177346,167.7496,125.369 M,0,177324,177501,167.7496,125.369,206,79 M,0,177501,177854,206,79,319,118 M,0,177854,177876,319,118,326.3689,119.3962 M,0,177876,177898,326.3689,119.3962,333.7378,120.7924 M,0,177898,177920,333.7378,120.7924,341.1067,122.1886 M,0,177920,177942,341.1067,122.1886,348.4756,123.5848 M,0,177942,177964,348.4756,123.5848,355.8445,124.9811 M,0,177964,177986,355.8445,124.9811,363.2134,126.3773 M,0,177986,178008,363.2134,126.3773,370.5822,127.7735 M,0,178008,178030,370.5822,127.7735,377.9511,129.1697 M,0,178030,178052,377.9511,129.1697,385.32,130.5659 M,0,178052,178074,385.32,130.5659,392.6889,131.9621 M,0,178074,178096,392.6889,131.9621,400.0578,133.3583 M,0,178096,178118,400.0578,133.3583,407.4267,134.7545 M,0,178118,178140,407.4267,134.7545,400.0578,133.3583 M,0,178140,178162,400.0578,133.3583,392.6889,131.9621 M,0,178162,178184,392.6889,131.9621,385.32,130.5659 M,0,178184,178206,385.32,130.5659,377.9511,129.1697 M,0,178206,178228,377.9511,129.1697,370.5822,127.7735 M,0,178228,178251,370.5822,127.7735,363.2134,126.3773 M,0,178251,178273,363.2134,126.3773,355.8445,124.9811 M,0,178273,178295,355.8445,124.9811,348.4756,123.5848 M,0,178295,178317,348.4756,123.5848,341.1067,122.1886 M,0,178317,178339,341.1067,122.1886,333.7378,120.7924 M,0,178339,178361,333.7378,120.7924,326.3689,119.3962 M,0,178361,178383,326.3689,119.3962,319,118 M,0,178383,178405,319,118 M,0,178383,178560,319,118,278,162 M,0,178560,178582,278,162,277.5775,169.4876 M,0,178582,178604,277.5775,169.4876,277.445,176.9858 M,0,178604,178626,277.445,176.9858,277.6364,184.4827 M,0,178626,178648,277.6364,184.4827,278.1693,191.9631 M,0,178648,178670,278.1693,191.9631,279.0341,199.4124 M,0,178670,178692,279.0341,199.4124,280.201,206.8206 M,0,178692,178714,280.201,206.8206,281.5978,214.1892 M,0,178714,178736,281.5978,214.1892,283.1191,221.5333 M,0,178736,178758,283.1191,221.5333,284.6414,228.8771 M,0,178758,178780,284.6414,228.8771,286.0418,236.245 M,0,178780,178802,286.0418,236.245,287.214,243.6524 M,0,178802,178824,287.214,243.6524,288.087,251.1008 M,0,178824,178846,288.087,251.1008,288.6332,258.5802 M,0,178846,178868,288.6332,258.5802,288.838,266.0767 M,0,178868,178890,288.838,266.0767,288.7279,273.5753 M,0,178890,178912,288.7279,273.5753,288.3219,281.0638 M,0,178912,178934,288.3219,281.0638 M,0,178912,179443,288.3219,281.0638,376,438 M,0,179443,179619,376,438 M,0,179619,179641,376,438,383.3268,436.3973 M,0,179641,179663,383.3268,436.3973,390.6535,434.7946 M,0,179663,179685,390.6535,434.7946,397.9803,433.1918 M,0,179685,179707,397.9803,433.1918,405.307,431.5891 M,0,179707,179729,405.307,431.5891,412.6338,429.9864 M,0,179729,179751,412.6338,429.9864,419.9605,428.3836 M,0,179751,179773,419.9605,428.3836,427.2873,426.7809 M,0,179773,179795,427.2873,426.7809,434.614,425.1782 M,0,179795,179817,434.614,425.1782 M,0,179795,179972,434.614,425.1782,459,370 M,0,179972,179994,459,370,466.3949,371.2514 M,0,179994,180016,466.3949,371.2514,473.7897,372.5029 M,0,180016,180038,473.7897,372.5029,481.1846,373.7543 M,0,180038,180060,481.1846,373.7543,488.5794,375.0057 M,0,180060,180082,488.5794,375.0057,495.9743,376.2572 M,0,180082,180104,495.9743,376.2572,503.3691,377.5086 M,0,180104,180126,503.3691,377.5086,510.764,378.7601 M,0,180126,180148,510.764,378.7601,518.1588,380.0115 M,0,180148,180170,518.1588,380.0115 M,0,180148,180325,518.1588,380.0115,567,345 M,0,180325,180678,567,345,486,256 M,0,180678,180700,486,256,485.9177,248.5013 M,0,180700,180722,485.9177,248.5013,485.7719,241.0055 M,0,180722,180744,485.7719,241.0055,485.4544,233.5149 M,0,180744,180766,485.4544,233.5149,484.9654,226.0333 M,0,180766,180788,484.9654,226.0333,484.3052,218.5646 M,0,180788,180810,484.3052,218.5646,483.4739,211.1127 M,0,180810,180832,483.4739,211.1127,482.4721,203.6814 M,0,180832,180854,482.4721,203.6814,481.3003,196.2745 M,0,180854,180876,481.3003,196.2745,479.959,188.8959 M,0,180876,180898,479.959,188.8959,478.3357,181.5745 M,0,180898,180920,478.3357,181.5745,476.6365,174.2724 M,0,180920,180942,476.6365,174.2724,474.7705,167.0111 M,0,180942,180964,474.7705,167.0111,476.6365,174.2724 M,0,180964,180986,476.6365,174.2724,478.3357,181.5745 M,0,180986,181008,478.3357,181.5745,479.959,188.8959 M,0,181008,181030,479.959,188.8959,481.3003,196.2745 M,0,181030,181052,481.3003,196.2745,482.4721,203.6814 M,0,181052,181075,482.4721,203.6814,483.4739,211.1127 M,0,181075,181097,483.4739,211.1127,484.3052,218.5646 M,0,181097,181119,484.3052,218.5646,484.9654,226.0333 M,0,181119,181141,484.9654,226.0333,485.4544,233.5149 M,0,181141,181163,485.4544,233.5149,485.7719,241.0055 M,0,181163,181185,485.7719,241.0055,485.9177,248.5013 M,0,181185,181207,485.9177,248.5013,486,256 M,0,181207,181229,486,256 M,0,181207,181384,486,256,436,290 M,0,181384,181406,436,290,428.5229,290.5748 M,0,181406,181428,428.5229,290.5748,421.054,291.2261 M,0,181428,181450,421.054,291.2261,413.6029,292.0569 M,0,181450,181472,413.6029,292.0569,406.174,293.067 M,0,181472,181494,406.174,293.067,398.7714,294.2558 M,0,181494,181516,398.7714,294.2558,391.3994,295.6224 M,0,181516,181538,391.3994,295.6224,384.0624,297.1663 M,0,181538,181560,384.0624,297.1663,376.7645,298.8864 M,0,181560,181582,376.7645,298.8864,369.5099,300.7818 M,0,181582,181604,369.5099,300.7818,362.3029,302.8514 M,0,181604,181626,362.3029,302.8514,355.1476,305.0941 M,0,181626,181648,355.1476,305.0941,348.0481,307.5084 M,0,181648,181670,348.0481,307.5084,341.0086,310.0932 M,0,181670,181692,341.0086,310.0932,334.033,312.8469 M,0,181692,181714,334.033,312.8469,327.1244,315.7656 M,0,181714,181736,327.1244,315.7656,320.2954,318.8659 M,0,181736,181758,320.2954,318.8659 M,0,181736,182443,320.2954,318.8659,109,203 M,0,182443,182619,109,203 M,0,182619,182795,109,203 M,0,182795,182817,109,203,107.3919,210.3256 M,0,182817,182839,107.3919,210.3256,105.7839,217.6512 M,0,182839,182861,105.7839,217.6512,104.1758,224.9767 M,0,182861,182883,104.1758,224.9767,102.5678,232.3023 M,0,182883,182905,102.5678,232.3023,100.9597,239.6279 M,0,182905,182927,100.9597,239.6279,99.35167,246.9535 M,0,182927,182949,99.35167,246.9535,97.74362,254.2791 M,0,182949,182971,97.74362,254.2791,96.13556,261.6047 M,0,182971,182993,96.13556,261.6047,97.74362,254.2791 M,0,182993,183015,97.74362,254.2791,99.35167,246.9535 M,0,183015,183037,99.35167,246.9535,100.9597,239.6279 M,0,183037,183059,100.9597,239.6279,102.5678,232.3023 M,0,183059,183081,102.5678,232.3023,104.1758,224.9767 M,0,183081,183103,104.1758,224.9767,105.7839,217.6512 M,0,183103,183125,105.7839,217.6512,107.3919,210.3256 M,0,183125,183147,107.3919,210.3256,109,203 M,0,183147,183169,109,203 M,0,183147,183501,109,203,68,89 M,0,183501,183523,68,89,75.44154,88.06969 M,0,183523,183545,75.44154,88.06969,82.91409,87.4388 M,0,183545,183567,82.91409,87.4388,90.40817,87.17284 M,0,183567,183589,90.40817,87.17284,97.90444,87.35035 M,0,183589,183611,97.90444,87.35035,105.3688,88.05733 M,0,183611,183633,105.3688,88.05733,112.7452,89.39607 M,0,183633,183655,112.7452,89.39607,119.9546,91.44941 M,0,183655,183677,119.9546,91.44941,126.9022,94.26309 M,0,183677,183699,126.9022,94.26309,133.5094,97.80429 M,0,183699,183721,133.5094,97.80429,139.7603,101.9444 M,0,183721,183743,139.7603,101.9444,145.7249,106.4899 M,0,183743,183765,145.7249,106.4899,151.5459,111.2191 M,0,183765,183787,151.5459,111.2191,157.3974,115.9101 M,0,183787,183809,157.3974,115.9101,163.4355,120.357 M,0,183809,183831,163.4355,120.357,169.7654,124.3757 M,0,183831,183853,169.7654,124.3757,176.4179,127.8327 M,0,183853,183875,176.4179,127.8327,183.3653,130.6505 M,0,183875,183898,183.3653,130.6505,190.5414,132.8216 M,0,183898,183920,190.5414,132.8216,197.8727,134.3922 M,0,183920,183942,197.8727,134.3922,205.2997,135.4235 M,0,183942,183964,205.2997,135.4235,212.7769,135.9899 M,0,183964,183986,212.7769,135.9899,220.274,136.162 M,0,183986,184008,220.274,136.162,227.7715,135.9897 M,0,184008,184030,227.7715,135.9897,235.2564,135.5218 M,0,184030,184052,235.2564,135.5218 M,0,184030,184207,235.2564,135.5218,278,94 M,0,184207,184229,278,94,282.9022,99.67618 M,0,184229,184251,282.9022,99.67618,287.8043,105.3523 M,0,184251,184273,287.8043,105.3523,292.7065,111.0285 M,0,184273,184295,292.7065,111.0285,297.6086,116.7047 M,0,184295,184317,297.6086,116.7047,302.5107,122.3809 M,0,184317,184339,302.5107,122.3809,307.4129,128.057 M,0,184339,184361,307.4129,128.057,312.3151,133.7332 M,0,184361,184383,312.3151,133.7332,315.3636,139.7501 M,0,184383,184405,315.3636,139.7501,312.8005,146.7986 M,0,184405,184427,312.8005,146.7986,310.2375,153.847 M,0,184427,184449,310.2375,153.847,307.6744,160.8955 M,0,184449,184471,307.6744,160.8955,305.1113,167.9439 M,0,184471,184493,305.1113,167.9439,302.5482,174.9924 M,0,184493,184515,302.5482,174.9924,299.9852,182.0408 M,0,184515,184537,299.9852,182.0408,297.4221,189.0893 M,0,184537,184559,297.4221,189.0893,294.859,196.1377 M,0,184559,184581,294.859,196.1377 M,0,184559,185266,294.859,196.1377,118,359 M,0,185266,185443,118,359 M,0,185443,185619,118,359 M,0,185619,185641,118,359,125.2386,360.963 M,0,185641,185663,125.2386,360.963,132.4771,362.926 M,0,185663,185685,132.4771,362.926,139.7157,364.889 M,0,185685,185707,139.7157,364.889,146.9542,366.852 M,0,185707,185729,146.9542,366.852,154.1928,368.815 M,0,185729,185751,154.1928,368.815,161.4313,370.778 M,0,185751,185773,161.4313,370.778,168.6699,372.741 M,0,185773,185795,168.6699,372.741,175.9084,374.704 M,0,185795,185817,175.9084,374.704 M,0,185795,185972,175.9084,374.704,221,414 M,0,185972,186325,221,414,310,333 M,0,186325,186347,310,333,308.7346,325.6075 M,0,186347,186369,308.7346,325.6075,307.4692,318.215 M,0,186369,186391,307.4692,318.215,306.2039,310.8226 M,0,186391,186413,306.2039,310.8226,304.9385,303.4301 M,0,186413,186435,304.9385,303.4301,303.6731,296.0376 M,0,186435,186457,303.6731,296.0376,302.4077,288.6451 M,0,186457,186479,302.4077,288.6451,301.1423,281.2526 M,0,186479,186501,301.1423,281.2526,299.877,273.8601 M,0,186501,186523,299.877,273.8601,298.6116,266.4677 M,0,186523,186545,298.6116,266.4677,297.3462,259.0752 M,0,186545,186567,297.3462,259.0752,296.0808,251.6827 M,0,186567,186589,296.0808,251.6827,294.8154,244.2902 M,0,186589,186611,294.8154,244.2902,296.0808,251.6827 M,0,186611,186633,296.0808,251.6827,297.3462,259.0752 M,0,186633,186655,297.3462,259.0752,298.6116,266.4677 M,0,186655,186677,298.6116,266.4677,299.877,273.8601 M,0,186677,186699,299.877,273.8601,301.1423,281.2526 M,0,186699,186722,301.1423,281.2526,302.4077,288.6451 M,0,186722,186744,302.4077,288.6451,303.6731,296.0376 M,0,186744,186766,303.6731,296.0376,304.9385,303.4301 M,0,186766,186788,304.9385,303.4301,306.2039,310.8226 M,0,186788,186810,306.2039,310.8226,307.4692,318.215 M,0,186810,186832,307.4692,318.215,308.7346,325.6075 M,0,186832,186854,308.7346,325.6075,310,333 M,0,186854,186876,310,333 M,0,186854,187031,310,333,351,376 M,0,187031,187053,351,376,356.5814,380.9879 M,0,187053,187075,356.5814,380.9879,362.3102,385.7529 M,0,187075,187097,362.3102,385.7529,368.4699,389.9498 M,0,187097,187119,368.4699,389.9498,375.0057,393.5404 M,0,187119,187141,375.0057,393.5404,381.8589,396.4916 M,0,187141,187163,381.8589,396.4916,388.9683,398.7757 M,0,187163,187185,388.9683,398.7757,396.2703,400.3709 M,0,187185,187207,396.2703,400.3709,403.6992,401.2613 M,0,187207,187229,403.6992,401.2613,411.1884,401.437 M,0,187229,187251,411.1884,401.437,418.6053,400.4269 M,0,187251,187273,418.6053,400.4269,425.9348,399.0901 M,0,187273,187295,425.9348,399.0901,433.1043,397.0585 M,0,187295,187317,433.1043,397.0585,440.0492,394.35 M,0,187317,187339,440.0492,394.35,446.7067,390.9885 M,0,187339,187361,446.7067,390.9885,453.0164,387.0033 M,0,187361,187383,453.0164,387.0033,459.0365,382.5455 M,0,187383,187405,459.0365,382.5455 M,0,187383,187913,459.0365,382.5455,558,231 M,0,187913,187935,558,231,556.6105,223.6298 M,0,187935,187957,556.6105,223.6298,555.2211,216.2597 M,0,187957,187979,555.2211,216.2597,553.8317,208.8895 M,0,187979,188001,553.8317,208.8895,552.4421,201.5193 M,0,188001,188023,552.4421,201.5193,551.0527,194.1491 M,0,188023,188045,551.0527,194.1491,549.6632,186.779 M,0,188045,188067,549.6632,186.779,548.2738,179.4088 M,0,188067,188089,548.2738,179.4088,546.8843,172.0386 M,0,188089,188111,546.8843,172.0386,545.4949,164.6685 M,0,188111,188133,545.4949,164.6685,544.1054,157.2983 M,0,188133,188155,544.1054,157.2983,542.7159,149.9281 M,0,188155,188177,542.7159,149.9281,541.3265,142.558 M,0,188177,188199,541.3265,142.558,539.937,135.1878 M,0,188199,188221,539.937,135.1878,538.5476,127.8176 M,0,188221,188243,538.5476,127.8176,537.1581,120.4474 M,0,188243,188265,537.1581,120.4474,535.7687,113.0773 M,0,188265,188287,535.7687,113.0773 M,0,188265,188443,535.7687,113.0773,489,73 M,0,188443,188465,489,73,481.9078,75.43375 M,0,188465,188487,481.9078,75.43375,474.7929,77.78725 M,0,188487,188509,474.7929,77.78725,467.6044,79.9065 M,0,188509,188531,467.6044,79.9065,460.3497,81.78925 M,0,188531,188553,460.3497,81.78925,453.0364,83.43345 M,0,188553,188575,453.0364,83.43345,445.6721,84.83733 M,0,188575,188597,445.6721,84.83733,438.2646,85.99934 M,0,188597,188619,438.2646,85.99934,430.8215,86.91814 M,0,188619,188641,430.8215,86.91814 M,0,188619,188795,430.8215,86.91814,386,126 M,0,188795,189148,386,126,287,194 M,0,189148,189170,287,194,285.2228,201.2864 M,0,189170,189192,285.2228,201.2864,283.4457,208.5728 M,0,189192,189214,283.4457,208.5728,281.6685,215.8592 M,0,189214,189236,281.6685,215.8592,279.8913,223.1456 M,0,189236,189258,279.8913,223.1456,278.1141,230.432 M,0,189258,189280,278.1141,230.432,277.4255,237.7656 M,0,189280,189302,277.4255,237.7656,278.5659,245.1784 M,0,189302,189324,278.5659,245.1784,277.9315,252.5206 M,0,189324,189346,277.9315,252.5206,276.2063,259.8195 M,0,189346,189368,276.2063,259.8195,274.4811,267.1183 M,0,189368,189390,274.4811,267.1183,272.7559,274.4172 M,0,189390,189412,272.7559,274.4172,271.0307,281.7161 M,0,189412,189434,271.0307,281.7161,272.7559,274.4172 M,0,189434,189456,272.7559,274.4172,274.4811,267.1183 M,0,189456,189478,274.4811,267.1183,276.2063,259.8195 M,0,189478,189500,276.2063,259.8195,277.9315,252.5206 M,0,189500,189522,277.9315,252.5206,278.5659,245.1784 M,0,189522,189545,278.5659,245.1784,277.4255,237.7656 M,0,189545,189567,277.4255,237.7656,278.1141,230.432 M,0,189567,189589,278.1141,230.432,279.8913,223.1456 M,0,189589,189611,279.8913,223.1456,281.6685,215.8592 M,0,189611,189633,281.6685,215.8592,283.4457,208.5728 M,0,189633,189655,283.4457,208.5728,285.2228,201.2864 M,0,189655,189677,285.2228,201.2864,287,194 M,0,189677,189699,287,194 M,0,189677,189854,287,194,336,228 M,0,189854,189876,336,228,343.4128,229.1404 M,0,189876,189898,343.4128,229.1404,350.8256,230.2809 M,0,189898,189920,350.8256,230.2809,358.2384,231.4213 M,0,189920,189942,358.2384,231.4213,365.6512,232.5617 M,0,189942,189964,365.6512,232.5617,373.0639,233.7021 M,0,189964,189986,373.0639,233.7021,380.4767,234.8426 M,0,189986,190008,380.4767,234.8426,387.8895,235.983 M,0,190008,190030,387.8895,235.983,395.3023,237.1234 M,0,190030,190052,395.3023,237.1234,402.7151,238.2639 M,0,190052,190074,402.7151,238.2639,410.1279,239.4043 M,0,190074,190096,410.1279,239.4043,417.5406,240.5447 M,0,190096,190118,417.5406,240.5447,424.9535,241.6852 M,0,190118,190140,424.9535,241.6852,432.3662,242.8256 M,0,190140,190162,432.3662,242.8256,439.779,243.966 M,0,190162,190184,439.779,243.966,447.1918,245.1064 M,0,190184,190206,447.1918,245.1064,454.6046,246.2469 M,0,190206,190228,454.6046,246.2469 M,0,190206,190737,454.6046,246.2469,571,383 M,0,190737,190913,571,383 M,0,190913,190935,571,383,564.4072,379.4394 M,0,190935,190957,564.4072,379.4394,557.7264,376.0837 M,0,190957,190979,557.7264,376.0837,550.826,373.2054 M,0,190979,191001,550.826,373.2054,543.7399,370.8186 M,0,191001,191023,543.7399,370.8186,536.5027,368.9351 M,0,191023,191045,536.5027,368.9351,529.1501,367.5644 M,0,191045,191067,529.1501,367.5644,521.7181,366.7133 M,0,191067,191089,521.7181,366.7133,514.2432,366.3864 M,0,191089,191111,514.2432,366.3864 M,0,191089,191266,514.2432,366.3864,462,335 M,0,191266,191288,462,335,454.5265,335.5211 M,0,191288,191310,454.5265,335.5211,447.0863,336.2138 M,0,191310,191332,447.0863,336.2138,439.7108,337.425 M,0,191332,191354,439.7108,337.425,432.4348,339.1492 M,0,191354,191376,432.4348,339.1492,425.2932,341.3789 M,0,191376,191398,425.2932,341.3789,418.3202,344.1041 M,0,191398,191420,418.3202,344.1041,411.5263,347.2761 M,0,191420,191442,411.5263,347.2761,405.0139,350.9921 M,0,191442,191464,405.0139,350.9921 M,0,191442,191619,405.0139,350.9921,357,388 M,0,191619,191972,357,388,240,414 M,0,191972,191994,240,414,232.5983,415.2055 M,0,191994,192016,232.5983,415.2055,225.2074,416.4656 M,0,192016,192038,225.2074,416.4656,217.8448,417.8825 M,0,192038,192060,217.8448,417.8825,210.5138,419.4555 M,0,192060,192082,210.5138,419.4555,203.2175,421.1839 M,0,192082,192104,203.2175,421.1839,195.9592,423.0669 M,0,192104,192126,195.9592,423.0669,188.7421,425.1039 M,0,192126,192148,188.7421,425.1039,181.5694,427.2938 M,0,192148,192170,181.5694,427.2938,174.4808,429.7414 M,0,192170,192192,174.4808,429.7414,167.4176,432.2558 M,0,192192,192214,167.4176,432.2558,160.4092,434.9197 M,0,192214,192236,160.4092,434.9197,153.4589,437.732 M,0,192236,192258,153.4589,437.732,160.4092,434.9197 M,0,192258,192280,160.4092,434.9197,167.4176,432.2558 M,0,192280,192302,167.4176,432.2558,174.4808,429.7414 M,0,192302,192324,174.4808,429.7414,181.5694,427.2938 M,0,192324,192346,181.5694,427.2938,188.7421,425.1039 M,0,192346,192369,188.7421,425.1039,195.9592,423.0669 M,0,192369,192391,195.9592,423.0669,203.2175,421.1839 M,0,192391,192413,203.2175,421.1839,210.5138,419.4555 M,0,192413,192435,210.5138,419.4555,217.8448,417.8825 M,0,192435,192457,217.8448,417.8825,225.2074,416.4656 M,0,192457,192479,225.2074,416.4656,232.5983,415.2055 M,0,192479,192501,232.5983,415.2055,240,414 M,0,192501,192523,240,414 M,0,192501,192678,240,414,273,364 M,0,192678,192700,273,364,275.8873,357.1034 M,0,192700,192722,275.8873,357.1034,278.3937,350.1171 M,0,192722,192744,278.3937,350.1171,280.0032,342.8696 M,0,192744,192766,280.0032,342.8696,280.6897,335.4747 M,0,192766,192788,280.6897,335.4747,280.4418,328.0486 M,0,192788,192810,280.4418,328.0486,279.2621,320.7081 M,0,192810,192832,279.2621,320.7081,277.168,313.5689 M,0,192832,192854,277.168,313.5689,274.1908,306.7437 M,0,192854,192876,274.1908,306.7437,270.3759,300.3408 M,0,192876,192898,270.3759,300.3408,265.7814,294.4619 M,0,192898,192920,265.7814,294.4619,260.478,289.2011 M,0,192920,192942,260.478,289.2011,254.5474,284.6432 M,0,192942,192964,254.5474,284.6432,248.0814,280.862 M,0,192964,192986,248.0814,280.862,240.9958,278.476 M,0,192986,193008,240.9958,278.476,233.8357,276.5231 M,0,193008,193030,233.8357,276.5231,226.4858,275.4848 M,0,193030,193052,226.4858,275.4848 M,0,193030,193737,226.4858,275.4848,71,91 M,0,193737,193913,71,91 M,0,193913,194090,71,91 M,0,194090,194112,71,91,78.44292,91.92357 M,0,194112,194134,78.44292,91.92357,85.88583,92.84715 M,0,194134,194156,85.88583,92.84715,93.32875,93.77072 M,0,194156,194178,93.32875,93.77072,100.7717,94.69429 M,0,194178,194200,100.7717,94.69429,108.2146,95.61787 M,0,194200,194222,108.2146,95.61787,115.6575,96.54144 M,0,194222,194244,115.6575,96.54144,123.1004,97.46501 M,0,194244,194266,123.1004,97.46501,130.5433,98.38859 M,0,194266,194288,130.5433,98.38859,137.9863,99.31216 M,0,194288,194310,137.9863,99.31216,145.4292,100.2357 M,0,194310,194332,145.4292,100.2357,152.8721,101.1593 M,0,194332,194354,152.8721,101.1593,160.315,102.0829 M,0,194354,194376,160.315,102.0829,167.7579,103.0065 M,0,194376,194398,167.7579,103.0065,175.2008,103.93 M,0,194398,194420,175.2008,103.93,182.6437,104.8536 M,0,194420,194442,182.6437,104.8536,190.0867,105.7772 M,0,194442,194464,190.0867,105.7772 M,0,194442,194795,190.0867,105.7772,273,191 M,0,194795,194817,273,191,279.4163,187.1165 M,0,194817,194839,279.4163,187.1165,285.8325,183.233 M,0,194839,194861,285.8325,183.233,292.2487,179.3494 M,0,194861,194883,292.2487,179.3494,298.665,175.4659 M,0,194883,194905,298.665,175.4659,305.0812,171.5824 M,0,194905,194927,305.0812,171.5824,311.578,168.0642 M,0,194927,194949,311.578,168.0642,319.0321,168.8925 M,0,194949,194971,319.0321,168.8925,326.4862,169.7207 M,0,194971,194993,326.4862,169.7207,333.9404,170.5489 M,0,194993,195015,333.9404,170.5489,341.3945,171.3772 M,0,195015,195037,341.3945,171.3772,348.8486,172.2054 M,0,195037,195059,348.8486,172.2054,356.3027,173.0336 M,0,195059,195081,356.3027,173.0336,348.8486,172.2054 M,0,195081,195103,348.8486,172.2054,341.3945,171.3772 M,0,195103,195125,341.3945,171.3772,333.9404,170.5489 M,0,195125,195147,333.9404,170.5489,326.4862,169.7207 M,0,195147,195169,326.4862,169.7207,319.0321,168.8925 M,0,195169,195192,319.0321,168.8925,311.578,168.0642 M,0,195192,195214,311.578,168.0642,305.0812,171.5824 M,0,195214,195236,305.0812,171.5824,298.665,175.4659 M,0,195236,195258,298.665,175.4659,292.2487,179.3494 M,0,195258,195280,292.2487,179.3494,285.8325,183.233 M,0,195280,195302,285.8325,183.233,279.4163,187.1165 M,0,195302,195324,279.4163,187.1165,273,191 M,0,195324,195346,273,191 M,0,195324,195501,273,191,231,234 M,0,195501,195523,231,234,223.6626,235.5532 M,0,195523,195545,223.6626,235.5532,216.3252,237.1064 M,0,195545,195567,216.3252,237.1064,208.9878,238.6595 M,0,195567,195589,208.9878,238.6595,201.6503,240.2127 M,0,195589,195611,201.6503,240.2127,194.3129,241.7659 M,0,195611,195633,194.3129,241.7659,186.9755,243.319 M,0,195633,195655,186.9755,243.319,179.6381,244.8722 M,0,195655,195677,179.6381,244.8722,172.3007,246.4254 M,0,195677,195699,172.3007,246.4254,164.9633,247.9786 M,0,195699,195721,164.9633,247.9786,157.6259,249.5318 M,0,195721,195743,157.6259,249.5318,150.2885,251.0849 M,0,195743,195765,150.2885,251.0849,142.951,252.6381 M,0,195765,195787,142.951,252.6381,135.6136,254.1913 M,0,195787,195809,135.6136,254.1913,128.2762,255.7445 M,0,195809,195831,128.2762,255.7445,120.9388,257.2976 M,0,195831,195853,120.9388,257.2976,113.6014,258.8508 M,0,195853,195875,113.6014,258.8508 M,0,195853,196560,113.6014,258.8508,304,405 M,0,196560,196737,304,405 M,0,196737,196913,304,405 M,0,196913,196935,304,405,296.6632,403.4437 M,0,196935,196957,296.6632,403.4437,289.3265,401.8875 M,0,196957,196979,289.3265,401.8875,281.9897,400.3311 M,0,196979,197001,281.9897,400.3311,274.653,398.7749 M,0,197001,197023,274.653,398.7749,267.3162,397.2186 M,0,197023,197045,267.3162,397.2186,259.9795,395.6623 M,0,197045,197067,259.9795,395.6623,252.6427,394.106 M,0,197067,197089,252.6427,394.106,245.306,392.5497 M,0,197089,197111,245.306,392.5497,252.6427,394.106 M,0,197111,197133,252.6427,394.106,259.9795,395.6623 M,0,197133,197155,259.9795,395.6623,267.3162,397.2186 M,0,197155,197177,267.3162,397.2186,274.653,398.7749 M,0,197177,197199,274.653,398.7749,281.9897,400.3311 M,0,197199,197221,281.9897,400.3311,289.3265,401.8875 M,0,197221,197243,289.3265,401.8875,296.6632,403.4437 M,0,197243,197265,296.6632,403.4437,304,405 M,0,197265,197287,304,405 M,0,197265,197619,304,405,390,320 M,0,197619,197641,390,320,387.8097,312.8274 M,0,197641,197663,387.8097,312.8274,385.6561,305.6447 M,0,197663,197685,385.6561,305.6447,383.6144,298.4293 M,0,197685,197707,383.6144,298.4293,381.6852,291.1828 M,0,197707,197729,381.6852,291.1828,379.869,283.9069 M,0,197729,197751,379.869,283.9069,378.1661,276.6035 M,0,197751,197773,378.1661,276.6035,376.577,269.274 M,0,197773,197795,376.577,269.274,375.1848,261.9048 M,0,197795,197817,375.1848,261.9048,373.8448,254.5269 M,0,197817,197839,373.8448,254.5269,372.6197,247.129 M,0,197839,197861,372.6197,247.129,371.5098,239.7129 M,0,197861,197883,371.5098,239.7129,370.5155,232.2801 M,0,197883,197905,370.5155,232.2801,371.5098,239.7129 M,0,197905,197927,371.5098,239.7129,372.6197,247.129 M,0,197927,197949,372.6197,247.129,373.8448,254.5269 M,0,197949,197971,373.8448,254.5269,375.1848,261.9048 M,0,197971,197993,375.1848,261.9048,376.577,269.274 M,0,197993,198016,376.577,269.274,378.1661,276.6035 M,0,198016,198038,378.1661,276.6035,379.869,283.9069 M,0,198038,198060,379.869,283.9069,381.6852,291.1828 M,0,198060,198082,381.6852,291.1828,383.6144,298.4293 M,0,198082,198104,383.6144,298.4293,385.6561,305.6447 M,0,198104,198126,385.6561,305.6447,387.8097,312.8274 M,0,198126,198148,387.8097,312.8274,390,320 M,0,198148,198170,390,320 M,0,198148,198325,390,320,429,364 M,0,198325,198347,429,364,435.9928,366.6608 M,0,198347,198369,435.9928,366.6608,443.0482,369.0214 M,0,198369,198391,443.0482,369.0214,450.3183,370.6132 M,0,198391,198413,450.3183,370.6132,457.7208,371.4174 M,0,198413,198435,457.7208,371.4174,465.1719,371.4238 M,0,198435,198457,465.1719,371.4238,472.5869,370.6309 M,0,198457,198479,472.5869,370.6309,479.8815,369.0462 M,0,198479,198501,479.8815,369.0462,486.9724,366.6857 M,0,198501,198523,486.9724,366.6857,493.7783,363.5743 M,0,198523,198545,493.7783,363.5743,500.2207,359.7448 M,0,198545,198567,500.2207,359.7448,505.851,354.8175 M,0,198567,198589,505.851,354.8175,511.2231,349.6713 M,0,198589,198611,511.2231,349.6713,516.0144,343.9777 M,0,198611,198633,516.0144,343.9777,520.1701,337.8008 M,0,198633,198655,520.1701,337.8008,523.6422,331.2102 M,0,198655,198677,523.6422,331.2102,526.6082,324.3358 M,0,198677,198699,526.6082,324.3358 M,0,198677,199207,526.6082,324.3358,540,144 M,0,199207,199229,540,144,532.6626,142.4468 M,0,199229,199251,532.6626,142.4468,525.3252,140.8936 M,0,199251,199273,525.3252,140.8936,517.9878,139.3405 M,0,199273,199295,517.9878,139.3405,510.6503,137.7873 M,0,199295,199317,510.6503,137.7873,503.3129,136.2341 M,0,199317,199339,503.3129,136.2341,495.9755,134.6809 M,0,199339,199361,495.9755,134.6809,488.6381,133.1278 M,0,199361,199383,488.6381,133.1278,481.3007,131.5746 M,0,199383,199405,481.3007,131.5746,473.9633,130.0214 M,0,199405,199427,473.9633,130.0214,466.6259,128.4682 M,0,199427,199449,466.6259,128.4682,459.2885,126.9151 M,0,199449,199471,459.2885,126.9151,451.951,125.3619 M,0,199471,199493,451.951,125.3619,444.6136,123.8087 M,0,199493,199515,444.6136,123.8087,437.2762,122.2555 M,0,199515,199537,437.2762,122.2555,429.9388,120.7024 M,0,199537,199559,429.9388,120.7024,422.6014,119.1492 M,0,199559,199581,422.6014,119.1492 M,0,199559,199737,422.6014,119.1492,378,77 M,0,199737,199759,378,77,370.6786,78.62698 M,0,199759,199781,370.6786,78.62698,363.3572,80.25396 M,0,199781,199803,363.3572,80.25396,356.0358,81.88094 M,0,199803,199825,356.0358,81.88094,348.7144,83.50791 M,0,199825,199847,348.7144,83.50791,341.393,85.13489 M,0,199847,199869,341.393,85.13489,334.0716,86.76187 M,0,199869,199891,334.0716,86.76187,326.7502,88.38885 M,0,199891,199913,326.7502,88.38885,319.4288,90.01582 M,0,199913,199935,319.4288,90.01582 M,0,199913,200090,319.4288,90.01582,276,132 M,0,200090,200443,276,132,176,198 M,0,200443,200465,176,198,169.6303,194.051 M,0,200465,200487,169.6303,194.051,163.195,190.235 M,0,200487,200509,163.195,190.235,156.5502,186.794 M,0,200509,200531,156.5502,186.794,149.7172,183.7394 M,0,200531,200553,149.7172,183.7394,142.718,181.0811 M,0,200553,200575,142.718,181.0811,135.5748,178.8281 M,0,200575,200597,135.5748,178.8281,128.3105,176.988 M,0,200597,200619,128.3105,176.988,120.9484,175.5672 M,0,200619,200641,120.9484,175.5672,113.4844,174.8918 M,0,200641,200663,113.4844,174.8918,106.0198,174.3922 M,0,200663,200685,106.0198,174.3922,98.5378,174.3218 M,0,200685,200707,98.5378,174.3218,91.06256,174.681 M,0,200707,200729,91.06256,174.681,98.5378,174.3218 M,0,200729,200751,98.5378,174.3218,106.0198,174.3922 M,0,200751,200773,106.0198,174.3922,113.4844,174.8918 M,0,200773,200795,113.4844,174.8918,120.9484,175.5672 M,0,200795,200817,120.9484,175.5672,128.3105,176.988 M,0,200817,200840,128.3105,176.988,135.5748,178.8281 M,0,200840,200862,135.5748,178.8281,142.718,181.0811 M,0,200862,200884,142.718,181.0811,149.7172,183.7394 M,0,200884,200906,149.7172,183.7394,156.5502,186.794 M,0,200906,200928,156.5502,186.794,163.195,190.235 M,0,200928,200950,163.195,190.235,169.6303,194.051 M,0,200950,200972,169.6303,194.051,176,198 M,0,200972,200994,176,198 M,0,200972,201148,176,198,205,250 M,0,201148,201170,205,250,202.6821,257.1328 M,0,201170,201192,202.6821,257.1328,200.3783,264.27 M,0,201192,201214,200.3783,264.27,198.1117,271.4192 M,0,201214,201236,198.1117,271.4192,195.8827,278.5801 M,0,201236,201258,195.8827,278.5801,193.6909,285.7526 M,0,201258,201280,193.6909,285.7526,191.5368,292.9365 M,0,201280,201302,191.5368,292.9365,189.4201,300.1315 M,0,201302,201324,189.4201,300.1315,187.341,307.3376 M,0,201324,201346,187.341,307.3376,185.2996,314.5544 M,0,201346,201368,185.2996,314.5544,183.2959,321.7817 M,0,201368,201390,183.2959,321.7817,181.3574,329.0269 M,0,201390,201412,181.3574,329.0269,179.4339,336.2758 M,0,201412,201434,179.4339,336.2758,177.5484,343.5349 M,0,201434,201456,177.5484,343.5349,175.7008,350.8036 M,0,201456,201478,175.7008,350.8036,173.8912,358.0818 M,0,201478,201500,173.8912,358.0818,172.1095,365.3671 M,0,201500,201522,172.1095,365.3671 M,0,201500,202031,172.1095,365.3671,339,434 M,0,202031,202207,339,434 M,0,202207,202229,339,434,336.936,426.7902 M,0,202229,202251,336.936,426.7902,334.9083,419.5716 M,0,202251,202273,334.9083,419.5716,333.01,412.3176 M,0,202273,202295,333.01,412.3176,331.2416,405.0305 M,0,202295,202317,331.2416,405.0305,329.6038,397.7124 M,0,202317,202339,329.6038,397.7124,328.0971,390.3656 M,0,202339,202361,328.0971,390.3656,326.8317,382.9738 M,0,202361,202383,326.8317,382.9738,325.6183,375.5746 M,0,202383,202405,325.6183,375.5746 M,0,202383,202560,325.6183,375.5746,364,329 M,0,202560,202582,364,329,366.064,321.7902 M,0,202582,202604,366.064,321.7902,368.0917,314.5716 M,0,202604,202626,368.0917,314.5716,369.99,307.3176 M,0,202626,202648,369.99,307.3176,371.7584,300.0305 M,0,202648,202670,371.7584,300.0305,373.3962,292.7124 M,0,202670,202692,373.3962,292.7124,374.9029,285.3656 M,0,202692,202714,374.9029,285.3656,376.1683,277.9738 M,0,202714,202736,376.1683,277.9738,377.3817,270.5746 M,0,202736,202758,377.3817,270.5746 M,0,202736,202913,377.3817,270.5746,341,222 M,0,202913,203266,341,222,433,145 M,0,203266,203288,433,145,431.4549,137.6609 M,0,203288,203310,431.4549,137.6609,429.9099,130.3217 M,0,203310,203332,429.9099,130.3217,428.3648,122.9826 M,0,203332,203354,428.3648,122.9826,426.8197,115.6435 M,0,203354,203376,426.8197,115.6435,425.2746,108.3044 M,0,203376,203398,425.2746,108.3044,426.2094,100.9527 M,0,203398,203420,426.2094,100.9527,427.6803,93.59838 M,0,203420,203442,427.6803,93.59838,426.4555,86.33687 M,0,203442,203464,426.4555,86.33687,424.4821,79.10114 M,0,203464,203486,424.4821,79.10114,422.5088,71.86542 M,0,203486,203508,422.5088,71.86542,420.5354,64.62968 M,0,203508,203530,420.5354,64.62968,418.562,57.39396 M,0,203530,203552,418.562,57.39396,420.5354,64.62968 M,0,203552,203574,420.5354,64.62968,422.5088,71.86542 M,0,203574,203596,422.5088,71.86542,424.4821,79.10114 M,0,203596,203618,424.4821,79.10114,426.4555,86.33687 M,0,203618,203640,426.4555,86.33687,427.6803,93.59838 M,0,203640,203663,427.6803,93.59838,426.2094,100.9527 M,0,203663,203685,426.2094,100.9527,425.2746,108.3044 M,0,203685,203707,425.2746,108.3044,426.8197,115.6435 M,0,203707,203729,426.8197,115.6435,428.3648,122.9826 M,0,203729,203751,428.3648,122.9826,429.9099,130.3217 M,0,203751,203773,429.9099,130.3217,431.4549,137.6609 M,0,203773,203795,431.4549,137.6609,433,145 M,0,203795,203817,433,145 M,0,203795,203972,433,145,462,197 M,0,203972,203994,462,197,467.9657,192.4547 M,0,203994,204016,467.9657,192.4547,473.9315,187.9093 M,0,204016,204038,473.9315,187.9093,479.8972,183.364 M,0,204038,204060,479.8972,183.364,485.8629,178.8187 M,0,204060,204082,485.8629,178.8187,491.8287,174.2734 M,0,204082,204104,491.8287,174.2734,497.7944,169.7281 M,0,204104,204126,497.7944,169.7281,503.7602,165.1827 M,0,204126,204148,503.7602,165.1827,510.4925,168.1091 M,0,204148,204170,510.4925,168.1091,517.2568,171.3484 M,0,204170,204192,517.2568,171.3484,524.0212,174.5876 M,0,204192,204214,524.0212,174.5876,530.7856,177.8269 M,0,204214,204236,530.7856,177.8269,537.55,181.0662 M,0,204236,204258,537.55,181.0662,544.3145,184.3055 M,0,204258,204280,544.3145,184.3055,551.0789,187.5448 M,0,204280,204302,551.0789,187.5448,557.8432,190.7841 M,0,204302,204324,557.8432,190.7841,564.6076,194.0234 M,0,204324,204346,564.6076,194.0234 M,0,204324,204678,564.6076,194.0234,497,294 M,0,204678,204700,497,294,489.5803,295.0943 M,0,204700,204722,489.5803,295.0943,482.1636,296.2077 M,0,204722,204744,482.1636,296.2077,474.754,297.3676 M,0,204744,204766,474.754,297.3676,467.3518,298.5736 M,0,204766,204788,467.3518,298.5736,459.9573,299.8259 M,0,204788,204810,459.9573,299.8259,452.5707,301.1244 M,0,204810,204832,452.5707,301.1244,445.1924,302.4689 M,0,204832,204854,445.1924,302.4689,437.8226,303.8596 M,0,204854,204876,437.8226,303.8596,430.4616,305.2963 M,0,204876,204898,430.4616,305.2963,423.1096,306.7789 M,0,204898,204920,423.1096,306.7789,415.7672,308.3075 M,0,204920,204942,415.7672,308.3075,408.4343,309.882 M,0,204942,204964,408.4343,309.882,401.1115,311.5022 M,0,204964,204986,401.1115,311.5022,393.8055,313.1972 M,0,204986,205008,393.8055,313.1972,386.5046,314.9127 M,0,205008,205030,386.5046,314.9127,379.2145,316.6738 M,0,205030,205052,379.2145,316.6738 M,0,205030,205207,379.2145,316.6738,334,355 M,0,205207,205229,334,355,327.2312,358.1801 M,0,205229,205251,327.2312,358.1801,320.3824,361.0583 M,0,205251,205273,320.3824,361.0583,313.2454,363.1345 M,0,205273,205295,313.2454,363.1345,305.9121,364.3807 M,0,205295,205317,305.9121,364.3807,298.4767,364.7793 M,0,205317,205339,298.4767,364.7793,291.0353,364.3228 M,0,205339,205361,291.0353,364.3228,283.684,363.0144 M,0,205361,205383,283.684,363.0144,276.5186,360.8679 M,0,205383,205405,276.5186,360.8679,269.6329,357.9075 M,0,205405,205427,269.6329,357.9075,263.4876,353.6454 M,0,205427,205449,263.4876,353.6454,257.5806,349.1412 M,0,205449,205471,257.5806,349.1412,252.2255,343.9881 M,0,205471,205493,252.2255,343.9881,247.4924,338.2517 M,0,205493,205515,247.4924,338.2517,243.4435,332.005 M,0,205515,205537,243.4435,332.005,240.1329,325.3275 M,0,205537,205559,240.1329,325.3275,237.6057,318.3043 M,0,205559,205581,237.6057,318.3043 M,0,205559,205737,237.6057,318.3043,213,262 M,0,205737,205759,213,262,214.3694,254.6261 M,0,205759,205781,214.3694,254.6261,215.7389,247.2522 M,0,205781,205803,215.7389,247.2522,217.1083,239.8783 M,0,205803,205825,217.1083,239.8783,218.4778,232.5043 M,0,205825,205847,218.4778,232.5043,219.8472,225.1304 M,0,205847,205869,219.8472,225.1304,221.2166,217.7565 M,0,205869,205891,221.2166,217.7565,222.5861,210.3826 M,0,205891,205913,222.5861,210.3826,223.9555,203.0087 M,0,205913,205935,223.9555,203.0087 M,0,205913,206090,223.9555,203.0087,266,160
Sprite,Background,Centre,"sb/pixel.png",0,0 M,0,208913,210913,668,520,668,-40 F,0,208913,210913,1 F,0,107266,114325,0.8 L,208913,4 V,0,0,1200,4,4,4,-4 R,0,0,1200,0,6.283185 C,0,208913,,119,214,244
Sprite,Background,Centre,"sb/pixel.png",0,0 M,0,208957,210957,155,520,155,-40 F,0,208957,210957,1 F,0,107266,114325,0.8 L,208957,4 V,0,0,1200,4,4,4,-4 R,0,0,1200,0,6.283185 C,0,208957,,86,191,237
Sprite,Background,Centre,"sb/pixel.png",0,0 M,0,209001,211001,588,520,588,-40 F,0,209001,211001,1 F,0,107266,114325,0.8 L,209001,4 V,0,0,1200,4,4,4,-4 R,0,0,1200,0,6.283185 C,0,209001,,119,214,244
Sprite,Background,Centre,"sb/pixel.png",0,0 M,0,209045,211045,-57,520,-57,-40 F,0,209045,211045,1 F,0,107266,114325,0.8 L,209045,4 V,0,0,1200,4,4,4,-4 R,0,0,1200,0,6.283185 C,0,209045,,86,191,237
Sprite,Background,Centre,"sb/pixel.png",0,0 M,0,209089,211089,40,520,40,-40 F,0,209089,211089,1 F,0,107266,114325,0.8 L,209089,4 V,0,0,1200,4,4,4,-4 R,0,0,1200,0,6.283185 C,0,209089,,86,191,237
Sprite,Background,Centre,"sb/pixel.png",0,0 M,0,209133,211133,-94,520,-94,-40 F,0,209133,211133,1 F,0,107266,114325,0.8 L,209133,4 V,0,0,1200,4,4,4,-4 R,0,0,1200,0,6.283185 C,0,209133,,86,191,237
Sprite,Background,Centre,"sb/pixel.png",0,0 M,0,209177,211177,529,520,529,-40 F,0,209177,211177,1 F,0,107266,114325,0.8 L,209177,4 V,0,0,1200,4,4,4,-4 R,0,0,1200,0,6.283185 C,0,209177,,86,191,237
Sprite,Background,Centre,"sb/pixel.png",0,0 M,0,209221,211221,-79,520,-79,-40 F,0,209221,211221,1 F,0,107266,114325,0.8 L,209221,4 V,0,0,1200,4,4,4,-4 R,0,0,1200,0,6.283185 C,0,209221,,119,214,244
Sprite,Background,Centre,"sb/pixel.png",0,0 M,0,209265,211265,538,520,538,-40 F,0,209265,211265,1 F,0,107266,114325,0.8 L,209265,4 V,0,0,1200,4,4,4,-4 R,0,0,1200,0,6.283185 C,0,209265,,119,214,244
Sprite,Background,Centre,"sb/pixel.png",0,0 M,0,209310,211310,384,520,384,-40 F,0,209310,211310,1 F,0,107266,114325,0.8 L,209310,4 V,0,0,1200,4,4,4,-4 R,0,0,1200,0,6.283185 C,0,209310,,119,214,244
Sprite,Background,Centre,"sb/pixel.png",0,0 M,0,209354,211354,270,520,270,-40 F,0,209354,211354,1 F,0,107266,114325,0.8 L,209354,4 V,0,0,1200,4,4,4,-4 R,0,0,1200,0,6.283185 C,0,209354,,119,214,244
Sprite,Background,Centre,"sb/pixel.png",0,0 M,0,209398,211398,481,520,481,-40 F,0,209398,211398,1 F,0,107266,114325,0.8 L,209398,4 V,0,0,1200,4,4,4,-4 R,0,0,1200,0,6.283185 C,0,209398,,86,191,237
Sprite,Background,Centre,"sb/pixel.png",0,0 M,0,209442,211442,-44,520,-44,-40 F,0,209442,211442,1 F,0,107266,114325,0.8 L,209442,4 V,0,0,1200,4,4,4,-4 R,0,0,1200,0,6.283185 C,0,209442,,86,191,237
Sprite,Background,Centre,"sb/pixel.png",0,0 M,0,209486,211486,193,520,193,-40 F,0,209486,211486,1 F,0,107266,114325,0.8 L,209486,4 V,0,0,1200,4,4,4,-4 R,0,0,1200,0,6.283185 C,0,209486,,86,191,237
Sprite,Background,Centre,"sb/pixel.png",0,0 M,0,209530,211530,305,520,305,-40 F,0,209530,211530,1 F,0,107266,114325,0.8 L,209530,4 V,0,0,1200,4,4,4,-4 R,0,0,1200,0,6.283185 C,0,209530,,119,214,244
Sprite,Background,Centre,"sb/pixel.png",0,0 M,0,209574,211574,359,520,359,-40 F,0,209574,211574,1 F,0,107266,114325,0.8 L,209574,4 V,0,0,1200,4,4,4,-4 R,0,0,1200,0,6.283185 C,0,209574,,119,214,244
Sprite,Background,Centre,"sb/pixel.png",0,0 M,0,209618,211618,636,520,636,-40 F,0,209618,211618,1 F,0,107266,114325,0.8 L,209618,4 V,0,0,1200,4,4,4,-4 R,0,0,1200,0,6.283185 C,0,209618,,86,191,237
Sprite,Background,Centre,"sb/pixel.png",0,0 M,0,209663,211663,-35,520,-35,-40 F,0,209663,211663,1 F,0,107266,114325,0.8 L,209663,4 V,0,0,1200,4,4,4,-4 R,0,0,1200,0,6.283185 C,0,209663,,119,214,244
Sprite,Background,Centre,"sb/pixel.png",0,0 M,0,209707,211707,172,520,172,-40 F,0,209707,211707,1 F,0,107266,114325,0.8 L,209707,4 V,0,0,1200,4,4,4,-4 R,0,0,1200,0,6.283185 C,0,209707,,86,191,237
Sprite,Background,Centre,"sb/pixel.png",0,0 M,0,209751,211751,69,520,69,-40 F,0,209751,211751,1 F,0,107266,114325,0.8 L,209751,4 V,0,0,1200,4,4,4,-4 R,0,0,1200,0,6.283185 C,0,209751,,119,214,244
Sprite,Background,Centre,"sb/pixel.png",0,0 M,0,209795,211795,-92,520,-92,-40 F,0,209795,211795,1 F,0,107266,114325,0.8 L,209795,4 V,0,0,1200,4,4,4,-4 R,0,0,1200,0,6.283185 C,0,209795,,119,214,244
Sprite,Background,Centre,"sb/pixel.png",0,0 M,0,209839,211839,620,520,620,-40 F,0,209839,211839,1 F,0,107266,114325,0.8 L,209839,4 V,0,0,1200,4,4,4,-4 R,0,0,1200,0,6.283185 C,0,209839,,119,214,244
Sprite,Background,Centre,"sb/pixel.png",0,0 M,0,209883,211883,72,520,72,-40 F,0,209883,211883,1 F,0,107266,114325,0.8 L,209883,4 V,0,0,1200,4,4,4,-4 R,0,0,1200,0,6.283185 C,0,209883,,86,191,237
Sprite,Background,Centre,"sb/pixel.png",0,0 M,0,209927,211927,228,520,228,-40 F,0,209927,211927,1 F,0,107266,114325,0.8 L,209927,4 V,0,0,1200,4,4,4,-4 R,0,0,1200,0,6.283185 C,0,209927,,119,214,244
Sprite,Background,Centre,"sb/pixel.png",0,0 M,0,209971,211971,327,520,327,-40 F,0,209971,211971,1 F,0,107266,114325,0.8 L,209971,4 V,0,0,1200,4,4,4,-4 R,0,0,1200,0,6.283185 C,0,209971,,86,191,237
Sprite,Background,Centre,"sb/pixel.png",0,0 M,0,210015,212015,746,520,746,-40 F,0,210015,212015,1 F,0,107266,114325,0.8 L,210015,4 V,0,0,1200,4,4,4,-4 R,0,0,1200,0,6.283185 C,0,210015,,119,214,244
Sprite,Background,Centre,"sb/pixel.png",0,0 M,0,210060,212060,226,520,226,-40 F,0,210060,212060,1 F,0,107266,114325,0.8 L,210060,4 V,0,0,1200,4,4,4,-4 R,0,0,1200,0,6.283185 C,0,210060,,119,214,244
Sprite,Background,Centre,"sb/pixel.png",0,0 M,0,210104,212104,544,520,544,-40 F,0,210104,212104,1 F,0,107266,114325,0.8 L,210104,4 V,0,0,1200,4,4,4,-4 R,0,0,1200,0,6.283185 C,0,210104,,86,191,237
Sprite,Background,Centre,"sb/pixel.png",0,0 M,0,210148,212148,408,520,408,-40 F,0,210148,212148,1 F,0,107266,114325,0.8 L,210148,4 V,0,0,1200,4,4,4,-4 R,0,0,1200,0,6.283185 C,0,210148,,86,191,237
Sprite,Background,Centre,"sb/pixel.png",0,0 M,0,210192,212192,611,520,611,-40 F,0,210192,212192,1 F,0,107266,114325,0.8 L,210192,4 V,0,0,1200,4,4,4,-4 R,0,0,1200,0,6.283185 C,0,210192,,119,214,244
Sprite,Background,Centre,"sb/pixel.png",0,0 M,0,210236,212236,4,520,4,-40 F,0,210236,212236,1 F,0,107266,114325,0.8 L,210236,4 V,0,0,1200,4,4,4,-4 R,0,0,1200,0,6.283185 C,0,210236,,119,214,244
Sprite,Background,Centre,"sb/pixel.png",0,0 M,0,210280,212280,-65,520,-65,-40 F,0,210280,212280,1 F,0,107266,114325,0.8 L,210280,4 V,0,0,1200,4,4,4,-4 R,0,0,1200,0,6.283185 C,0,210280,,86,191,237
Sprite,Background,Centre,"sb/pixel.png",0,0 M,0,210324,212324,213,520,213,-40 F,0,210324,212324,1 F,0,107266,114325,0.8 L,210324,4 V,0,0,1200,4,4,4,-4 R,0,0,1200,0,6.283185 C,0,210324,,86,191,237
Sprite,Background,Centre,"sb/pixel.png",0,0 M,0,210368,212368,723,520,723,-40 F,0,210368,212368,1 F,0,107266,114325,0.8 L,210368,4 V,0,0,1200,4,4,4,-4 R,0,0,1200,0,6.283185 C,0,210368,,86,191,237
Sprite,Background,Centre,"sb/pixel.png",0,0 M,0,210413,212413,446,520,446,-40 F,0,210413,212413,1 F,0,107266,114325,0.8 L,210413,4 V,0,0,1200,4,4,4,-4 R,0,0,1200,0,6.283185 C,0,210413,,86,191,237
Sprite,Background,Centre,"sb/pixel.png",0,0 M,0,210457,212457,687,520,687,-40 F,0,210457,212457,1 F,0,107266,114325,0.8 L,210457,4 V,0,0,1200,4,4,4,-4 R,0,0,1200,0,6.283185 C,0,210457,,119,214,244
Sprite,Background,Centre,"sb/pixel.png",0,0 M,0,210501,212501,-5,520,-5,-40 F,0,210501,212501,1 F,0,107266,114325,0.8 L,210501,4 V,0,0,1200,4,4,4,-4 R,0,0,1200,0,6.283185 C,0,210501,,119,214,244
Sprite,Background,Centre,"sb/pixel.png",0,0 M,0,210545,212545,309,520,309,-40 F,0,210545,212545,1 F,0,107266,114325,0.8 L,210545,4 V,0,0,1200,4,4,4,-4 R,0,0,1200,0,6.283185 C,0,210545,,119,214,244
Sprite,Background,Centre,"sb/pixel.png",0,0 M,0,210589,212589,24,520,24,-40 F,0,210589,212589,1 F,0,107266,114325,0.8 L,210589,4 V,0,0,1200,4,4,4,-4 R,0,0,1200,0,6.283185 C,0,210589,,119,214,244
Sprite,Background,Centre,"sb/pixel.png",0,0 M,0,210633,212633,277,520,277,-40 F,0,210633,212633,1 F,0,107266,114325,0.8 L,210633,4 V,0,0,1200,4,4,4,-4 R,0,0,1200,0,6.283185 C,0,210633,,119,214,244
Sprite,Background,Centre,"sb/pixel.png",0,0 M,0,210677,212677,185,520,185,-40 F,0,210677,212677,1 F,0,107266,114325,0.8 L,210677,4 V,0,0,1200,4,4,4,-4 R,0,0,1200,0,6.283185 C,0,210677,,86,191,237
Sprite,Background,Centre,"sb/pixel.png",0,0 M,0,210721,212721,154,520,154,-40 F,0,210721,212721,1 F,0,107266,114325,0.8 L,210721,4 V,0,0,1200,4,4,4,-4 R,0,0,1200,0,6.283185 C,0,210721,,86,191,237
Sprite,Background,Centre,"sb/pixel.png",0,0 M,0,210765,212765,51,520,51,-40 F,0,210765,212765,1 F,0,107266,114325,0.8 L,210765,4 V,0,0,1200,4,4,4,-4 R,0,0,1200,0,6.283185 C,0,210765,,119,214,244
Sprite,Background,Centre,"sb/pixel.png",0,0 M,0,210810,212810,601,520,601,-40 F,0,210810,212810,1 F,0,107266,114325,0.8 L,210810,4 V,0,0,1200,4,4,4,-4 R,0,0,1200,0,6.283185 C,0,210810,,86,191,237
Sprite,Background,Centre,"sb/pixel.png",0,0 M,0,210854,212854,22,520,22,-40 F,0,210854,212854,1 F,0,107266,114325,0.8 L,210854,4 V,0,0,1200,4,4,4,-4 R,0,0,1200,0,6.283185 C,0,210854,,119,214,244
Sprite,Background,Centre,"sb/pixel.png",0,0 M,0,210898,212898,290,520,290,-40 F,0,210898,212898,1 F,0,107266,114325,0.8 L,210898,4 V,0,0,1200,4,4,4,-4 R,0,0,1200,0,6.283185 C,0,210898,,86,191,237
Sprite,Background,Centre,"sb/pixel.png",0,0 M,0,210942,212942,515,520,515,-40 F,0,210942,212942,1 F,0,107266,114325,0.8 L,210942,4 V,0,0,1200,4,4,4,-4 R,0,0,1200,0,6.283185 C,0,210942,,119,214,244
Sprite,Background,Centre,"sb/pixel.png",0,0 M,0,210986,212986,17,520,17,-40 F,0,210986,212986,1 F,0,107266,114325,0.8 L,210986,4 V,0,0,1200,4,4,4,-4 R,0,0,1200,0,6.283185 C,0,210986,,86,191,237
Sprite,Background,Centre,"sb/pixel.png",0,0 M,0,211030,213030,147,520,147,-40 F,0,211030,213030,1 F,0,107266,114325,0.8 L,211030,4 V,0,0,1200,4,4,4,-4 R,0,0,1200,0,6.283185 C,0,211030,,86,191,237
Sprite,Background,Centre,"sb/pixel.png",0,0 M,0,211074,213074,732,520,732,-40 F,0,211074,213074,1 F,0,107266,114325,0.8 L,211074,4 V,0,0,1200,4,4,4,-4 R,0,0,1200,0,6.283185 C,0,211074,,119,214,244
Sprite,Background,Centre,"sb/pixel.png",0,0 M,0,211118,213118,658,520,658,-40 F,0,211118,213118,1 F,0,107266,114325,0.8 L,211118,4 V,0,0,1200,4,4,4,-4 R,0,0,1200,0,6.283185 C,0,211118,,86,191,237
Sprite,Background,Centre,"sb/pixel.png",0,0 M,0,211163,213163,518,520,518,-40 F,0,211163,213163,1 F,0,107266,114325,0.8 L,211163,4 V,0,0,1200,4,4,4,-4 R,0,0,1200,0,6.283185 C,0,211163,,86,191,237
Sprite,Background,Centre,"sb/pixel.png",0,0 M,0,211207,213207,448,520,448,-40 F,0,211207,213207,1 F,0,107266,114325,0.8 L,211207,4 V,0,0,1200,4,4,4,-4 R,0,0,1200,0,6.283185 C,0,211207,,86,191,237
Sprite,Background,Centre,"sb/pixel.png",0,0 M,0,211251,213251,735,520,735,-40 F,0,211251,213251,1 F,0,107266,114325,0.8 L,211251,4 V,0,0,1200,4,4,4,-4 R,0,0,1200,0,6.283185 C,0,211251,,119,214,244
Sprite,Background,Centre,"sb/pixel.png",0,0 M,0,211295,213295,566,520,566,-40 F,0,211295,213295,1 F,0,107266,114325,0.8 L,211295,4 V,0,0,1200,4,4,4,-4 R,0,0,1200,0,6.283185 C,0,211295,,86,191,237
Sprite,Background,Centre,"sb/pixel.png",0,0 M,0,211339,213339,531,520,531,-40 F,0,211339,213339,1 F,0,107266,114325,0.8 L,211339,4 V,0,0,1200,4,4,4,-4 R,0,0,1200,0,6.283185 C,0,211339,,119,214,244
Sprite,Background,Centre,"sb/pixel.png",0,0 M,0,211383,213383,60,520,60,-40 F,0,211383,213383,1 F,0,107266,114325,0.8 L,211383,4 V,0,0,1200,4,4,4,-4 R,0,0,1200,0,6.283185 C,0,211383,,86,191,237
Sprite,Background,Centre,"sb/pixel.png",0,0 M,0,211427,213427,522,520,522,-40 F,0,211427,213427,1 F,0,107266,114325,0.8 L,211427,4 V,0,0,1200,4,4,4,-4 R,0,0,1200,0,6.283185 C,0,211427,,119,214,244
Sprite,Background,Centre,"sb/pixel.png",0,0 M,0,211471,213471,693,520,693,-40 F,0,211471,213471,1 F,0,107266,114325,0.8 L,211471,4 V,0,0,1200,4,4,4,-4 R,0,0,1200,0,6.283185 C,0,211471,,119,214,244
Sprite,Background,Centre,"sb/pixel.png",0,0 M,0,211515,213515,578,520,578,-40 F,0,211515,213515,1 F,0,107266,114325,0.8 L,211515,4 V,0,0,1200,4,4,4,-4 R,0,0,1200,0,6.283185 C,0,211515,,86,191,237
Sprite,Background,Centre,"sb/pixel.png",0,0 M,0,211560,213560,719,520,719,-40 F,0,211560,213560,1 F,0,107266,114325,0.8 L,211560,4 V,0,0,1200,4,4,4,-4 R,0,0,1200,0,6.283185 C,0,211560,,119,214,244
Sprite,Background,Centre,"sb/pixel.png",0,0 M,0,211604,213604,472,520,472,-40 F,0,211604,213604,1 F,0,107266,114325,0.8 L,211604,4 V,0,0,1200,4,4,4,-4 R,0,0,1200,0,6.283185 C,0,211604,,119,214,244
Sprite,Background,Centre,"sb/pixel.png",0,0 M,0,211648,213648,318,520,318,-40 F,0,211648,213648,1 F,0,107266,114325,0.8 L,211648,4 V,0,0,1200,4,4,4,-4 R,0,0,1200,0,6.283185 C,0,211648,,119,214,244
Sprite,Background,Centre,"sb/pixel.png",0,0 M,0,211692,213692,283,520,283,-40 F,0,211692,213692,1 F,0,107266,114325,0.8 L,211692,4 V,0,0,1200,4,4,4,-4 R,0,0,1200,0,6.283185 C,0,211692,,86,191,237
Sprite,Background,Centre,"sb/pixel.png",0,0 M,0,211736,213736,24,520,24,-40 F,0,211736,213736,1 F,0,107266,114325,0.8 L,211736,4 V,0,0,1200,4,4,4,-4 R,0,0,1200,0,6.283185 C,0,211736,,86,191,237
Sprite,Background,Centre,"sb/pixel.png",0,0 M,0,211780,213780,574,520,574,-40 F,0,211780,213780,1 F,0,107266,114325,0.8 L,211780,4 V,0,0,1200,4,4,4,-4 R,0,0,1200,0,6.283185 C,0,211780,,119,214,244
Sprite,Background,Centre,"sb/pixel.png",0,0 M,0,211824,213824,190,520,190,-40 F,0,211824,213824,1 F,0,107266,114325,0.8 L,211824,4 V,0,0,1200,4,4,4,-4 R,0,0,1200,0,6.283185 C,0,211824,,119,214,244
Sprite,Background,Centre,"sb/pixel.png",0,0 M,0,211868,213868,156,520,156,-40 F,0,211868,213868,1 F,0,107266,114325,0.8 L,211868,4 V,0,0,1200,4,4,4,-4 R,0,0,1200,0,6.283185 C,0,211868,,86,191,237
Sprite,Background,Centre,"sb/pixel.png",0,0 M,0,211913,213913,97,520,97,-40 F,0,211913,213913,1 F,0,107266,114325,0.8 L,211913,4 V,0,0,1200,4,4,4,-4 R,0,0,1200,0,6.283185 C,0,211913,,86,191,237
Sprite,Background,Centre,"sb/pixel.png",0,0 M,0,211957,213957,106,520,106,-40 F,0,211957,213957,1 F,0,107266,114325,0.8 L,211957,4 V,0,0,1200,4,4,4,-4 R,0,0,1200,0,6.283185 C,0,211957,,119,214,244
Sprite,Background,Centre,"sb/pixel.png",0,0 M,0,212001,214001,281,520,281,-40 F,0,212001,214001,1 F,0,107266,114325,0.8 L,212001,4 V,0,0,1200,4,4,4,-4 R,0,0,1200,0,6.283185 C,0,212001,,86,191,237
Sprite,Background,Centre,"sb/pixel.png",0,0 M,0,212045,214045,581,520,581,-40 F,0,212045,214045,1 F,0,107266,114325,0.8 L,212045,4 V,0,0,1200,4,4,4,-4 R,0,0,1200,0,6.283185 C,0,212045,,119,214,244
Sprite,Background,Centre,"sb/pixel.png",0,0 M,0,212089,214089,265,520,265,-40 F,0,212089,214089,1 F,0,107266,114325,0.8 L,212089,4 V,0,0,1200,4,4,4,-4 R,0,0,1200,0,6.283185 C,0,212089,,119,214,244
Sprite,Background,Centre,"sb/pixel.png",0,0 M,0,212133,214133,306,520,306,-40 F,0,212133,214133,1 F,0,107266,114325,0.8 L,212133,4 V,0,0,1200,4,4,4,-4 R,0,0,1200,0,6.283185 C,0,212133,,119,214,244
Sprite,Background,Centre,"sb/pixel.png",0,0 M,0,212177,214177,227,520,227,-40 F,0,212177,214177,1 F,0,107266,114325,0.8 L,212177,4 V,0,0,1200,4,4,4,-4 R,0,0,1200,0,6.283185 C,0,212177,,86,191,237
Sprite,Background,Centre,"sb/pixel.png",0,0 M,0,212221,214221,608,520,608,-40 F,0,212221,214221,1 F,0,107266,114325,0.8 L,212221,4 V,0,0,1200,4,4,4,-4 R,0,0,1200,0,6.283185 C,0,212221,,119,214,244
Sprite,Background,Centre,"sb/pixel.png",0,0 M,0,212265,214265,-55,520,-55,-40 F,0,212265,214265,1 F,0,107266,114325,0.8 L,212265,4 V,0,0,1200,4,4,4,-4 R,0,0,1200,0,6.283185 C,0,212265,,119,214,244
Sprite,Background,Centre,"sb/pixel.png",0,0 M,0,212310,214310,274,520,274,-40 F,0,212310,214310,1 F,0,107266,114325,0.8 L,212310,4 V,0,0,1200,4,4,4,-4 R,0,0,1200,0,6.283185 C,0,212310,,86,191,237
Sprite,Background,Centre,"sb/pixel.png",0,0 M,0,212354,214354,647,520,647,-40 F,0,212354,214354,1 F,0,107266,114325,0.8 L,212354,4 V,0,0,1200,4,4,4,-4 R,0,0,1200,0,6.283185 C,0,212354,,119,214,244
Sprite,Background,Centre,"sb/pixel.png",0,0 M,0,212398,214398,-68,520,-68,-40 F,0,212398,214398,1 F,0,107266,114325,0.8 L,212398,4 V,0,0,1200,4,4,4,-4 R,0,0,1200,0,6.283185 C,0,212398,,119,214,244
Sprite,Background,Centre,"sb/pixel.png",0,0 M,0,212442,214442,197,520,197,-40 F,0,212442,214442,1 F,0,107266,114325,0.8 L,212442,4 V,0,0,1200,4,4,4,-4 R,0,0,1200,0,6.283185 C,0,212442,,86,191,237
Sprite,Background,Centre,"sb/pixel.png",0,0 M,0,212486,214486,692,520,692,-40 F,0,212486,214486,1 F,0,107266,114325,0.8 L,212486,4 V,0,0,1200,4,4,4,-4 R,0,0,1200,0,6.283185 C,0,212486,,119,214,244
Sprite,Background,Centre,"sb/pixel.png",0,0 M,0,212530,214530,636,520,636,-40 F,0,212530,214530,1 F,0,107266,114325,0.8 L,212530,4 V,0,0,1200,4,4,4,-4 R,0,0,1200,0,6.283185 C,0,212530,,119,214,244
Sprite,Background,Centre,"sb/pixel.png",0,0 M,0,212574,214574,683,520,683,-40 F,0,212574,214574,1 F,0,107266,114325,0.8 L,212574,4 V,0,0,1200,4,4,4,-4 R,0,0,1200,0,6.283185 C,0,212574,,119,214,244
Sprite,Background,Centre,"sb/pixel.png",0,0 M,0,212618,214618,171,520,171,-40 F,0,212618,214618,1 F,0,107266,114325,0.8 L,212618,4 V,0,0,1200,4,4,4,-4 R,0,0,1200,0,6.283185 C,0,212618,,86,191,237
Sprite,Background,Centre,"sb/pixel.png",0,0 M,0,212663,214663,678,520,678,-40 F,0,212663,214663,1 F,0,107266,114325,0.8 L,212663,4 V,0,0,1200,4,4,4,-4 R,0,0,1200,0,6.283185 C,0,212663,,119,214,244
Sprite,Background,Centre,"sb/pixel.png",0,0 M,0,212707,214707,660,520,660,-40 F,0,212707,214707,1 F,0,107266,114325,0.8 L,212707,4 V,0,0,1200,4,4,4,-4 R,0,0,1200,0,6.283185 C,0,212707,,119,214,244
Sprite,Background,Centre,"sb/pixel.png",0,0 M,0,212751,214751,303,520,303,-40 F,0,212751,214751,1 F,0,107266,114325,0.8 L,212751,4 V,0,0,1200,4,4,4,-4 R,0,0,1200,0,6.283185 C,0,212751,,119,214,244
Sprite,Background,Centre,"sb/pixel.png",0,0 M,0,212795,214795,380,520,380,-40 F,0,212795,214795,1 F,0,107266,114325,0.8 L,212795,4 V,0,0,1200,4,4,4,-4 R,0,0,1200,0,6.283185 C,0,212795,,119,214,244
Sprite,Background,Centre,"sb/pixel.png",0,0 M,0,212839,214839,-82,520,-82,-40 F,0,212839,214839,1 F,0,107266,114325,0.8 L,212839,4 V,0,0,1200,4,4,4,-4 R,0,0,1200,0,6.283185 C,0,212839,,119,214,244
Sprite,Background,Centre,"sb/pixel.png",0,0 M,0,212883,214883,546,520,546,-40 F,0,212883,214883,1 F,0,107266,114325,0.8 L,212883,4 V,0,0,1200,4,4,4,-4 R,0,0,1200,0,6.283185 C,0,212883,,119,214,244
Sprite,Background,Centre,"sb/pixel.png",0,0 M,0,212927,214927,405,520,405,-40 F,0,212927,214927,1 F,0,107266,114325,0.8 L,212927,4 V,0,0,1200,4,4,4,-4 R,0,0,1200,0,6.283185 C,0,212927,,119,214,244
Sprite,Background,Centre,"sb/pixel.png",0,0 M,0,212971,214971,639,520,639,-40 F,0,212971,214971,1 F,0,107266,114325,0.8 L,212971,4 V,0,0,1200,4,4,4,-4 R,0,0,1200,0,6.283185 C,0,212971,,86,191,237
Sprite,Background,Centre,"sb/pixel.png",0,0 M,0,213015,215015,88,520,88,-40 F,0,213015,215015,1 F,0,107266,114325,0.8 L,213015,4 V,0,0,1200,4,4,4,-4 R,0,0,1200,0,6.283185 C,0,213015,,119,214,244
Sprite,Background,Centre,"sb/pixel.png",0,0 M,0,213060,215060,396,520,396,-40 F,0,213060,215060,1 F,0,107266,114325,0.8 L,213060,4 V,0,0,1200,4,4,4,-4 R,0,0,1200,0,6.283185 C,0,213060,,86,191,237
Sprite,Background,Centre,"sb/pixel.png",0,0 M,0,213104,215104,658,520,658,-40 F,0,213104,215104,1 F,0,107266,114325,0.8 L,213104,4 V,0,0,1200,4,4,4,-4 R,0,0,1200,0,6.283185 C,0,213104,,86,191,237
Sprite,Background,Centre,"sb/pixel.png",0,0 M,0,213148,215148,504,520,504,-40 F,0,213148,215148,1 F,0,107266,114325,0.8 L,213148,4 V,0,0,1200,4,4,4,-4 R,0,0,1200,0,6.283185 C,0,213148,,86,191,237
Sprite,Background,Centre,"sb/pixel.png",0,0 M,0,213192,215192,-94,520,-94,-40 F,0,213192,215192,1 F,0,107266,114325,0.8 L,213192,4 V,0,0,1200,4,4,4,-4 R,0,0,1200,0,6.283185 C,0,213192,,119,214,244
Sprite,Background,Centre,"sb/pixel.png",0,0 M,0,213236,215236,578,520,578,-40 F,0,213236,215236,1 F,0,107266,114325,0.8 L,213236,4 V,0,0,1200,4,4,4,-4 R,0,0,1200,0,6.283185 C,0,213236,,86,191,237
Sprite,Background,Centre,"sb/pixel.png",0,0 M,0,213280,215280,416,520,416,-40 F,0,213280,215280,1 F,0,107266,114325,0.8 L,213280,4 V,0,0,1200,4,4,4,-4 R,0,0,1200,0,6.283185 C,0,213280,,86,191,237
Sprite,Background,Centre,"sb/pixel.png",0,0 M,0,213324,215324,121,520,121,-40 F,0,213324,215324,1 F,0,107266,114325,0.8 L,213324,4 V,0,0,1200,4,4,4,-4 R,0,0,1200,0,6.283185 C,0,213324,,119,214,244
Sprite,Background,Centre,"sb/pixel.png",0,0 M,0,213368,215368,547,520,547,-40 F,0,213368,215368,1 F,0,107266,114325,0.8 L,213368,4 V,0,0,1200,4,4,4,-4 R,0,0,1200,0,6.283185 C,0,213368,,119,214,244
Sprite,Background,Centre,"sb/pixel.png",0,0 M,0,213413,215413,-50,520,-50,-40 F,0,213413,215413,1 F,0,107266,114325,0.8 L,213413,4 V,0,0,1200,4,4,4,-4 R,0,0,1200,0,6.283185 C,0,213413,,86,191,237
Sprite,Background,Centre,"sb/pixel.png",0,0 M,0,213457,215457,106,520,106,-40 F,0,213457,215457,1 F,0,107266,114325,0.8 L,213457,4 V,0,0,1200,4,4,4,-4 R,0,0,1200,0,6.283185 C,0,213457,,86,191,237
Sprite,Background,Centre,"sb/pixel.png",0,0 M,0,213501,215501,376,520,376,-40 F,0,213501,215501,1 F,0,107266,114325,0.8 L,213501,4 V,0,0,1200,4,4,4,-4 R,0,0,1200,0,6.283185 C,0,213501,,119,214,244
Sprite,Background,Centre,"sb/pixel.png",0,0 M,0,213545,215545,703,520,703,-40 F,0,213545,215545,1 F,0,107266,114325,0.8 L,213545,4 V,0,0,1200,4,4,4,-4 R,0,0,1200,0,6.283185 C,0,213545,,86,191,237
Sprite,Background,Centre,"sb/pixel.png",0,0 M,0,213589,215589,96,520,96,-40 F,0,213589,215589,1 F,0,107266,114325,0.8 L,213589,4 V,0,0,1200,4,4,4,-4 R,0,0,1200,0,6.283185 C,0,213589,,86,191,237
Sprite,Background,Centre,"sb/pixel.png",0,0 M,0,213633,215633,435,520,435,-40 F,0,213633,215633,1 F,0,107266,114325,0.8 L,213633,4 V,0,0,1200,4,4,4,-4 R,0,0,1200,0,6.283185 C,0,213633,,86,191,237
Sprite,Background,Centre,"sb/pixel.png",0,0 M,0,213677,215677,229,520,229,-40 F,0,213677,215677,1 F,0,107266,114325,0.8 L,213677,4 V,0,0,1200,4,4,4,-4 R,0,0,1200,0,6.283185 C,0,213677,,86,191,237
Sprite,Background,Centre,"sb/pixel.png",0,0 M,0,213721,215721,65,520,65,-40 F,0,213721,215721,1 F,0,107266,114325,0.8 L,213721,4 V,0,0,1200,4,4,4,-4 R,0,0,1200,0,6.283185 C,0,213721,,119,214,244
Sprite,Background,Centre,"sb/pixel.png",0,0 M,0,213765,215765,87,520,87,-40 F,0,213765,215765,1 F,0,107266,114325,0.8 L,213765,4 V,0,0,1200,4,4,4,-4 R,0,0,1200,0,6.283185 C,0,213765,,86,191,237
Sprite,Background,Centre,"sb/pixel.png",0,0 M,0,213810,215810,379,520,379,-40 F,0,213810,215810,1 F,0,107266,114325,0.8 L,213810,4 V,0,0,1200,4,4,4,-4 R,0,0,1200,0,6.283185 C,0,213810,,86,191,237
Sprite,Background,Centre,"sb/pixel.png",0,0 M,0,213854,215854,-56,520,-56,-40 F,0,213854,215854,1 F,0,107266,114325,0.8 L,213854,4 V,0,0,1200,4,4,4,-4 R,0,0,1200,0,6.283185 C,0,213854,,86,191,237
Sprite,Background,Centre,"sb/pixel.png",0,0 M,0,213898,215898,284,520,284,-40 F,0,213898,215898,1 F,0,107266,114325,0.8 L,213898,4 V,0,0,1200,4,4,4,-4 R,0,0,1200,0,6.283185 C,0,213898,,119,214,244
Sprite,Background,Centre,"sb/pixel.png",0,0 M,0,213942,215942,248,520,248,-40 F,0,213942,215942,1 F,0,107266,114325,0.8 L,213942,4 V,0,0,1200,4,4,4,-4 R,0,0,1200,0,6.283185 C,0,213942,,119,214,244
Sprite,Background,Centre,"sb/pixel.png",0,0 M,0,213986,215986,256,520,256,-40 F,0,213986,215986,1 F,0,107266,114325,0.8 L,213986,4 V,0,0,1200,4,4,4,-4 R,0,0,1200,0,6.283185 C,0,213986,,86,191,237
Sprite,Background,Centre,"sb/pixel.png",0,0 M,0,214030,216030,389,520,389,-40 F,0,214030,216030,1 F,0,107266,114325,0.8 L,214030,4 V,0,0,1200,4,4,4,-4 R,0,0,1200,0,6.283185 C,0,214030,,119,214,244
Sprite,Background,Centre,"sb/pixel.png",0,0 M,0,214074,216074,-74,520,-74,-40 F,0,214074,216074,1 F,0,107266,114325,0.8 L,214074,4 V,0,0,1200,4,4,4,-4 R,0,0,1200,0,6.283185 C,0,214074,,119,214,244
Sprite,Background,Centre,"sb/pixel.png",0,0 M,0,214118,216118,403,520,403,-40 F,0,214118,216118,1 F,0,107266,114325,0.8 L,214118,4 V,0,0,1200,4,4,4,-4 R,0,0,1200,0,6.283185 C,0,214118,,119,214,244
Sprite,Background,Centre,"sb/pixel.png",0,0 M,0,214163,216163,-22,520,-22,-40 F,0,214163,216163,1 F,0,107266,114325,0.8 L,214163,4 V,0,0,1200,4,4,4,-4 R,0,0,1200,0,6.283185 C,0,214163,,119,214,244
Sprite,Background,Centre,"sb/pixel.png",0,0 M,0,214207,216207,233,520,233,-40 F,0,214207,216207,1 F,0,107266,114325,0.8 L,214207,4 V,0,0,1200,4,4,4,-4 R,0,0,1200,0,6.283185 C,0,214207,,86,191,237
Sprite,Background,Centre,"sb/pixel.png",0,0 M,0,214251,216251,519,520,519,-40 F,0,214251,216251,1 F,0,107266,114325,0.8 L,214251,4 V,0,0,1200,4,4,4,-4 R,0,0,1200,0,6.283185 C,0,214251,,119,214,244
Sprite,Background,Centre,"sb/pixel.png",0,0 M,0,214295,216295,610,520,610,-40 F,0,214295,216295,1 F,0,107266,114325,0.8 L,214295,4 V,0,0,1200,4,4,4,-4 R,0,0,1200,0,6.283185 C,0,214295,,119,214,244
Sprite,Background,Centre,"sb/pixel.png",0,0 M,0,214339,216339,520,520,520,-40 F,0,214339,216339,1 F,0,107266,114325,0.8 L,214339,4 V,0,0,1200,4,4,4,-4 R,0,0,1200,0,6.283185 C,0,214339,,86,191,237
Sprite,Background,Centre,"sb/pixel.png",0,0 M,0,214383,216383,76,520,76,-40 F,0,214383,216383,1 F,0,107266,114325,0.8 L,214383,4 V,0,0,1200,4,4,4,-4 R,0,0,1200,0,6.283185 C,0,214383,,119,214,244
Sprite,Background,Centre,"sb/pixel.png",0,0 M,0,214427,216427,-51,520,-51,-40 F,0,214427,216427,1 F,0,107266,114325,0.8 L,214427,4 V,0,0,1200,4,4,4,-4 R,0,0,1200,0,6.283185 C,0,214427,,119,214,244
Sprite,Background,Centre,"sb/pixel.png",0,0 M,0,214471,216471,344,520,344,-40 F,0,214471,216471,1 F,0,107266,114325,0.8 L,214471,4 V,0,0,1200,4,4,4,-4 R,0,0,1200,0,6.283185 C,0,214471,,119,214,244
Sprite,Background,Centre,"sb/pixel.png",0,0 M,0,214515,216515,535,520,535,-40 F,0,214515,216515,1 F,0,107266,114325,0.8 L,214515,4 V,0,0,1200,4,4,4,-4 R,0,0,1200,0,6.283185 C,0,214515,,86,191,237
Sprite,Background,Centre,"sb/pixel.png",0,0 M,0,221619,223619,537,520,537,-40 F,0,221619,223619,1 F,0,107266,114325,0.8 L,221619,4 V,0,0,1200,4,4,4,-4 R,0,0,1200,0,6.283185 C,0,221619,,119,214,244
Sprite,Background,Centre,"sb/pixel.png",0,0 M,0,221663,223663,212,520,212,-40 F,0,221663,223663,1 F,0,107266,114325,0.8 L,221663,4 V,0,0,1200,4,4,4,-4 R,0,0,1200,0,6.283185 C,0,221663,,119,214,244
Sprite,Background,Centre,"sb/pixel.png",0,0 M,0,221707,223707,67,520,67,-40 F,0,221707,223707,1 F,0,107266,114325,0.8 L,221707,4 V,0,0,1200,4,4,4,-4 R,0,0,1200,0,6.283185 C,0,221707,,119,214,244
Sprite,Background,Centre,"sb/pixel.png",0,0 M,0,221751,223751,75,520,75,-40 F,0,221751,223751,1 F,0,107266,114325,0.8 L,221751,4 V,0,0,1200,4,4,4,-4 R,0,0,1200,0,6.283185 C,0,221751,,86,191,237
Sprite,Background,Centre,"sb/pixel.png",0,0 M,0,221795,223795,569,520,569,-40 F,0,221795,223795,1 F,0,107266,114325,0.8 L,221795,4 V,0,0,1200,4,4,4,-4 R,0,0,1200,0,6.283185 C,0,221795,,119,214,244
Sprite,Background,Centre,"sb/pixel.png",0,0 M,0,221839,223839,-16,520,-16,-40 F,0,221839,223839,1 F,0,107266,114325,0.8 L,221839,4 V,0,0,1200,4,4,4,-4 R,0,0,1200,0,6.283185 C,0,221839,,119,214,244
Sprite,Background,Centre,"sb/pixel.png",0,0 M,0,221883,223883,490,520,490,-40 F,0,221883,223883,1 F,0,107266,114325,0.8 L,221883,4 V,0,0,1200,4,4,4,-4 R,0,0,1200,0,6.283185 C,0,221883,,119,214,244
Sprite,Background,Centre,"sb/pixel.png",0,0 M,0,221927,223927,229,520,229,-40 F,0,221927,223927,1 F,0,107266,114325,0.8 L,221927,4 V,0,0,1200,4,4,4,-4 R,0,0,1200,0,6.283185 C,0,221927,,119,214,244
Sprite,Background,Centre,"sb/pixel.png",0,0 M,0,221971,223971,464,520,464,-40 F,0,221971,223971,1 F,0,107266,114325,0.8 L,221971,4 V,0,0,1200,4,4,4,-4 R,0,0,1200,0,6.283185 C,0,221971,,86,191,237
Sprite,Background,Centre,"sb/pixel.png",0,0 M,0,222016,224016,595,520,595,-40 F,0,222016,224016,1 F,0,107266,114325,0.8 L,222016,4 V,0,0,1200,4,4,4,-4 R,0,0,1200,0,6.283185 C,0,222016,,86,191,237
Sprite,Background,Centre,"sb/pixel.png",0,0 M,0,222060,224060,654,520,654,-40 F,0,222060,224060,1 F,0,107266,114325,0.8 L,222060,4 V,0,0,1200,4,4,4,-4 R,0,0,1200,0,6.283185 C,0,222060,,119,214,244
Sprite,Background,Centre,"sb/pixel.png",0,0 M,0,222104,224104,487,520,487,-40 F,0,222104,224104,1 F,0,107266,114325,0.8 L,222104,4 V,0,0,1200,4,4,4,-4 R,0,0,1200,0,6.283185 C,0,222104,,86,191,237
Sprite,Background,Centre,"sb/pixel.png",0,0 M,0,222148,224148,75,520,75,-40 F,0,222148,224148,1 F,0,107266,114325,0.8 L,222148,4 V,0,0,1200,4,4,4,-4 R,0,0,1200,0,6.283185 C,0,222148,,119,214,244
Sprite,Background,Centre,"sb/pixel.png",0,0 M,0,222192,224192,605,520,605,-40 F,0,222192,224192,1 F,0,107266,114325,0.8 L,222192,4 V,0,0,1200,4,4,4,-4 R,0,0,1200,0,6.283185 C,0,222192,,119,214,244
Sprite,Background,Centre,"sb/pixel.png",0,0 M,0,222236,224236,708,520,708,-40 F,0,222236,224236,1 F,0,107266,114325,0.8 L,222236,4 V,0,0,1200,4,4,4,-4 R,0,0,1200,0,6.283185 C,0,222236,,119,214,244
Sprite,Background,Centre,"sb/pixel.png",0,0 M,0,222280,224280,159,520,159,-40 F,0,222280,224280,1 F,0,107266,114325,0.8 L,222280,4 V,0,0,1200,4,4,4,-4 R,0,0,1200,0,6.283185 C,0,222280,,119,214,244
Sprite,Background,Centre,"sb/pixel.png",0,0 M,0,222324,224324,147,520,147,-40 F,0,222324,224324,1 F,0,107266,114325,0.8 L,222324,4 V,0,0,1200,4,4,4,-4 R,0,0,1200,0,6.283185 C,0,222324,,119,214,244
Sprite,Background,Centre,"sb/pixel.png",0,0 M,0,222369,224369,479,520,479,-40 F,0,222369,224369,1 F,0,107266,114325,0.8 L,222369,4 V,0,0,1200,4,4,4,-4 R,0,0,1200,0,6.283185 C,0,222369,,119,214,244
Sprite,Background,Centre,"sb/pixel.png",0,0 M,0,222413,224413,569,520,569,-40 F,0,222413,224413,1 F,0,107266,114325,0.8 L,222413,4 V,0,0,1200,4,4,4,-4 R,0,0,1200,0,6.283185 C,0,222413,,86,191,237
Sprite,Background,Centre,"sb/pixel.png",0,0 M,0,222457,224457,-102,520,-102,-40 F,0,222457,224457,1 F,0,107266,114325,0.8 L,222457,4 V,0,0,1200,4,4,4,-4 R,0,0,1200,0,6.283185 C,0,222457,,119,214,244
Sprite,Background,Centre,"sb/pixel.png",0,0 M,0,222501,224501,222,520,222,-40 F,0,222501,224501,1 F,0,107266,114325,0.8 L,222501,4 V,0,0,1200,4,4,4,-4 R,0,0,1200,0,6.283185 C,0,222501,,119,214,244
Sprite,Background,Centre,"sb/pixel.png",0,0 M,0,222545,224545,388,520,388,-40 F,0,222545,224545,1 F,0,107266,114325,0.8 L,222545,4 V,0,0,1200,4,4,4,-4 R,0,0,1200,0,6.283185 C,0,222545,,86,191,237
Sprite,Background,Centre,"sb/pixel.png",0,0 M,0,222589,224589,-22,520,-22,-40 F,0,222589,224589,1 F,0,107266,114325,0.8 L,222589,4 V,0,0,1200,4,4,4,-4 R,0,0,1200,0,6.283185 C,0,222589,,86,191,237
Sprite,Background,Centre,"sb/pixel.png",0,0 M,0,222633,224633,129,520,129,-40 F,0,222633,224633,1 F,0,107266,114325,0.8 L,222633,4 V,0,0,1200,4,4,4,-4 R,0,0,1200,0,6.283185 C,0,222633,,119,214,244
Sprite,Background,Centre,"sb/pixel.png",0,0 M,0,222677,224677,430,520,430,-40 F,0,222677,224677,1 F,0,107266,114325,0.8 L,222677,4 V,0,0,1200,4,4,4,-4 R,0,0,1200,0,6.283185 C,0,222677,,86,191,237
Sprite,Background,Centre,"sb/pixel.png",0,0 M,0,222721,224721,203,520,203,-40 F,0,222721,224721,1 F,0,107266,114325,0.8 L,222721,4 V,0,0,1200,4,4,4,-4 R,0,0,1200,0,6.283185 C,0,222721,,86,191,237
Sprite,Background,Centre,"sb/pixel.png",0,0 M,0,222766,224766,378,520,378,-40 F,0,222766,224766,1 F,0,107266,114325,0.8 L,222766,4 V,0,0,1200,4,4,4,-4 R,0,0,1200,0,6.283185 C,0,222766,,119,214,244
Sprite,Background,Centre,"sb/pixel.png",0,0 M,0,222810,224810,534,520,534,-40 F,0,222810,224810,1 F,0,107266,114325,0.8 L,222810,4 V,0,0,1200,4,4,4,-4 R,0,0,1200,0,6.283185 C,0,222810,,86,191,237
Sprite,Background,Centre,"sb/pixel.png",0,0 M,0,222854,224854,348,520,348,-40 F,0,222854,224854,1 F,0,107266,114325,0.8 L,222854,4 V,0,0,1200,4,4,4,-4 R,0,0,1200,0,6.283185 C,0,222854,,86,191,237
Sprite,Background,Centre,"sb/pixel.png",0,0 M,0,222898,224898,666,520,666,-40 F,0,222898,224898,1 F,0,107266,114325,0.8 L,222898,4 V,0,0,1200,4,4,4,-4 R,0,0,1200,0,6.283185 C,0,222898,,86,191,237
Sprite,Background,Centre,"sb/pixel.png",0,0 M,0,222942,224942,206,520,206,-40 F,0,222942,224942,1 F,0,107266,114325,0.8 L,222942,4 V,0,0,1200,4,4,4,-4 R,0,0,1200,0,6.283185 C,0,222942,,86,191,237
Sprite,Background,Centre,"sb/pixel.png",0,0 M,0,222986,224986,397,520,397,-40 F,0,222986,224986,1 F,0,107266,114325,0.8 L,222986,4 V,0,0,1200,4,4,4,-4 R,0,0,1200,0,6.283185 C,0,222986,,119,214,244
Sprite,Background,Centre,"sb/pixel.png",0,0 M,0,223030,225030,572,520,572,-40 F,0,223030,225030,1 F,0,107266,114325,0.8 L,223030,4 V,0,0,1200,4,4,4,-4 R,0,0,1200,0,6.283185 C,0,223030,,86,191,237
Sprite,Background,Centre,"sb/pixel.png",0,0 M,0,223074,225074,652,520,652,-40 F,0,223074,225074,1 F,0,107266,114325,0.8 L,223074,4 V,0,0,1200,4,4,4,-4 R,0,0,1200,0,6.283185 C,0,223074,,119,214,244
Sprite,Background,Centre,"sb/pixel.png",0,0 M,0,223119,225119,326,520,326,-40 F,0,223119,225119,1 F,0,107266,114325,0.8 L,223119,4 V,0,0,1200,4,4,4,-4 R,0,0,1200,0,6.283185 C,0,223119,,119,214,244
Sprite,Background,Centre,"sb/pixel.png",0,0 M,0,223163,225163,265,520,265,-40 F,0,223163,225163,1 F,0,107266,114325,0.8 L,223163,4 V,0,0,1200,4,4,4,-4 R,0,0,1200,0,6.283185 C,0,223163,,86,191,237
Sprite,Background,Centre,"sb/pixel.png",0,0 M,0,223207,225207,732,520,732,-40 F,0,223207,225207,1 F,0,107266,114325,0.8 L,223207,4 V,0,0,1200,4,4,4,-4 R,0,0,1200,0,6.283185 C,0,223207,,86,191,237
Sprite,Background,Centre,"sb/pixel.png",0,0 M,0,223251,225251,100,520,100,-40 F,0,223251,225251,1 F,0,107266,114325,0.8 L,223251,4 V,0,0,1200,4,4,4,-4 R,0,0,1200,0,6.283185 C,0,223251,,86,191,237
Sprite,Background,Centre,"sb/pixel.png",0,0 M,0,223295,225295,420,520,420,-40 F,0,223295,225295,1 F,0,107266,114325,0.8 L,223295,4 V,0,0,1200,4,4,4,-4 R,0,0,1200,0,6.283185 C,0,223295,,86,191,237
Sprite,Background,Centre,"sb/pixel.png",0,0 M,0,223339,225339,535,520,535,-40 F,0,223339,225339,1 F,0,107266,114325,0.8 L,223339,4 V,0,0,1200,4,4,4,-4 R,0,0,1200,0,6.283185 C,0,223339,,86,191,237
Sprite,Background,Centre,"sb/pixel.png",0,0 M,0,223383,225383,67,520,67,-40 F,0,223383,225383,1 F,0,107266,114325,0.8 L,223383,4 V,0,0,1200,4,4,4,-4 R,0,0,1200,0,6.283185 C,0,223383,,86,191,237
Sprite,Background,Centre,"sb/pixel.png",0,0 M,0,223427,225427,545,520,545,-40 F,0,223427,225427,1 F,0,107266,114325,0.8 L,223427,4 V,0,0,1200,4,4,4,-4 R,0,0,1200,0,6.283185 C,0,223427,,119,214,244
Sprite,Background,Centre,"sb/pixel.png",0,0 M,0,223471,225471,-82,520,-82,-40 F,0,223471,225471,1 F,0,107266,114325,0.8 L,223471,4 V,0,0,1200,4,4,4,-4 R,0,0,1200,0,6.283185 C,0,223471,,86,191,237
Sprite,Background,Centre,"sb/pixel.png",0,0 M,0,223516,225516,423,520,423,-40 F,0,223516,225516,1 F,0,107266,114325,0.8 L,223516,4 V,0,0,1200,4,4,4,-4 R,0,0,1200,0,6.283185 C,0,223516,,119,214,244
Sprite,Background,Centre,"sb/pixel.png",0,0 M,0,223560,225560,444,520,444,-40 F,0,223560,225560,1 F,0,107266,114325,0.8 L,223560,4 V,0,0,1200,4,4,4,-4 R,0,0,1200,0,6.283185 C,0,223560,,119,214,244
Sprite,Background,Centre,"sb/pixel.png",0,0 M,0,223604,225604,606,520,606,-40 F,0,223604,225604,1 F,0,107266,114325,0.8 L,223604,4 V,0,0,1200,4,4,4,-4 R,0,0,1200,0,6.283185 C,0,223604,,119,214,244
Sprite,Background,Centre,"sb/pixel.png",0,0 M,0,223648,225648,-43,520,-43,-40 F,0,223648,225648,1 F,0,107266,114325,0.8 L,223648,4 V,0,0,1200,4,4,4,-4 R,0,0,1200,0,6.283185 C,0,223648,,119,214,244
Sprite,Background,Centre,"sb/pixel.png",0,0 M,0,223692,225692,602,520,602,-40 F,0,223692,225692,1 F,0,107266,114325,0.8 L,223692,4 V,0,0,1200,4,4,4,-4 R,0,0,1200,0,6.283185 C,0,223692,,86,191,237
Sprite,Background,Centre,"sb/pixel.png",0,0 M,0,223736,225736,402,520,402,-40 F,0,223736,225736,1 F,0,107266,114325,0.8 L,223736,4 V,0,0,1200,4,4,4,-4 R,0,0,1200,0,6.283185 C,0,223736,,119,214,244
Sprite,Background,Centre,"sb/pixel.png",0,0 M,0,223780,225780,693,520,693,-40 F,0,223780,225780,1 F,0,107266,114325,0.8 L,223780,4 V,0,0,1200,4,4,4,-4 R,0,0,1200,0,6.283185 C,0,223780,,119,214,244
Sprite,Background,Centre,"sb/pixel.png",0,0 M,0,223824,225824,454,520,454,-40 F,0,223824,225824,1 F,0,107266,114325,0.8 L,223824,4 V,0,0,1200,4,4,4,-4 R,0,0,1200,0,6.283185 C,0,223824,,86,191,237
Sprite,Background,Centre,"sb/pixel.png",0,0 M,0,223869,225869,331,520,331,-40 F,0,223869,225869,1 F,0,107266,114325,0.8 L,223869,4 V,0,0,1200,4,4,4,-4 R,0,0,1200,0,6.283185 C,0,223869,,86,191,237
Sprite,Background,Centre,"sb/pixel.png",0,0 M,0,223913,225913,236,520,236,-40 F,0,223913,225913,1 F,0,107266,114325,0.8 L,223913,4 V,0,0,1200,4,4,4,-4 R,0,0,1200,0,6.283185 C,0,223913,,86,191,237
Sprite,Background,Centre,"sb/pixel.png",0,0 M,0,223957,225957,367,520,367,-40 F,0,223957,225957,1 F,0,107266,114325,0.8 L,223957,4 V,0,0,1200,4,4,4,-4 R,0,0,1200,0,6.283185 C,0,223957,,86,191,237
Sprite,Background,Centre,"sb/pixel.png",0,0 M,0,224001,226001,645,520,645,-40 F,0,224001,226001,1 F,0,107266,114325,0.8 L,224001,4 V,0,0,1200,4,4,4,-4 R,0,0,1200,0,6.283185 C,0,224001,,119,214,244
Sprite,Background,Centre,"sb/pixel.png",0,0 M,0,224045,226045,695,520,695,-40 F,0,224045,226045,1 F,0,107266,114325,0.8 L,224045,4 V,0,0,1200,4,4,4,-4 R,0,0,1200,0,6.283185 C,0,224045,,86,191,237
Sprite,Background,Centre,"sb/pixel.png",0,0 M,0,224089,226089,548,520,548,-40 F,0,224089,226089,1 F,0,107266,114325,0.8 L,224089,4 V,0,0,1200,4,4,4,-4 R,0,0,1200,0,6.283185 C,0,224089,,119,214,244
Sprite,Background,Centre,"sb/pixel.png",0,0 M,0,224133,226133,335,520,335,-40 F,0,224133,226133,1 F,0,107266,114325,0.8 L,224133,4 V,0,0,1200,4,4,4,-4 R,0,0,1200,0,6.283185 C,0,224133,,86,191,237
Sprite,Background,Centre,"sb/pixel.png",0,0 M,0,224177,226177,-58,520,-58,-40 F,0,224177,226177,1 F,0,107266,114325,0.8 L,224177,4 V,0,0,1200,4,4,4,-4 R,0,0,1200,0,6.283185 C,0,224177,,119,214,244
Sprite,Background,Centre,"sb/pixel.png",0,0 M,0,224221,226221,208,520,208,-40 F,0,224221,226221,1 F,0,107266,114325,0.8 L,224221,4 V,0,0,1200,4,4,4,-4 R,0,0,1200,0,6.283185 C,0,224221,,119,214,244
Sprite,Background,Centre,"sb/pixel.png",0,0 M,0,224266,226266,146,520,146,-40 F,0,224266,226266,1 F,0,107266,114325,0.8 L,224266,4 V,0,0,1200,4,4,4,-4 R,0,0,1200,0,6.283185 C,0,224266,,86,191,237
Sprite,Background,Centre,"sb/pixel.png",0,0 M,0,224310,226310,453,520,453,-40 F,0,224310,226310,1 F,0,107266,114325,0.8 L,224310,4 V,0,0,1200,4,4,4,-4 R,0,0,1200,0,6.283185 C,0,224310,,119,214,244
Sprite,Background,Centre,"sb/pixel.png",0,0 M,0,224354,226354,56,520,56,-40 F,0,224354,226354,1 F,0,107266,114325,0.8 L,224354,4 V,0,0,1200,4,4,4,-4 R,0,0,1200,0,6.283185 C,0,224354,,119,214,244
Sprite,Background,Centre,"sb/pixel.png",0,0 M,0,224398,226398,416,520,416,-40 F,0,224398,226398,1 F,0,107266,114325,0.8 L,224398,4 V,0,0,1200,4,4,4,-4 R,0,0,1200,0,6.283185 C,0,224398,,86,191,237
Sprite,Background,Centre,"sb/pixel.png",0,0 M,0,224442,226442,572,520,572,-40 F,0,224442,226442,1 F,0,107266,114325,0.8 L,224442,4 V,0,0,1200,4,4,4,-4 R,0,0,1200,0,6.283185 C,0,224442,,86,191,237
Sprite,Background,Centre,"sb/pixel.png",0,0 M,0,224486,226486,-17,520,-17,-40 F,0,224486,226486,1 F,0,107266,114325,0.8 L,224486,4 V,0,0,1200,4,4,4,-4 R,0,0,1200,0,6.283185 C,0,224486,,119,214,244
Sprite,Background,Centre,"sb/pixel.png",0,0 M,0,224530,226530,-85,520,-85,-40 F,0,224530,226530,1 F,0,107266,114325,0.8 L,224530,4 V,0,0,1200,4,4,4,-4 R,0,0,1200,0,6.283185 C,0,224530,,86,191,237
Sprite,Background,Centre,"sb/pixel.png",0,0 M,0,224574,226574,-99,520,-99,-40 F,0,224574,226574,1 F,0,107266,114325,0.8 L,224574,4 V,0,0,1200,4,4,4,-4 R,0,0,1200,0,6.283185 C,0,224574,,119,214,244
Sprite,Background,Centre,"sb/pixel.png",0,0 M,0,224619,226619,149,520,149,-40 F,0,224619,226619,1 F,0,107266,114325,0.8 L,224619,4 V,0,0,1200,4,4,4,-4 R,0,0,1200,0,6.283185 C,0,224619,,119,214,244
Sprite,Background,Centre,"sb/pixel.png",0,0 M,0,224663,226663,502,520,502,-40 F,0,224663,226663,1 F,0,107266,114325,0.8 L,224663,4 V,0,0,1200,4,4,4,-4 R,0,0,1200,0,6.283185 C,0,224663,,119,214,244
Sprite,Background,Centre,"sb/pixel.png",0,0 M,0,224707,226707,79,520,79,-40 F,0,224707,226707,1 F,0,107266,114325,0.8 L,224707,4 V,0,0,1200,4,4,4,-4 R,0,0,1200,0,6.283185 C,0,224707,,86,191,237
Sprite,Background,Centre,"sb/pixel.png",0,0 M,0,224751,226751,143,520,143,-40 F,0,224751,226751,1 F,0,107266,114325,0.8 L,224751,4 V,0,0,1200,4,4,4,-4 R,0,0,1200,0,6.283185 C,0,224751,,86,191,237
Sprite,Background,Centre,"sb/pixel.png",0,0 M,0,224795,226795,55,520,55,-40 F,0,224795,226795,1 F,0,107266,114325,0.8 L,224795,4 V,0,0,1200,4,4,4,-4 R,0,0,1200,0,6.283185 C,0,224795,,119,214,244
Sprite,Background,Centre,"sb/pixel.png",0,0 M,0,224839,226839,322,520,322,-40 F,0,224839,226839,1 F,0,107266,114325,0.8 L,224839,4 V,0,0,1200,4,4,4,-4 R,0,0,1200,0,6.283185 C,0,224839,,86,191,237
Sprite,Background,Centre,"sb/pixel.png",0,0 M,0,224883,226883,546,520,546,-40 F,0,224883,226883,1 F,0,107266,114325,0.8 L,224883,4 V,0,0,1200,4,4,4,-4 R,0,0,1200,0,6.283185 C,0,224883,,119,214,244
Sprite,Background,Centre,"sb/pixel.png",0,0 M,0,224927,226927,325,520,325,-40 F,0,224927,226927,1 F,0,107266,114325,0.8 L,224927,4 V,0,0,1200,4,4,4,-4 R,0,0,1200,0,6.283185 C,0,224927,,119,214,244
Sprite,Background,Centre,"sb/pixel.png",0,0 M,0,224971,226971,586,520,586,-40 F,0,224971,226971,1 F,0,107266,114325,0.8 L,224971,4 V,0,0,1200,4,4,4,-4 R,0,0,1200,0,6.283185 C,0,224971,,86,191,237
Sprite,Background,Centre,"sb/pixel.png",0,0 M,0,225016,227016,649,520,649,-40 F,0,225016,227016,1 F,0,107266,114325,0.8 L,225016,4 V,0,0,1200,4,4,4,-4 R,0,0,1200,0,6.283185 C,0,225016,,86,191,237
Sprite,Background,Centre,"sb/pixel.png",0,0 M,0,225060,227060,164,520,164,-40 F,0,225060,227060,1 F,0,107266,114325,0.8 L,225060,4 V,0,0,1200,4,4,4,-4 R,0,0,1200,0,6.283185 C,0,225060,,119,214,244
Sprite,Background,Centre,"sb/pixel.png",0,0 M,0,225104,227104,243,520,243,-40 F,0,225104,227104,1 F,0,107266,114325,0.8 L,225104,4 V,0,0,1200,4,4,4,-4 R,0,0,1200,0,6.283185 C,0,225104,,119,214,244
Sprite,Background,Centre,"sb/pixel.png",0,0 M,0,225148,227148,-55,520,-55,-40 F,0,225148,227148,1 F,0,107266,114325,0.8 L,225148,4 V,0,0,1200,4,4,4,-4 R,0,0,1200,0,6.283185 C,0,225148,,86,191,237
Sprite,Background,Centre,"sb/pixel.png",0,0 M,0,225192,227192,19,520,19,-40 F,0,225192,227192,1 F,0,107266,114325,0.8 L,225192,4 V,0,0,1200,4,4,4,-4 R,0,0,1200,0,6.283185 C,0,225192,,119,214,244
Sprite,Background,Centre,"sb/pixel.png",0,0 M,0,225236,227236,697,520,697,-40 F,0,225236,227236,1 F,0,107266,114325,0.8 L,225236,4 V,0,0,1200,4,4,4,-4 R,0,0,1200,0,6.283185 C,0,225236,,119,214,244
Sprite,Background,Centre,"sb/pixel.png",0,0 M,0,225280,227280,357,520,357,-40 F,0,225280,227280,1 F,0,107266,114325,0.8 L,225280,4 V,0,0,1200,4,4,4,-4 R,0,0,1200,0,6.283185 C,0,225280,,119,214,244
Sprite,Background,Centre,"sb/pixel.png",0,0 M,0,225324,227324,87,520,87,-40 F,0,225324,227324,1 F,0,107266,114325,0.8 L,225324,4 V,0,0,1200,4,4,4,-4 R,0,0,1200,0,6.283185 C,0,225324,,119,214,244
Sprite,Background,Centre,"sb/pixel.png",0,0 M,0,225369,227369,108,520,108,-40 F,0,225369,227369,1 F,0,107266,114325,0.8 L,225369,4 V,0,0,1200,4,4,4,-4 R,0,0,1200,0,6.283185 C,0,225369,,86,191,237
Sprite,Background,Centre,"sb/pixel.png",0,0 M,0,225413,227413,543,520,543,-40 F,0,225413,227413,1 F,0,107266,114325,0.8 L,225413,4 V,0,0,1200,4,4,4,-4 R,0,0,1200,0,6.283185 C,0,225413,,119,214,244
Sprite,Background,Centre,"sb/pixel.png",0,0 M,0,225457,227457,578,520,578,-40 F,0,225457,227457,1 F,0,107266,114325,0.8 L,225457,4 V,0,0,1200,4,4,4,-4 R,0,0,1200,0,6.283185 C,0,225457,,86,191,237
Sprite,Background,Centre,"sb/pixel.png",0,0 M,0,225501,227501,253,520,253,-40 F,0,225501,227501,1 F,0,107266,114325,0.8 L,225501,4 V,0,0,1200,4,4,4,-4 R,0,0,1200,0,6.283185 C,0,225501,,119,214,244
Sprite,Background,Centre,"sb/pixel.png",0,0 M,0,225545,227545,52,520,52,-40 F,0,225545,227545,1 F,0,107266,114325,0.8 L,225545,4 V,0,0,1200,4,4,4,-4 R,0,0,1200,0,6.283185 C,0,225545,,86,191,237
Sprite,Background,Centre,"sb/pixel.png",0,0 M,0,225589,227589,457,520,457,-40 F,0,225589,227589,1 F,0,107266,114325,0.8 L,225589,4 V,0,0,1200,4,4,4,-4 R,0,0,1200,0,6.283185 C,0,225589,,86,191,237
Sprite,Background,Centre,"sb/pixel.png",0,0 M,0,225633,227633,690,520,690,-40 F,0,225633,227633,1 F,0,107266,114325,0.8 L,225633,4 V,0,0,1200,4,4,4,-4 R,0,0,1200,0,6.283185 C,0,225633,,86,191,237
Sprite,Background,Centre,"sb/pixel.png",0,0 M,0,225677,227677,40,520,40,-40 F,0,225677,227677,1 F,0,107266,114325,0.8 L,225677,4 V,0,0,1200,4,4,4,-4 R,0,0,1200,0,6.283185 C,0,225677,,86,191,237
Sprite,Background,Centre,"sb/pixel.png",0,0 M,0,225721,227721,425,520,425,-40 F,0,225721,227721,1 F,0,107266,114325,0.8 L,225721,4 V,0,0,1200,4,4,4,-4 R,0,0,1200,0,6.283185 C,0,225721,,119,214,244
Sprite,Background,Centre,"sb/pixel.png",0,0 M,0,225766,227766,477,520,477,-40 F,0,225766,227766,1 F,0,107266,114325,0.8 L,225766,4 V,0,0,1200,4,4,4,-4 R,0,0,1200,0,6.283185 C,0,225766,,119,214,244
Sprite,Background,Centre,"sb/pixel.png",0,0 M,0,225810,227810,672,520,672,-40 F,0,225810,227810,1 F,0,107266,114325,0.8 L,225810,4 V,0,0,1200,4,4,4,-4 R,0,0,1200,0,6.283185 C,0,225810,,119,214,244
Sprite,Background,Centre,"sb/pixel.png",0,0 M,0,225854,227854,533,520,533,-40 F,0,225854,227854,1 F,0,107266,114325,0.8 L,225854,4 V,0,0,1200,4,4,4,-4 R,0,0,1200,0,6.283185 C,0,225854,,119,214,244
Sprite,Background,Centre,"sb/pixel.png",0,0 M,0,225898,227898,143,520,143,-40 F,0,225898,227898,1 F,0,107266,114325,0.8 L,225898,4 V,0,0,1200,4,4,4,-4 R,0,0,1200,0,6.283185 C,0,225898,,119,214,244
Sprite,Background,Centre,"sb/pixel.png",0,0 M,0,225942,227942,345,520,345,-40 F,0,225942,227942,1 F,0,107266,114325,0.8 L,225942,4 V,0,0,1200,4,4,4,-4 R,0,0,1200,0,6.283185 C,0,225942,,119,214,244
Sprite,Background,Centre,"sb/pixel.png",0,0 M,0,225986,227986,453,520,453,-40 F,0,225986,227986,1 F,0,107266,114325,0.8 L,225986,4 V,0,0,1200,4,4,4,-4 R,0,0,1200,0,6.283185 C,0,225986,,86,191,237
Sprite,Background,Centre,"sb/pixel.png",0,0 M,0,226030,228030,509,520,509,-40 F,0,226030,228030,1 F,0,107266,114325,0.8 L,226030,4 V,0,0,1200,4,4,4,-4 R,0,0,1200,0,6.283185 C,0,226030,,119,214,244
Sprite,Background,Centre,"sb/pixel.png",0,0 M,0,226074,228074,412,520,412,-40 F,0,226074,228074,1 F,0,107266,114325,0.8 L,226074,4 V,0,0,1200,4,4,4,-4 R,0,0,1200,0,6.283185 C,0,226074,,119,214,244
Sprite,Background,Centre,"sb/pixel.png",0,0 M,0,226119,228119,-87,520,-87,-40 F,0,226119,228119,1 F,0,107266,114325,0.8 L,226119,4 V,0,0,1200,4,4,4,-4 R,0,0,1200,0,6.283185 C,0,226119,,86,191,237
Sprite,Background,Centre,"sb/pixel.png",0,0 M,0,226163,228163,201,520,201,-40 F,0,226163,228163,1 F,0,107266,114325,0.8 L,226163,4 V,0,0,1200,4,4,4,-4 R,0,0,1200,0,6.283185 C,0,226163,,86,191,237
Sprite,Background,Centre,"sb/pixel.png",0,0 M,0,226207,228207,-11,520,-11,-40 F,0,226207,228207,1 F,0,107266,114325,0.8 L,226207,4 V,0,0,1200,4,4,4,-4 R,0,0,1200,0,6.283185 C,0,226207,,119,214,244
Sprite,Background,Centre,"sb/pixel.png",0,0 M,0,226251,228251,337,520,337,-40 F,0,226251,228251,1 F,0,107266,114325,0.8 L,226251,4 V,0,0,1200,4,4,4,-4 R,0,0,1200,0,6.283185 C,0,226251,,119,214,244
Sprite,Background,Centre,"sb/pixel.png",0,0 M,0,226295,228295,704,520,704,-40 F,0,226295,228295,1 F,0,107266,114325,0.8 L,226295,4 V,0,0,1200,4,4,4,-4 R,0,0,1200,0,6.283185 C,0,226295,,119,214,244
Sprite,Background,Centre,"sb/pixel.png",0,0 M,0,226339,228339,385,520,385,-40 F,0,226339,228339,1 F,0,107266,114325,0.8 L,226339,4 V,0,0,1200,4,4,4,-4 R,0,0,1200,0,6.283185 C,0,226339,,119,214,244
Sprite,Background,Centre,"sb/pixel.png",0,0 M,0,226383,228383,681,520,681,-40 F,0,226383,228383,1 F,0,107266,114325,0.8 L,226383,4 V,0,0,1200,4,4,4,-4 R,0,0,1200,0,6.283185 C,0,226383,,86,191,237
Sprite,Background,Centre,"sb/pixel.png",0,0 M,0,226427,228427,-82,520,-82,-40 F,0,226427,228427,1 F,0,107266,114325,0.8 L,226427,4 V,0,0,1200,4,4,4,-4 R,0,0,1200,0,6.283185 C,0,226427,,86,191,237
Sprite,Background,Centre,"sb/pixel.png",0,0 M,0,226471,228471,643,520,643,-40 F,0,226471,228471,1 F,0,107266,114325,0.8 L,226471,4 V,0,0,1200,4,4,4,-4 R,0,0,1200,0,6.283185 C,0,226471,,119,214,244
Sprite,Background,Centre,"sb/pixel.png",0,0 M,0,226516,228516,331,520,331,-40 F,0,226516,228516,1 F,0,107266,114325,0.8 L,226516,4 V,0,0,1200,4,4,4,-4 R,0,0,1200,0,6.283185 C,0,226516,,119,214,244
Sprite,Background,Centre,"sb/pixel.png",0,0 M,0,226560,228560,214,520,214,-40 F,0,226560,228560,1 F,0,107266,114325,0.8 L,226560,4 V,0,0,1200,4,4,4,-4 R,0,0,1200,0,6.283185 C,0,226560,,119,214,244
Sprite,Background,Centre,"sb/pixel.png",0,0 M,0,226604,228604,17,520,17,-40 F,0,226604,228604,1 F,0,107266,114325,0.8 L,226604,4 V,0,0,1200,4,4,4,-4 R,0,0,1200,0,6.283185 C,0,226604,,119,214,244
Sprite,Background,Centre,"sb/pixel.png",0,0 M,0,226648,228648,508,520,508,-40 F,0,226648,228648,1 F,0,107266,114325,0.8 L,226648,4 V,0,0,1200,4,4,4,-4 R,0,0,1200,0,6.283185 C,0,226648,,119,214,244
Sprite,Background,Centre,"sb/pixel.png",0,0 M,0,226692,228692,-31,520,-31,-40 F,0,226692,228692,1 F,0,107266,114325,0.8 L,226692,4 V,0,0,1200,4,4,4,-4 R,0,0,1200,0,6.283185 C,0,226692,,119,214,244
Sprite,Background,Centre,"sb/pixel.png",0,0 M,0,226736,228736,235,520,235,-40 F,0,226736,228736,1 F,0,107266,114325,0.8 L,226736,4 V,0,0,1200,4,4,4,-4 R,0,0,1200,0,6.283185 C,0,226736,,119,214,244
Sprite,Background,Centre,"sb/pixel.png",0,0 M,0,226780,228780,67,520,67,-40 F,0,226780,228780,1 F,0,107266,114325,0.8 L,226780,4 V,0,0,1200,4,4,4,-4 R,0,0,1200,0,6.283185 C,0,226780,,119,214,244
Sprite,Background,Centre,"sb/pixel.png",0,0 M,0,226824,228824,36,520,36,-40 F,0,226824,228824,1 F,0,107266,114325,0.8 L,226824,4 V,0,0,1200,4,4,4,-4 R,0,0,1200,0,6.283185 C,0,226824,,119,214,244
Sprite,Background,Centre,"sb/pixel.png",0,0 M,0,226869,228869,314,520,314,-40 F,0,226869,228869,1 F,0,107266,114325,0.8 L,226869,4 V,0,0,1200,4,4,4,-4 R,0,0,1200,0,6.283185 C,0,226869,,86,191,237
Sprite,Background,Centre,"sb/pixel.png",0,0 M,0,226913,228913,424,520,424,-40 F,0,226913,228913,1 F,0,107266,114325,0.8 L,226913,4 V,0,0,1200,4,4,4,-4 R,0,0,1200,0,6.283185 C,0,226913,,86,191,237
Sprite,Background,Centre,"sb/pixel.png",0,0 M,0,226957,228957,744,520,744,-40 F,0,226957,228957,1 F,0,107266,114325,0.8 L,226957,4 V,0,0,1200,4,4,4,-4 R,0,0,1200,0,6.283185 C,0,226957,,119,214,244
Sprite,Background,Centre,"sb/pixel.png",0,0 M,0,227001,229001,361,520,361,-40 F,0,227001,229001,1 F,0,107266,114325,0.8 L,227001,4 V,0,0,1200,4,4,4,-4 R,0,0,1200,0,6.283185 C,0,227001,,86,191,237
Sprite,Background,Centre,"sb/pixel.png",0,0 M,0,227045,229045,75,520,75,-40 F,0,227045,229045,1 F,0,107266,114325,0.8 L,227045,4 V,0,0,1200,4,4,4,-4 R,0,0,1200,0,6.283185 C,0,227045,,119,214,244
Sprite,Background,Centre,"sb/pixel.png",0,0 M,0,227089,229089,660,520,660,-40 F,0,227089,229089,1 F,0,107266,114325,0.8 L,227089,4 V,0,0,1200,4,4,4,-4 R,0,0,1200,0,6.283185 C,0,227089,,119,214,244
Sprite,Background,Centre,"sb/pixel.png",0,0 M,0,227133,229133,267,520,267,-40 F,0,227133,229133,1 F,0,107266,114325,0.8 L,227133,4 V,0,0,1200,4,4,4,-4 R,0,0,1200,0,6.283185 C,0,227133,,86,191,237
Sprite,Background,Centre,"sb/pixel.png",0,0 M,0,227177,229177,-55,520,-55,-40 F,0,227177,229177,1 F,0,107266,114325,0.8 L,227177,4 V,0,0,1200,4,4,4,-4 R,0,0,1200,0,6.283185 C,0,227177,,86,191,237
Sprite,Background,Centre,"sb/pixel.png",0,0 M,0,227221,229221,583,520,583,-40 F,0,227221,229221,1 F,0,107266,114325,0.8 L,227221,4 V,0,0,1200,4,4,4,-4 R,0,0,1200,0,6.283185 C,0,227221,,119,214,244
Sprite,Background,Centre,"sb/pixel.png",0,0 M,0,227266,229266,569,520,569,-40 F,0,227266,229266,1 F,0,107266,114325,0.8 L,227266,4 V,0,0,1200,4,4,4,-4 R,0,0,1200,0,6.283185 C,0,227266,,119,214,244
Sprite,Background,Centre,"sb/pixel.png",0,0 M,0,227310,229310,-21,520,-21,-40 F,0,227310,229310,1 F,0,107266,114325,0.8 L,227310,4 V,0,0,1200,4,4,4,-4 R,0,0,1200,0,6.283185 C,0,227310,,86,191,237
Sprite,Background,Centre,"sb/pixel.png",0,0 M,0,227354,229354,288,520,288,-40 F,0,227354,229354,1 F,0,107266,114325,0.8 L,227354,4 V,0,0,1200,4,4,4,-4 R,0,0,1200,0,6.283185 C,0,227354,,119,214,244
Sprite,Background,Centre,"sb/pixel.png",0,0 M,0,227398,229398,-42,520,-42,-40 F,0,227398,229398,1 F,0,107266,114325,0.8 L,227398,4 V,0,0,1200,4,4,4,-4 R,0,0,1200,0,6.283185 C,0,227398,,86,191,237
Sprite,Background,Centre,"sb/pixel.png",0,0 M,0,227442,229442,44,520,44,-40 F,0,227442,229442,1 F,0,107266,114325,0.8 L,227442,4 V,0,0,1200,4,4,4,-4 R,0,0,1200,0,6.283185 C,0,227442,,119,214,244
Sprite,Background,Centre,"sb/pixel.png",0,0 M,0,227486,229486,626,520,626,-40 F,0,227486,229486,1 F,0,107266,114325,0.8 L,227486,4 V,0,0,1200,4,4,4,-4 R,0,0,1200,0,6.283185 C,0,227486,,119,214,244
Sprite,Background,Centre,"sb/pixel.png",0,0 M,0,227530,229530,132,520,132,-40 F,0,227530,229530,1 F,0,107266,114325,0.8 L,227530,4 V,0,0,1200,4,4,4,-4 R,0,0,1200,0,6.283185 C,0,227530,,119,214,244
Sprite,Background,Centre,"sb/pixel.png",0,0 M,0,227574,229574,-7,520,-7,-40 F,0,227574,229574,1 F,0,107266,114325,0.8 L,227574,4 V,0,0,1200,4,4,4,-4 R,0,0,1200,0,6.283185 C,0,227574,,119,214,244
Sprite,Background,Centre,"sb/pixel.png",0,0 M,0,227619,229619,9,520,9,-40 F,0,227619,229619,1 F,0,107266,114325,0.8 L,227619,4 V,0,0,1200,4,4,4,-4 R,0,0,1200,0,6.283185 C,0,227619,,119,214,244
Sprite,Background,Centre,"sb/pixel.png",0,0 M,0,227663,229663,179,520,179,-40 F,0,227663,229663,1 F,0,107266,114325,0.8 L,227663,4 V,0,0,1200,4,4,4,-4 R,0,0,1200,0,6.283185 C,0,227663,,119,214,244
Sprite,Background,Centre,"sb/pixel.png",0,0 M,0,227707,229707,265,520,265,-40 F,0,227707,229707,1 F,0,107266,114325,0.8 L,227707,4 V,0,0,1200,4,4,4,-4 R,0,0,1200,0,6.283185 C,0,227707,,119,214,244
Sprite,Background,Centre,"sb/pixel.png",0,0 M,0,227751,229751,415,520,415,-40 F,0,227751,229751,1 F,0,107266,114325,0.8 L,227751,4 V,0,0,1200,4,4,4,-4 R,0,0,1200,0,6.283185 C,0,227751,,86,191,237
Sprite,Background,Centre,"sb/pixel.png",0,0 M,0,227795,229795,640,520,640,-40 F,0,227795,229795,1 F,0,107266,114325,0.8 L,227795,4 V,0,0,1200,4,4,4,-4 R,0,0,1200,0,6.283185 C,0,227795,,86,191,237
Sprite,Background,Centre,"sb/pixel.png",0,0 M,0,227839,229839,223,520,223,-40 F,0,227839,229839,1 F,0,107266,114325,0.8 L,227839,4 V,0,0,1200,4,4,4,-4 R,0,0,1200,0,6.283185 C,0,227839,,86,191,237
Sprite,Background,Centre,"sb/pixel.png",0,0 M,0,227883,229883,-106,520,-106,-40 F,0,227883,229883,1 F,0,107266,114325,0.8 L,227883,4 V,0,0,1200,4,4,4,-4 R,0,0,1200,0,6.283185 C,0,227883,,119,214,244
Sprite,Background,Centre,"sb/pixel.png",0,0 M,0,227927,229927,123,520,123,-40 F,0,227927,229927,1 F,0,107266,114325,0.8 L,227927,4 V,0,0,1200,4,4,4,-4 R,0,0,1200,0,6.283185 C,0,227927,,86,191,237
Sprite,Background,Centre,"sb/pixel.png",0,0 M,0,227971,229971,483,520,483,-40 F,0,227971,229971,1 F,0,107266,114325,0.8 L,227971,4 V,0,0,1200,4,4,4,-4 R,0,0,1200,0,6.283185 C,0,227971,,86,191,237
Sprite,Background,Centre,"sb/pixel.png",0,0 M,0,228016,230016,374,520,374,-40 F,0,228016,230016,1 F,0,107266,114325,0.8 L,228016,4 V,0,0,1200,4,4,4,-4 R,0,0,1200,0,6.283185 C,0,228016,,86,191,237
Sprite,Background,Centre,"sb/pixel.png",0,0 M,0,228060,230060,196,520,196,-40 F,0,228060,230060,1 F,0,107266,114325,0.8 L,228060,4 V,0,0,1200,4,4,4,-4 R,0,0,1200,0,6.283185 C,0,228060,,86,191,237
Sprite,Background,Centre,"sb/pixel.png",0,0 M,0,228104,230104,-22,520,-22,-40 F,0,228104,230104,1 F,0,107266,114325,0.8 L,228104,4 V,0,0,1200,4,4,4,-4 R,0,0,1200,0,6.283185 C,0,228104,,86,191,237
Sprite,Background,Centre,"sb/pixel.png",0,0 M,0,228148,230148,532,520,532,-40 F,0,228148,230148,1 F,0,107266,114325,0.8 L,228148,4 V,0,0,1200,4,4,4,-4 R,0,0,1200,0,6.283185 C,0,228148,,119,214,244
Sprite,Background,Centre,"sb/pixel.png",0,0 M,0,228192,230192,98,520,98,-40 F,0,228192,230192,1 F,0,107266,114325,0.8 L,228192,4 V,0,0,1200,4,4,4,-4 R,0,0,1200,0,6.283185 C,0,228192,,119,214,244
Sprite,Background,Centre,"sb/pixel.png",0,0 M,0,228236,230236,570,520,570,-40 F,0,228236,230236,1 F,0,107266,114325,0.8 L,228236,4 V,0,0,1200,4,4,4,-4 R,0,0,1200,0,6.283185 C,0,228236,,86,191,237
Sprite,Background,Centre,"sb/pixel.png",0,0 M,0,228280,230280,733,520,733,-40 F,0,228280,230280,1 F,0,107266,114325,0.8 L,228280,4 V,0,0,1200,4,4,4,-4 R,0,0,1200,0,6.283185 C,0,228280,,86,191,237
Sprite,Background,Centre,"sb/pixel.png",0,0 M,0,228324,230324,653,520,653,-40 F,0,228324,230324,1 F,0,107266,114325,0.8 L,228324,4 V,0,0,1200,4,4,4,-4 R,0,0,1200,0,6.283185 C,0,228324,,86,191,237
Sprite,Background,Centre,"sb/pixel.png",0,0 M,0,228369,230369,545,520,545,-40 F,0,228369,230369,1 F,0,107266,114325,0.8 L,228369,4 V,0,0,1200,4,4,4,-4 R,0,0,1200,0,6.283185 C,0,228369,,86,191,237
Sprite,Background,Centre,"sb/pixel.png",0,0 M,0,228413,230413,202,520,202,-40 F,0,228413,230413,1 F,0,107266,114325,0.8 L,228413,4 V,0,0,1200,4,4,4,-4 R,0,0,1200,0,6.283185 C,0,228413,,86,191,237
Sprite,Background,Centre,"sb/pixel.png",0,0 M,0,228457,230457,620,520,620,-40 F,0,228457,230457,1 F,0,107266,114325,0.8 L,228457,4 V,0,0,1200,4,4,4,-4 R,0,0,1200,0,6.283185 C,0,228457,,86,191,237
Sprite,Background,Centre,"sb/pixel.png",0,0 M,0,228501,230501,608,520,608,-40 F,0,228501,230501,1 F,0,107266,114325,0.8 L,228501,4 V,0,0,1200,4,4,4,-4 R,0,0,1200,0,6.283185 C,0,228501,,119,214,244
Sprite,Background,Centre,"sb/pixel.png",0,0 M,0,228545,230545,-56,520,-56,-40 F,0,228545,230545,1 F,0,107266,114325,0.8 L,228545,4 V,0,0,1200,4,4,4,-4 R,0,0,1200,0,6.283185 C,0,228545,,86,191,237
Sprite,Background,Centre,"sb/pixel.png",0,0 M,0,228589,230589,480,520,480,-40 F,0,228589,230589,1 F,0,107266,114325,0.8 L,228589,4 V,0,0,1200,4,4,4,-4 R,0,0,1200,0,6.283185 C,0,228589,,119,214,244
Sprite,Background,Centre,"sb/pixel.png",0,0 M,0,228633,230633,464,520,464,-40 F,0,228633,230633,1 F,0,107266,114325,0.8 L,228633,4 V,0,0,1200,4,4,4,-4 R,0,0,1200,0,6.283185 C,0,228633,,86,191,237
Sprite,Background,Centre,"sb/pixel.png",0,0 M,0,228677,230677,678,520,678,-40 F,0,228677,230677,1 F,0,107266,114325,0.8 L,228677,4 V,0,0,1200,4,4,4,-4 R,0,0,1200,0,6.283185 C,0,228677,,119,214,244
//Storyboard Layer 1 (Fail)
//Storyboard Layer 2 (Pass)
//Storyboard Layer 3 (Foreground)
//Storyboard Sound Samples

[TimingPoints]
2796,352.941176470588,4,2,1,70,1,0
25384,-111.111111111111,4,2,1,40,0,0
35619,-111.111111111111,4,2,1,30,0,0
53619,-111.111111111111,4,2,1,35,0,0
55031,-111.111111111111,4,2,1,40,0,0
56443,-111.111111111111,4,2,1,45,0,0
57148,-111.111111111111,4,2,1,50,0,0
57854,-111.111111111111,4,2,1,55,0,0
58207,-111.111111111111,4,2,1,60,0,0
58560,-111.111111111111,4,2,1,65,0,0
58913,-111.111111111111,4,2,1,70,0,0
59266,-100,4,2,1,80,0,0
60590,-100,4,2,1,5,0,0
60854,-100,4,2,1,50,0,0
61031,-100,4,2,1,80,0,0
63413,-100,4,2,1,5,0,0
63678,-100,4,2,1,60,0,0
63854,-100,4,2,1,70,0,0
64207,-100,4,2,1,80,0,0
66237,-100,4,2,1,5,0,0
66501,-100,4,2,1,80,0,0
69060,-100,4,2,1,5,0,0
69384,-100,4,2,1,65,0,0
69501,-100,4,2,1,80,0,0
71884,-100,4,2,1,5,0,0
72148,-100,4,2,1,50,0,0
72325,-100,4,2,1,80,0,0
74707,-100,4,2,1,5,0,0
74972,-100,4,2,1,80,0,0
75148,-100,4,2,1,60,0,0
75325,-100,4,2,1,70,0,0
75501,-100,4,2,1,80,0,0
77531,-100,4,2,1,5,0,0
77795,-100,4,2,1,80,0,0
80354,-100,4,2,1,5,0,0
80795,-100,4,2,1,80,0,0
83178,-100,4,2,1,5,0,0
83442,-100,4,2,1,50,0,0
83619,-100,4,2,1,80,0,0
86001,-100,4,2,1,5,0,0
86266,-100,4,2,1,80,0,0
88825,-100,4,2,1,5,0,0
89090,-100,4,2,1,80,0,0
91648,-100,4,2,1,5,0,0
91972,-100,4,2,1,65,0,0
92089,-100,4,2,1,80,0,0
94472,-100,4,2,1,5,0,0
94736,-100,4,2,1,50,0,0
94913,-100,4,2,1,80,0,0
97295,-100,4,2,1,5,0,0
97560,-100,4,2,1,80,0,0
97736,-100,4,2,1,60,0,0
97913,-100,4,2,1,70,0,0
98089,-100,4,2,1,80,0,0
100119,-100,4,2,1,5,0,0
100384,-100,4,2,1,80,0,0
102942,-100,4,2,1,50,0,0
103207,-100,4,2,1,60,0,0
115737,-111.111111111111,4,2,1,40,0,0
136913,-111.111111111111,4,2,1,30,0,0
137619,-111.111111111111,4,2,1,35,0,0
138325,-111.111111111111,4,2,1,40,0,0
149619,-111.111111111111,4,2,1,30,0,0
155266,-111.111111111111,4,2,1,35,0,0
156678,-111.111111111111,4,2,1,40,0,0
158090,-111.111111111111,4,2,1,45,0,0
158795,-111.111111111111,4,2,1,50,0,0
159501,-111.111111111111,4,2,1,55,0,0
159854,-111.111111111111,4,2,1,60,0,0
160207,-111.111111111111,4,2,1,65,0,0
160560,-111.111111111111,4,2,1,70,0,0
160913,-100,4,2,1,80,0,0
162237,-100,4,2,1,5,0,0
162501,-100,4,2,1,50,0,0
162678,-100,4,2,1,80,0,0
165060,-100,4,2,1,5,0,0
165325,-100,4,2,1,80,0,0
165501,-100,4,2,1,60,0,0
165678,-100,4,2,1,70,0,0
165854,-100,4,2,1,80,0,0
167884,-100,4,2,1,5,0,0
168148,-100,4,2,1,80,0,0
170707,-100,4,2,1,5,0,0
171031,-100,4,2,1,65,0,0
171148,-100,4,2,1,80,0,0
173531,-100,4,2,1,5,0,0
173795,-100,4,2,1,50,0,0
173972,-100,4,2,1,80,0,0
176354,-100,4,2,1,5,0,0
176619,-100,4,2,1,80,0,0
176795,-100,4,2,1,60,0,0
176972,-100,4,2,1,70,0,0
177148,-100,4,2,1,80,0,0
179178,-100,4,2,1,5,0,0
179442,-100,4,2,1,80,0,0
182001,-100,4,2,1,5,0,0
182442,-100,4,2,1,80,0,0
184825,-100,4,2,1,5,0,0
185089,-100,4,2,1,50,0,0
185266,-100,4,2,1,80,0,0
187648,-100,4,2,1,5,0,0
187913,-100,4,2,1,80,0,0
190472,-100,4,2,1,5,0,0
190737,-100,4,2,1,80,0,0
193295,-100,4,2,1,5,0,0
193619,-100,4,2,1,65,0,0
193736,-100,4,2,1,80,0,0
196119,-100,4,2,1,5,0,0
196383,-100,4,2,1,50,0,0
196560,-100,4,2,1,80,0,0
198942,-100,4,2,1,5,0,0
199207,-100,4,2,1,80,0,0
201766,-100,4,2,1,5,0,0
202031,-100,4,2,1,80,0,0
204589,-100,4,2,1,50,0,0
204854,-100,4,2,1,60,0,0

[Colours]
Combo1 : 118,120,192
Combo2 : 143,216,224
Combo3 : 174,179,221
Combo4 : 145,188,191

[HitObjects]
462,8,25384,6,0,L|446:119,1,107.999996704102,0|0,1:0|0:0,0:0:0:0:
404,148,25913,2,0,L|422:266,1,107.999996704102,8|0,0:0|0:0,0:0:0:0:
463,288,26443,1,8,0:0:0:0:
364,331,26795,2,0,L|351:402,2,53.9999983520508,0|0|0,1:0|1:0|3:0,0:0:0:0:
287,254,27501,2,0,P|232:260|173:285,1,107.999996704102,0|0,0:0|3:0,0:0:0:0:
140,312,28031,1,0,1:0:0:0:
140,312,28207,5,0,1:0:0:0:
44,362,28560,1,0,1:0:0:0:
0,330,28737,2,0,B|16:270|16:270|11:228|11:228|28:162,1,161.999995056153,8|8,0:0|0:0,0:0:0:0:
97,92,29619,2,0,L|89:26,2,53.9999983520508,0|0|0,1:0|1:0|3:0,0:0:0:0:
187,151,30325,1,0,0:0:0:0:
225,50,30678,1,0,0:0:0:0:
318,103,31031,6,0,P|369:109|442:120,1,107.999996704102,0|0,1:0|0:0,0:0:0:0:
468,84,31560,2,0,P|495:119|492:184,1,107.999996704102,8|0,0:0|0:0,0:0:0:0:
450,214,32090,1,8,0:0:0:0:
354,264,32443,2,0,L|285:249,2,53.9999983520508,0|0|0,1:0|1:0|3:0,0:0:0:0:
426,344,33148,2,0,P|373:353|296:368,1,107.999996704102,0|0,0:0|3:0,0:0:0:0:
267,378,33678,1,0,1:0:0:0:
267,378,33854,5,0,1:0:0:0:
177,317,34207,1,0,1:0:0:0:
141,357,34384,2,0,P|88:362|24:276,1,161.999995056153,8|8,0:0|0:0,0:0:0:0:
79,191,35266,2,0,L|142:176,2,53.9999983520508,0|0|0,1:0|1:0|3:0,0:0:0:0:
24,97,35972,6,0,B|152:91|101:185|231:175,1,215.999993408203,0|4,0:0|0:1,0:0:0:0:
23,56,47972,6,0,B|146:38|100:138|225:118,1,215.999993408203,0|0,1:0|1:0,0:0:0:0:
386,255,49384,2,0,B|263:237|309:337|184:317,1,215.999993408203,0|0,1:0|1:0,0:0:0:0:
311,138,50795,5,0,1:0:0:0:
311,138,50972,2,0,L|422:122,1,107.999996704102,0|0,0:0|0:0,0:0:0:0:
464,149,51501,1,0,1:0:0:0:
275,43,52207,2,0,P|203:57|159:138,1,161.999995056153,0|0,1:0|0:0,0:0:0:0:
182,177,52913,1,0,1:0:0:0:
4,300,53619,6,0,L|114:280,1,107.999996704102,0|0,1:0|1:0,0:0:0:0:
192,350,54325,2,0,L|212:240,1,107.999996704102,0|0,1:0|1:0,0:0:0:0:
286,166,55031,2,0,L|176:146,1,107.999996704102,0|0,1:0|1:0,0:0:0:0:
95,79,55737,2,0,L|75:189,1,107.999996704102,0|0,1:0|1:0,0:0:0:0:
256,192,56443,12,0,57854,1:0:0:0:
46,241,59266,6,0,B|114:249|114:249|137:282|137:282|210:297,1,180,6|0,1:0|1:0,0:0:0:0:
249,339,59972,2,0,B|299:299|299:299|372:320,1,120,8|0,0:1|1:0,0:0:0:0:
476,108,61031,2,0,L|482:41,2,60,2|2|8,1:2|1:2|0:1,0:0:0:0:
449,162,61560,1,2,1:2:0:0:
449,162,61737,1,0,1:0:0:0:
347,97,62090,6,0,L|331:-10,2,90,0|0|0,1:0|1:0|1:0,0:0:0:0:
311,145,62795,2,0,B|240:163|240:163|185:124,1,120,8|0,0:1|1:0,0:0:0:0:
54,31,63678,2,0,P|25:71|17:153,1,120,0|0,1:0|1:0,0:0:0:0:
60,178,64207,2,0,P|71:217|69:251,1,60,8|2,0:1|1:2,0:0:0:0:
44,290,64560,1,0,1:0:0:0:
136,366,64913,6,0,L|155:270,2,90,0|0|0,1:0|1:0|1:0,0:0:0:0:
194,381,65619,2,0,P|247:367|323:358,1,120,8|0,0:1|1:0,0:0:0:0:
459,255,66501,1,0,1:0:0:0:
459,255,66678,2,0,P|449:225|444:194,1,60,2|2,0:0|1:2,0:0:0:0:
399,157,67031,2,0,P|408:128|413:94,1,60,8|2,0:1|1:2,0:0:0:0:
431,41,67384,1,0,1:0:0:0:
315,7,67737,6,0,L|215:18,2,90,0|0|0,1:0|1:0|1:0,0:0:0:0:
327,65,68443,2,0,B|312:111|312:111|318:138|318:138|300:199,1,120,8|0,0:1|1:0,0:0:0:0:
155,367,69501,1,0,1:0:0:0:
155,367,69678,1,0,1:0:0:0:
155,367,69854,2,0,L|92:346,2,60,8|2|0,0:1|1:2|1:2,0:0:0:0:
232,275,70560,6,0,L|214:171,2,90,4|0|0,1:0|1:0|1:0,0:0:0:0:
266,323,71266,2,0,P|314:313|376:351,1,120,8|0,0:1|1:0,0:0:0:0:
501,143,72325,1,0,1:0:0:0:
501,143,72501,1,0,1:0:0:0:
501,143,72678,2,0,P|458:177|384:174,1,120,8|0,0:1|1:0,0:0:0:0:
310,92,73384,6,0,L|328:-2,2,90,0|0|0,1:0|1:0|1:0,0:0:0:0:
261,127,74090,2,0,L|274:250,1,120,8|0,0:1|1:0,0:0:0:0:
139,367,74972,2,0,P|165:309|153:237,1,120,0|0,1:0|1:0,0:0:0:0:
116,212,75501,2,0,P|118:181|132:140,1,60,8|2,0:1|1:2,0:0:0:0:
172,115,75854,1,0,1:0:0:0:
88,29,76207,6,0,L|0:44,2,90,0|0|0,1:0|1:0|1:0,0:0:0:0:
144,7,76913,2,0,B|196:10|196:10|214:23|214:23|272:29,1,120,8|0,0:1|1:0,0:0:0:0:
431,81,77795,1,0,1:0:0:0:
431,81,77972,2,0,P|445:105|446:149,1,60,2|2,1:2|1:2,0:0:0:0:
484,184,78325,2,0,P|481:213|466:239,1,60,8|2,0:1|1:2,0:0:0:0:
423,282,78678,1,0,1:0:0:0:
309,320,79031,6,0,P|306:278|295:224,2,90,0|0|0,1:0|1:0|1:0,0:0:0:0:
330,376,79737,2,0,P|279:346|202:364,1,120,8|0,0:1|1:0,0:0:0:0:
72,163,80795,1,0,1:0:0:0:
72,163,80972,1,0,1:0:0:0:
72,163,81148,2,0,L|86:89,2,60,8|2|2,0:0|1:0|1:0,0:0:0:0:
14,268,81854,6,0,P|76:253|193:235,1,180,4|0,1:0|1:0,0:0:0:0:
240,268,82560,2,0,P|275:236|273:164,1,120,8|0,0:1|1:0,0:0:0:0:
89,13,83619,1,2,1:2:0:0:
89,13,83795,1,2,1:2:0:0:
89,13,83972,2,0,L|76:73,1,60,8|2,0:1|1:2,0:0:0:0:
103,125,84325,1,0,1:0:0:0:
143,237,84678,6,0,P|133:279|121:347,2,90,0|0|0,1:0|1:0|1:0,0:0:0:0:
195,208,85384,2,0,P|253:199|335:185,1,120,8|0,0:1|1:0,0:0:0:0:
466,93,86266,2,0,P|425:129|437:203,1,120,0|0,1:0|1:0,0:0:0:0:
469,234,86795,2,0,L|455:296,1,60,8|2,0:1|1:2,0:0:0:0:
444,351,87148,1,0,1:0:0:0:
333,304,87501,6,0,B|317:263|317:263|335:208,2,90,0|0|0,1:0|1:0|1:0,0:0:0:0:
292,348,88207,2,0,L|160:376,1,120,8|0,0:1|1:0,0:0:0:0:
11,295,89090,1,0,1:0:0:0:
11,295,89266,2,0,P|34:279|75:265,1,60,2|2,0:0|1:2,0:0:0:0:
108,226,89619,2,0,P|131:242|172:256,1,60,8|2,0:0|1:2,0:0:0:0:
219,265,89972,1,0,1:0:0:0:
299,175,90325,6,0,P|344:167|392:154,2,90,0|0|0,1:0|1:0|1:0,0:0:0:0:
241,156,91031,2,0,B|229:103|246:93|227:29,1,120,8|0,0:1|1:0,0:0:0:0:
76,222,92090,1,0,1:0:0:0:
76,222,92266,1,0,1:0:0:0:
76,222,92443,2,0,P|38:267|44:328,1,120,8|0,0:1|0:0,0:0:0:0:
148,384,93148,6,0,L|141:289,2,90,4|0|0,1:0|1:0|1:0,0:0:0:0:
200,355,93854,2,0,B|251:346|251:346|268:355|268:355|326:347,1,120,8|0,0:1|1:0,0:0:0:0:
490,182,94913,1,2,1:2:0:0:
490,182,95090,1,2,1:2:0:0:
490,182,95266,2,0,P|495:149|505:108,2,60,8|2|0,0:1|1:2|1:0,0:0:0:0:
403,265,95972,6,0,P|415:308|424:363,2,90,0|0|0,1:0|1:0|1:0,0:0:0:0:
361,221,96678,2,0,P|314:231|251:182,1,120,8|0,0:1|1:0,0:0:0:0:
167,36,97560,2,0,L|148:156,1,120,0|0,1:0|1:0,0:0:0:0:
105,197,98090,2,0,L|117:268,1,60,8|2,0:1|1:2,0:0:0:0:
161,293,98443,1,0,1:0:0:0:
279,273,98795,6,0,P|269:316|258:375,2,90,0|0|0,1:0|1:0|1:0,0:0:0:0:
322,230,99501,2,0,P|333:176|279:124,1,120,8|0,0:1|1:0,0:0:0:0:
132,48,100384,1,0,1:0:0:0:
132,48,100560,2,0,L|108:115,1,60,2|2,0:0|1:2,0:0:0:0:
59,133,100913,2,0,L|76:199,1,60,8|2,0:1|1:2,0:0:0:0:
127,218,101266,1,0,1:0:0:0:
84,330,101619,6,0,B|40:309|40:309|-23:320,2,90,0|0|0,1:0|1:0|1:0,0:0:0:0:
127,372,102325,2,0,L|250:355,1,120,8|0,0:1|1:0,0:0:0:0:
339,279,103031,2,0,L|404:290,2,60,2|0|0,0:0|0:0|0:0,0:0:0:0:
293,239,103560,2,0,P|279:187|320:128,1,120,8|0,0:1|0:0,0:0:0:0:
365,106,104090,1,8,0:1:0:0:
478,144,104443,5,4,1:0:0:0:
427,196,115737,6,0,L|457:36,2,161.999995056153,0|8|8,1:0|0:0|0:0,0:0:0:0:
349,271,117148,2,0,L|357:326,2,53.9999983520508,0|0|0,1:0|1:0|3:0,0:0:0:0:
247,233,117854,2,0,P|192:245|129:254,1,107.999996704102,0|0,0:0|3:0,0:0:0:0:
98,287,118384,1,0,1:0:0:0:
98,287,118560,6,0,P|69:236|96:182,1,107.999996704102,0|0,1:0|1:0,0:0:0:0:
129,162,119090,2,0,L|16:141,1,107.999996704102,8|0,0:0|0:0,0:0:0:0:
1,92,119619,1,8,0:0:0:0:
81,20,119972,2,0,P|109:27|147:46,1,53.9999983520508,0|0,1:0|1:0,0:0:0:0:
167,78,120325,1,0,3:0:0:0:
167,77,120501,2,0,P|205:41|258:37,1,107.999996704102,0|0,1:0|0:0,0:0:0:0:
304,54,121031,1,0,0:0:0:0:
367,127,121384,6,0,L|427:138,2,53.9999983520508,0|0|0,1:0|1:0|0:0,0:0:0:0:
317,150,121913,2,0,P|330:239|330:288,1,107.999996704102,8|0,0:0|0:0,0:0:0:0:
370,294,122443,1,8,0:0:0:0:
294,354,122795,2,0,P|242:362|174:386,1,107.999996704102,0|0,1:0|3:0,0:0:0:0:
135,370,123325,1,0,1:0:0:0:
135,370,123501,2,0,P|117:341|142:264,1,107.999996704102,0|0,0:0|3:0,0:0:0:0:
194,197,124207,6,0,P|245:205|315:222,1,107.999996704102,0|0,1:0|1:0,0:0:0:0:
337,256,124737,2,0,P|375:223|346:141,1,107.999996704102,8|0,0:0|0:0,0:0:0:0:
336,129,125266,1,8,0:0:0:0:
274,53,125619,2,0,P|280:26|284:0,2,53.9999983520508,0|0|0,1:0|1:0|3:0,0:0:0:0:
182,111,126325,2,0,L|33:143,1,107.999996704102,0|0,0:0|0:0,0:0:0:0:
7,217,127031,6,0,P|63:223|114:271,1,107.999996704102,0|0,1:0|0:0,0:0:0:0:
132,298,127560,2,0,P|188:292|239:244,1,107.999996704102,8|0,0:0|0:0,0:0:0:0:
260,217,128090,1,8,0:0:0:0:
331,298,128443,1,0,1:0:0:0:
331,298,128619,1,0,1:0:0:0:
331,298,128795,2,0,L|480:276,1,107.999996704102,0|0,3:0|0:0,0:0:0:0:
493,189,129501,2,0,L|413:174,1,53.9999983520508,0|0,3:0|1:0,0:0:0:0:
390,201,129854,6,0,P|406:143|413:93,1,107.999996704102,0|0,1:0|1:0,0:0:0:0:
386,48,130384,2,0,P|356:78|278:74,1,107.999996704102,8|0,0:0|0:0,0:0:0:0:
257,41,130913,1,8,0:0:0:0:
174,110,131266,2,0,P|167:137|155:178,2,53.9999983520508,0|0|0,1:0|1:0|3:0,0:0:0:0:
160,57,131795,2,0,L|48:81,1,107.999996704102,0|0,1:0|0:0,0:0:0:0:
15,118,132325,1,0,3:0:0:0:
32,224,132678,6,0,P|57:229|91:239,1,53.9999983520508,0|0,1:0|1:0,0:0:0:0:
129,206,133031,1,0,0:0:0:0:
129,206,133207,2,0,P|131:257|137:318,1,107.999996704102,8|0,0:0|0:0,0:0:0:0:
125,367,133737,1,8,0:0:0:0:
231,346,134090,1,0,1:0:0:0:
231,346,134266,1,0,1:0:0:0:
231,346,134443,2,0,B|286:337|286:337|340:367,1,107.999996704102,0|0,3:0|0:0,0:0:0:0:
421,302,135148,2,0,L|435:227,1,53.9999983520508,0|0,3:0|1:0,0:0:0:0:
469,210,135501,6,0,P|412:201|341:191,1,107.999996704102,0|0,1:0|1:0,0:0:0:0:
316,223,136031,2,0,P|289:182|300:120,1,107.999996704102,8|0,0:0|0:0,0:0:0:0:
341,95,136560,1,8,0:0:0:0:
241,51,136913,2,0,L|225:-14,2,53.9999983520508,0|0|0,1:0|1:0|3:0,0:0:0:0:
164,127,137619,2,0,L|143:191,1,53.9999983520508,0|0,0:0|0:0,0:0:0:0:
176,223,137972,2,0,L|192:274,1,53.9999983520508,8|0,0:0|0:0,0:0:0:0:
158,316,138325,1,4,0:1:0:0:
0,319,149619,6,0,B|82:332|82:332|121:301|121:301|213:316,1,215.999993408203,4|0,1:0|1:0,0:0:0:0:
385,197,151031,2,0,B|302:210|302:210|263:179|263:179|171:194,1,215.999993408203,0|0,1:0|1:0,0:0:0:0:
22,46,152443,5,0,1:0:0:0:
22,46,152619,2,0,L|152:61,1,107.999996704102,0|0,0:0|0:0,0:0:0:0:
176,32,153148,1,0,1:0:0:0:
20,182,153854,2,0,L|195:152,1,161.999995056153,0|0,1:0|0:0,0:0:0:0:
223,186,154560,1,0,1:0:0:0:
418,93,155266,6,0,P|421:146|438:209,1,107.999996704102,0|0,1:0|1:0,0:0:0:0:
494,289,155972,2,0,P|441:292|378:309,1,107.999996704102,0|0,1:0|1:0,0:0:0:0:
303,372,156678,2,0,P|300:319|283:256,1,107.999996704102,0|0,1:0|1:0,0:0:0:0:
215,184,157384,2,0,P|268:181|331:164,1,107.999996704102,0|0,1:0|1:0,0:0:0:0:
256,192,158090,12,0,159501,1:0:0:0:
0,358,160913,6,0,B|97:363|70:285|184:291,1,180,6|0,1:0|1:0,0:0:0:0:
214,318,161619,2,0,P|202:261|194:182,1,120,8|0,0:1|1:0,0:0:0:0:
409,307,162678,2,0,P|401:337|396:371,2,60,0|0|8,1:0|1:0|0:1,0:0:0:0:
447,260,163207,1,2,1:2:0:0:
447,260,163384,1,0,1:0:0:0:
372,166,163737,6,0,L|270:188,2,90,0|0|0,1:0|1:0|1:0,0:0:0:0:
430,153,164443,2,0,P|464:107|432:46,1,120,8|0,0:1|1:0,0:0:0:0:
269,4,165325,2,0,L|150:24,1,120,0|0,1:0|1:0,0:0:0:0:
114,72,165854,2,0,L|31:67,1,60,8|2,0:1|1:2,0:0:0:0:
9,108,166207,1,0,1:0:0:0:
62,215,166560,6,0,P|51:257|39:317,2,90,0|0|0,1:0|1:0|1:0,0:0:0:0:
101,169,167266,2,0,P|150:167|206:226,1,120,8|0,0:1|1:0,0:0:0:0:
314,351,168148,1,0,1:0:0:0:
314,351,168325,2,0,P|302:320|296:277,1,60,2|2,0:0|1:2,0:0:0:0:
331,244,168678,2,0,P|336:214|348:186,1,60,8|2,0:1|1:2,0:0:0:0:
306,143,169031,1,0,1:0:0:0:
398,66,169384,6,0,P|443:57|503:49,2,90,0|0|0,1:0|1:0|1:0,0:0:0:0:
343,39,170090,2,0,P|294:9|224:26,1,120,8|0,0:1|1:0,0:0:0:0:
34,151,171148,1,0,1:2:0:0:
34,151,171325,1,0,1:2:0:0:
34,151,171501,2,0,L|24:81,2,60,8|0|0,0:1|1:0|0:0,0:0:0:0:
87,258,172207,6,0,L|56:356,2,90,4|0|0,1:0|1:0|1:0,0:0:0:0:
136,240,172913,2,0,B|183:253|183:253|194:273|194:273|246:289,1,120,8|0,0:1|1:0,0:0:0:0:
467,366,173972,1,0,1:0:0:0:
467,366,174148,1,0,1:0:0:0:
467,366,174325,2,0,B|452:319|452:319|432:308|432:308|419:261,1,120,8|0,0:1|1:0,0:0:0:0:
344,167,175031,6,0,P|390:158|438:138,2,90,0|0|0,1:0|1:0|1:0,0:0:0:0:
294,200,175737,2,0,P|250:165|177:180,1,120,8|0,0:1|1:0,0:0:0:0:
41,273,176619,2,0,P|56:214|69:146,1,120,0|0,1:0|1:0,0:0:0:0:
120,127,177148,2,0,P|111:101|102:59,1,60,8|2,0:1|1:2,0:0:0:0:
142,23,177501,1,0,1:0:0:0:
255,62,177854,6,0,L|350:80,2,90,0|0|0,1:0|1:0|1:0,0:0:0:0:
214,106,178560,2,0,B|210:159|229:174|224:229,1,120,8|0,0:1|1:0,0:0:0:0:
312,382,179443,1,0,1:0:0:0:
312,382,179619,2,0,L|376:368,1,60,2|2,0:0|1:2,0:0:0:0:
395,314,179972,2,0,L|460:325,1,60,8|2,0:1|1:2,0:0:0:0:
503,289,180325,1,0,1:0:0:0:
422,200,180678,6,0,P|419:151|408:101,2,90,0|0|0,1:0|1:0|1:0,0:0:0:0:
372,234,181384,2,0,P|312:243|256:263,1,120,8|0,0:1|1:0,0:0:0:0:
45,147,182443,1,0,1:0:0:0:
45,147,182619,1,0,1:0:0:0:
45,147,182795,2,0,L|27:229,2,60,8|2|0,0:1|1:0|1:0,0:0:0:0:
4,33,183501,6,0,B|101:19|71:90|177:79,1,180,4|0,1:0|1:0,0:0:0:0:
214,38,184207,2,0,B|252:82|252:82|228:148,1,120,8|0,0:1|1:0,0:0:0:0:
54,303,185266,1,2,1:2:0:0:
54,303,185443,1,2,1:2:0:0:
54,303,185619,2,0,L|113:319,1,60,8|2,0:1|1:2,0:0:0:0:
157,358,185972,1,0,1:0:0:0:
246,277,186325,6,0,L|227:166,2,90,0|0|0,1:0|1:0|1:0,0:0:0:0:
287,320,187031,2,0,P|329:344|399:323,1,120,8|0,0:1|1:0,0:0:0:0:
494,175,187913,2,0,L|471:53,1,120,0|0,1:0|1:0,0:0:0:0:
425,17,188443,2,0,P|396:26|350:32,1,60,8|2,0:1|1:2,0:0:0:0:
322,70,188795,1,0,1:0:0:0:
223,138,189148,6,0,B|213:179|213:179|215:192|215:192|202:247,2,90,0|0|0,1:0|1:0|1:0,0:0:0:0:
272,172,189854,2,0,L|402:192,1,120,8|0,0:1|1:0,0:0:0:0:
507,327,190737,1,0,1:0:0:0:
507,327,190913,2,0,P|474:313|430:312,1,60,2|2,0:0|1:2,0:0:0:0:
398,279,191266,2,0,P|368:283|341:295,1,60,8|2,0:1|1:2,0:0:0:0:
293,332,191619,1,0,1:0:0:0:
176,358,191972,6,0,P|132:367|71:390,2,90,0|0|0,1:0|1:0|1:0,0:0:0:0:
209,308,192678,2,0,P|213:256|153:219,1,120,8|0,0:1|1:0,0:0:0:0:
7,35,193737,1,0,1:0:0:0:
7,35,193913,1,0,1:0:0:0:
7,35,194090,2,0,L|144:52,1,120,8|0,0:1|1:0,0:0:0:0:
209,135,194795,6,0,B|247:112|247:112|310:119,2,90,4|0|0,1:0|1:0|1:0,0:0:0:0:
167,178,195501,2,0,L|30:207,1,120,8|0,0:1|1:0,0:0:0:0:
240,349,196560,1,0,1:0:0:0:
240,349,196737,1,0,1:0:0:0:
240,349,196913,2,0,L|174:335,2,60,8|2|0,0:1|1:2|1:0,0:0:0:0:
326,264,197619,6,0,P|314:220|305:163,2,90,0|0|0,1:0|1:0|1:0,0:0:0:0:
365,308,198325,2,0,P|417:313|464:264,1,120,8|0,0:1|1:0,0:0:0:0:
476,88,199207,2,0,L|339:59,1,120,0|0,1:0|1:0,0:0:0:0:
314,21,199737,2,0,L|233:39,1,60,8|2,0:1|0:0,0:0:0:0:
212,76,200090,1,0,1:0:0:0:
112,142,200443,6,0,P|69:122|15:120,2,90,0|0|0,1:0|1:0|1:0,0:0:0:0:
141,194,201148,2,0,P|124:249|107:314,1,120,8|0,0:1|1:0,0:0:0:0:
275,378,202031,1,0,1:0:0:0:
275,378,202207,2,0,P|265:339|259:300,1,60,2|2,0:0|1:2,0:0:0:0:
300,273,202560,2,0,P|310:234|316:195,1,60,8|2,0:1|1:2,0:0:0:0:
277,166,202913,1,0,1:0:0:0:
369,89,203266,6,0,B|361:51|361:51|364:36|364:36|352:-8,2,90,0|0|0,1:0|1:0|1:0,0:0:0:0:
398,141,203972,2,0,B|440:109|440:109|511:143,1,120,8|0,0:1|1:0,0:0:0:0:
433,238,204678,2,0,P|373:248|298:265,1,120,2|0,0:0|0:0,0:0:0:0:
270,299,205207,2,0,P|210:304|171:248,1,120,8|2,0:1|0:0,0:0:0:0:
149,206,205737,2,0,L|162:136,1,60,0|0,1:0|0:0,0:0:0:0:
202,104,206090,1,4,1:0:0:0:
