osu file format v14

[General]
AudioFilename: audio.mp3
AudioLeadIn: 0
PreviewTime: 59178
Countdown: 0
SampleSet: Soft
StackLeniency: 0.4
Mode: 0
LetterboxInBreaks: 0
EpilepsyWarning: 1
WidescreenStoryboard: 1

[Editor]
Bookmarks: 25384,36678,47972,59266,70560,81854,93148,104443,115737,138325,149619,160913,172207,183501,194795,206090
DistanceSpacing: 1
BeatDivisor: 4
GridSize: 16
TimelineZoom: 1.7

[Metadata]
Title:Treason
TitleUnicode:Treason
Artist:Dictate
ArtistUnicode:Dictate
Creator:Realazy
Version:Easy
Source:
Tags:enkrypton lowcombofc lcfc kalibe toybot pishifat neurofunk neuro featured artist fa mappers guild
BeatmapID:1775313
BeatmapSetID:848976

[Difficulty]
HPDrainRate:3
CircleSize:3
OverallDifficulty:3
ApproachRate:4
SliderMultiplier:1
SliderTickRate:1

[Events]
//Background and Video events
0,0,"treason.png",0,0
//Break Periods
2,37384,46652
2,104642,114417
2,138525,148299
//Storyboard Layer 0 (Background)
Sprite,Background,Centre,"treason.png",320,240 F,0,0,,0
Sprite,Background,Centre,"sb/desat.png",320,240 S,0,0,,0.4444444 F,0,0,59266,1
Sprite,Background,Centre,"sb/pixel.png",320,240 V,0,0,,1920,1080 C,0,0,,0,0,0 F,0,0,25384,1
Sprite,Background,Centre,"sb/pixel.png",320,240 V,0,0,,1920,1080 C,0,0,,0,0,0 F,0,25384,25737,1,0.5 F,0,25384,25736,0.2,0.5 F,0,26795,27148,0.2,0.5 F,0,28207,28560,0.2,0.5 F,0,29619,29972,0.2,0.5 F,0,31031,31384,0.2,0.5 F,0,32442,32795,0.2,0.5 F,0,33854,34207,0.2,0.5 F,0,35266,35619,0.2,0.5 F,0,35619,36678,0.5,1 F,0,36678,37031,1,0.5 F,0,37031,47972,0.5
Sprite,Background,Centre,"sb/pixel.png",320,240 V,0,0,,1920,1080 C,0,0,,0,0,0 F,0,47972,48678,0.5,0.3 F,0,48678,56443,0.3,0
Sprite,Background,Centre,"sb/normal.png",320,240 S,0,0,,0.4444444 F,0,0,,0 F,0,59266,103737,1 F,0,103737,104443,1,0
Sprite,Background,Centre,"sb/light.png",320,240 S,0,0,,0.4444444 F,0,0,,0 F,0,59266,59596,1,0 F,0,61737,62067,1,0 F,0,64560,64890,1,0 F,0,67384,67714,1,0 F,0,73031,73361,1,0 F,0,75854,76184,1,0 F,0,78678,79008,1,0 F,0,84325,84655,1,0 F,0,87148,87478,1,0 F,0,89972,90302,1,0 F,0,95619,95949,1,0 F,0,98443,98773,1,0 F,0,101266,101596,1,0 F,0,62090,62420,1,0 F,0,64913,65243,1,0 F,0,67736,68066,1,0 F,0,70559,70889,1,0 F,0,73382,73712,1,0 F,0,76205,76535,1,0 F,0,79028,79358,1,0 F,0,81851,82181,1,0 F,0,84674,85004,1,0 F,0,87497,87827,1,0 F,0,90320,90650,1,0 F,0,93143,93473,1,0 F,0,95966,96296,1,0 F,0,98789,99119,1,0 F,0,101612,101942,1,0
Sprite,Background,Centre,"sb/zoomlight.png",320,240 S,0,0,,0.4444444 F,0,0,,0 F,0,60325,60655,1,0 F,0,63148,63478,1,0 F,0,65971,66301,1,0 F,0,68794,69124,1,0 F,0,71617,71947,1,0 F,0,74440,74770,1,0 F,0,77263,77593,1,0 F,0,80086,80416,1,0 F,0,82909,83239,1,0 F,0,85732,86062,1,0 F,0,88555,88885,1,0 F,0,91378,91708,1,0 F,0,94201,94531,1,0 F,0,97024,97354,1,0 F,0,99847,100177,1,0 F,0,102670,103000,1,0
Sprite,Background,Centre,"sb/desat.png",320,240 S,0,0,,0.4444444 F,0,115736,,0 F,0,115737,160913,1
Sprite,Background,Centre,"sb/pixel.png",320,240 V,0,0,,1920,1080 C,0,0,,0,0,0 F,0,115736,,0 F,0,115737,116443,1,0.5 F,0,117148,117500,0.2,0.5 F,0,118559,118912,0.2,0.5 F,0,119971,120324,0.2,0.5 F,0,121383,121736,0.2,0.5 F,0,122795,123147,0.2,0.5 F,0,124206,124559,0.2,0.5 F,0,125618,125971,0.2,0.5 F,0,127030,127383,0.2,0.5 F,0,128442,128795,0.2,0.5 F,0,129853,130206,0.2,0.5 F,0,131265,131618,0.2,0.5 F,0,132677,133030,0.2,0.5 F,0,134089,134442,0.2,0.5 F,0,135500,135853,0.2,0.5 F,0,136912,137265,0.2,0.5 F,0,138325,138501,0.5,0.8 F,0,138501,149619,0.8
Sprite,Background,Centre,"sb/pixel.png",320,240 V,0,0,,1920,1080 C,0,0,,0,0,0 F,0,149619,,0 F,0,149619,149795,0.8,0.5 F,0,149795,158090,0.5 F,0,158090,160913,0.5,0.3
Sprite,Background,Centre,"sb/normal.png",320,240 S,0,0,,0.4444444 F,0,0,,0 F,0,160913,205384,1 F,0,205384,206090,1,0
Sprite,Background,Centre,"sb/light.png",320,240 S,0,0,,0.4444444 F,0,0,,0 F,0,160913,161266,1,0 F,0,163384,163737,1,0 F,0,166207,166560,1,0 F,0,169031,169384,1,0 F,0,174678,175031,1,0 F,0,177501,177854,1,0 F,0,180325,180678,1,0 F,0,185972,186325,1,0 F,0,188795,189148,1,0 F,0,191619,191972,1,0 F,0,197266,197619,1,0 F,0,200090,200443,1,0 F,0,202913,203266,1,0 F,0,163737,164090,1,0 F,0,166560,166913,1,0 F,0,169383,169736,1,0 F,0,172206,172559,1,0 F,0,175029,175382,1,0 F,0,177852,178205,1,0 F,0,180675,181028,1,0 F,0,183498,183851,1,0 F,0,186321,186674,1,0 F,0,189144,189497,1,0 F,0,191967,192320,1,0 F,0,194790,195143,1,0 F,0,197613,197966,1,0 F,0,200436,200789,1,0 F,0,203259,203612,1,0
Sprite,Background,Centre,"sb/zoomlight.png",320,240 S,0,0,,0.4444444 F,0,0,,0 F,0,161972,162325,1,0 F,0,164795,165148,1,0 F,0,167618,167971,1,0 F,0,170441,170794,1,0 F,0,173264,173617,1,0 F,0,176087,176440,1,0 F,0,178910,179263,1,0 F,0,181733,182086,1,0 F,0,184556,184909,1,0 F,0,187379,187732,1,0 F,0,190202,190555,1,0 F,0,193025,193378,1,0 F,0,195848,196201,1,0 F,0,198671,199024,1,0 F,0,201494,201847,1,0 F,0,204317,204670,1,0
Sprite,Background,Centre,"sb/w/2795\0054.png",66.75,131.5 S,0,2795,,0.5 F,19,2796,3096,0,1 F,0,5619,22560,1 F,0,22560,25384,1,0
Sprite,Background,Centre,"sb/w/2795\0072.png",88.25,131.5 S,0,2795,,0.5 F,19,2798,3098,0,1 F,0,5619,22560,1 F,0,22560,25384,1,0
Sprite,Background,Centre,"sb/w/2795\0065.png",109.75,131.5 S,0,2795,,0.5 F,19,2805,3105,0,1 F,0,5619,22560,1 F,0,22560,25384,1,0
Sprite,Background,Centre,"sb/w/2795\0061.png",129.25,131.5 S,0,2795,,0.5 F,19,2817,3117,0,1 F,0,5619,22560,1 F,0,22560,25384,1,0
Sprite,Background,Centre,"sb/w/2795\0073.png",148.75,131.5 S,0,2795,,0.5 F,19,2834,3134,0,1 F,0,5619,22560,1 F,0,22560,25384,1,0
Sprite,Background,Centre,"sb/w/2795\006f.png",170.25,131.5 S,0,2795,,0.5 F,19,2856,3156,0,1 F,0,5619,22560,1 F,0,22560,25384,1,0
Sprite,Background,Centre,"sb/w/2795\006e.png",192.5,131.5 S,0,2795,,0.5 F,19,2883,3183,0,1 F,0,5619,22560,1 F,0,22560,25384,1,0
Sprite,Background,Centre,"sb/pixel.png",0,0 F,0,2795,,1 V,0,2795,,12,21 MY,0,2795,,129 MX,19,2795,3215,56,210 F,0,3215,3568,0 F,0,3568,3921,1 F,0,3921,4274,0 F,0,4274,4627,1 F,0,4627,4980,0 F,0,4980,5333,1
Sprite,Background,Centre,"sb/w/5619\0044.png",64.5,158 S,0,5619,,0.5 F,19,5620,5920,0,1 F,0,8162,22560,1 F,0,22560,25384,1,0
Sprite,Background,Centre,"sb/w/5619\0069.png",74,158 S,0,5619,,0.5 F,19,5622,5922,0,1 F,0,8162,22560,1 F,0,22560,25384,1,0
Sprite,Background,Centre,"sb/w/5619\0063.png",83.5,158 S,0,5619,,0.5 F,19,5629,5929,0,1 F,0,8162,22560,1 F,0,22560,25384,1,0
Sprite,Background,Centre,"sb/w/5619\0074.png",98.5,158 S,0,5619,,0.5 F,19,5641,5941,0,1 F,0,8162,22560,1 F,0,22560,25384,1,0
Sprite,Background,Centre,"sb/w/5619\0061.png",112,158 S,0,5619,,0.5 F,19,5658,5958,0,1 F,0,8162,22560,1 F,0,22560,25384,1,0
Sprite,Background,Centre,"sb/w/5619\0074.png",125.5,158 S,0,5619,,0.5 F,19,5680,5980,0,1 F,0,8162,22560,1 F,0,22560,25384,1,0
Sprite,Background,Centre,"sb/w/5619\0065.png",140.5,158 S,0,5619,,0.5 F,19,5707,6007,0,1 F,0,8162,22560,1 F,0,22560,25384,1,0
Sprite,Background,Centre,"sb/pixel.png",0,0 F,0,5619,,1 V,0,5619,,12,15 MY,0,5619,,156 MX,19,5619,6099,50,154 F,0,6099,6452,0 F,0,6452,6805,1 F,0,6805,7158,0 F,0,7158,7511,1 F,0,7511,7864,0 F,0,7864,8217,1
Sprite,Background,Centre,"sb/w/8443\004d.png",65.75,183 S,0,8443,,0.5 F,19,8444,8744,0,1 F,0,11266,22560,1 F,0,22560,25384,1,0
Sprite,Background,Centre,"sb/w/8443\0061.png",80.5,183 S,0,8443,,0.5 F,19,8446,8746,0,1 F,0,11266,22560,1 F,0,22560,25384,1,0
Sprite,Background,Centre,"sb/w/8443\0070.png",94,183 S,0,8443,,0.5 F,19,8453,8753,0,1 F,0,11266,22560,1 F,0,22560,25384,1,0
Sprite,Background,Centre,"sb/w/8443\0070.png",109,183 S,0,8443,,0.5 F,19,8465,8765,0,1 F,0,11266,22560,1 F,0,22560,25384,1,0
Sprite,Background,Centre,"sb/w/8443\0065.png",124,183 S,0,8443,,0.5 F,19,8482,8782,0,1 F,0,11266,22560,1 F,0,22560,25384,1,0
Sprite,Background,Centre,"sb/w/8443\0072.png",139,183 S,0,8443,,0.5 F,19,8504,8804,0,1 F,0,11266,22560,1 F,0,22560,25384,1,0
Sprite,Background,Centre,"sb/w/8443\003a.png",149.5,183 S,0,8443,,0.5 F,19,8531,8831,0,1 F,0,11266,22560,1 F,0,22560,25384,1,0
Sprite,Background,Centre,"sb/w/8443\0052.png",167,183 S,0,8443,,0.5 F,19,8563,8863,0,1 F,0,11266,22560,1 F,0,22560,25384,1,0
Sprite,Background,Centre,"sb/w/8443\0065.png",182,183 S,0,8443,,0.5 F,19,8600,8900,0,1 F,0,11266,22560,1 F,0,22560,25384,1,0
Sprite,Background,Centre,"sb/w/8443\0061.png",195.5,183 S,0,8443,,0.5 F,19,8642,8942,0,1 F,0,11266,22560,1 F,0,22560,25384,1,0
Sprite,Background,Centre,"sb/w/8443\006c.png",209,183 S,0,8443,,0.5 F,19,8689,8989,0,1 F,0,11266,22560,1 F,0,22560,25384,1,0
Sprite,Background,Centre,"sb/w/8443\0061.png",222.5,183 S,0,8443,,0.5 F,19,8741,9041,0,1 F,0,11266,22560,1 F,0,22560,25384,1,0
Sprite,Background,Centre,"sb/w/8443\007a.png",235.25,183 S,0,8443,,0.5 F,19,8798,9098,0,1 F,0,11266,22560,1 F,0,22560,25384,1,0
Sprite,Background,Centre,"sb/w/8443\0079.png",249.5,183 S,0,8443,,0.5 F,19,8860,9160,0,1 F,0,11266,22560,1 F,0,22560,25384,1,0
Sprite,Background,Centre,"sb/pixel.png",0,0 F,0,8443,,1 V,0,8443,,12,15 MY,0,8443,,181 MX,19,8443,9343,57,263 F,0,9343,9696,0 F,0,9696,10049,1 F,0,10049,10402,0 F,0,10402,10755,1 F,0,10755,11108,0 F,0,11108,11461,1
Sprite,Background,Centre,"sb/w/11266\0044.png",64.5,233 S,0,11266,,0.5 F,19,11267,11567,0,1 F,0,14090,22560,1 F,0,22560,25384,1,0
Sprite,Background,Centre,"sb/w/11266\0069.png",74,233 S,0,11266,,0.5 F,19,11269,11569,0,1 F,0,14090,22560,1 F,0,22560,25384,1,0
Sprite,Background,Centre,"sb/w/11266\0066.png",83.5,233 S,0,11266,,0.5 F,19,11276,11576,0,1 F,0,14090,22560,1 F,0,22560,25384,1,0
Sprite,Background,Centre,"sb/w/11266\0066.png",98.5,233 S,0,11266,,0.5 F,19,11288,11588,0,1 F,0,14090,22560,1 F,0,22560,25384,1,0
Sprite,Background,Centre,"sb/w/11266\0069.png",108,233 S,0,11266,,0.5 F,19,11305,11605,0,1 F,0,14090,22560,1 F,0,22560,25384,1,0
Sprite,Background,Centre,"sb/w/11266\0063.png",117.5,233 S,0,11266,,0.5 F,19,11327,11627,0,1 F,0,14090,22560,1 F,0,22560,25384,1,0
Sprite,Background,Centre,"sb/w/11266\0075.png",132.5,233 S,0,11266,,0.5 F,19,11354,11654,0,1 F,0,14090,22560,1 F,0,22560,25384,1,0
Sprite,Background,Centre,"sb/w/11266\006c.png",147.5,233 S,0,11266,,0.5 F,19,11386,11686,0,1 F,0,14090,22560,1 F,0,22560,25384,1,0
Sprite,Background,Centre,"sb/w/11266\0074.png",162.5,233 S,0,11266,,0.5 F,19,11423,11723,0,1 F,0,14090,22560,1 F,0,22560,25384,1,0
Sprite,Background,Centre,"sb/w/11266\0079.png",177.5,233 S,0,11266,,0.5 F,19,11465,11765,0,1 F,0,14090,22560,1 F,0,22560,25384,1,0
Sprite,Background,Centre,"sb/w/11266\003a.png",188,233 S,0,11266,,0.5 F,19,11512,11812,0,1 F,0,14090,22560,1 F,0,22560,25384,1,0
Sprite,Background,Centre,"sb/pixel.png",0,0 F,0,11266,,1 V,0,11266,,12,15 MY,0,11266,,231 MX,19,11266,11926,57,197 F,0,11926,12279,0 F,0,12279,12632,1 F,0,12632,12985,0 F,0,12985,13338,1 F,0,13338,13691,0 F,0,13691,14044,1
Sprite,Background,Centre,"sb/w/14090\0045.png",64.5,258 S,0,14090,,0.5 F,19,14091,14391,0,1 F,0,16913,22560,1 F,0,22560,25384,1,0
Sprite,Background,Centre,"sb/w/14090\0061.png",78,258 S,0,14090,,0.5 F,19,14093,14393,0,1 F,0,16913,22560,1 F,0,22560,25384,1,0
Sprite,Background,Centre,"sb/w/14090\0073.png",91.5,258 S,0,14090,,0.5 F,19,14100,14400,0,1 F,0,16913,22560,1 F,0,22560,25384,1,0
Sprite,Background,Centre,"sb/w/14090\0079.png",106.5,258 S,0,14090,,0.5 F,19,14112,14412,0,1 F,0,16913,22560,1 F,0,22560,25384,1,0
Sprite,Background,Centre,"sb/pixel.png",0,0 F,0,14090,,1 V,0,14090,,12,15 MY,0,14090,,256 MX,19,14090,14330,57,120 F,0,14330,14683,0 F,0,14683,15036,1 F,0,15036,15389,0 F,0,15389,15742,1 F,0,15742,16095,0 F,0,16095,16448,1 F,0,16448,16801,0 F,0,16801,17154,1
Sprite,Background,Centre,"sb/w/16913\0053.png",64.5,308 S,0,16913,,0.5 F,19,16914,17214,0,1 F,0,19737,22560,1 F,0,22560,25384,1,0
Sprite,Background,Centre,"sb/w/16913\0074.png",79.5,308 S,0,16913,,0.5 F,19,16916,17216,0,1 F,0,19737,22560,1 F,0,22560,25384,1,0
Sprite,Background,Centre,"sb/w/16913\006f.png",94.5,308 S,0,16913,,0.5 F,19,16923,17223,0,1 F,0,19737,22560,1 F,0,22560,25384,1,0
Sprite,Background,Centre,"sb/w/16913\0072.png",109.5,308 S,0,16913,,0.5 F,19,16935,17235,0,1 F,0,19737,22560,1 F,0,22560,25384,1,0
Sprite,Background,Centre,"sb/w/16913\0079.png",124.5,308 S,0,16913,,0.5 F,19,16952,17252,0,1 F,0,19737,22560,1 F,0,22560,25384,1,0
Sprite,Background,Centre,"sb/w/16913\0062.png",139.5,308 S,0,16913,,0.5 F,19,16974,17274,0,1 F,0,19737,22560,1 F,0,22560,25384,1,0
Sprite,Background,Centre,"sb/w/16913\006f.png",154.5,308 S,0,16913,,0.5 F,19,17001,17301,0,1 F,0,19737,22560,1 F,0,22560,25384,1,0
Sprite,Background,Centre,"sb/w/16913\0061.png",168,308 S,0,16913,,0.5 F,19,17033,17333,0,1 F,0,19737,22560,1 F,0,22560,25384,1,0
Sprite,Background,Centre,"sb/w/16913\0072.png",181.5,308 S,0,16913,,0.5 F,19,17070,17370,0,1 F,0,19737,22560,1 F,0,22560,25384,1,0
Sprite,Background,Centre,"sb/w/16913\0064.png",196.5,308 S,0,16913,,0.5 F,19,17112,17412,0,1 F,0,19737,22560,1 F,0,22560,25384,1,0
Sprite,Background,Centre,"sb/w/16913\003a.png",207,308 S,0,16913,,0.5 F,19,17159,17459,0,1 F,0,19737,22560,1 F,0,22560,25384,1,0
Sprite,Background,Centre,"sb/pixel.png",0,0 F,0,16913,,1 V,0,16913,,12,15 MY,0,16913,,306 MX,19,16913,17573,57,216 F,0,17573,17926,0 F,0,17926,18279,1 F,0,18279,18632,0 F,0,18632,18985,1 F,0,18985,19338,0 F,0,19338,19691,1
Sprite,Background,Centre,"sb/w/19737\0045.png",64.5,333 S,0,19737,,0.5 F,19,19738,20038,0,1 F,0,22560,,1 F,0,22560,25384,1,0
Sprite,Background,Centre,"sb/w/19737\006e.png",80,333 S,0,19737,,0.5 F,19,19740,20040,0,1 F,0,22560,,1 F,0,22560,25384,1,0
Sprite,Background,Centre,"sb/w/19737\006b.png",94.75,333 S,0,19737,,0.5 F,19,19747,20047,0,1 F,0,22560,,1 F,0,22560,25384,1,0
Sprite,Background,Centre,"sb/w/19737\0072.png",109,333 S,0,19737,,0.5 F,19,19759,20059,0,1 F,0,22560,,1 F,0,22560,25384,1,0
Sprite,Background,Centre,"sb/w/19737\0079.png",124,333 S,0,19737,,0.5 F,19,19776,20076,0,1 F,0,22560,,1 F,0,22560,25384,1,0
Sprite,Background,Centre,"sb/w/19737\0070.png",139,333 S,0,19737,,0.5 F,19,19798,20098,0,1 F,0,22560,,1 F,0,22560,25384,1,0
Sprite,Background,Centre,"sb/w/19737\0074.png",154,333 S,0,19737,,0.5 F,19,19825,20125,0,1 F,0,22560,,1 F,0,22560,25384,1,0
Sprite,Background,Centre,"sb/w/19737\006f.png",169,333 S,0,19737,,0.5 F,19,19857,20157,0,1 F,0,22560,,1 F,0,22560,25384,1,0
Sprite,Background,Centre,"sb/w/19737\006e.png",184.5,333 S,0,19737,,0.5 F,19,19894,20194,0,1 F,0,22560,,1 F,0,22560,25384,1,0
Sprite,Background,Centre,"sb/pixel.png",0,0 F,0,19737,,1 V,0,19737,,12,15 MY,0,19737,,331 MX,19,19737,20277,57,198.5 F,0,20277,20630,0 F,0,20630,20983,1 F,0,20983,21336,0 F,0,21336,21689,1 F,0,21689,22042,0 F,0,22042,22395,1
Sprite,Background,Centre,"sb/w/208913\0054.png",160,251.5 S,0,208913,,0.5 F,19,208914,209214,0,1 F,0,211737,212089,1,0
Sprite,Background,Centre,"sb/w/208913\0068.png",181.5,251.5 S,0,208913,,0.5 F,19,208916,209216,0,1 F,0,211737,212089,1,0
Sprite,Background,Centre,"sb/w/208913\0061.png",201,251.5 S,0,208913,,0.5 F,19,208923,209223,0,1 F,0,211737,212089,1,0
Sprite,Background,Centre,"sb/w/208913\006e.png",221.25,251.5 S,0,208913,,0.5 F,19,208935,209235,0,1 F,0,211737,212089,1,0
Sprite,Background,Centre,"sb/w/208913\006b.png",242.5,251.5 S,0,208913,,0.5 F,19,208952,209252,0,1 F,0,211737,212089,1,0
Sprite,Background,Centre,"sb/w/208913\0073.png",263,251.5 S,0,208913,,0.5 F,19,208974,209274,0,1 F,0,211737,212089,1,0
Sprite,Background,Centre,"sb/w/208913\0066.png",294.5,251.5 S,0,208913,,0.5 F,19,209001,209301,0,1 F,0,211737,212089,1,0
Sprite,Background,Centre,"sb/w/208913\006f.png",316,251.5 S,0,208913,,0.5 F,19,209033,209333,0,1 F,0,211737,212089,1,0
Sprite,Background,Centre,"sb/w/208913\0072.png",337.5,251.5 S,0,208913,,0.5 F,19,209070,209370,0,1 F,0,211737,212089,1,0
Sprite,Background,Centre,"sb/w/208913\0050.png",369,251.5 S,0,208913,,0.5 F,19,209112,209412,0,1 F,0,211737,212089,1,0
Sprite,Background,Centre,"sb/w/208913\006c.png",390.5,251.5 S,0,208913,,0.5 F,19,209159,209459,0,1 F,0,211737,212089,1,0
Sprite,Background,Centre,"sb/w/208913\0061.png",410,251.5 S,0,208913,,0.5 F,19,209211,209511,0,1 F,0,211737,212089,1,0
Sprite,Background,Centre,"sb/w/208913\0079.png",429.5,251.5 S,0,208913,,0.5 F,19,209268,209568,0,1 F,0,211737,212089,1,0
Sprite,Background,Centre,"sb/w/208913\0069.png",443.25,251.5 S,0,208913,,0.5 F,19,209330,209630,0,1 F,0,211737,212089,1,0
Sprite,Background,Centre,"sb/w/208913\006e.png",457.75,251.5 S,0,208913,,0.5 F,19,209397,209697,0,1 F,0,211737,212089,1,0
Sprite,Background,Centre,"sb/w/208913\0067.png",480,251.5 S,0,208913,,0.5 F,19,209469,209769,0,1 F,0,211737,212089,1,0
Sprite,Background,Centre,"sb/pixel.png",0,0 F,0,208913,,1 V,0,208913,,12,21 MY,0,208913,,249 MX,19,208913,209993,149.25,496.75 F,0,209993,210346,0 F,0,210346,210699,1 F,0,210699,211052,0 F,0,211052,211405,1
Sprite,Background,Centre,"sb/star.png",0,0 M,16,36678,39404,320,240,348.7015,-12.37318 F,0,36678,39404,1,0 S,0,36678,39404,0,0.05
Sprite,Background,Centre,"sb/star.png",0,0 M,16,36728,39286,320,240,225.8344,203.4783 F,0,36728,39286,1,0 S,0,36728,39286,0,0.05
Sprite,Background,Centre,"sb/star.png",0,0 M,16,36778,39684,320,240,478.4108,217.5053 F,0,36778,39684,1,0 S,0,36778,39684,0,0.05
Sprite,Background,Centre,"sb/star.png",0,0 M,16,36828,39101,320,240,200.5637,264.8791 F,0,36828,39101,1,0 S,0,36828,39101,0,0.05
Sprite,Background,Centre,"sb/star.png",0,0 M,16,36878,39510,320,240,485.9509,221.3107 F,0,36878,39510,1,0 S,0,36878,39510,0,0.05
Sprite,Background,Centre,"sb/star.png",0,0 M,16,36928,38958,320,240,584.8868,232.2538 F,0,36928,38958,1,0 S,0,36928,38958,0,0.05
Sprite,Background,Centre,"sb/star.png",0,0 M,16,36978,39655,320,240,372.2395,123.1452 F,0,36978,39655,1,0 S,0,36978,39655,0,0.05
Sprite,Background,Centre,"sb/star.png",0,0 M,16,37028,39876,320,240,610.7817,300.4566 F,0,37028,39876,1,0 S,0,37028,39876,0,0.05
Sprite,Background,Centre,"sb/star.png",0,0 M,16,37078,39777,320,240,485.6672,167.0934 F,0,37078,39777,1,0 S,0,37078,39777,0,0.05
Sprite,Background,Centre,"sb/star.png",0,0 M,16,37128,39815,320,240,482.3642,330.7407 F,0,37128,39815,1,0 S,0,37128,39815,0,0.05
Sprite,Background,Centre,"sb/star.png",0,0 M,16,37178,39365,320,240,272.3927,395.8927 F,0,37178,39365,1,0 S,0,37178,39365,0,0.05
Sprite,Background,Centre,"sb/star.png",0,0 M,16,37228,40216,320,240,337.0862,30.69624 F,0,37228,40216,1,0 S,0,37228,40216,0,0.05
Sprite,Background,Centre,"sb/star.png",0,0 M,16,37278,39308,320,240,239.9036,360.87 F,0,37278,39308,1,0 S,0,37278,39308,0,0.05
Sprite,Background,Centre,"sb/star.png",0,0 M,16,37328,40285,320,240,282.657,68.00726 F,0,37328,40285,1,0 S,0,37328,40285,0,0.05
Sprite,Background,Centre,"sb/star.png",0,0 M,16,37378,39496,320,240,418.4613,174.9664 F,0,37378,39496,1,0 S,0,37378,39496,0,0.05
Sprite,Background,Centre,"sb/star.png",0,0 M,16,37428,40222,320,240,190.8142,275.5954 F,0,37428,40222,1,0 S,0,37428,40222,0,0.05
Sprite,Background,Centre,"sb/star.png",0,0 M,16,37478,39624,320,240,231.3197,296.221 F,0,37478,39624,1,0 S,0,37478,39624,0,0.05
Sprite,Background,Centre,"sb/star.png",0,0 M,16,37528,40246,320,240,116.5827,255.4075 F,0,37528,40246,1,0 S,0,37528,40246,0,0.05
Sprite,Background,Centre,"sb/star.png",0,0 M,16,37578,39772,320,240,442.7603,0.6448114 F,0,37578,39772,1,0 S,0,37578,39772,0,0.05
Sprite,Background,Centre,"sb/star.png",0,0 M,16,37628,40363,320,240,207.2177,1.30322 F,0,37628,40363,1,0 S,0,37628,40363,0,0.05
Sprite,Background,Centre,"sb/star.png",0,0 M,16,37678,40302,320,240,402.3211,176.445 F,0,37678,40302,1,0 S,0,37678,40302,0,0.05
Sprite,Background,Centre,"sb/star.png",0,0 M,16,37728,40624,320,240,357.507,179.7155 F,0,37728,40624,1,0 S,0,37728,40624,0,0.05
Sprite,Background,Centre,"sb/star.png",0,0 M,16,37778,39948,320,240,417.929,53.10187 F,0,37778,39948,1,0 S,0,37778,39948,0,0.05
Sprite,Background,Centre,"sb/star.png",0,0 M,16,37828,40047,320,240,23.04707,274.9279 F,0,37828,40047,1,0 S,0,37828,40047,0,0.05
Sprite,Background,Centre,"sb/star.png",0,0 M,16,37878,40530,320,240,403.5811,26.79774 F,0,37878,40530,1,0 S,0,37878,40530,0,0.05
Sprite,Background,Centre,"sb/star.png",0,0 M,16,37928,40028,320,240,274.3112,12.54333 F,0,37928,40028,1,0 S,0,37928,40028,0,0.05
Sprite,Background,Centre,"sb/star.png",0,0 M,16,37978,40103,320,240,423.0136,496.0551 F,0,37978,40103,1,0 S,0,37978,40103,0,0.05
Sprite,Background,Centre,"sb/star.png",0,0 M,16,38028,40504,320,240,235.4936,404.5712 F,0,38028,40504,1,0 S,0,38028,40504,0,0.05
Sprite,Background,Centre,"sb/star.png",0,0 M,16,38078,40749,320,240,403.6486,95.45965 F,0,38078,40749,1,0 S,0,38078,40749,0,0.05
Sprite,Background,Centre,"sb/star.png",0,0 M,16,38128,40937,320,240,342.5724,-6.970621 F,0,38128,40937,1,0 S,0,38128,40937,0,0.05
Sprite,Background,Centre,"sb/star.png",0,0 M,16,38178,41115,320,240,198.2583,222.4509 F,0,38178,41115,1,0 S,0,38178,41115,0,0.05
Sprite,Background,Centre,"sb/star.png",0,0 M,16,38228,40891,320,240,289.584,369.4753 F,0,38228,40891,1,0 S,0,38228,40891,0,0.05
Sprite,Background,Centre,"sb/star.png",0,0 M,16,38278,41098,320,240,360.5645,336.8479 F,0,38278,41098,1,0 S,0,38278,41098,0,0.05
Sprite,Background,Centre,"sb/star.png",0,0 M,16,38328,40396,320,240,247.8445,47.05029 F,0,38328,40396,1,0 S,0,38328,40396,0,0.05
Sprite,Background,Centre,"sb/star.png",0,0 M,16,38378,41008,320,240,370.3248,516.4569 F,0,38378,41008,1,0 S,0,38378,41008,0,0.05
Sprite,Background,Centre,"sb/star.png",0,0 M,16,38428,41356,320,240,373.4205,201.2412 F,0,38428,41356,1,0 S,0,38428,41356,0,0.05
Sprite,Background,Centre,"sb/star.png",0,0 M,16,38478,41156,320,240,363.2426,298.814 F,0,38478,41156,1,0 S,0,38478,41156,0,0.05
Sprite,Background,Centre,"sb/star.png",0,0 M,16,38528,40634,320,240,513.2717,181.2627 F,0,38528,40634,1,0 S,0,38528,40634,0,0.05
Sprite,Background,Centre,"sb/star.png",0,0 M,16,38578,41068,320,240,281.7801,161.8448 F,0,38578,41068,1,0 S,0,38578,41068,0,0.05
Sprite,Background,Centre,"sb/star.png",0,0 M,16,38628,41197,320,240,241.9056,168.3253 F,0,38628,41197,1,0 S,0,38628,41197,0,0.05
Sprite,Background,Centre,"sb/star.png",0,0 M,16,38678,40683,320,240,402.6347,126.9889 F,0,38678,40683,1,0 S,0,38678,40683,0,0.05
Sprite,Background,Centre,"sb/star.png",0,0 M,16,38728,40790,320,240,286.5036,124.7698 F,0,38728,40790,1,0 S,0,38728,40790,0,0.05
Sprite,Background,Centre,"sb/star.png",0,0 M,16,38778,41736,320,240,94.60001,433.4007 F,0,38778,41736,1,0 S,0,38778,41736,0,0.05
Sprite,Background,Centre,"sb/star.png",0,0 M,16,38828,41350,320,240,200.1024,235.0431 F,0,38828,41350,1,0 S,0,38828,41350,0,0.05
Sprite,Background,Centre,"sb/star.png",0,0 M,16,38878,41409,320,240,307.789,302.8243 F,0,38878,41409,1,0 S,0,38878,41409,0,0.05
Sprite,Background,Centre,"sb/star.png",0,0 M,16,38928,41424,320,240,122.2364,69.67515 F,0,38928,41424,1,0 S,0,38928,41424,0,0.05
Sprite,Background,Centre,"sb/star.png",0,0 M,16,38978,41082,320,240,128.266,375.8788 F,0,38978,41082,1,0 S,0,38978,41082,0,0.05
Sprite,Background,Centre,"sb/star.png",0,0 M,16,39028,41961,320,240,294.4903,162.0689 F,0,39028,41961,1,0 S,0,39028,41961,0,0.05
Sprite,Background,Centre,"sb/star.png",0,0 M,16,39078,41693,320,240,218.1206,4.055973 F,0,39078,41693,1,0 S,0,39078,41693,0,0.05
Sprite,Background,Centre,"sb/star.png",0,0 M,16,39128,41697,320,240,357.1852,325.2424 F,0,39128,41697,1,0 S,0,39128,41697,0,0.05
Sprite,Background,Centre,"sb/star.png",0,0 M,16,39178,41787,320,240,431.9816,237.9697 F,0,39178,41787,1,0 S,0,39178,41787,0,0.05
Sprite,Background,Centre,"sb/star.png",0,0 M,16,39228,41796,320,240,314.4183,304.7599 F,0,39228,41796,1,0 S,0,39228,41796,0,0.05
Sprite,Background,Centre,"sb/star.png",0,0 M,16,39278,42120,320,240,203.2679,87.5611 F,0,39278,42120,1,0 S,0,39278,42120,0,0.05
Sprite,Background,Centre,"sb/star.png",0,0 M,16,39328,41844,320,240,577.8798,376.9746 F,0,39328,41844,1,0 S,0,39328,41844,0,0.05
Sprite,Background,Centre,"sb/star.png",0,0 M,16,39378,41890,320,240,354.2641,158.9446 F,0,39378,41890,1,0 S,0,39378,41890,0,0.05
Sprite,Background,Centre,"sb/star.png",0,0 M,16,39428,42070,320,240,137.5481,177.069 F,0,39428,42070,1,0 S,0,39428,42070,0,0.05
Sprite,Background,Centre,"sb/star.png",0,0 M,16,39478,42150,320,240,224.9961,522.4504 F,0,39478,42150,1,0 S,0,39478,42150,0,0.05
Sprite,Background,Centre,"sb/star.png",0,0 M,16,39528,41592,320,240,154.9379,257.6206 F,0,39528,41592,1,0 S,0,39528,41592,0,0.05
Sprite,Background,Centre,"sb/star.png",0,0 M,16,39578,41794,320,240,328.2968,306.4843 F,0,39578,41794,1,0 S,0,39578,41794,0,0.05
Sprite,Background,Centre,"sb/star.png",0,0 M,16,39628,41778,320,240,166.546,288.7122 F,0,39628,41778,1,0 S,0,39628,41778,0,0.05
Sprite,Background,Centre,"sb/star.png",0,0 M,16,39678,41697,320,240,379.2651,105.4762 F,0,39678,41697,1,0 S,0,39678,41697,0,0.05
Sprite,Background,Centre,"sb/star.png",0,0 M,16,39728,41930,320,240,593.2133,291.366 F,0,39728,41930,1,0 S,0,39728,41930,0,0.05
Sprite,Background,Centre,"sb/star.png",0,0 M,16,39778,42287,320,240,609.7635,228.2901 F,0,39778,42287,1,0 S,0,39778,42287,0,0.05
Sprite,Background,Centre,"sb/star.png",0,0 M,16,39828,41844,320,240,282.2859,449.6346 F,0,39828,41844,1,0 S,0,39828,41844,0,0.05
Sprite,Background,Centre,"sb/star.png",0,0 M,16,39878,42845,320,240,347.253,45.90395 F,0,39878,42845,1,0 S,0,39878,42845,0,0.05
Sprite,Background,Centre,"sb/star.png",0,0 M,16,39928,42252,320,240,473.0815,215.6882 F,0,39928,42252,1,0 S,0,39928,42252,0,0.05
Sprite,Background,Centre,"sb/star.png",0,0 M,16,39978,42863,320,240,310.4756,532.8452 F,0,39978,42863,1,0 S,0,39978,42863,0,0.05
Sprite,Background,Centre,"sb/star.png",0,0 M,16,40028,42160,320,240,439.4271,486.6032 F,0,40028,42160,1,0 S,0,40028,42160,0,0.05
Sprite,Background,Centre,"sb/star.png",0,0 M,16,40078,42960,320,240,360.6263,58.49102 F,0,40078,42960,1,0 S,0,40078,42960,0,0.05
Sprite,Background,Centre,"sb/star.png",0,0 M,16,40128,42642,320,240,457.8145,232.8472 F,0,40128,42642,1,0 S,0,40128,42642,0,0.05
Sprite,Background,Centre,"sb/star.png",0,0 M,16,40178,42211,320,240,480.694,393.1713 F,0,40178,42211,1,0 S,0,40178,42211,0,0.05
Sprite,Background,Centre,"sb/star.png",0,0 M,16,40228,42422,320,240,168.2068,154.9423 F,0,40228,42422,1,0 S,0,40228,42422,0,0.05
Sprite,Background,Centre,"sb/star.png",0,0 M,16,40278,42539,320,240,326.2726,366.845 F,0,40278,42539,1,0 S,0,40278,42539,0,0.05
Sprite,Background,Centre,"sb/star.png",0,0 M,16,40328,43112,320,240,256.8876,186.0943 F,0,40328,43112,1,0 S,0,40328,43112,0,0.05
Sprite,Background,Centre,"sb/star.png",0,0 M,16,40378,42937,320,240,204.7099,419.1011 F,0,40378,42937,1,0 S,0,40378,42937,0,0.05
Sprite,Background,Centre,"sb/star.png",0,0 M,16,40428,42451,320,240,373.274,188.6397 F,0,40428,42451,1,0 S,0,40428,42451,0,0.05
Sprite,Background,Centre,"sb/star.png",0,0 M,16,40478,43188,320,240,161.2942,17.87059 F,0,40478,43188,1,0 S,0,40478,43188,0,0.05
Sprite,Background,Centre,"sb/star.png",0,0 M,16,40528,42783,320,240,205.5429,258.8568 F,0,40528,42783,1,0 S,0,40528,42783,0,0.05
Sprite,Background,Centre,"sb/star.png",0,0 M,16,40578,42773,320,240,49.37875,254.3226 F,0,40578,42773,1,0 S,0,40578,42773,0,0.05
Sprite,Background,Centre,"sb/star.png",0,0 M,16,40628,43265,320,240,232.3026,334.6053 F,0,40628,43265,1,0 S,0,40628,43265,0,0.05
Sprite,Background,Centre,"sb/star.png",0,0 M,16,40678,42922,320,240,90.99233,49.31836 F,0,40678,42922,1,0 S,0,40678,42922,0,0.05
Sprite,Background,Centre,"sb/star.png",0,0 M,16,40728,42729,320,240,606.5396,169.8569 F,0,40728,42729,1,0 S,0,40728,42729,0,0.05
Sprite,Background,Centre,"sb/star.png",0,0 M,16,40778,42935,320,240,524.1215,371.8463 F,0,40778,42935,1,0 S,0,40778,42935,0,0.05
Sprite,Background,Centre,"sb/star.png",0,0 M,16,40828,43018,320,240,370.0672,281.4521 F,0,40828,43018,1,0 S,0,40828,43018,0,0.05
Sprite,Background,Centre,"sb/star.png",0,0 M,16,40878,43610,320,240,360.1183,176.6318 F,0,40878,43610,1,0 S,0,40878,43610,0,0.05
Sprite,Background,Centre,"sb/star.png",0,0 M,16,40928,43570,320,240,330.1404,432.7334 F,0,40928,43570,1,0 S,0,40928,43570,0,0.05
Sprite,Background,Centre,"sb/star.png",0,0 M,16,40978,43815,320,240,70.3027,325.7162 F,0,40978,43815,1,0 S,0,40978,43815,0,0.05
Sprite,Background,Centre,"sb/star.png",0,0 M,16,41028,43935,320,240,77.75902,301.8005 F,0,41028,43935,1,0 S,0,41028,43935,0,0.05
Sprite,Background,Centre,"sb/star.png",0,0 M,16,41078,43418,320,240,101.2913,348.1782 F,0,41078,43418,1,0 S,0,41078,43418,0,0.05
Sprite,Background,Centre,"sb/star.png",0,0 M,16,41128,43775,320,240,88.34302,50.96021 F,0,41128,43775,1,0 S,0,41128,43775,0,0.05
Sprite,Background,Centre,"sb/star.png",0,0 M,16,41178,43267,320,240,524.6464,227.9649 F,0,41178,43267,1,0 S,0,41178,43267,0,0.05
Sprite,Background,Centre,"sb/star.png",0,0 M,16,41228,44101,320,240,439.3759,380.0193 F,0,41228,44101,1,0 S,0,41228,44101,0,0.05
Sprite,Background,Centre,"sb/star.png",0,0 M,16,41278,43279,320,240,231.2387,73.1395 F,0,41278,43279,1,0 S,0,41278,43279,0,0.05
Sprite,Background,Centre,"sb/star.png",0,0 M,16,41328,43707,320,240,199.1954,476.9858 F,0,41328,43707,1,0 S,0,41328,43707,0,0.05
Sprite,Background,Centre,"sb/star.png",0,0 M,16,41378,44164,320,240,405.8754,82.94456 F,0,41378,44164,1,0 S,0,41378,44164,0,0.05
Sprite,Background,Centre,"sb/star.png",0,0 M,16,41428,43969,320,240,413.6548,393.7165 F,0,41428,43969,1,0 S,0,41428,43969,0,0.05
Sprite,Background,Centre,"sb/star.png",0,0 M,16,41478,44112,320,240,245.7592,412.7203 F,0,41478,44112,1,0 S,0,41478,44112,0,0.05
Sprite,Background,Centre,"sb/star.png",0,0 M,16,41528,43777,320,240,77.80294,301.9724 F,0,41528,43777,1,0 S,0,41528,43777,0,0.05
Sprite,Background,Centre,"sb/star.png",0,0 M,16,41578,44499,320,240,367.5607,365.2756 F,0,41578,44499,1,0 S,0,41578,44499,0,0.05
Sprite,Background,Centre,"sb/star.png",0,0 M,16,41628,43778,320,240,379.6049,446.5726 F,0,41628,43778,1,0 S,0,41628,43778,0,0.05
Sprite,Background,Centre,"sb/star.png",0,0 M,16,41678,44212,320,240,345.7662,64.88545 F,0,41678,44212,1,0 S,0,41678,44212,0,0.05
Sprite,Background,Centre,"sb/star.png",0,0 M,16,41728,44210,320,240,250.5014,268.1947 F,0,41728,44210,1,0 S,0,41728,44210,0,0.05
Sprite,Background,Centre,"sb/star.png",0,0 M,16,41778,43897,320,240,76.01963,139.1557 F,0,41778,43897,1,0 S,0,41778,43897,0,0.05
Sprite,Background,Centre,"sb/star.png",0,0 M,16,41828,44530,320,240,529.0037,260.4315 F,0,41828,44530,1,0 S,0,41828,44530,0,0.05
Sprite,Background,Centre,"sb/star.png",0,0 M,16,41878,44447,320,240,483.8596,233.2143 F,0,41878,44447,1,0 S,0,41878,44447,0,0.05
Sprite,Background,Centre,"sb/star.png",0,0 M,16,41928,44050,320,240,303.4285,318.2648 F,0,41928,44050,1,0 S,0,41928,44050,0,0.05
Sprite,Background,Centre,"sb/star.png",0,0 M,16,41978,44608,320,240,311.2019,488.8445 F,0,41978,44608,1,0 S,0,41978,44608,0,0.05
Sprite,Background,Centre,"sb/star.png",0,0 M,16,42028,44291,320,240,270.0468,257.7111 F,0,42028,44291,1,0 S,0,42028,44291,0,0.05
Sprite,Background,Centre,"sb/star.png",0,0 M,16,42078,44372,320,240,434.9816,7.921915 F,0,42078,44372,1,0 S,0,42078,44372,0,0.05
Sprite,Background,Centre,"sb/star.png",0,0 M,16,42128,44658,320,240,404.998,514.1247 F,0,42128,44658,1,0 S,0,42128,44658,0,0.05
Sprite,Background,Centre,"sb/star.png",0,0 M,16,42178,45123,320,240,528.1489,80.88365 F,0,42178,45123,1,0 S,0,42178,45123,0,0.05
Sprite,Background,Centre,"sb/star.png",0,0 M,16,42228,44694,320,240,158.4836,445.0206 F,0,42228,44694,1,0 S,0,42228,44694,0,0.05
Sprite,Background,Centre,"sb/star.png",0,0 M,16,42278,44829,320,240,210.0645,301.5645 F,0,42278,44829,1,0 S,0,42278,44829,0,0.05
Sprite,Background,Centre,"sb/star.png",0,0 M,16,42328,44718,320,240,239.3266,107.6489 F,0,42328,44718,1,0 S,0,42328,44718,0,0.05
Sprite,Background,Centre,"sb/star.png",0,0 M,16,42378,44978,320,240,560.5009,92.74748 F,0,42378,44978,1,0 S,0,42378,44978,0,0.05
Sprite,Background,Centre,"sb/star.png",0,0 M,16,42428,44727,320,240,199.0147,423.7459 F,0,42428,44727,1,0 S,0,42428,44727,0,0.05
Sprite,Background,Centre,"sb/star.png",0,0 M,16,42478,44944,320,240,371.417,483.6335 F,0,42478,44944,1,0 S,0,42478,44944,0,0.05
Sprite,Background,Centre,"sb/star.png",0,0 M,16,42528,45437,320,240,435.8758,103.5676 F,0,42528,45437,1,0 S,0,42528,45437,0,0.05
Sprite,Background,Centre,"sb/star.png",0,0 M,16,42578,45527,320,240,203.021,242.2186 F,0,42578,45527,1,0 S,0,42578,45527,0,0.05
Sprite,Background,Centre,"sb/star.png",0,0 M,16,42628,44955,320,240,313.0256,336.7489 F,0,42628,44955,1,0 S,0,42628,44955,0,0.05
Sprite,Background,Centre,"sb/star.png",0,0 M,16,42678,45293,320,240,485.0402,132.4326 F,0,42678,45293,1,0 S,0,42678,45293,0,0.05
Sprite,Background,Centre,"sb/star.png",0,0 M,16,42728,45088,320,240,377.8899,8.116925 F,0,42728,45088,1,0 S,0,42728,45088,0,0.05
Sprite,Background,Centre,"sb/star.png",0,0 M,16,42778,44897,320,240,263.3128,190.8923 F,0,42778,44897,1,0 S,0,42778,44897,0,0.05
Sprite,Background,Centre,"sb/star.png",0,0 M,16,42828,45465,320,240,397.5881,64.37514 F,0,42828,45465,1,0 S,0,42828,45465,0,0.05
Sprite,Background,Centre,"sb/star.png",0,0 M,16,42878,45742,320,240,241.7293,315.8597 F,0,42878,45742,1,0 S,0,42878,45742,0,0.05
Sprite,Background,Centre,"sb/star.png",0,0 M,16,42928,45520,320,240,507.7575,344.7479 F,0,42928,45520,1,0 S,0,42928,45520,0,0.05
Sprite,Background,Centre,"sb/star.png",0,0 M,16,42978,45511,320,240,480.8678,490.8497 F,0,42978,45511,1,0 S,0,42978,45511,0,0.05
Sprite,Background,Centre,"sb/star.png",0,0 M,16,43028,45508,320,240,357.4405,293.1339 F,0,43028,45508,1,0 S,0,43028,45508,0,0.05
Sprite,Background,Centre,"sb/star.png",0,0 M,16,43078,46063,320,240,290.9026,291.3259 F,0,43078,46063,1,0 S,0,43078,46063,0,0.05
Sprite,Background,Centre,"sb/star.png",0,0 M,16,43128,45162,320,240,159.715,160.3149 F,0,43128,45162,1,0 S,0,43128,45162,0,0.05
Sprite,Background,Centre,"sb/star.png",0,0 M,16,43178,46037,320,240,398.9499,310.7313 F,0,43178,46037,1,0 S,0,43178,46037,0,0.05
Sprite,Background,Centre,"sb/star.png",0,0 M,16,43228,45385,320,240,440.9259,29.2254 F,0,43228,45385,1,0 S,0,43228,45385,0,0.05
Sprite,Background,Centre,"sb/star.png",0,0 M,16,43278,46032,320,240,369.8179,338.0723 F,0,43278,46032,1,0 S,0,43278,46032,0,0.05
Sprite,Background,Centre,"sb/star.png",0,0 M,16,43328,45451,320,240,237.0559,195.7702 F,0,43328,45451,1,0 S,0,43328,45451,0,0.05
Sprite,Background,Centre,"sb/star.png",0,0 M,16,43378,46107,320,240,354.3019,494.7006 F,0,43378,46107,1,0 S,0,43378,46107,0,0.05
Sprite,Background,Centre,"sb/star.png",0,0 M,16,43428,45828,320,240,308.562,299.918 F,0,43428,45828,1,0 S,0,43428,45828,0,0.05
Sprite,Background,Centre,"sb/star.png",0,0 M,16,43478,45962,320,240,211.496,153.1214 F,0,43478,45962,1,0 S,0,43478,45962,0,0.05
Sprite,Background,Centre,"sb/star.png",0,0 M,16,43528,45943,320,240,407.2244,472.1549 F,0,43528,45943,1,0 S,0,43528,45943,0,0.05
Sprite,Background,Centre,"sb/star.png",0,0 M,16,43578,45680,320,240,238.0293,226.9692 F,0,43578,45680,1,0 S,0,43578,45680,0,0.05
Sprite,Background,Centre,"sb/star.png",0,0 M,16,43628,46383,320,240,293.6086,99.45643 F,0,43628,46383,1,0 S,0,43628,46383,0,0.05
Sprite,Background,Centre,"sb/star.png",0,0 M,16,43678,46134,320,240,258.957,203.7405 F,0,43678,46134,1,0 S,0,43678,46134,0,0.05
Sprite,Background,Centre,"sb/star.png",0,0 M,16,43728,45768,320,240,181.2509,440.7105 F,0,43728,45768,1,0 S,0,43728,45768,0,0.05
Sprite,Background,Centre,"sb/star.png",0,0 M,16,43778,46477,320,240,99.72211,290.5337 F,0,43778,46477,1,0 S,0,43778,46477,0,0.05
Sprite,Background,Centre,"sb/star.png",0,0 M,16,43828,46372,320,240,90.60441,360.2442 F,0,43828,46372,1,0 S,0,43828,46372,0,0.05
Sprite,Background,Centre,"sb/star.png",0,0 M,16,43878,46783,320,240,380.81,100.6941 F,0,43878,46783,1,0 S,0,43878,46783,0,0.05
Sprite,Background,Centre,"sb/star.png",0,0 M,16,43928,46509,320,240,343.3449,475.8474 F,0,43928,46509,1,0 S,0,43928,46509,0,0.05
Sprite,Background,Centre,"sb/star.png",0,0 M,16,43978,46901,320,240,515.7371,229.8508 F,0,43978,46901,1,0 S,0,43978,46901,0,0.05
Sprite,Background,Centre,"sb/star.png",0,0 M,16,44028,46080,320,240,419.8874,398.087 F,0,44028,46080,1,0 S,0,44028,46080,0,0.05
Sprite,Background,Centre,"sb/star.png",0,0 M,16,44078,47043,320,240,175.2147,308.0971 F,0,44078,47043,1,0 S,0,44078,47043,0,0.05
Sprite,Background,Centre,"sb/star.png",0,0 M,16,44128,47051,320,240,280.0286,191.3042 F,0,44128,47051,1,0 S,0,44128,47051,0,0.05
Sprite,Background,Centre,"sb/star.png",0,0 M,16,44178,46485,320,240,518.1726,16.10582 F,0,44178,46485,1,0 S,0,44178,46485,0,0.05
Sprite,Background,Centre,"sb/star.png",0,0 M,16,44228,46682,320,240,499.1125,360.7257 F,0,44228,46682,1,0 S,0,44228,46682,0,0.05
Sprite,Background,Centre,"sb/star.png",0,0 M,16,44278,47270,320,240,530.4766,310.5945 F,0,44278,47270,1,0 S,0,44278,47270,0,0.05
Sprite,Background,Centre,"sb/star.png",0,0 M,16,44328,47210,320,240,202.5203,431.8945 F,0,44328,47210,1,0 S,0,44328,47210,0,0.05
Sprite,Background,Centre,"sb/star.png",0,0 M,16,44378,47193,320,240,38.01728,206.2103 F,0,44378,47193,1,0 S,0,44378,47193,0,0.05
Sprite,Background,Centre,"sb/star.png",0,0 M,16,44428,46612,320,240,187.4652,357.318 F,0,44428,46612,1,0 S,0,44428,46612,0,0.05
Sprite,Background,Centre,"sb/star.png",0,0 M,16,44478,46855,320,240,186.1585,360.3597 F,0,44478,46855,1,0 S,0,44478,46855,0,0.05
Sprite,Background,Centre,"sb/star.png",0,0 M,16,44528,46818,320,240,384.8258,-9.723079 F,0,44528,46818,1,0 S,0,44528,46818,0,0.05
Sprite,Background,Centre,"sb/star.png",0,0 M,16,44578,47306,320,240,172.8112,206.2886 F,0,44578,47306,1,0 S,0,44578,47306,0,0.05
Sprite,Background,Centre,"sb/star.png",0,0 M,16,44628,47052,320,240,285.4683,298.5796 F,0,44628,47052,1,0 S,0,44628,47052,0,0.05
Sprite,Background,Centre,"sb/star.png",0,0 M,16,44678,47594,320,240,179.1538,40.75554 F,0,44678,47594,1,0 S,0,44678,47594,0,0.05
Sprite,Background,Centre,"sb/star.png",0,0 M,16,44728,47551,320,240,377.7652,147.5652 F,0,44728,47551,1,0 S,0,44728,47551,0,0.05
Sprite,Background,Centre,"sb/star.png",0,0 M,16,44778,47335,320,240,312.6931,78.16487 F,0,44778,47335,1,0 S,0,44778,47335,0,0.05
Sprite,Background,Centre,"sb/star.png",0,0 M,16,44828,47549,320,240,501.9504,315.5186 F,0,44828,47549,1,0 S,0,44828,47549,0,0.05
Sprite,Background,Centre,"sb/star.png",0,0 M,16,44878,47060,320,240,364.7087,199.9859 F,0,44878,47060,1,0 S,0,44878,47060,0,0.05
Sprite,Background,Centre,"sb/star.png",0,0 M,16,44928,47582,320,240,235.7995,170.781 F,0,44928,47582,1,0 S,0,44928,47582,0,0.05
Sprite,Background,Centre,"sb/star.png",0,0 M,16,44978,47619,320,240,543.6271,139.9205 F,0,44978,47619,1,0 S,0,44978,47619,0,0.05
Sprite,Background,Centre,"sb/star.png",0,0 M,16,45028,47073,320,240,138.2679,200.3838 F,0,45028,47073,1,0 S,0,45028,47073,0,0.05
Sprite,Background,Centre,"sb/star.png",0,0 M,16,45078,47335,320,240,346.9346,286.8031 F,0,45078,47335,1,0 S,0,45078,47335,0,0.05
Sprite,Background,Centre,"sb/star.png",0,0 M,16,45128,47202,320,240,302.6368,470.3465 F,0,45128,47202,1,0 S,0,45128,47202,0,0.05
Sprite,Background,Centre,"sb/star.png",0,0 M,16,45178,47736,320,240,176.4518,114.0043 F,0,45178,47736,1,0 S,0,45178,47736,0,0.05
Sprite,Background,Centre,"sb/star.png",0,0 M,16,45228,47944,320,240,578.6845,106.7209 F,0,45228,47944,1,0 S,0,45228,47944,0,0.05
Sprite,Background,Centre,"sb/star.png",0,0 M,16,45278,47963,320,240,233.6316,-45.20958 F,0,45278,47963,1,0 S,0,45278,47963,0,0.05
Sprite,Background,Centre,"sb/star.png",0,0 M,16,45328,48008,320,240,511.9403,314.7991 F,0,45328,48008,1,0 S,0,45328,48008,0,0.05
Sprite,Background,Centre,"sb/star.png",0,0 M,16,45378,48019,320,240,514.9388,151.7114 F,0,45378,48019,1,0 S,0,45378,48019,0,0.05
Sprite,Background,Centre,"sb/star.png",0,0 M,16,45428,47748,320,240,339.6038,165.5373 F,0,45428,47748,1,0 S,0,45428,47748,0,0.05
Sprite,Background,Centre,"sb/star.png",0,0 M,16,45478,48384,320,240,353.2657,299.3076 F,0,45478,48384,1,0 S,0,45478,48384,0,0.05
Sprite,Background,Centre,"sb/star.png",0,0 M,16,45528,48454,320,240,255.2907,476.3 F,0,45528,48454,1,0 S,0,45528,48454,0,0.05
Sprite,Background,Centre,"sb/star.png",0,0 M,16,45578,47979,320,240,352.9782,504.9555 F,0,45578,47979,1,0 S,0,45578,47979,0,0.05
Sprite,Background,Centre,"sb/star.png",0,0 M,16,45628,47745,320,240,356.0663,427.5639 F,0,45628,47745,1,0 S,0,45628,47745,0,0.05
Sprite,Background,Centre,"sb/star.png",0,0 M,16,45678,48350,320,240,293.4268,72.08971 F,0,45678,48350,1,0 S,0,45678,48350,0,0.05
Sprite,Background,Centre,"sb/star.png",0,0 M,16,45728,48208,320,240,409.2219,251.8094 F,0,45728,48208,1,0 S,0,45728,48208,0,0.05
Sprite,Background,Centre,"sb/star.png",0,0 M,16,45778,48225,320,240,467.9117,315.3534 F,0,45778,48225,1,0 S,0,45778,48225,0,0.05
Sprite,Background,Centre,"sb/star.png",0,0 M,16,45828,48787,320,240,331.4849,531.774 F,0,45828,48787,1,0 S,0,45828,48787,0,0.05
Sprite,Background,Centre,"sb/star.png",0,0 M,16,45878,48784,320,240,482.6624,480.0853 F,0,45878,48784,1,0 S,0,45878,48784,0,0.05
Sprite,Background,Centre,"sb/star.png",0,0 M,16,45928,48801,320,240,435.5758,144.3849 F,0,45928,48801,1,0 S,0,45928,48801,0,0.05
Sprite,Background,Centre,"sb/star.png",0,0 M,16,45978,48579,320,240,558.8431,86.34469 F,0,45978,48579,1,0 S,0,45978,48579,0,0.05
Sprite,Background,Centre,"sb/star.png",0,0 M,16,46028,48403,320,240,266.7014,165.0116 F,0,46028,48403,1,0 S,0,46028,48403,0,0.05
Sprite,Background,Centre,"sb/star.png",0,0 M,16,46078,48171,320,240,364.1133,36.73166 F,0,46078,48171,1,0 S,0,46078,48171,0,0.05
Sprite,Background,Centre,"sb/star.png",0,0 M,16,46128,48450,320,240,425.7277,312.1503 F,0,46128,48450,1,0 S,0,46128,48450,0,0.05
Sprite,Background,Centre,"sb/star.png",0,0 M,16,46178,48871,320,240,149.2287,325.5463 F,0,46178,48871,1,0 S,0,46178,48871,0,0.05
Sprite,Background,Centre,"sb/star.png",0,0 M,16,46228,48711,320,240,352.2589,280.7843 F,0,46228,48711,1,0 S,0,46228,48711,0,0.05
Sprite,Background,Centre,"sb/star.png",0,0 M,16,46278,48612,320,240,230.0723,243.6066 F,0,46278,48612,1,0 S,0,46278,48612,0,0.05
Sprite,Background,Centre,"sb/star.png",0,0 M,16,46328,49239,320,240,151.697,31.43799 F,0,46328,49239,1,0 S,0,46328,49239,0,0.05
Sprite,Background,Centre,"sb/star.png",0,0 M,16,46378,49093,320,240,545.5183,415.8906 F,0,46378,49093,1,0 S,0,46378,49093,0,0.05
Sprite,Background,Centre,"sb/star.png",0,0 M,16,46428,49352,320,240,344.1686,190.5948 F,0,46428,49352,1,0 S,0,46428,49352,0,0.05
Sprite,Background,Centre,"sb/star.png",0,0 M,16,46478,48615,320,240,142.784,276.8168 F,0,46478,48615,1,0 S,0,46478,48615,0,0.05
Sprite,Background,Centre,"sb/star.png",0,0 M,16,46528,48868,320,240,197.438,109.541 F,0,46528,48868,1,0 S,0,46528,48868,0,0.05
Sprite,Background,Centre,"sb/hit/r.png",491,138 S,7,47972,49377,0.25,0.5 F,6,47972,49377,1,0
Sprite,Background,Centre,"sb/hit/r.png",289,293 S,7,49384,50789,0.25,0.5 F,6,49384,50789,1,0
Sprite,Background,Centre,"sb/hit/r.png",334,194 S,7,50795,52200,0.25,0.5 F,6,50795,52200,1,0
Sprite,Background,Centre,"sb/hit/r.png",254,426 S,7,52207,53612,0.25,0.5 F,6,52207,53612,1,0
Sprite,Background,Centre,"sb/hit/r.png",334,194 S,7,53619,55024,0.25,0.5 F,6,53619,55024,1,0
Sprite,Background,Centre,"sb/hit/r.png",488,288 S,7,55031,56436,0.25,0.5 F,6,55031,56436,1,0
Sprite,Background,Centre,"sb/hit/r.png",488,288 S,7,55031,56436,0.25,0.5 F,6,55031,56436,1,0
Sprite,Background,Centre,"sb/hit/r.png",320,248 S,7,56443,58554,0.25,0.5 F,6,56443,58554,1,0
Sprite,Background,Centre,"sb/hit/r.png",320,248 S,7,56443,58554,0.25,0.5 F,6,56443,58554,1,0
Sprite,Background,Centre,"sb/bar.png",0,0 F,0,103737,104443,1,0 V,0,59266,,35,1 C,0,59266,,86,191,237 M,0,59266,,115,412 M,0,59266,59288,115,412,119.0623,407.2502 M,0,59288,59310,119.0623,407.2502,123.1246,402.5005 M,0,59310,59332,123.1246,402.5005,127.1869,397.7507 M,0,59332,59354,127.1869,397.7507,131.2492,393.0009 M,0,59354,59376,131.2492,393.0009,135.3115,388.2512 M,0,59376,59398,135.3115,388.2512,139.3738,383.5014 M,0,59398,59420,139.3738,383.5014,143.4361,378.7516 M,0,59420,59442,143.4361,378.7516,147.4984,374.0019 M,0,59442,59464,147.4984,374.0019,151.5607,369.2521 M,0,59464,59486,151.5607,369.2521,155.623,364.5024 M,0,59486,59508,155.623,364.5024,159.6853,359.7526 M,0,59508,59530,159.6853,359.7526,163.7476,355.0028 M,0,59530,59552,163.7476,355.0028,167.8099,350.2531 M,0,59552,59574,167.8099,350.2531,171.8722,345.5033 M,0,59574,59596,171.8722,345.5033,175.9344,340.7536 M,0,59596,59618,175.9344,340.7536,179.9967,336.0038 M,0,59618,59641,179.9967,336.0038,179.502,329.7749 M,0,59641,59663,179.502,329.7749,179.0036,323.5448 M,0,59663,59685,179.0036,323.5448,178.5052,317.3147 M,0,59685,59707,178.5052,317.3147,178.0068,311.0846 M,0,59707,59729,178.0068,311.0846,177.5084,304.8545 M,0,59729,59751,177.5084,304.8545,177.0099,298.6244 M,0,59751,59773,177.0099,298.6244,176.5115,292.3943 M,0,59773,59795,176.5115,292.3943,176.0131,286.1642 M,0,59795,59817,176.0131,286.1642,175.5147,279.9341 M,0,59817,59839,175.5147,279.9341,175.0163,273.704 M,0,59839,59861,175.0163,273.704,174.5179,267.4739 M,0,59861,59883,174.5179,267.4739,174.0195,261.2438 M,0,59883,59905,174.0195,261.2438,173.5211,255.0137 M,0,59905,59927,173.5211,255.0137,173.0227,248.7836 M,0,59927,59949,173.0227,248.7836,172.5243,242.5536 M,0,59949,59971,172.5243,242.5536,172.0259,236.3235 M,0,59971,60325,172.0259,236.3235,156,137 M,0,60325,61031,156,137,334,227 M,0,61031,61053,334,227,340.078,225.5438 M,0,61053,61075,340.078,225.5438,346.156,224.0876 M,0,61075,61097,346.156,224.0876,352.234,222.6314 M,0,61097,61119,352.234,222.6314,358.312,221.1753 M,0,61119,61141,358.312,221.1753,364.39,219.7191 M,0,61141,61163,364.39,219.7191,370.468,218.2629 M,0,61163,61185,370.468,218.2629,376.546,216.8067 M,0,61185,61207,376.546,216.8067,382.624,215.3505 M,0,61207,61229,382.624,215.3505,388.702,213.8943 M,0,61229,61251,388.702,213.8943,394.7799,212.4381 M,0,61251,61273,394.7799,212.4381,400.8579,210.9819 M,0,61273,61295,400.8579,210.9819,406.9359,209.5258 M,0,61295,61317,406.9359,209.5258,413.0139,208.0696 M,0,61317,61339,413.0139,208.0696,419.0919,206.6134 M,0,61339,61361,419.0919,206.6134,425.1699,205.1572 M,0,61361,61383,425.1699,205.1572,430,204 M,0,61383,61737,430,204,525,170 M,0,61737,62090,525,170,571,259 M,0,62090,62112,571,259,564.9475,260.559 M,0,62112,62134,564.9475,260.559,558.8951,262.1179 M,0,62134,62156,558.8951,262.1179,552.8427,263.6769 M,0,62156,62178,552.8427,263.6769,546.7902,265.2358 M,0,62178,62200,546.7902,265.2358,540.7378,266.7948 M,0,62200,62222,540.7378,266.7948,534.6853,268.3538 M,0,62222,62244,534.6853,268.3538,528.6329,269.9128 M,0,62244,62266,528.6329,269.9128,522.5804,271.4717 M,0,62266,62288,522.5804,271.4717,516.528,273.0307 M,0,62288,62310,516.528,273.0307,510.4755,274.5897 M,0,62310,62332,510.4755,274.5897,504.6529,276.4842 M,0,62332,62354,504.6529,276.4842,501.011,281.5635 M,0,62354,62376,501.011,281.5635,497.3693,286.6429 M,0,62376,62398,497.3693,286.6429,493.7274,291.7222 M,0,62398,62420,493.7274,291.7222,490.0857,296.8016 M,0,62420,62442,490.0857,296.8016,486.4438,301.8809 M,0,62442,62465,486.4438,301.8809,482.8021,306.9603 M,0,62465,62487,482.8021,306.9603,479.1603,312.0396 M,0,62487,62509,479.1603,312.0396,475.5185,317.119 M,0,62509,62531,475.5185,317.119,471.8767,322.1983 M,0,62531,62553,471.8767,322.1983,468.2349,327.2777 M,0,62553,62575,468.2349,327.2777,463.0077,330.0605 M,0,62575,62597,463.0077,330.0605,456.9672,331.665 M,0,62597,62619,456.9672,331.665,450.9266,333.2695 M,0,62619,62641,450.9266,333.2695,444.8861,334.874 M,0,62641,62663,444.8861,334.874,438.8456,336.4785 M,0,62663,62685,438.8456,336.4785,432.8051,338.083 M,0,62685,62707,432.8051,338.083,426.7645,339.6876 M,0,62707,62729,426.7645,339.6876,420.724,341.2921 M,0,62729,62751,420.724,341.2921,414.6834,342.8966 M,0,62751,62773,414.6834,342.8966,408.6429,344.5011 M,0,62773,62795,408.6429,344.5011,403,346 M,0,62795,63148,403,346,305,371 M,0,63148,63678,305,371,179,288 M,0,63678,63700,179,288,174.7062,283.4585 M,0,63700,63722,174.7062,283.4585,170.4124,278.9169 M,0,63722,63744,170.4124,278.9169,166.1185,274.3754 M,0,63744,63766,166.1185,274.3754,161.8247,269.8338 M,0,63766,63788,161.8247,269.8338,157.5309,265.2923 M,0,63788,63810,157.5309,265.2923,153.2371,260.7507 M,0,63810,63832,153.2371,260.7507,148.9433,256.2092 M,0,63832,63854,148.9433,256.2092,144.6494,251.6677 M,0,63854,63876,144.6494,251.6677,140.3556,247.1261 M,0,63876,63898,140.3556,247.1261,136.0618,242.5846 M,0,63898,63920,136.0618,242.5846,131.768,238.043 M,0,63920,63942,131.768,238.043,127.4741,233.5015 M,0,63942,63964,127.4741,233.5015,128.0335,227.5371 M,0,63964,63986,128.0335,227.5371,129.1953,221.396 M,0,63986,64008,129.1953,221.396,130.3572,215.2549 M,0,64008,64030,130.3572,215.2549,131.519,209.1139 M,0,64030,64053,131.519,209.1139,132.6808,202.9728 M,0,64053,64075,132.6808,202.9728,133.8427,196.8317 M,0,64075,64097,133.8427,196.8317,135.0045,190.6907 M,0,64097,64119,135.0045,190.6907,136.1663,184.5496 M,0,64119,64141,136.1663,184.5496,137.3281,178.4086 M,0,64141,64163,137.3281,178.4086,138.4899,172.2675 M,0,64163,64185,138.4899,172.2675,139.6518,166.1264 M,0,64185,64207,139.6518,166.1264,140.8136,159.9854 M,0,64207,64560,140.8136,159.9854,182,68 M,0,64560,64913,182,68,262,126 M,0,64913,64935,262,126,268.2083,125.2788 M,0,64935,64957,268.2083,125.2788,274.4165,124.5577 M,0,64957,64979,274.4165,124.5577,280.6248,123.8365 M,0,64979,65001,280.6248,123.8365,286.833,123.1154 M,0,65001,65023,286.833,123.1154,293.0413,122.3942 M,0,65023,65045,293.0413,122.3942,299.2495,121.673 M,0,65045,65067,299.2495,121.673,305.4578,120.9519 M,0,65067,65089,305.4578,120.9519,311.666,120.2307 M,0,65089,65111,311.666,120.2307,317.8743,119.5096 M,0,65111,65133,317.8743,119.5096,324.0826,118.7884 M,0,65133,65155,324.0826,118.7884,330.2908,118.0672 M,0,65155,65177,330.2908,118.0672,336.4991,117.3461 M,0,65177,65199,336.4991,117.3461,342.7073,116.6249 M,0,65199,65221,342.7073,116.6249,348.9156,115.9037 M,0,65221,65243,348.9156,115.9037,355.1238,115.1826 M,0,65243,65265,355.1238,115.1826,361.3321,114.4614 M,0,65265,65288,361.3321,114.4614,367.5403,113.7403 M,0,65288,65310,367.5403,113.7403,373.7486,113.0191 M,0,65310,65332,373.7486,113.0191,379.9568,112.2979 M,0,65332,65354,379.9568,112.2979,386.1651,111.5768 M,0,65354,65376,386.1651,111.5768,392.3734,110.8556 M,0,65376,65398,392.3734,110.8556,398.5816,110.1345 M,0,65398,65420,398.5816,110.1345,404.7899,109.4133 M,0,65420,65442,404.7899,109.4133,410.9981,108.6921 M,0,65442,65464,410.9981,108.6921,417.2064,107.971 M,0,65464,65486,417.2064,107.971,423.4146,107.2498 M,0,65486,65508,423.4146,107.2498,429.6229,106.5287 M,0,65508,65530,429.6229,106.5287,435.8311,105.8075 M,0,65530,65552,435.8311,105.8075,442.0394,105.0863 M,0,65552,65574,442.0394,105.0863,448.2477,104.3652 M,0,65574,65596,448.2477,104.3652,454.4559,103.644 M,0,65596,65618,454.4559,103.644,460,103 M,0,65618,65972,460,103,557,78 M,0,65972,66678,557,78,450,247 M,0,66678,66700,450,247,449.2553,240.7945 M,0,66700,66722,449.2553,240.7945,448.5107,234.589 M,0,66722,66744,448.5107,234.589,447.766,228.3836 M,0,66744,66766,447.766,228.3836,447.0214,222.1781 M,0,66766,66788,447.0214,222.1781,446.2767,215.9726 M,0,66788,66810,446.2767,215.9726,445.532,209.7671 M,0,66810,66832,445.532,209.7671,444.7874,203.5616 M,0,66832,66854,444.7874,203.5616,444.0427,197.3562 M,0,66854,66876,444.0427,197.3562,444.7874,203.5616 M,0,66876,66898,444.7874,203.5616,445.532,209.7671 M,0,66898,66920,445.532,209.7671,446.2767,215.9726 M,0,66920,66942,446.2767,215.9726,447.0214,222.1781 M,0,66942,66964,447.0214,222.1781,447.766,228.3836 M,0,66964,66986,447.766,228.3836,448.5107,234.589 M,0,66986,67008,448.5107,234.589,449.2553,240.7945 M,0,67008,67030,449.2553,240.7945,450,247 M,0,67030,67384,450,247,505,332 M,0,67384,67737,505,332,437,405 M,0,67737,67759,437,405,431.4478,402.1303 M,0,67759,67781,431.4478,402.1303,425.8955,399.2606 M,0,67781,67803,425.8955,399.2606,420.3433,396.3909 M,0,67803,67825,420.3433,396.3909,414.791,393.5212 M,0,67825,67847,414.791,393.5212,409.2388,390.6515 M,0,67847,67869,409.2388,390.6515,403.6866,387.7818 M,0,67869,67891,403.6866,387.7818,398.1343,384.9121 M,0,67891,67913,398.1343,384.9121,392.5821,382.0424 M,0,67913,67935,392.5821,382.0424,387.0298,379.1727 M,0,67935,67957,387.0298,379.1727,381.4776,376.303 M,0,67957,67979,381.4776,376.303,375.9254,373.4333 M,0,67979,68001,375.9254,373.4333,370.3731,370.5637 M,0,68001,68023,370.3731,370.5637,364.8209,367.694 M,0,68023,68045,364.8209,367.694,359.2687,364.8242 M,0,68045,68067,359.2687,364.8242,353.7164,361.9546 M,0,68067,68089,353.7164,361.9546,348.1642,359.0849 M,0,68089,68112,348.1642,359.0849,342.0573,360.2128 M,0,68112,68134,342.0573,360.2128,335.9335,361.4626 M,0,68134,68156,335.9335,361.4626,329.8098,362.7123 M,0,68156,68178,329.8098,362.7123,323.686,363.962 M,0,68178,68200,323.686,363.962,317.5622,365.2118 M,0,68200,68222,317.5622,365.2118,311.4384,366.4615 M,0,68222,68244,311.4384,366.4615,305.3147,367.7113 M,0,68244,68266,305.3147,367.7113,299.1909,368.961 M,0,68266,68288,299.1909,368.961,293.0671,370.2108 M,0,68288,68310,293.0671,370.2108,286.9434,371.4605 M,0,68310,68332,286.9434,371.4605,280.8196,372.7103 M,0,68332,68354,280.8196,372.7103,274.6958,373.9601 M,0,68354,68376,274.6958,373.9601,268.572,375.2098 M,0,68376,68398,268.572,375.2098,262.4482,376.4595 M,0,68398,68420,262.4482,376.4595,256.3245,377.7093 M,0,68420,68442,256.3245,377.7093,250.2007,378.959 M,0,68442,68795,250.2007,378.959,155,412 M,0,68795,69501,155,412,155,211 M,0,69501,69523,155,211,153.5867,204.9119 M,0,69523,69545,153.5867,204.9119,152.1734,198.8238 M,0,69545,69567,152.1734,198.8238,150.7601,192.7357 M,0,69567,69589,150.7601,192.7357,149.3468,186.6476 M,0,69589,69611,149.3468,186.6476,147.9334,180.5595 M,0,69611,69633,147.9334,180.5595,146.5201,174.4713 M,0,69633,69655,146.5201,174.4713,145.1068,168.3832 M,0,69655,69677,145.1068,168.3832,143.6935,162.2951 M,0,69677,69699,143.6935,162.2951,145.1068,168.3832 M,0,69699,69721,145.1068,168.3832,146.5201,174.4713 M,0,69721,69743,146.5201,174.4713,147.9334,180.5595 M,0,69743,69765,147.9334,180.5595,149.3468,186.6476 M,0,69765,69787,149.3468,186.6476,150.7601,192.7357 M,0,69787,69809,150.7601,192.7357,152.1734,198.8238 M,0,69809,69831,152.1734,198.8238,153.5867,204.9119 M,0,69831,69853,153.5867,204.9119,155,211 M,0,69853,70207,155,211,242,260 M,0,70207,70560,242,260 M,0,70560,70582,242,260,248.158,258.9318 M,0,70582,70604,248.158,258.9318,254.3161,257.8635 M,0,70604,70626,254.3161,257.8635,260.4741,256.7953 M,0,70626,70648,260.4741,256.7953,266.6321,255.7271 M,0,70648,70670,266.6321,255.7271,272.7902,254.6588 M,0,70670,70692,272.7902,254.6588,278.9482,253.5906 M,0,70692,70714,278.9482,253.5906,285.1062,252.5224 M,0,70714,70736,285.1062,252.5224,291.2643,251.4542 M,0,70736,70758,291.2643,251.4542,297.4223,250.3859 M,0,70758,70780,297.4223,250.3859,303.5803,249.3177 M,0,70780,70802,303.5803,249.3177,309.7384,248.2495 M,0,70802,70824,309.7384,248.2495,315.8964,247.1812 M,0,70824,70846,315.8964,247.1812,322.0544,246.113 M,0,70846,70868,322.0544,246.113,328.2125,245.0448 M,0,70868,70890,328.2125,245.0448,334.3705,243.9765 M,0,70890,70912,334.3705,243.9765,340.4027,243.3544 M,0,70912,70935,340.4027,243.3544,345.0947,247.4833 M,0,70935,70957,345.0947,247.4833,349.7866,251.6122 M,0,70957,70979,349.7866,251.6122,354.4786,255.7412 M,0,70979,71001,354.4786,255.7412,359.1706,259.8701 M,0,71001,71023,359.1706,259.8701,363.8625,263.999 M,0,71023,71045,363.8625,263.999,368.5545,268.1279 M,0,71045,71067,368.5545,268.1279,373.2464,272.2568 M,0,71067,71089,373.2464,272.2568,377.9384,276.3858 M,0,71089,71111,377.9384,276.3858,382.6303,280.5147 M,0,71111,71133,382.6303,280.5147,387.3223,284.6436 M,0,71133,71155,387.3223,284.6436,392.0143,288.7726 M,0,71155,71177,392.0143,288.7726,396.7062,292.9015 M,0,71177,71199,396.7062,292.9015,401.3982,297.0304 M,0,71199,71221,401.3982,297.0304,406.0901,301.1593 M,0,71221,71243,406.0901,301.1593,410.7821,305.2883 M,0,71243,71265,410.7821,305.2883,415,309 M,0,71265,71619,415,309,488,378 M,0,71619,72325,488,378,562,192 M,0,72325,72347,562,192,563.3961,185.9079 M,0,72347,72369,563.3961,185.9079,564.7922,179.8158 M,0,72369,72391,564.7922,179.8158,566.1883,173.7238 M,0,72391,72413,566.1883,173.7238,567.5844,167.6317 M,0,72413,72435,567.5844,167.6317,568.9805,161.5396 M,0,72435,72457,568.9805,161.5396,570.3766,155.4475 M,0,72457,72479,570.3766,155.4475,571.7727,149.3555 M,0,72479,72501,571.7727,149.3555,572.6917,143.31 M,0,72501,72523,572.6917,143.31,570.1421,137.6037 M,0,72523,72545,570.1421,137.6037,567.5925,131.8974 M,0,72545,72567,567.5925,131.8974,565.0428,126.1911 M,0,72567,72589,565.0428,126.1911,562.4932,120.4848 M,0,72589,72611,562.4932,120.4848,559.9436,114.7785 M,0,72611,72633,559.9436,114.7785,557.3939,109.0722 M,0,72633,72655,557.3939,109.0722,554.8444,103.3659 M,0,72655,72677,554.8444,103.3659,552.2947,97.65959 M,0,72677,73031,552.2947,97.65959,473,159 M,0,73031,73384,473,159,400,90 M,0,73384,73406,400,90,393.8403,91.0587 M,0,73406,73428,393.8403,91.0587,387.6806,92.11739 M,0,73428,73450,387.6806,92.11739,381.521,93.17609 M,0,73450,73472,381.521,93.17609,375.3613,94.23478 M,0,73472,73494,375.3613,94.23478,369.2016,95.29347 M,0,73494,73516,369.2016,95.29347,363.0419,96.35217 M,0,73516,73538,363.0419,96.35217,356.8822,97.41087 M,0,73538,73560,356.8822,97.41087,350.7226,98.46956 M,0,73560,73582,350.7226,98.46956,344.5629,99.52826 M,0,73582,73604,344.5629,99.52826,338.4032,100.587 M,0,73604,73626,338.4032,100.587,332.9507,103.2869 M,0,73626,73648,332.9507,103.2869,327.9507,107.0369 M,0,73648,73670,327.9507,107.0369,322.9507,110.7869 M,0,73670,73692,322.9507,110.7869,317.9507,114.5369 M,0,73692,73714,317.9507,114.5369,312.9507,118.2869 M,0,73714,73736,312.9507,118.2869,307.9408,121.9831 M,0,73736,73759,307.9408,121.9831,301.9313,120.2661 M,0,73759,73781,301.9313,120.2661,295.9218,118.5491 M,0,73781,73803,295.9218,118.5491,289.9122,116.8321 M,0,73803,73825,289.9122,116.8321,283.9027,115.1151 M,0,73825,73847,283.9027,115.1151,277.8932,113.398 M,0,73847,73869,277.8932,113.398,271.8563,112.1997 M,0,73869,73891,271.8563,112.1997,265.6994,113.2747 M,0,73891,73913,265.6994,113.2747,259.5426,114.3497 M,0,73913,73935,259.5426,114.3497,253.3857,115.4247 M,0,73935,73957,253.3857,115.4247,247.2289,116.4997 M,0,73957,73979,247.2289,116.4997,241.072,117.5747 M,0,73979,74001,241.072,117.5747,234.9152,118.6497 M,0,74001,74023,234.9152,118.6497,228.7583,119.7247 M,0,74023,74045,228.7583,119.7247,222.6014,120.7997 M,0,74045,74067,222.6014,120.7997,216.4446,121.8748 M,0,74067,74089,216.4446,121.8748,210.2877,122.9498 M,0,74089,74443,210.2877,122.9498,114,94 M,0,74443,75148,114,94,252,238 M,0,75148,75170,252,238,252.6281,244.2184 M,0,75170,75192,252.6281,244.2184,253.2562,250.4367 M,0,75192,75214,253.2562,250.4367,253.8844,256.6551 M,0,75214,75236,253.8844,256.6551,254.5125,262.8734 M,0,75236,75258,254.5125,262.8734,255.1406,269.0918 M,0,75258,75280,255.1406,269.0918,255.7687,275.3102 M,0,75280,75302,255.7687,275.3102,256.3968,281.5285 M,0,75302,75324,256.3968,281.5285,257.0249,287.7469 M,0,75324,75346,257.0249,287.7469,257.653,293.9652 M,0,75346,75368,257.653,293.9652,258.2812,300.1836 M,0,75368,75390,258.2812,300.1836,258.9093,306.4019 M,0,75390,75412,258.9093,306.4019,259.5374,312.6203 M,0,75412,75434,259.5374,312.6203,260.1655,318.8387 M,0,75434,75456,260.1655,318.8387,260.7936,325.057 M,0,75456,75478,260.7936,325.057,261.4218,331.2754 M,0,75478,75500,261.4218,331.2754,262,337 M,0,75500,75854,262,337,193,410 M,0,75854,76207,193,410,118,342 M,0,76207,76229,118,342,118.6559,335.7845 M,0,76229,76251,118.6559,335.7845,119.3118,329.569 M,0,76251,76273,119.3118,329.569,119.9677,323.3535 M,0,76273,76295,119.9677,323.3535,120.6236,317.1381 M,0,76295,76317,120.6236,317.1381,121.2795,310.9225 M,0,76317,76339,121.2795,310.9225,121.9354,304.7071 M,0,76339,76361,121.9354,304.7071,122.5913,298.4916 M,0,76361,76383,122.5913,298.4916,123.2472,292.2761 M,0,76383,76405,123.2472,292.2761,123.9032,286.0606 M,0,76405,76427,123.9032,286.0606,124.5591,279.8451 M,0,76427,76449,124.5591,279.8451,125.215,273.6296 M,0,76449,76471,125.215,273.6296,125.8709,267.4141 M,0,76471,76493,125.8709,267.4141,126.5268,261.1987 M,0,76493,76515,126.5268,261.1987,127.1827,254.9832 M,0,76515,76537,127.1827,254.9832,127.8386,248.7677 M,0,76537,76559,127.8386,248.7677,128.4945,242.5522 M,0,76559,76582,128.4945,242.5522,129.1504,236.3367 M,0,76582,76604,129.1504,236.3367,129.8063,230.1212 M,0,76604,76626,129.8063,230.1212,130.4622,223.9057 M,0,76626,76648,130.4622,223.9057,131.1181,217.6902 M,0,76648,76670,131.1181,217.6902,131.774,211.4747 M,0,76670,76692,131.774,211.4747,132.4299,205.2593 M,0,76692,76714,132.4299,205.2593,133.0858,199.0438 M,0,76714,76736,133.0858,199.0438,133.7417,192.8283 M,0,76736,76758,133.7417,192.8283,134.3976,186.6128 M,0,76758,76780,134.3976,186.6128,135.0536,180.3973 M,0,76780,76802,135.0536,180.3973,135.7095,174.1818 M,0,76802,76824,135.7095,174.1818,136.3654,167.9663 M,0,76824,76846,136.3654,167.9663,137.0213,161.7508 M,0,76846,76868,137.0213,161.7508,137.6772,155.5354 M,0,76868,76890,137.6772,155.5354,138.3331,149.3199 M,0,76890,76912,138.3331,149.3199,138.989,143.1044 M,0,76912,77266,138.989,143.1044,209,72 M,0,77266,77972,209,72,365,196 M,0,77972,77994,365,196,364.1161,202.1872 M,0,77994,78016,364.1161,202.1872,363.2322,208.3744 M,0,78016,78038,363.2322,208.3744,362.3484,214.5616 M,0,78038,78060,362.3484,214.5616,361.4645,220.7487 M,0,78060,78082,361.4645,220.7487,360.5806,226.9359 M,0,78082,78104,360.5806,226.9359,359.6967,233.1231 M,0,78104,78126,359.6967,233.1231,358.8128,239.3103 M,0,78126,78148,358.8128,239.3103,358,245 M,0,78148,78170,358,245,358.8128,239.3103 M,0,78170,78192,358.8128,239.3103,359.6967,233.1231 M,0,78192,78214,359.6967,233.1231,360.5806,226.9359 M,0,78214,78236,360.5806,226.9359,361.4645,220.7487 M,0,78236,78258,361.4645,220.7487,362.3484,214.5616 M,0,78258,78280,362.3484,214.5616,363.2322,208.3744 M,0,78280,78302,363.2322,208.3744,364.1161,202.1872 M,0,78302,78324,364.1161,202.1872,365,196 M,0,78324,78678,365,196,429,118 M,0,78678,79031,429,118,502,186 M,0,79031,79053,502,186,503.6922,192.0166 M,0,79053,79075,503.6922,192.0166,505.3843,198.0331 M,0,79075,79097,505.3843,198.0331,507.0765,204.0497 M,0,79097,79119,507.0765,204.0497,508.7686,210.0663 M,0,79119,79141,508.7686,210.0663,510.4608,216.0828 M,0,79141,79163,510.4608,216.0828,512.153,222.0994 M,0,79163,79185,512.153,222.0994,513.8451,228.116 M,0,79185,79207,513.8451,228.116,515.5373,234.1325 M,0,79207,79229,515.5373,234.1325,517.2294,240.1491 M,0,79229,79251,517.2294,240.1491,518.9216,246.1657 M,0,79251,79273,518.9216,246.1657,520.6138,252.1823 M,0,79273,79295,520.6138,252.1823,522.3059,258.1988 M,0,79295,79317,522.3059,258.1988,523.998,264.2154 M,0,79317,79339,523.998,264.2154,525.6902,270.232 M,0,79339,79361,525.6902,270.232,527.3824,276.2485 M,0,79361,79383,527.3824,276.2485,528.8555,282.2344 M,0,79383,79406,528.8555,282.2344,525.5765,287.5552 M,0,79406,79428,525.5765,287.5552,522.2974,292.8759 M,0,79428,79450,522.2974,292.8759,519.0183,298.1967 M,0,79450,79472,519.0183,298.1967,515.7393,303.5174 M,0,79472,79494,515.7393,303.5174,512.4602,308.8381 M,0,79494,79516,512.4602,308.8381,509.1812,314.1589 M,0,79516,79538,509.1812,314.1589,505.9021,319.4796 M,0,79538,79560,505.9021,319.4796,502.623,324.8004 M,0,79560,79582,502.623,324.8004,499.344,330.1211 M,0,79582,79604,499.344,330.1211,496.0649,335.4418 M,0,79604,79626,496.0649,335.4418,492.7859,340.7626 M,0,79626,79648,492.7859,340.7626,489.5068,346.0833 M,0,79648,79670,489.5068,346.0833,486.2278,351.4041 M,0,79670,79692,486.2278,351.4041,482.9487,356.7248 M,0,79692,79714,482.9487,356.7248,479.6696,362.0455 M,0,79714,79736,479.6696,362.0455,476.3906,367.3663 M,0,79736,80090,476.3906,367.3663,406,438 M,0,80090,80795,406,438,225,351 M,0,80795,80817,225,351,218.8762,352.2498 M,0,80817,80839,218.8762,352.2498,212.7524,353.4995 M,0,80839,80861,212.7524,353.4995,206.6287,354.7492 M,0,80861,80883,206.6287,354.7492,200.5049,355.999 M,0,80883,80905,200.5049,355.999,194.3811,357.2487 M,0,80905,80927,194.3811,357.2487,188.2574,358.4985 M,0,80927,80949,188.2574,358.4985,182.1336,359.7483 M,0,80949,80971,182.1336,359.7483,176.0098,360.998 M,0,80971,80993,176.0098,360.998,182.1336,359.7483 M,0,80993,81015,182.1336,359.7483,188.2574,358.4985 M,0,81015,81037,188.2574,358.4985,194.3811,357.2487 M,0,81037,81059,194.3811,357.2487,200.5049,355.999 M,0,81059,81081,200.5049,355.999,206.6287,354.7492 M,0,81081,81103,206.6287,354.7492,212.7524,353.4995 M,0,81103,81125,212.7524,353.4995,218.8762,352.2498 M,0,81125,81147,218.8762,352.2498,225,351 M,0,81147,81501,225,351,283,269 M,0,81501,81854,283,269 M,0,81854,81876,283,269,282.0126,262.8285 M,0,81876,81898,282.0126,262.8285,281.0251,256.657 M,0,81898,81920,281.0251,256.657,280.0377,250.4855 M,0,81920,81942,280.0377,250.4855,279.0502,244.314 M,0,81942,81964,279.0502,244.314,278.0628,238.1425 M,0,81964,81986,278.0628,238.1425,277.0754,231.971 M,0,81986,82008,277.0754,231.971,276.0879,225.7995 M,0,82008,82030,276.0879,225.7995,275.1005,219.628 M,0,82030,82052,275.1005,219.628,276.0879,225.7995 M,0,82052,82074,276.0879,225.7995,277.0754,231.971 M,0,82074,82096,277.0754,231.971,278.0628,238.1425 M,0,82096,82118,278.0628,238.1425,279.0502,244.314 M,0,82118,82140,279.0502,244.314,280.0377,250.4855 M,0,82140,82162,280.0377,250.4855,281.0251,256.657 M,0,82162,82184,281.0251,256.657,282.0126,262.8285 M,0,82184,82206,282.0126,262.8285,283,269 M,0,82206,82560,283,269,364,327 M,0,82560,82582,364,327,370.1085,325.6776 M,0,82582,82604,370.1085,325.6776,376.217,324.3551 M,0,82604,82626,376.217,324.3551,382.3255,323.0326 M,0,82626,82648,382.3255,323.0326,388.434,321.7102 M,0,82648,82670,388.434,321.7102,394.5424,320.3877 M,0,82670,82692,394.5424,320.3877,400.6509,319.0653 M,0,82692,82714,400.6509,319.0653,406.7594,317.7428 M,0,82714,82736,406.7594,317.7428,412.8679,316.4203 M,0,82736,82758,412.8679,316.4203,418.9764,315.0979 M,0,82758,82780,418.9764,315.0979,425.0849,313.7755 M,0,82780,82802,425.0849,313.7755,431.1934,312.453 M,0,82802,82824,431.1934,312.453,437.3018,311.1305 M,0,82824,82846,437.3018,311.1305,443.4103,309.8081 M,0,82846,82868,443.4103,309.8081,449.5188,308.4856 M,0,82868,82890,449.5188,308.4856,455.6273,307.1631 M,0,82890,82912,455.6273,307.1631,461,306 M,0,82912,83619,461,306,545,124 M,0,83619,83641,545,124,538.8104,123.1335 M,0,83641,83663,538.8104,123.1335,532.6207,122.2669 M,0,83663,83685,532.6207,122.2669,526.4311,121.4004 M,0,83685,83707,526.4311,121.4004,520.2415,120.5338 M,0,83707,83729,520.2415,120.5338,514.0518,119.6673 M,0,83729,83751,514.0518,119.6673,507.8622,118.8007 M,0,83751,83773,507.8622,118.8007,501.6725,117.9342 M,0,83773,83795,501.6725,117.9342,495.4829,117.0676 M,0,83795,83817,495.4829,117.0676,489.2933,116.2011 M,0,83817,83839,489.2933,116.2011,483.1036,115.3345 M,0,83839,83861,483.1036,115.3345,476.914,114.468 M,0,83861,83883,476.914,114.468,470.7244,113.6014 M,0,83883,83905,470.7244,113.6014,464.5347,112.7349 M,0,83905,83927,464.5347,112.7349,458.3451,111.8683 M,0,83927,83949,458.3451,111.8683,452.1555,111.0018 M,0,83949,83971,452.1555,111.0018,445.9658,110.1352 M,0,83971,84325,445.9658,110.1352,365,170 M,0,84325,84678,365,170,274,127 M,0,84678,84700,274,127,268.077,128.9951 M,0,84700,84722,268.077,128.9951,262.154,130.9902 M,0,84722,84744,262.154,130.9902,256.231,132.9854 M,0,84744,84766,256.231,132.9854,250.308,134.9805 M,0,84766,84788,250.308,134.9805,244.385,136.9756 M,0,84788,84810,244.385,136.9756,238.462,138.9707 M,0,84810,84832,238.462,138.9707,232.539,140.9658 M,0,84832,84854,232.539,140.9658,226.616,142.9609 M,0,84854,84876,226.616,142.9609,220.6929,144.9561 M,0,84876,84898,220.6929,144.9561,214.7699,146.9512 M,0,84898,84920,214.7699,146.9512,208.8469,148.9463 M,0,84920,84942,208.8469,148.9463,202.9239,150.9414 M,0,84942,84964,202.9239,150.9414,197.0009,152.9365 M,0,84964,84986,197.0009,152.9365,191.0779,154.9317 M,0,84986,85008,191.0779,154.9317,185.1549,156.9268 M,0,85008,85030,185.1549,156.9268,179.2319,158.9219 M,0,85030,85053,179.2319,158.9219,180.0957,164.9045 M,0,85053,85075,180.0957,164.9045,181.236,171.0496 M,0,85075,85097,181.236,171.0496,182.3763,177.1947 M,0,85097,85119,182.3763,177.1947,183.5167,183.3398 M,0,85119,85141,183.5167,183.3398,184.657,189.4849 M,0,85141,85163,184.657,189.4849,185.7973,195.63 M,0,85163,85185,185.7973,195.63,186.9376,201.7751 M,0,85185,85207,186.9376,201.7751,188.078,207.9202 M,0,85207,85229,188.078,207.9202,189.2183,214.0652 M,0,85229,85251,189.2183,214.0652,190.3586,220.2103 M,0,85251,85273,190.3586,220.2103,191.4989,226.3554 M,0,85273,85295,191.4989,226.3554,192.6393,232.5005 M,0,85295,85317,192.6393,232.5005,193.7796,238.6456 M,0,85317,85339,193.7796,238.6456,194.9199,244.7907 M,0,85339,85361,194.9199,244.7907,196.0602,250.9358 M,0,85361,85383,196.0602,250.9358,197,256 M,0,85383,85737,197,256,226,353 M,0,85737,86443,226,353,376,221 M,0,86443,86465,376,221,382.2297,221.5034 M,0,86465,86487,382.2297,221.5034,388.4594,222.0068 M,0,86487,86509,388.4594,222.0068,394.6891,222.5102 M,0,86509,86531,394.6891,222.5102,400.9188,223.0136 M,0,86531,86553,400.9188,223.0136,407.1485,223.517 M,0,86553,86575,407.1485,223.517,413.3782,224.0205 M,0,86575,86597,413.3782,224.0205,419.6078,224.5239 M,0,86597,86619,419.6078,224.5239,425.8376,225.0273 M,0,86619,86641,425.8376,225.0273,432.0672,225.5307 M,0,86641,86663,432.0672,225.5307,438.2969,226.0341 M,0,86663,86685,438.2969,226.0341,444.5266,226.5375 M,0,86685,86707,444.5266,226.5375,450.7563,227.0409 M,0,86707,86729,450.7563,227.0409,456.986,227.5443 M,0,86729,86751,456.986,227.5443,463.2157,228.0477 M,0,86751,86773,463.2157,228.0477,469.4454,228.5511 M,0,86773,86795,469.4454,228.5511,475,229 M,0,86795,87148,475,229,528,314 M,0,87148,87501,528,314,450,377 M,0,87501,87523,450,377,443.777,376.4192 M,0,87523,87545,443.777,376.4192,437.5541,375.8384 M,0,87545,87567,437.5541,375.8384,431.3311,375.2576 M,0,87567,87589,431.3311,375.2576,425.1082,374.6768 M,0,87589,87611,425.1082,374.6768,418.8852,374.0959 M,0,87611,87633,418.8852,374.0959,412.6623,373.5151 M,0,87633,87655,412.6623,373.5151,406.4393,372.9343 M,0,87655,87677,406.4393,372.9343,400.2164,372.3535 M,0,87677,87699,400.2164,372.3535,393.9934,371.7727 M,0,87699,87721,393.9934,371.7727,387.7704,371.1919 M,0,87721,87743,387.7704,371.1919,381.5475,370.6111 M,0,87743,87765,381.5475,370.6111,375.3246,370.0303 M,0,87765,87787,375.3246,370.0303,370.1293,373.372 M,0,87787,87809,370.1293,373.372,364.9906,376.9296 M,0,87809,87831,364.9906,376.9296,359.8519,380.4872 M,0,87831,87853,359.8519,380.4872,354.7132,384.0447 M,0,87853,87876,354.7132,384.0447,349.5745,387.6023 M,0,87876,87898,349.5745,387.6023,344.4358,391.1599 M,0,87898,87920,344.4358,391.1599,339.2971,394.7174 M,0,87920,87942,339.2971,394.7174,333.7691,396.7998 M,0,87942,87964,333.7691,396.7998,327.5441,396.2411 M,0,87964,87986,327.5441,396.2411,321.3191,395.6825 M,0,87986,88008,321.3191,395.6825,315.0941,395.1238 M,0,88008,88030,315.0941,395.1238,308.8691,394.5652 M,0,88030,88052,308.8691,394.5652,302.6442,394.0065 M,0,88052,88074,302.6442,394.0065,296.4192,393.4479 M,0,88074,88096,296.4192,393.4479,290.1942,392.8892 M,0,88096,88118,290.1942,392.8892,283.9692,392.3306 M,0,88118,88140,283.9692,392.3306,277.7443,391.7719 M,0,88140,88162,277.7443,391.7719,271.5193,391.2133 M,0,88162,88184,271.5193,391.2133,265.2943,390.6546 M,0,88184,88206,265.2943,390.6546,259.0693,390.0959 M,0,88206,88560,259.0693,390.0959,159,377 M,0,88560,89266,159,377,88,189 M,0,89266,89288,88,189,88.74466,182.7945 M,0,89288,89310,88.74466,182.7945,89.48932,176.5891 M,0,89310,89332,89.48932,176.5891,90.23397,170.3836 M,0,89332,89354,90.23397,170.3836,90.97863,164.1781 M,0,89354,89376,90.97863,164.1781,91.72329,157.9726 M,0,89376,89398,91.72329,157.9726,92.46794,151.7671 M,0,89398,89420,92.46794,151.7671,93.2126,145.5616 M,0,89420,89442,93.2126,145.5616,93.95726,139.3562 M,0,89442,89464,93.95726,139.3562,93.2126,145.5616 M,0,89464,89486,93.2126,145.5616,92.46794,151.7671 M,0,89486,89508,92.46794,151.7671,91.72329,157.9726 M,0,89508,89530,91.72329,157.9726,90.97863,164.1781 M,0,89530,89552,90.97863,164.1781,90.23397,170.3836 M,0,89552,89574,90.23397,170.3836,89.48932,176.5891 M,0,89574,89596,89.48932,176.5891,88.74466,182.7945 M,0,89596,89618,88.74466,182.7945,88,189 M,0,89618,89972,88,189,164,253 M,0,89972,90325,164,253,257,217 M,0,90325,90347,257,217,263.1878,217.8795 M,0,90347,90369,263.1878,217.8795,269.3756,218.759 M,0,90369,90391,269.3756,218.759,275.5634,219.6385 M,0,90391,90413,275.5634,219.6385,281.7512,220.5179 M,0,90413,90435,281.7512,220.5179,287.9391,221.3974 M,0,90435,90457,287.9391,221.3974,294.1269,222.2769 M,0,90457,90479,294.1269,222.2769,300.3147,223.1564 M,0,90479,90501,300.3147,223.1564,306.5025,224.0359 M,0,90501,90523,306.5025,224.0359,312.6903,224.9154 M,0,90523,90545,312.6903,224.9154,318.8781,225.7949 M,0,90545,90567,318.8781,225.7949,325.0659,226.6743 M,0,90567,90589,325.0659,226.6743,331.2537,227.5538 M,0,90589,90611,331.2537,227.5538,337.4415,228.4333 M,0,90611,90633,337.4415,228.4333,343.6293,229.3128 M,0,90633,90655,343.6293,229.3128,349.8172,230.1923 M,0,90655,90677,349.8172,230.1923,356.005,231.0718 M,0,90677,90700,356.005,231.0718,362.1928,231.9513 M,0,90700,90722,362.1928,231.9513,368.3806,232.8307 M,0,90722,90744,368.3806,232.8307,374.5684,233.7102 M,0,90744,90766,374.5684,233.7102,380.7562,234.5897 M,0,90766,90788,380.7562,234.5897,386.944,235.4692 M,0,90788,90810,386.944,235.4692,393.1318,236.3487 M,0,90810,90832,393.1318,236.3487,399.3196,237.2282 M,0,90832,90854,399.3196,237.2282,405.5074,238.1077 M,0,90854,90876,405.5074,238.1077,411.6953,238.9872 M,0,90876,90898,411.6953,238.9872,417.8831,239.8666 M,0,90898,90920,417.8831,239.8666,424.0709,240.7461 M,0,90920,90942,424.0709,240.7461,430.2587,241.6256 M,0,90942,90964,430.2587,241.6256,436.4465,242.5051 M,0,90964,90986,436.4465,242.5051,442.6343,243.3846 M,0,90986,91008,442.6343,243.3846,448.8221,244.2641 M,0,91008,91030,448.8221,244.2641,454,245 M,0,91030,91384,454,245,553,261 M,0,91384,92090,553,261,418,112 M,0,92090,92112,418,112,418.6219,105.781 M,0,92112,92134,418.6219,105.781,419.2438,99.56203 M,0,92134,92156,419.2438,99.56203,419.8657,93.34306 M,0,92156,92178,419.8657,93.34306,420.4876,87.12407 M,0,92178,92200,420.4876,87.12407,421.1095,80.90509 M,0,92200,92222,421.1095,80.90509,421.7314,74.68611 M,0,92222,92244,421.7314,74.68611,422.3533,68.46712 M,0,92244,92266,422.3533,68.46712,422.9752,62.24814 M,0,92266,92288,422.9752,62.24814,422.3533,68.46712 M,0,92288,92310,422.3533,68.46712,421.7314,74.68611 M,0,92310,92332,421.7314,74.68611,421.1095,80.90509 M,0,92332,92354,421.1095,80.90509,420.4876,87.12407 M,0,92354,92376,420.4876,87.12407,419.8657,93.34306 M,0,92376,92398,419.8657,93.34306,419.2438,99.56203 M,0,92398,92420,419.2438,99.56203,418.6219,105.781 M,0,92420,92442,418.6219,105.781,418,112 M,0,92442,92795,418,112,339,173 M,0,92795,93148,339,173 M,0,93148,93170,339,173,332.8988,171.6442 M,0,93170,93192,332.8988,171.6442,326.7977,170.2884 M,0,93192,93214,326.7977,170.2884,320.6965,168.9326 M,0,93214,93236,320.6965,168.9326,314.5953,167.5767 M,0,93236,93258,314.5953,167.5767,308.4941,166.2209 M,0,93258,93280,308.4941,166.2209,302.393,164.8651 M,0,93280,93302,302.393,164.8651,296.2918,163.5093 M,0,93302,93324,296.2918,163.5093,290.1906,162.1535 M,0,93324,93346,290.1906,162.1535,284.0895,160.7977 M,0,93346,93368,284.0895,160.7977,277.9883,159.4418 M,0,93368,93390,277.9883,159.4418,271.8871,158.086 M,0,93390,93412,271.8871,158.086,265.7859,156.7302 M,0,93412,93434,265.7859,156.7302,259.6848,155.3744 M,0,93434,93456,259.6848,155.3744,253.5836,154.0186 M,0,93456,93478,253.5836,154.0186,247.4825,152.6628 M,0,93478,93500,247.4825,152.6628,241.3813,151.3069 M,0,93500,93523,241.3813,151.3069,235.6754,153.1623 M,0,93523,93545,235.6754,153.1623,230.0853,155.9574 M,0,93545,93567,230.0853,155.9574,224.4951,158.7525 M,0,93567,93589,224.4951,158.7525,218.9049,161.5475 M,0,93589,93611,218.9049,161.5475,213.3148,164.3426 M,0,93611,93633,213.3148,164.3426,207.7246,167.1377 M,0,93633,93655,207.7246,167.1377,202.1344,169.9328 M,0,93655,93677,202.1344,169.9328,196.5443,172.7279 M,0,93677,93699,196.5443,172.7279,190.9541,175.523 M,0,93699,93721,190.9541,175.523,185.3639,178.3181 M,0,93721,93743,185.3639,178.3181,179.7737,181.1131 M,0,93743,93765,179.7737,181.1131,174.1836,183.9082 M,0,93765,93787,174.1836,183.9082,168.5934,186.7033 M,0,93787,93809,168.5934,186.7033,163.0032,189.4984 M,0,93809,93831,163.0032,189.4984,157.4131,192.2935 M,0,93831,93853,157.4131,192.2935,152,195 M,0,93853,94207,152,195,66,248 M,0,94207,94913,66,248,213,383 M,0,94913,94935,213,383,219.2055,383.7447 M,0,94935,94957,219.2055,383.7447,225.411,384.4893 M,0,94957,94979,225.411,384.4893,231.6164,385.234 M,0,94979,95001,231.6164,385.234,237.8219,385.9786 M,0,95001,95023,237.8219,385.9786,244.0274,386.7233 M,0,95023,95045,244.0274,386.7233,250.2329,387.468 M,0,95045,95067,250.2329,387.468,256.4384,388.2126 M,0,95067,95089,256.4384,388.2126,262.6439,388.9573 M,0,95089,95111,262.6439,388.9573,268.221,386.2708 M,0,95111,95133,268.221,386.2708,273.7599,383.3755 M,0,95133,95155,273.7599,383.3755,279.2988,380.4802 M,0,95155,95177,279.2988,380.4802,284.8377,377.5848 M,0,95177,95199,284.8377,377.5848,290.3766,374.6895 M,0,95199,95221,290.3766,374.6895,295.9156,371.7941 M,0,95221,95243,295.9156,371.7941,301.4545,368.8988 M,0,95243,95265,301.4545,368.8988,306.9934,366.0035 M,0,95265,95619,306.9934,366.0035,389,309 M,0,95619,95972,389,309,473,363 M,0,95972,95994,473,363,475.5674,357.3017 M,0,95994,96016,475.5674,357.3017,478.1348,351.6033 M,0,96016,96038,478.1348,351.6033,480.7021,345.905 M,0,96038,96060,480.7021,345.905,483.2695,340.2067 M,0,96060,96082,483.2695,340.2067,485.8369,334.5083 M,0,96082,96104,485.8369,334.5083,488.4043,328.81 M,0,96104,96126,488.4043,328.81,490.9717,323.1116 M,0,96126,96148,490.9717,323.1116,493.5391,317.4133 M,0,96148,96170,493.5391,317.4133,496.1064,311.715 M,0,96170,96192,496.1064,311.715,498.6738,306.0166 M,0,96192,96214,498.6738,306.0166,501.2412,300.3183 M,0,96214,96236,501.2412,300.3183,503.8086,294.62 M,0,96236,96258,503.8086,294.62,506.376,288.9216 M,0,96258,96280,506.376,288.9216,508.9434,283.2233 M,0,96280,96302,508.9434,283.2233,511.5107,277.525 M,0,96302,96324,511.5107,277.525,513.9415,271.819 M,0,96324,96347,513.9415,271.819,512.021,265.8714 M,0,96347,96369,512.021,265.8714,510.1004,259.9238 M,0,96369,96391,510.1004,259.9238,508.1798,253.9762 M,0,96391,96413,508.1798,253.9762,506.2592,248.0286 M,0,96413,96435,506.2592,248.0286,504.3387,242.0811 M,0,96435,96457,504.3387,242.0811,502.4181,236.1335 M,0,96457,96479,502.4181,236.1335,500.4975,230.1859 M,0,96479,96501,500.4975,230.1859,498.5769,224.2383 M,0,96501,96523,498.5769,224.2383,496.6564,218.2907 M,0,96523,96545,496.6564,218.2907,494.7358,212.3431 M,0,96545,96567,494.7358,212.3431,492.8152,206.3955 M,0,96567,96589,492.8152,206.3955,490.8946,200.4479 M,0,96589,96611,490.8946,200.4479,488.9741,194.5003 M,0,96611,96633,488.9741,194.5003,487.0535,188.5527 M,0,96633,96655,487.0535,188.5527,485.1329,182.6051 M,0,96655,96677,485.1329,182.6051,483.2123,176.6575 M,0,96677,97031,483.2123,176.6575,439,86 M,0,97031,97737,439,86,304,233 M,0,97737,97759,304,233,304.6281,239.2184 M,0,97759,97781,304.6281,239.2184,305.2562,245.4367 M,0,97781,97803,305.2562,245.4367,305.8843,251.6551 M,0,97803,97825,305.8843,251.6551,306.5125,257.8734 M,0,97825,97847,306.5125,257.8734,307.1406,264.0918 M,0,97847,97869,307.1406,264.0918,307.7687,270.3102 M,0,97869,97891,307.7687,270.3102,308.3968,276.5285 M,0,97891,97913,308.3968,276.5285,309.0249,282.7469 M,0,97913,97935,309.0249,282.7469,309.653,288.9652 M,0,97935,97957,309.653,288.9652,310.2812,295.1836 M,0,97957,97979,310.2812,295.1836,310.9093,301.4019 M,0,97979,98001,310.9093,301.4019,311.5374,307.6203 M,0,98001,98023,311.5374,307.6203,312.1655,313.8387 M,0,98023,98045,312.1655,313.8387,312.7936,320.057 M,0,98045,98067,312.7936,320.057,313.4218,326.2754 M,0,98067,98089,313.4218,326.2754,314,332 M,0,98089,98443,314,332,263,418 M,0,98443,98795,263,418,182,359 M,0,98795,98817,182,359,180.8531,352.8561 M,0,98817,98839,180.8531,352.8561,179.7063,346.7122 M,0,98839,98861,179.7063,346.7122,178.5594,340.5684 M,0,98861,98883,178.5594,340.5684,177.4126,334.4245 M,0,98883,98905,177.4126,334.4245,176.2657,328.2806 M,0,98905,98927,176.2657,328.2806,175.1189,322.1367 M,0,98927,98949,175.1189,322.1367,173.972,315.9929 M,0,98949,98971,173.972,315.9929,172.8251,309.849 M,0,98971,98993,172.8251,309.849,171.6783,303.7051 M,0,98993,99015,171.6783,303.7051,170.5314,297.5612 M,0,99015,99037,170.5314,297.5612,169.3846,291.4174 M,0,99037,99059,169.3846,291.4174,168.2377,285.2735 M,0,99059,99081,168.2377,285.2735,170.2952,279.6092 M,0,99081,99103,170.2952,279.6092,173.1906,274.0703 M,0,99103,99125,173.1906,274.0703,176.0859,268.5314 M,0,99125,99147,176.0859,268.5314,178.9812,262.9924 M,0,99147,99170,178.9812,262.9924,181.8766,257.4536 M,0,99170,99192,181.8766,257.4536,184.7719,251.9146 M,0,99192,99214,184.7719,251.9146,187.6672,246.3757 M,0,99214,99236,187.6672,246.3757,190.5626,240.8368 M,0,99236,99258,190.5626,240.8368,190.3594,234.7331 M,0,99258,99280,190.3594,234.7331,189.6049,228.5288 M,0,99280,99302,189.6049,228.5288,188.8503,222.3245 M,0,99302,99324,188.8503,222.3245,188.0957,216.1202 M,0,99324,99346,188.0957,216.1202,187.3411,209.9159 M,0,99346,99368,187.3411,209.9159,186.5865,203.7116 M,0,99368,99390,186.5865,203.7116,185.832,197.5074 M,0,99390,99412,185.832,197.5074,185.0774,191.3031 M,0,99412,99434,185.0774,191.3031,184.3228,185.0988 M,0,99434,99456,184.3228,185.0988,183.5683,178.8945 M,0,99456,99478,183.5683,178.8945,182.8137,172.6902 M,0,99478,99500,182.8137,172.6902,182.0591,166.486 M,0,99500,99854,182.0591,166.486,159,68 M,0,99854,100560,159,68,306,202 M,0,100560,100582,306,202,304.9929,208.1683 M,0,100582,100604,304.9929,208.1683,303.9858,214.3367 M,0,100604,100626,303.9858,214.3367,302.9788,220.505 M,0,100626,100648,302.9788,220.505,301.9717,226.6733 M,0,100648,100670,301.9717,226.6733,300.9646,232.8416 M,0,100670,100692,300.9646,232.8416,299.9576,239.01 M,0,100692,100714,299.9576,239.01,298.9505,245.1783 M,0,100714,100736,298.9505,245.1783,298,251 M,0,100736,100758,298,251,298.9505,245.1783 M,0,100758,100780,298.9505,245.1783,299.9576,239.01 M,0,100780,100802,299.9576,239.01,300.9646,232.8416 M,0,100802,100824,300.9646,232.8416,301.9717,226.6733 M,0,100824,100846,301.9717,226.6733,302.9788,220.505 M,0,100846,100868,302.9788,220.505,303.9858,214.3367 M,0,100868,100890,303.9858,214.3367,304.9929,208.1683 M,0,100890,100912,304.9929,208.1683,306,202 M,0,100912,101266,306,202,379,133 M,0,101266,101619,379,133,469,174 M,0,101619,101641,469,174,471.1808,179.8572 M,0,101641,101663,471.1808,179.8572,473.3617,185.7143 M,0,101663,101685,473.3617,185.7143,475.5426,191.5715 M,0,101685,101707,475.5426,191.5715,477.7234,197.4286 M,0,101707,101729,477.7234,197.4286,479.9043,203.2858 M,0,101729,101751,479.9043,203.2858,482.0851,209.143 M,0,101751,101773,482.0851,209.143,484.266,215.0001 M,0,101773,101795,484.266,215.0001,486.4469,220.8573 M,0,101795,101817,486.4469,220.8573,488.6277,226.7145 M,0,101817,101839,488.6277,226.7145,490.8086,232.5716 M,0,101839,101861,490.8086,232.5716,492.9894,238.4288 M,0,101861,101883,492.9894,238.4288,495.1703,244.2859 M,0,101883,101905,495.1703,244.2859,497.3512,250.1431 M,0,101905,101927,497.3512,250.1431,499.532,256.0003 M,0,101927,101949,499.532,256.0003,501.7129,261.8575 M,0,101949,101971,501.7129,261.8575,503.8937,267.7146 M,0,101971,101994,503.8937,267.7146,500.7159,272.9561 M,0,101994,102016,500.7159,272.9561,497.2635,278.166 M,0,102016,102038,497.2635,278.166,493.8111,283.376 M,0,102038,102060,493.8111,283.376,490.3587,288.5859 M,0,102060,102082,490.3587,288.5859,486.9063,293.7959 M,0,102082,102104,486.9063,293.7959,483.4539,299.0059 M,0,102104,102126,483.4539,299.0059,480.0016,304.2158 M,0,102126,102148,480.0016,304.2158,476.5492,309.4258 M,0,102148,102170,476.5492,309.4258,473.0968,314.6357 M,0,102170,102192,473.0968,314.6357,469.6444,319.8456 M,0,102192,102214,469.6444,319.8456,466.1921,325.0556 M,0,102214,102236,466.1921,325.0556,462.7397,330.2656 M,0,102236,102258,462.7397,330.2656,459.2873,335.4755 M,0,102258,102280,459.2873,335.4755,455.8349,340.6855 M,0,102280,102302,455.8349,340.6855,452.3826,345.8954 M,0,102302,102324,452.3826,345.8954,449,351 M,0,102324,102678,449,351,392,434 M,0,102678,103384,392,434,224,324 M,0,103384,103406,224,324,217.8285,324.9874 M,0,103406,103428,217.8285,324.9874,211.657,325.9749 M,0,103428,103450,211.657,325.9749,205.4855,326.9623 M,0,103450,103472,205.4855,326.9623,199.314,327.9498 M,0,103472,103494,199.314,327.9498,193.1425,328.9372 M,0,103494,103516,193.1425,328.9372,186.971,329.9247 M,0,103516,103538,186.971,329.9247,180.7995,330.9121 M,0,103538,103560,180.7995,330.9121,174.628,331.8995 M,0,103560,103582,174.628,331.8995,180.7995,330.9121 M,0,103582,103604,180.7995,330.9121,186.971,329.9247 M,0,103604,103626,186.971,329.9247,193.1425,328.9372 M,0,103626,103648,193.1425,328.9372,199.314,327.9498 M,0,103648,103670,199.314,327.9498,205.4855,326.9623 M,0,103670,103692,205.4855,326.9623,211.657,325.9749 M,0,103692,103714,211.657,325.9749,217.8285,324.9874 M,0,103714,103736,217.8285,324.9874,224,324 M,0,103736,104090,224,324,301,260 M,0,104090,104112,301,260,302.9764,254.0707 M,0,104112,104134,302.9764,254.0707,304.9529,248.1415 M,0,104134,104156,304.9529,248.1415,306.9293,242.2122 M,0,104156,104178,306.9293,242.2122,308.9057,236.2829 M,0,104178,104200,308.9057,236.2829,310.8821,230.3537 M,0,104200,104222,310.8821,230.3537,312.8585,224.4244 M,0,104222,104244,312.8585,224.4244,314.835,218.4951 M,0,104244,104266,314.835,218.4951,316.8114,212.5658 M,0,104266,104288,316.8114,212.5658,315.3137,206.6038 M,0,104288,104310,315.3137,206.6038,313.4495,200.6383 M,0,104310,104332,313.4495,200.6383,311.5853,194.6728 M,0,104332,104354,311.5853,194.6728,309.721,188.7073 M,0,104354,104376,309.721,188.7073,307.8568,182.7418 M,0,104376,104398,307.8568,182.7418,305.9926,176.7763 M,0,104398,104420,305.9926,176.7763,304.1284,170.8108 M,0,104420,104442,304.1284,170.8108,302.2642,164.8453
Sprite,Background,Centre,"sb/pixel.png",0,0 C,0,60325,,119,214,244 R,0,60325,,4.117843 S,0,60325,,15 M,19,60325,60925,156,137,61.56208,200.8551 F,19,60325,63148,1,0
Sprite,Background,Centre,"sb/pixel.png",0,0 C,0,60325,,119,214,244 R,0,60325,,7.259436 S,0,60325,,17 M,19,60325,60925,156,137,250.4379,73.14485 F,19,60325,63148,1,0
Sprite,Background,Centre,"sb/pixel.png",0,0 C,0,60325,,119,214,244 R,0,60325,,3.885935 S,0,60325,,19 M,19,60325,60925,156,137,84.18624,214.9666 F,19,60325,63148,1,0
Sprite,Background,Centre,"sb/pixel.png",0,0 C,0,60325,,119,214,244 R,0,60325,,7.027528 S,0,60325,,17 M,19,60325,60925,156,137,227.8138,59.03344 F,19,60325,63148,1,0
Sprite,Background,Centre,"sb/pixel.png",0,0 C,0,60325,,86,191,237 R,0,60325,,5.710316 S,0,60325,,15 M,19,60325,60925,156,137,90.41251,35.31775 F,19,60325,63148,1,0
Sprite,Background,Centre,"sb/pixel.png",0,0 C,0,60325,,86,191,237 R,0,60325,,8.851909 S,0,60325,,16 M,19,60325,60925,156,137,221.5875,238.6823 F,19,60325,63148,1,0
Sprite,Background,Centre,"sb/pixel.png",0,0 C,0,60325,,119,214,244 R,0,60325,,4.386849 S,0,60325,,16 M,19,60325,60925,156,137,29.03791,179.8559 F,19,60325,63148,1,0
Sprite,Background,Centre,"sb/pixel.png",0,0 C,0,60325,,86,191,237 R,0,60325,,7.528442 S,0,60325,,16 M,19,60325,60925,156,137,282.9621,94.1441 F,19,60325,63148,1,0
Sprite,Background,Centre,"sb/pixel.png",0,0 C,0,60325,,86,191,237 R,0,60325,,4.857638 S,0,60325,,19 M,19,60325,60925,156,137,49.13725,121.3682 F,19,60325,63148,1,0
Sprite,Background,Centre,"sb/pixel.png",0,0 C,0,60325,,119,214,244 R,0,60325,,7.99923 S,0,60325,,18 M,19,60325,60925,156,137,262.8628,152.6318 F,19,60325,63148,1,0
Sprite,Background,Centre,"sb/pixel.png",0,0 C,0,60325,,119,214,244 R,0,60325,,5.114221 S,0,60325,,18 M,19,60325,60925,156,137,48.31953,91.24068 F,19,60325,63148,1,0
Sprite,Background,Centre,"sb/pixel.png",0,0 C,0,60325,,119,214,244 R,0,60325,,8.255814 S,0,60325,,18 M,19,60325,60925,156,137,263.6805,182.7593 F,19,60325,63148,1,0
Sprite,Background,Centre,"sb/pixel.png",0,0 C,0,63148,,86,191,237 R,0,63148,,5.745384 S,0,63148,,19 M,19,63148,63748,305,371,247.1158,273.9514 F,19,63148,65971,1,0
Sprite,Background,Centre,"sb/pixel.png",0,0 C,0,63148,,86,191,237 R,0,63148,,8.886976 S,0,63148,,18 M,19,63148,63748,305,371,362.8842,468.0486 F,19,63148,65971,1,0
Sprite,Background,Centre,"sb/pixel.png",0,0 C,0,63148,,86,191,237 R,0,63148,,4.683674 S,0,63148,,18 M,19,63148,63748,305,371,169.0561,374.9047 F,19,63148,65971,1,0
Sprite,Background,Centre,"sb/pixel.png",0,0 C,0,63148,,119,214,244 R,0,63148,,7.825267 S,0,63148,,17 M,19,63148,63748,305,371,440.9439,367.0953 F,19,63148,65971,1,0
Sprite,Background,Centre,"sb/pixel.png",0,0 C,0,63148,,86,191,237 R,0,63148,,5.87239 S,0,63148,,16 M,19,63148,63748,305,371,262.6701,273.8188 F,19,63148,65971,1,0
Sprite,Background,Centre,"sb/pixel.png",0,0 C,0,63148,,86,191,237 R,0,63148,,9.013983 S,0,63148,,19 M,19,63148,63748,305,371,347.3299,468.1812 F,19,63148,65971,1,0
Sprite,Background,Centre,"sb/pixel.png",0,0 C,0,63148,,86,191,237 R,0,63148,,4.921194 S,0,63148,,15 M,19,63148,63748,305,371,205.2155,349.8563 F,19,63148,65971,1,0
Sprite,Background,Centre,"sb/pixel.png",0,0 C,0,63148,,86,191,237 R,0,63148,,8.062787 S,0,63148,,16 M,19,63148,63748,305,371,404.7845,392.1437 F,19,63148,65971,1,0
Sprite,Background,Centre,"sb/pixel.png",0,0 C,0,63148,,86,191,237 R,0,63148,,6.025942 S,0,63148,,16 M,19,63148,63748,305,371,276.251,261.7183 F,19,63148,65971,1,0
Sprite,Background,Centre,"sb/pixel.png",0,0 C,0,63148,,119,214,244 R,0,63148,,9.167534 S,0,63148,,19 M,19,63148,63748,305,371,333.749,480.2817 F,19,63148,65971,1,0
Sprite,Background,Centre,"sb/pixel.png",0,0 C,0,63148,,119,214,244 R,0,63148,,4.241451 S,0,63148,,16 M,19,63148,63748,305,371,214.9945,416.8259 F,19,63148,65971,1,0
Sprite,Background,Centre,"sb/pixel.png",0,0 C,0,63148,,119,214,244 R,0,63148,,7.383044 S,0,63148,,16 M,19,63148,63748,305,371,395.0055,325.1741 F,19,63148,65971,1,0
Sprite,Background,Centre,"sb/pixel.png",0,0 C,0,65971,,119,214,244 R,0,65972,,4.614895 S,0,65972,,16 M,19,65972,66572,557,78,436.5746,89.77803 F,19,65972,68795,1,0
Sprite,Background,Centre,"sb/pixel.png",0,0 C,0,65971,,86,191,237 R,0,65972,,7.756488 S,0,65972,,19 M,19,65972,66572,557,78,677.4254,66.22197 F,19,65972,68795,1,0
Sprite,Background,Centre,"sb/pixel.png",0,0 C,0,65971,,119,214,244 R,0,65972,,4.836933 S,0,65972,,15 M,19,65972,66572,557,78,416.0999,60.36044 F,19,65972,68795,1,0
Sprite,Background,Centre,"sb/pixel.png",0,0 C,0,65971,,119,214,244 R,0,65972,,7.978526 S,0,65972,,15 M,19,65972,66572,557,78,697.9001,95.63956 F,19,65972,68795,1,0
Sprite,Background,Centre,"sb/pixel.png",0,0 C,0,65971,,119,214,244 R,0,65972,,5.651825 S,0,65972,,16 M,19,65972,66572,557,78,486.1708,-18.86707 F,19,65972,68795,1,0
Sprite,Background,Centre,"sb/pixel.png",0,0 C,0,65971,,119,214,244 R,0,65972,,8.793418 S,0,65972,,15 M,19,65972,66572,557,78,627.8292,174.8671 F,19,65972,68795,1,0
Sprite,Background,Centre,"sb/pixel.png",0,0 C,0,65971,,86,191,237 R,0,65972,,3.379849 S,0,65972,,17 M,19,65972,66572,557,78,524.9028,210.1581 F,19,65972,68795,1,0
Sprite,Background,Centre,"sb/pixel.png",0,0 C,0,65971,,119,214,244 R,0,65972,,6.521442 S,0,65972,,16 M,19,65972,66572,557,78,589.0972,-54.15813 F,19,65972,68795,1,0
Sprite,Background,Centre,"sb/pixel.png",0,0 C,0,65971,,119,214,244 R,0,65972,,5.673545 S,0,65972,,18 M,19,65972,66572,557,78,496.3073,-8.904548 F,19,65972,68795,1,0
Sprite,Background,Centre,"sb/pixel.png",0,0 C,0,65971,,119,214,244 R,0,65972,,8.815138 S,0,65972,,15 M,19,65972,66572,557,78,617.6927,164.9045 F,19,65972,68795,1,0
Sprite,Background,Centre,"sb/pixel.png",0,0 C,0,65971,,86,191,237 R,0,65972,,4.231613 S,0,65972,,18 M,19,65972,66572,557,78,440.8506,138.5832 F,19,65972,68795,1,0
Sprite,Background,Centre,"sb/pixel.png",0,0 C,0,65971,,86,191,237 R,0,65972,,7.373206 S,0,65972,,17 M,19,65972,66572,557,78,673.1494,17.41681 F,19,65972,68795,1,0
Sprite,Background,Centre,"sb/pixel.png",0,0 C,0,68794,,119,214,244 R,0,68795,,5.684906 S,0,68795,,18 M,19,68795,69395,155,412,91.91922,319.4537 F,19,68795,71618,1,0
Sprite,Background,Centre,"sb/pixel.png",0,0 C,0,68794,,86,191,237 R,0,68795,,8.826499 S,0,68795,,18 M,19,68795,69395,155,412,218.0808,504.5463 F,19,68795,71618,1,0
Sprite,Background,Centre,"sb/pixel.png",0,0 C,0,68794,,119,214,244 R,0,68795,,3.637715 S,0,68795,,19 M,19,68795,69395,155,412,85.97729,539.5181 F,19,68795,71618,1,0
Sprite,Background,Centre,"sb/pixel.png",0,0 C,0,68794,,86,191,237 R,0,68795,,6.779307 S,0,68795,,19 M,19,68795,69395,155,412,224.0227,284.4819 F,19,68795,71618,1,0
Sprite,Background,Centre,"sb/pixel.png",0,0 C,0,68794,,86,191,237 R,0,68795,,4.718861 S,0,68795,,15 M,19,68795,69395,155,412,49.00222,411.314 F,19,68795,71618,1,0
Sprite,Background,Centre,"sb/pixel.png",0,0 C,0,68794,,119,214,244 R,0,68795,,7.860454 S,0,68795,,17 M,19,68795,69395,155,412,260.9978,412.686 F,19,68795,71618,1,0
Sprite,Background,Centre,"sb/pixel.png",0,0 C,0,68794,,119,214,244 R,0,68795,,4.854945 S,0,68795,,18 M,19,68795,69395,155,412,11.47086,391.3994 F,19,68795,71618,1,0
Sprite,Background,Centre,"sb/pixel.png",0,0 C,0,68794,,86,191,237 R,0,68795,,7.996537 S,0,68795,,18 M,19,68795,69395,155,412,298.5291,432.6006 F,19,68795,71618,1,0
Sprite,Background,Centre,"sb/pixel.png",0,0 C,0,68794,,119,214,244 R,0,68795,,4.835289 S,0,68795,,19 M,19,68795,69395,155,412,18.0409,395.0825 F,19,68795,71618,1,0
Sprite,Background,Centre,"sb/pixel.png",0,0 C,0,68794,,86,191,237 R,0,68795,,7.976882 S,0,68795,,17 M,19,68795,69395,155,412,291.9591,428.9175 F,19,68795,71618,1,0
Sprite,Background,Centre,"sb/pixel.png",0,0 C,0,68794,,86,191,237 R,0,68795,,3.50777 S,0,68795,,19 M,19,68795,69395,155,412,117.7629,509.1051 F,19,68795,71618,1,0
Sprite,Background,Centre,"sb/pixel.png",0,0 C,0,68794,,119,214,244 R,0,68795,,6.649363 S,0,68795,,19 M,19,68795,69395,155,412,192.2371,314.8949 F,19,68795,71618,1,0
Sprite,Background,Centre,"sb/pixel.png",0,0 C,0,71617,,119,214,244 R,0,71619,,5.84826 S,0,71619,,15 M,19,71619,72219,488,378,438.2815,270.9856 F,19,71619,74442,1,0
Sprite,Background,Centre,"sb/pixel.png",0,0 C,0,71617,,119,214,244 R,0,71619,,8.989852 S,0,71619,,15 M,19,71619,72219,488,378,537.7184,485.0144 F,19,71619,74442,1,0
Sprite,Background,Centre,"sb/pixel.png",0,0 C,0,71617,,86,191,237 R,0,71619,,3.820637 S,0,71619,,17 M,19,71619,72219,488,378,396.3048,491.6133 F,19,71619,74442,1,0
Sprite,Background,Centre,"sb/pixel.png",0,0 C,0,71617,,119,214,244 R,0,71619,,6.962229 S,0,71619,,16 M,19,71619,72219,488,378,579.6952,264.3867 F,19,71619,74442,1,0
Sprite,Background,Centre,"sb/pixel.png",0,0 C,0,71617,,119,214,244 R,0,71619,,4.064777 S,0,71619,,17 M,19,71619,72219,488,378,399.4745,444.9645 F,19,71619,74442,1,0
Sprite,Background,Centre,"sb/pixel.png",0,0 C,0,71617,,119,214,244 R,0,71619,,7.20637 S,0,71619,,19 M,19,71619,72219,488,378,576.5255,311.0355 F,19,71619,74442,1,0
Sprite,Background,Centre,"sb/pixel.png",0,0 C,0,71617,,86,191,237 R,0,71619,,3.52777 S,0,71619,,18 M,19,71619,72219,488,378,446.9452,478.9728 F,19,71619,74442,1,0
Sprite,Background,Centre,"sb/pixel.png",0,0 C,0,71617,,119,214,244 R,0,71619,,6.669363 S,0,71619,,18 M,19,71619,72219,488,378,529.0548,277.0272 F,19,71619,74442,1,0
Sprite,Background,Centre,"sb/pixel.png",0,0 C,0,71617,,119,214,244 R,0,71619,,3.758429 S,0,71619,,18 M,19,71619,72219,488,378,424.9481,466.9127 F,19,71619,74442,1,0
Sprite,Background,Centre,"sb/pixel.png",0,0 C,0,71617,,86,191,237 R,0,71619,,6.900022 S,0,71619,,17 M,19,71619,72219,488,378,551.0519,289.0873 F,19,71619,74442,1,0
Sprite,Background,Centre,"sb/pixel.png",0,0 C,0,71617,,86,191,237 R,0,71619,,4.089674 S,0,71619,,19 M,19,71619,72219,488,378,382.4013,453.8216 F,19,71619,74442,1,0
Sprite,Background,Centre,"sb/pixel.png",0,0 C,0,71617,,119,214,244 R,0,71619,,7.231266 S,0,71619,,19 M,19,71619,72219,488,378,593.5987,302.1784 F,19,71619,74442,1,0
Sprite,Background,Centre,"sb/pixel.png",0,0 C,0,74440,,86,191,237 R,0,74443,,3.977628 S,0,74443,,16 M,19,74443,75043,114,94,21.99314,177.1308 F,19,74443,77266,1,0
Sprite,Background,Centre,"sb/pixel.png",0,0 C,0,74440,,119,214,244 R,0,74443,,7.11922 S,0,74443,,17 M,19,74443,75043,114,94,206.0069,10.86916 F,19,74443,77266,1,0
Sprite,Background,Centre,"sb/pixel.png",0,0 C,0,74440,,119,214,244 R,0,74443,,3.415926 S,0,74443,,16 M,19,74443,75043,114,94,85.55491,195.0736 F,19,74443,77266,1,0
Sprite,Background,Centre,"sb/pixel.png",0,0 C,0,74440,,86,191,237 R,0,74443,,6.557519 S,0,74443,,17 M,19,74443,75043,114,94,142.4451,-7.07362 F,19,74443,77266,1,0
Sprite,Background,Centre,"sb/pixel.png",0,0 C,0,74440,,86,191,237 R,0,74443,,3.146563 S,0,74443,,19 M,19,74443,75043,114,94,113.3489,224.9984 F,19,74443,77266,1,0
Sprite,Background,Centre,"sb/pixel.png",0,0 C,0,74440,,86,191,237 R,0,74443,,6.288155 S,0,74443,,16 M,19,74443,75043,114,94,114.6511,-36.99838 F,19,74443,77266,1,0
Sprite,Background,Centre,"sb/pixel.png",0,0 C,0,74440,,119,214,244 R,0,74443,,3.896445 S,0,74443,,16 M,19,74443,75043,114,94,37.25975,175.5778 F,19,74443,77266,1,0
Sprite,Background,Centre,"sb/pixel.png",0,0 C,0,74440,,86,191,237 R,0,74443,,7.038037 S,0,74443,,16 M,19,74443,75043,114,94,190.7402,12.42222 F,19,74443,77266,1,0
Sprite,Background,Centre,"sb/pixel.png",0,0 C,0,74440,,119,214,244 R,0,74443,,5.991525 S,0,74443,,15 M,19,74443,75043,114,94,78.34469,-24.7632 F,19,74443,77266,1,0
Sprite,Background,Centre,"sb/pixel.png",0,0 C,0,74440,,119,214,244 R,0,74443,,9.133118 S,0,74443,,18 M,19,74443,75043,114,94,149.6553,212.7632 F,19,74443,77266,1,0
Sprite,Background,Centre,"sb/pixel.png",0,0 C,0,74440,,86,191,237 R,0,74443,,4.779942 S,0,74443,,18 M,19,74443,75043,114,94,-9.717179,85.62985 F,19,74443,77266,1,0
Sprite,Background,Centre,"sb/pixel.png",0,0 C,0,74440,,119,214,244 R,0,74443,,7.921534 S,0,74443,,18 M,19,74443,75043,114,94,237.7172,102.3701 F,19,74443,77266,1,0
Sprite,Background,Centre,"sb/pixel.png",0,0 C,0,77263,,86,191,237 R,0,77266,,4.157419 S,0,77266,,15 M,19,77266,77866,209,72,87.462,147.3493 F,19,77266,80089,1,0
Sprite,Background,Centre,"sb/pixel.png",0,0 C,0,77263,,86,191,237 R,0,77266,,7.299011 S,0,77266,,15 M,19,77266,77866,209,72,330.538,-3.349276 F,19,77266,80089,1,0
Sprite,Background,Centre,"sb/pixel.png",0,0 C,0,77263,,119,214,244 R,0,77266,,4.02633 S,0,77266,,18 M,19,77266,77866,209,72,96.03272,164.49 F,19,77266,80089,1,0
Sprite,Background,Centre,"sb/pixel.png",0,0 C,0,77263,,86,191,237 R,0,77266,,7.167922 S,0,77266,,15 M,19,77266,77866,209,72,321.9673,-20.48996 F,19,77266,80089,1,0
Sprite,Background,Centre,"sb/pixel.png",0,0 C,0,77263,,86,191,237 R,0,77266,,4.865514 S,0,77266,,17 M,19,77266,77866,209,72,86.45088,53.08666 F,19,77266,80089,1,0
Sprite,Background,Centre,"sb/pixel.png",0,0 C,0,77263,,86,191,237 R,0,77266,,8.007106 S,0,77266,,15 M,19,77266,77866,209,72,331.5491,90.91335 F,19,77266,80089,1,0
Sprite,Background,Centre,"sb/pixel.png",0,0 C,0,77263,,86,191,237 R,0,77266,,5.064476 S,0,77266,,16 M,19,77266,77866,209,72,74.77231,22.68543 F,19,77266,80089,1,0
Sprite,Background,Centre,"sb/pixel.png",0,0 C,0,77263,,119,214,244 R,0,77266,,8.206068 S,0,77266,,19 M,19,77266,77866,209,72,343.2277,121.3146 F,19,77266,80089,1,0
Sprite,Background,Centre,"sb/pixel.png",0,0 C,0,77263,,86,191,237 R,0,77266,,4.485025 S,0,77266,,19 M,19,77266,77866,209,72,111.5736,94.54102 F,19,77266,80089,1,0
Sprite,Background,Centre,"sb/pixel.png",0,0 C,0,77263,,86,191,237 R,0,77266,,7.626617 S,0,77266,,15 M,19,77266,77866,209,72,306.4264,49.45898 F,19,77266,80089,1,0
Sprite,Background,Centre,"sb/pixel.png",0,0 C,0,77263,,119,214,244 R,0,77266,,4.637382 S,0,77266,,16 M,19,77266,77866,209,72,92.32896,80.76757 F,19,77266,80089,1,0
Sprite,Background,Centre,"sb/pixel.png",0,0 C,0,77263,,119,214,244 R,0,77266,,7.778975 S,0,77266,,19 M,19,77266,77866,209,72,325.671,63.23243 F,19,77266,80089,1,0
Sprite,Background,Centre,"sb/pixel.png",0,0 C,0,80086,,86,191,237 R,0,80090,,4.497903 S,0,80090,,15 M,19,80090,80690,406,438,304.3831,460.1359 F,19,80090,82913,1,0
Sprite,Background,Centre,"sb/pixel.png",0,0 C,0,80086,,119,214,244 R,0,80090,,7.639496 S,0,80090,,19 M,19,80090,80690,406,438,507.6169,415.8641 F,19,80090,82913,1,0
Sprite,Background,Centre,"sb/pixel.png",0,0 C,0,80086,,86,191,237 R,0,80090,,5.381914 S,0,80090,,15 M,19,80090,80690,406,438,323.6677,372.8356 F,19,80090,82913,1,0
Sprite,Background,Centre,"sb/pixel.png",0,0 C,0,80086,,86,191,237 R,0,80090,,8.523506 S,0,80090,,18 M,19,80090,80690,406,438,488.3323,503.1644 F,19,80090,82913,1,0
Sprite,Background,Centre,"sb/pixel.png",0,0 C,0,80086,,86,191,237 R,0,80090,,5.772515 S,0,80090,,19 M,19,80090,80690,406,438,356.6351,349.8859 F,19,80090,82913,1,0
Sprite,Background,Centre,"sb/pixel.png",0,0 C,0,80086,,119,214,244 R,0,80090,,8.914108 S,0,80090,,16 M,19,80090,80690,406,438,455.3649,526.1141 F,19,80090,82913,1,0
Sprite,Background,Centre,"sb/pixel.png",0,0 C,0,80086,,86,191,237 R,0,80090,,3.213962 S,0,80090,,19 M,19,80090,80690,406,438,398.7694,537.7383 F,19,80090,82913,1,0
Sprite,Background,Centre,"sb/pixel.png",0,0 C,0,80086,,86,191,237 R,0,80090,,6.355554 S,0,80090,,17 M,19,80090,80690,406,438,413.2306,338.2617 F,19,80090,82913,1,0
Sprite,Background,Centre,"sb/pixel.png",0,0 C,0,80086,,119,214,244 R,0,80090,,3.457416 S,0,80090,,16 M,19,80090,80690,406,438,368.1069,553.966 F,19,80090,82913,1,0
Sprite,Background,Centre,"sb/pixel.png",0,0 C,0,80086,,119,214,244 R,0,80090,,6.599009 S,0,80090,,16 M,19,80090,80690,406,438,443.8931,322.034 F,19,80090,82913,1,0
Sprite,Background,Centre,"sb/pixel.png",0,0 C,0,80086,,119,214,244 R,0,80090,,5.501654 S,0,80090,,19 M,19,80090,80690,406,438,325.7021,357.0787 F,19,80090,82913,1,0
Sprite,Background,Centre,"sb/pixel.png",0,0 C,0,80086,,119,214,244 R,0,80090,,8.643247 S,0,80090,,17 M,19,80090,80690,406,438,486.2979,518.9213 F,19,80090,82913,1,0
Sprite,Background,Centre,"sb/pixel.png",0,0 C,0,85732,,86,191,237 R,0,85737,,4.095393 S,0,85737,,18 M,19,85737,86337,226,353,124.8631,424.7449 F,19,85737,88560,1,0
Sprite,Background,Centre,"sb/pixel.png",0,0 C,0,85732,,86,191,237 R,0,85737,,7.236985 S,0,85737,,16 M,19,85737,86337,226,353,327.1369,281.2551 F,19,85737,88560,1,0
Sprite,Background,Centre,"sb/pixel.png",0,0 C,0,85732,,119,214,244 R,0,85737,,3.527652 S,0,85737,,16 M,19,85737,86337,226,353,180.8151,464.168 F,19,85737,88560,1,0
Sprite,Background,Centre,"sb/pixel.png",0,0 C,0,85732,,119,214,244 R,0,85737,,6.669245 S,0,85737,,18 M,19,85737,86337,226,353,271.1849,241.832 F,19,85737,88560,1,0
Sprite,Background,Centre,"sb/pixel.png",0,0 C,0,85732,,119,214,244 R,0,85737,,4.05304 S,0,85737,,15 M,19,85737,86337,226,353,126.4107,430.188 F,19,85737,88560,1,0
Sprite,Background,Centre,"sb/pixel.png",0,0 C,0,85732,,119,214,244 R,0,85737,,7.194632 S,0,85737,,17 M,19,85737,86337,226,353,325.5893,275.812 F,19,85737,88560,1,0
Sprite,Background,Centre,"sb/pixel.png",0,0 C,0,85732,,119,214,244 R,0,85737,,4.27375 S,0,85737,,15 M,19,85737,86337,226,353,111.023,406.9379 F,19,85737,88560,1,0
Sprite,Background,Centre,"sb/pixel.png",0,0 C,0,85732,,119,214,244 R,0,85737,,7.415342 S,0,85737,,18 M,19,85737,86337,226,353,340.977,299.0621 F,19,85737,88560,1,0
Sprite,Background,Centre,"sb/pixel.png",0,0 C,0,85732,,86,191,237 R,0,85737,,5.388048 S,0,85737,,17 M,19,85737,86337,226,353,132.3646,277.9506 F,19,85737,88560,1,0
Sprite,Background,Centre,"sb/pixel.png",0,0 C,0,85732,,119,214,244 R,0,85737,,8.529641 S,0,85737,,16 M,19,85737,86337,226,353,319.6354,428.0494 F,19,85737,88560,1,0
Sprite,Background,Centre,"sb/pixel.png",0,0 C,0,85732,,86,191,237 R,0,85737,,5.101453 S,0,85737,,17 M,19,85737,86337,226,353,91.83663,297.9983 F,19,85737,88560,1,0
Sprite,Background,Centre,"sb/pixel.png",0,0 C,0,85732,,86,191,237 R,0,85737,,8.243046 S,0,85737,,17 M,19,85737,86337,226,353,360.1634,408.0017 F,19,85737,88560,1,0
Sprite,Background,Centre,"sb/pixel.png",0,0 C,0,88555,,119,214,244 R,0,88560,,5.051043 S,0,88560,,16 M,19,88560,89160,159,377,51.47488,339.1272 F,19,88560,91383,1,0
Sprite,Background,Centre,"sb/pixel.png",0,0 C,0,88555,,86,191,237 R,0,88560,,8.192636 S,0,88560,,16 M,19,88560,89160,159,377,266.5251,414.8728 F,19,88560,91383,1,0
Sprite,Background,Centre,"sb/pixel.png",0,0 C,0,88555,,119,214,244 R,0,88560,,3.356693 S,0,88560,,17 M,19,88560,89160,159,377,129.5445,511.8198 F,19,88560,91383,1,0
Sprite,Background,Centre,"sb/pixel.png",0,0 C,0,88555,,119,214,244 R,0,88560,,6.498286 S,0,88560,,18 M,19,88560,89160,159,377,188.4555,242.1802 F,19,88560,91383,1,0
Sprite,Background,Centre,"sb/pixel.png",0,0 C,0,88555,,119,214,244 R,0,88560,,3.405401 S,0,88560,,17 M,19,88560,89160,159,377,123.7976,507.3295 F,19,88560,91383,1,0
Sprite,Background,Centre,"sb/pixel.png",0,0 C,0,88555,,86,191,237 R,0,88560,,6.546993 S,0,88560,,17 M,19,88560,89160,159,377,194.2024,246.6705 F,19,88560,91383,1,0
Sprite,Background,Centre,"sb/pixel.png",0,0 C,0,88555,,119,214,244 R,0,88560,,3.526809 S,0,88560,,15 M,19,88560,89160,159,377,119.1695,475.232 F,19,88560,91383,1,0
Sprite,Background,Centre,"sb/pixel.png",0,0 C,0,88555,,119,214,244 R,0,88560,,6.668402 S,0,88560,,15 M,19,88560,89160,159,377,198.8305,278.768 F,19,88560,91383,1,0
Sprite,Background,Centre,"sb/pixel.png",0,0 C,0,88555,,119,214,244 R,0,88560,,4.480358 S,0,88560,,16 M,19,88560,89160,159,377,27.61782,408.0439 F,19,88560,91383,1,0
Sprite,Background,Centre,"sb/pixel.png",0,0 C,0,88555,,86,191,237 R,0,88560,,7.621951 S,0,88560,,15 M,19,88560,89160,159,377,290.3822,345.9561 F,19,88560,91383,1,0
Sprite,Background,Centre,"sb/pixel.png",0,0 C,0,88555,,86,191,237 R,0,88560,,5.391022 S,0,88560,,18 M,19,88560,89160,159,377,47.68428,287.2347 F,19,88560,91383,1,0
Sprite,Background,Centre,"sb/pixel.png",0,0 C,0,88555,,119,214,244 R,0,88560,,8.532615 S,0,88560,,19 M,19,88560,89160,159,377,270.3157,466.7653 F,19,88560,91383,1,0
Sprite,Background,Centre,"sb/pixel.png",0,0 C,0,91378,,86,191,237 R,0,91384,,3.250267 S,0,91384,,15 M,19,91384,91984,553,261,541.9371,362.3983 F,19,91384,94207,1,0
Sprite,Background,Centre,"sb/pixel.png",0,0 C,0,91378,,119,214,244 R,0,91384,,6.391859 S,0,91384,,16 M,19,91384,91984,553,261,564.0629,159.6017 F,19,91384,94207,1,0
Sprite,Background,Centre,"sb/pixel.png",0,0 C,0,91378,,119,214,244 R,0,91384,,3.8595 S,0,91384,,15 M,19,91384,91984,553,261,480.6409,343.8503 F,19,91384,94207,1,0
Sprite,Background,Centre,"sb/pixel.png",0,0 C,0,91378,,119,214,244 R,0,91384,,7.001092 S,0,91384,,17 M,19,91384,91984,553,261,625.3591,178.1497 F,19,91384,94207,1,0
Sprite,Background,Centre,"sb/pixel.png",0,0 C,0,91378,,119,214,244 R,0,91384,,3.754303 S,0,91384,,17 M,19,91384,91984,553,261,493.7661,345.2635 F,19,91384,94207,1,0
Sprite,Background,Centre,"sb/pixel.png",0,0 C,0,91378,,119,214,244 R,0,91384,,6.895895 S,0,91384,,17 M,19,91384,91984,553,261,612.2339,176.7365 F,19,91384,94207,1,0
Sprite,Background,Centre,"sb/pixel.png",0,0 C,0,91378,,119,214,244 R,0,91384,,3.404871 S,0,91384,,16 M,19,91384,91984,553,261,520.2089,382.6583 F,19,91384,94207,1,0
Sprite,Background,Centre,"sb/pixel.png",0,0 C,0,91378,,86,191,237 R,0,91384,,6.546463 S,0,91384,,15 M,19,91384,91984,553,261,585.7911,139.3417 F,19,91384,94207,1,0
Sprite,Background,Centre,"sb/pixel.png",0,0 C,0,91378,,119,214,244 R,0,91384,,3.656673 S,0,91384,,16 M,19,91384,91984,553,261,483.0501,384.576 F,19,91384,94207,1,0
Sprite,Background,Centre,"sb/pixel.png",0,0 C,0,91378,,86,191,237 R,0,91384,,6.798265 S,0,91384,,15 M,19,91384,91984,553,261,622.9499,137.424 F,19,91384,94207,1,0
Sprite,Background,Centre,"sb/pixel.png",0,0 C,0,91378,,119,214,244 R,0,91384,,6.002395 S,0,91384,,15 M,19,91384,91984,553,261,520.5776,148.5821 F,19,91384,94207,1,0
Sprite,Background,Centre,"sb/pixel.png",0,0 C,0,91378,,86,191,237 R,0,91384,,9.143988 S,0,91384,,17 M,19,91384,91984,553,261,585.4224,373.4179 F,19,91384,94207,1,0
Sprite,Background,Centre,"sb/pixel.png",0,0 C,0,94201,,119,214,244 R,0,94207,,5.441654 S,0,94207,,16 M,19,94207,94807,66,248,-10.80344,179.3689 F,19,94207,97030,1,0
Sprite,Background,Centre,"sb/pixel.png",0,0 C,0,94201,,86,191,237 R,0,94207,,8.583246 S,0,94207,,18 M,19,94207,94807,66,248,142.8034,316.6311 F,19,94207,97030,1,0
Sprite,Background,Centre,"sb/pixel.png",0,0 C,0,94201,,119,214,244 R,0,94207,,5.584375 S,0,94207,,18 M,19,94207,94807,66,248,-11.19683,156.127 F,19,94207,97030,1,0
Sprite,Background,Centre,"sb/pixel.png",0,0 C,0,94201,,119,214,244 R,0,94207,,8.725968 S,0,94207,,18 M,19,94207,94807,66,248,143.1968,339.873 F,19,94207,97030,1,0
Sprite,Background,Centre,"sb/pixel.png",0,0 C,0,94201,,86,191,237 R,0,94207,,5.496618 S,0,94207,,16 M,19,94207,94807,66,248,-13.28849,168.8967 F,19,94207,97030,1,0
Sprite,Background,Centre,"sb/pixel.png",0,0 C,0,94201,,86,191,237 R,0,94207,,8.638211 S,0,94207,,19 M,19,94207,94807,66,248,145.2885,327.1033 F,19,94207,97030,1,0
Sprite,Background,Centre,"sb/pixel.png",0,0 C,0,94201,,119,214,244 R,0,94207,,5.221583 S,0,94207,,18 M,19,94207,94807,66,248,-55.36611,180.2411 F,19,94207,97030,1,0
Sprite,Background,Centre,"sb/pixel.png",0,0 C,0,94201,,86,191,237 R,0,94207,,8.363176 S,0,94207,,16 M,19,94207,94807,66,248,187.3661,315.7589 F,19,94207,97030,1,0
Sprite,Background,Centre,"sb/pixel.png",0,0 C,0,94201,,119,214,244 R,0,94207,,3.737297 S,0,94207,,16 M,19,94207,94807,66,248,-14.23612,366.3688 F,19,94207,97030,1,0
Sprite,Background,Centre,"sb/pixel.png",0,0 C,0,94201,,119,214,244 R,0,94207,,6.87889 S,0,94207,,19 M,19,94207,94807,66,248,146.2361,129.6312 F,19,94207,97030,1,0
Sprite,Background,Centre,"sb/pixel.png",0,0 C,0,94201,,86,191,237 R,0,94207,,3.927076 S,0,94207,,19 M,19,94207,94807,66,248,-7.545357,321.5329 F,19,94207,97030,1,0
Sprite,Background,Centre,"sb/pixel.png",0,0 C,0,94201,,86,191,237 R,0,94207,,7.068668 S,0,94207,,16 M,19,94207,94807,66,248,139.5454,174.4671 F,19,94207,97030,1,0
Sprite,Background,Centre,"sb/pixel.png",0,0 C,0,97024,,86,191,237 R,0,97031,,4.765654 S,0,97031,,17 M,19,97031,97631,439,86,296.2028,78.38668 F,19,97031,99854,1,0
Sprite,Background,Centre,"sb/pixel.png",0,0 C,0,97024,,119,214,244 R,0,97031,,7.907247 S,0,97031,,17 M,19,97031,97631,439,86,581.7972,93.61332 F,19,97031,99854,1,0
Sprite,Background,Centre,"sb/pixel.png",0,0 C,0,97024,,86,191,237 R,0,97031,,5.179014 S,0,97031,,17 M,19,97031,97631,439,86,325.5774,28.86587 F,19,97031,99854,1,0
Sprite,Background,Centre,"sb/pixel.png",0,0 C,0,97024,,86,191,237 R,0,97031,,8.320607 S,0,97031,,17 M,19,97031,97631,439,86,552.4226,143.1341 F,19,97031,99854,1,0
Sprite,Background,Centre,"sb/pixel.png",0,0 C,0,97024,,86,191,237 R,0,97031,,4.974948 S,0,97031,,16 M,19,97031,97631,439,86,316.3524,53.03684 F,19,97031,99854,1,0
Sprite,Background,Centre,"sb/pixel.png",0,0 C,0,97024,,119,214,244 R,0,97031,,8.11654 S,0,97031,,18 M,19,97031,97631,439,86,561.6476,118.9632 F,19,97031,99854,1,0
Sprite,Background,Centre,"sb/pixel.png",0,0 C,0,97024,,119,214,244 R,0,97031,,4.285456 S,0,97031,,18 M,19,97031,97631,439,86,347.976,127.4081 F,19,97031,99854,1,0
Sprite,Background,Centre,"sb/pixel.png",0,0 C,0,97024,,119,214,244 R,0,97031,,7.427048 S,0,97031,,19 M,19,97031,97631,439,86,530.024,44.59187 F,19,97031,99854,1,0
Sprite,Background,Centre,"sb/pixel.png",0,0 C,0,97024,,119,214,244 R,0,97031,,4.293542 S,0,97031,,17 M,19,97031,97631,439,86,323.8916,137.2451 F,19,97031,99854,1,0
Sprite,Background,Centre,"sb/pixel.png",0,0 C,0,97024,,119,214,244 R,0,97031,,7.435135 S,0,97031,,19 M,19,97031,97631,439,86,554.1084,34.75494 F,19,97031,99854,1,0
Sprite,Background,Centre,"sb/pixel.png",0,0 C,0,97024,,119,214,244 R,0,97031,,3.388066 S,0,97031,,16 M,19,97031,97631,439,86,403.3782,227.5877 F,19,97031,99854,1,0
Sprite,Background,Centre,"sb/pixel.png",0,0 C,0,97024,,86,191,237 R,0,97031,,6.529658 S,0,97031,,18 M,19,97031,97631,439,86,474.6218,-55.58773 F,19,97031,99854,1,0
Sprite,Background,Centre,"sb/pixel.png",0,0 C,0,99847,,119,214,244 R,0,99854,,3.838402 S,0,99854,,18 M,19,99854,100454,159,68,89.04662,151.5914 F,19,99854,102677,1,0
Sprite,Background,Centre,"sb/pixel.png",0,0 C,0,99847,,119,214,244 R,0,99854,,6.979995 S,0,99854,,16 M,19,99854,100454,159,68,228.9534,-15.59141 F,19,99854,102677,1,0
Sprite,Background,Centre,"sb/pixel.png",0,0 C,0,99847,,119,214,244 R,0,99854,,4.467038 S,0,99854,,19 M,19,99854,100454,159,68,25.13279,101.5197 F,19,99854,102677,1,0
Sprite,Background,Centre,"sb/pixel.png",0,0 C,0,99847,,86,191,237 R,0,99854,,7.608631 S,0,99854,,17 M,19,99854,100454,159,68,292.8672,34.48029 F,19,99854,102677,1,0
Sprite,Background,Centre,"sb/pixel.png",0,0 C,0,99847,,86,191,237 R,0,99854,,4.007555 S,0,99854,,19 M,19,99854,100454,159,68,50.83583,160.0028 F,19,99854,102677,1,0
Sprite,Background,Centre,"sb/pixel.png",0,0 C,0,99847,,119,214,244 R,0,99854,,7.149148 S,0,99854,,18 M,19,99854,100454,159,68,267.1642,-24.00279 F,19,99854,102677,1,0
Sprite,Background,Centre,"sb/pixel.png",0,0 C,0,99847,,86,191,237 R,0,99854,,3.27059 S,0,99854,,18 M,19,99854,100454,159,68,141.2477,204.8534 F,19,99854,102677,1,0
Sprite,Background,Centre,"sb/pixel.png",0,0 C,0,99847,,119,214,244 R,0,99854,,6.412183 S,0,99854,,19 M,19,99854,100454,159,68,176.7523,-68.85341 F,19,99854,102677,1,0
Sprite,Background,Centre,"sb/pixel.png",0,0 C,0,99847,,119,214,244 R,0,99854,,3.606901 S,0,99854,,19 M,19,99854,100454,159,68,109.1945,167.1989 F,19,99854,102677,1,0
Sprite,Background,Centre,"sb/pixel.png",0,0 C,0,99847,,119,214,244 R,0,99854,,6.748493 S,0,99854,,18 M,19,99854,100454,159,68,208.8055,-31.19885 F,19,99854,102677,1,0
Sprite,Background,Centre,"sb/pixel.png",0,0 C,0,99847,,86,191,237 R,0,99854,,3.279113 S,0,99854,,19 M,19,99854,100454,159,68,143.6462,178.9426 F,19,99854,102677,1,0
Sprite,Background,Centre,"sb/pixel.png",0,0 C,0,99847,,119,214,244 R,0,99854,,6.420706 S,0,99854,,16 M,19,99854,100454,159,68,174.3538,-42.9426 F,19,99854,102677,1,0
Sprite,Background,Centre,"sb/pixel.png",0,0 C,0,102670,,86,191,237 R,0,102678,,4.455695 S,0,102678,,19 M,19,102678,103278,392,434,263.3578,467.7666 F,19,102678,105501,1,0
Sprite,Background,Centre,"sb/pixel.png",0,0 C,0,102670,,119,214,244 R,0,102678,,7.597288 S,0,102678,,16 M,19,102678,103278,392,434,520.6422,400.2334 F,19,102678,105501,1,0
Sprite,Background,Centre,"sb/pixel.png",0,0 C,0,102670,,86,191,237 R,0,102678,,5.34972 S,0,102678,,18 M,19,102678,103278,392,434,293.1465,360.8086 F,19,102678,105501,1,0
Sprite,Background,Centre,"sb/pixel.png",0,0 C,0,102670,,119,214,244 R,0,102678,,8.491312 S,0,102678,,17 M,19,102678,103278,392,434,490.8535,507.1914 F,19,102678,105501,1,0
Sprite,Background,Centre,"sb/pixel.png",0,0 C,0,102670,,119,214,244 R,0,102678,,4.086537 S,0,102678,,18 M,19,102678,103278,392,434,301.228,499.6083 F,19,102678,105501,1,0
Sprite,Background,Centre,"sb/pixel.png",0,0 C,0,102670,,119,214,244 R,0,102678,,7.228129 S,0,102678,,15 M,19,102678,103278,392,434,482.772,368.3917 F,19,102678,105501,1,0
Sprite,Background,Centre,"sb/pixel.png",0,0 C,0,102670,,119,214,244 R,0,102678,,6.160815 S,0,102678,,16 M,19,102678,103278,392,434,376.6198,308.9422 F,19,102678,105501,1,0
Sprite,Background,Centre,"sb/pixel.png",0,0 C,0,102670,,86,191,237 R,0,102678,,9.302407 S,0,102678,,19 M,19,102678,103278,392,434,407.3802,559.0578 F,19,102678,105501,1,0
Sprite,Background,Centre,"sb/pixel.png",0,0 C,0,102670,,119,214,244 R,0,102678,,3.517027 S,0,102678,,18 M,19,102678,103278,392,434,345.7988,551.2239 F,19,102678,105501,1,0
Sprite,Background,Centre,"sb/pixel.png",0,0 C,0,102670,,86,191,237 R,0,102678,,6.658619 S,0,102678,,17 M,19,102678,103278,392,434,438.2012,316.7761 F,19,102678,105501,1,0
Sprite,Background,Centre,"sb/pixel.png",0,0 C,0,102670,,86,191,237 R,0,102678,,5.728667 S,0,102678,,16 M,19,102678,103278,392,434,329.869,333.6818 F,19,102678,105501,1,0
Sprite,Background,Centre,"sb/pixel.png",0,0 C,0,102670,,119,214,244 R,0,102678,,8.87026 S,0,102678,,18 M,19,102678,103278,392,434,454.131,534.3182 F,19,102678,105501,1,0
Sprite,Background,Centre,"sb/pixel.png",0,0 M,0,107266,109266,594,520,594,-40 F,0,107266,109266,1 F,0,107266,114325,0.8 L,107266,4 V,0,0,1200,4,4,4,-4 R,0,0,1200,0,6.283185 C,0,107266,,119,214,244
Sprite,Background,Centre,"sb/pixel.png",0,0 M,0,107310,109310,268,520,268,-40 F,0,107310,109310,1 F,0,107266,114325,0.8 L,107310,4 V,0,0,1200,4,4,4,-4 R,0,0,1200,0,6.283185 C,0,107310,,86,191,237
Sprite,Background,Centre,"sb/pixel.png",0,0 M,0,107354,109354,743,520,743,-40 F,0,107354,109354,1 F,0,107266,114325,0.8 L,107354,4 V,0,0,1200,4,4,4,-4 R,0,0,1200,0,6.283185 C,0,107354,,86,191,237
Sprite,Background,Centre,"sb/pixel.png",0,0 M,0,107398,109398,-23,520,-23,-40 F,0,107398,109398,1 F,0,107266,114325,0.8 L,107398,4 V,0,0,1200,4,4,4,-4 R,0,0,1200,0,6.283185 C,0,107398,,119,214,244
Sprite,Background,Centre,"sb/pixel.png",0,0 M,0,107442,109442,-47,520,-47,-40 F,0,107442,109442,1 F,0,107266,114325,0.8 L,107442,4 V,0,0,1200,4,4,4,-4 R,0,0,1200,0,6.283185 C,0,107442,,86,191,237
Sprite,Background,Centre,"sb/pixel.png",0,0 M,0,107486,109486,406,520,406,-40 F,0,107486,109486,1 F,0,107266,114325,0.8 L,107486,4 V,0,0,1200,4,4,4,-4 R,0,0,1200,0,6.283185 C,0,107486,,119,214,244
Sprite,Background,Centre,"sb/pixel.png",0,0 M,0,107530,109530,62,520,62,-40 F,0,107530,109530,1 F,0,107266,114325,0.8 L,107530,4 V,0,0,1200,4,4,4,-4 R,0,0,1200,0,6.283185 C,0,107530,,119,214,244
Sprite,Background,Centre,"sb/pixel.png",0,0 M,0,107574,109574,711,520,711,-40 F,0,107574,109574,1 F,0,107266,114325,0.8 L,107574,4 V,0,0,1200,4,4,4,-4 R,0,0,1200,0,6.283185 C,0,107574,,86,191,237
Sprite,Background,Centre,"sb/pixel.png",0,0 M,0,107618,109618,700,520,700,-40 F,0,107618,109618,1 F,0,107266,114325,0.8 L,107618,4 V,0,0,1200,4,4,4,-4 R,0,0,1200,0,6.283185 C,0,107618,,86,191,237
Sprite,Background,Centre,"sb/pixel.png",0,0 M,0,107663,109663,66,520,66,-40 F,0,107663,109663,1 F,0,107266,114325,0.8 L,107663,4 V,0,0,1200,4,4,4,-4 R,0,0,1200,0,6.283185 C,0,107663,,119,214,244
Sprite,Background,Centre,"sb/pixel.png",0,0 M,0,107707,109707,9,520,9,-40 F,0,107707,109707,1 F,0,107266,114325,0.8 L,107707,4 V,0,0,1200,4,4,4,-4 R,0,0,1200,0,6.283185 C,0,107707,,119,214,244
Sprite,Background,Centre,"sb/pixel.png",0,0 M,0,107751,109751,527,520,527,-40 F,0,107751,109751,1 F,0,107266,114325,0.8 L,107751,4 V,0,0,1200,4,4,4,-4 R,0,0,1200,0,6.283185 C,0,107751,,86,191,237
Sprite,Background,Centre,"sb/pixel.png",0,0 M,0,107795,109795,621,520,621,-40 F,0,107795,109795,1 F,0,107266,114325,0.8 L,107795,4 V,0,0,1200,4,4,4,-4 R,0,0,1200,0,6.283185 C,0,107795,,119,214,244
Sprite,Background,Centre,"sb/pixel.png",0,0 M,0,107839,109839,432,520,432,-40 F,0,107839,109839,1 F,0,107266,114325,0.8 L,107839,4 V,0,0,1200,4,4,4,-4 R,0,0,1200,0,6.283185 C,0,107839,,119,214,244
Sprite,Background,Centre,"sb/pixel.png",0,0 M,0,107883,109883,710,520,710,-40 F,0,107883,109883,1 F,0,107266,114325,0.8 L,107883,4 V,0,0,1200,4,4,4,-4 R,0,0,1200,0,6.283185 C,0,107883,,86,191,237
Sprite,Background,Centre,"sb/pixel.png",0,0 M,0,107927,109927,597,520,597,-40 F,0,107927,109927,1 F,0,107266,114325,0.8 L,107927,4 V,0,0,1200,4,4,4,-4 R,0,0,1200,0,6.283185 C,0,107927,,86,191,237
Sprite,Background,Centre,"sb/pixel.png",0,0 M,0,107971,109971,615,520,615,-40 F,0,107971,109971,1 F,0,107266,114325,0.8 L,107971,4 V,0,0,1200,4,4,4,-4 R,0,0,1200,0,6.283185 C,0,107971,,86,191,237
Sprite,Background,Centre,"sb/pixel.png",0,0 M,0,108016,110016,692,520,692,-40 F,0,108016,110016,1 F,0,107266,114325,0.8 L,108016,4 V,0,0,1200,4,4,4,-4 R,0,0,1200,0,6.283185 C,0,108016,,119,214,244
Sprite,Background,Centre,"sb/pixel.png",0,0 M,0,108060,110060,431,520,431,-40 F,0,108060,110060,1 F,0,107266,114325,0.8 L,108060,4 V,0,0,1200,4,4,4,-4 R,0,0,1200,0,6.283185 C,0,108060,,119,214,244
Sprite,Background,Centre,"sb/pixel.png",0,0 M,0,108104,110104,342,520,342,-40 F,0,108104,110104,1 F,0,107266,114325,0.8 L,108104,4 V,0,0,1200,4,4,4,-4 R,0,0,1200,0,6.283185 C,0,108104,,119,214,244
Sprite,Background,Centre,"sb/pixel.png",0,0 M,0,108148,110148,118,520,118,-40 F,0,108148,110148,1 F,0,107266,114325,0.8 L,108148,4 V,0,0,1200,4,4,4,-4 R,0,0,1200,0,6.283185 C,0,108148,,119,214,244
Sprite,Background,Centre,"sb/pixel.png",0,0 M,0,108192,110192,566,520,566,-40 F,0,108192,110192,1 F,0,107266,114325,0.8 L,108192,4 V,0,0,1200,4,4,4,-4 R,0,0,1200,0,6.283185 C,0,108192,,119,214,244
Sprite,Background,Centre,"sb/pixel.png",0,0 M,0,108236,110236,677,520,677,-40 F,0,108236,110236,1 F,0,107266,114325,0.8 L,108236,4 V,0,0,1200,4,4,4,-4 R,0,0,1200,0,6.283185 C,0,108236,,119,214,244
Sprite,Background,Centre,"sb/pixel.png",0,0 M,0,108280,110280,236,520,236,-40 F,0,108280,110280,1 F,0,107266,114325,0.8 L,108280,4 V,0,0,1200,4,4,4,-4 R,0,0,1200,0,6.283185 C,0,108280,,86,191,237
Sprite,Background,Centre,"sb/pixel.png",0,0 M,0,108324,110324,288,520,288,-40 F,0,108324,110324,1 F,0,107266,114325,0.8 L,108324,4 V,0,0,1200,4,4,4,-4 R,0,0,1200,0,6.283185 C,0,108324,,119,214,244
Sprite,Background,Centre,"sb/pixel.png",0,0 M,0,108368,110368,255,520,255,-40 F,0,108368,110368,1 F,0,107266,114325,0.8 L,108368,4 V,0,0,1200,4,4,4,-4 R,0,0,1200,0,6.283185 C,0,108368,,119,214,244
Sprite,Background,Centre,"sb/pixel.png",0,0 M,0,108413,110413,31,520,31,-40 F,0,108413,110413,1 F,0,107266,114325,0.8 L,108413,4 V,0,0,1200,4,4,4,-4 R,0,0,1200,0,6.283185 C,0,108413,,119,214,244
Sprite,Background,Centre,"sb/pixel.png",0,0 M,0,108457,110457,442,520,442,-40 F,0,108457,110457,1 F,0,107266,114325,0.8 L,108457,4 V,0,0,1200,4,4,4,-4 R,0,0,1200,0,6.283185 C,0,108457,,86,191,237
Sprite,Background,Centre,"sb/pixel.png",0,0 M,0,108501,110501,264,520,264,-40 F,0,108501,110501,1 F,0,107266,114325,0.8 L,108501,4 V,0,0,1200,4,4,4,-4 R,0,0,1200,0,6.283185 C,0,108501,,86,191,237
Sprite,Background,Centre,"sb/pixel.png",0,0 M,0,108545,110545,497,520,497,-40 F,0,108545,110545,1 F,0,107266,114325,0.8 L,108545,4 V,0,0,1200,4,4,4,-4 R,0,0,1200,0,6.283185 C,0,108545,,86,191,237
Sprite,Background,Centre,"sb/pixel.png",0,0 M,0,108589,110589,-102,520,-102,-40 F,0,108589,110589,1 F,0,107266,114325,0.8 L,108589,4 V,0,0,1200,4,4,4,-4 R,0,0,1200,0,6.283185 C,0,108589,,86,191,237
Sprite,Background,Centre,"sb/pixel.png",0,0 M,0,108633,110633,243,520,243,-40 F,0,108633,110633,1 F,0,107266,114325,0.8 L,108633,4 V,0,0,1200,4,4,4,-4 R,0,0,1200,0,6.283185 C,0,108633,,119,214,244
Sprite,Background,Centre,"sb/pixel.png",0,0 M,0,108677,110677,643,520,643,-40 F,0,108677,110677,1 F,0,107266,114325,0.8 L,108677,4 V,0,0,1200,4,4,4,-4 R,0,0,1200,0,6.283185 C,0,108677,,86,191,237
Sprite,Background,Centre,"sb/pixel.png",0,0 M,0,108721,110721,104,520,104,-40 F,0,108721,110721,1 F,0,107266,114325,0.8 L,108721,4 V,0,0,1200,4,4,4,-4 R,0,0,1200,0,6.283185 C,0,108721,,119,214,244
Sprite,Background,Centre,"sb/pixel.png",0,0 M,0,108766,110766,191,520,191,-40 F,0,108766,110766,1 F,0,107266,114325,0.8 L,108766,4 V,0,0,1200,4,4,4,-4 R,0,0,1200,0,6.283185 C,0,108766,,86,191,237
Sprite,Background,Centre,"sb/pixel.png",0,0 M,0,108810,110810,-93,520,-93,-40 F,0,108810,110810,1 F,0,107266,114325,0.8 L,108810,4 V,0,0,1200,4,4,4,-4 R,0,0,1200,0,6.283185 C,0,108810,,86,191,237
Sprite,Background,Centre,"sb/pixel.png",0,0 M,0,108854,110854,1,520,1,-40 F,0,108854,110854,1 F,0,107266,114325,0.8 L,108854,4 V,0,0,1200,4,4,4,-4 R,0,0,1200,0,6.283185 C,0,108854,,86,191,237
Sprite,Background,Centre,"sb/pixel.png",0,0 M,0,108898,110898,568,520,568,-40 F,0,108898,110898,1 F,0,107266,114325,0.8 L,108898,4 V,0,0,1200,4,4,4,-4 R,0,0,1200,0,6.283185 C,0,108898,,86,191,237
Sprite,Background,Centre,"sb/pixel.png",0,0 M,0,108942,110942,124,520,124,-40 F,0,108942,110942,1 F,0,107266,114325,0.8 L,108942,4 V,0,0,1200,4,4,4,-4 R,0,0,1200,0,6.283185 C,0,108942,,119,214,244
Sprite,Background,Centre,"sb/pixel.png",0,0 M,0,108986,110986,651,520,651,-40 F,0,108986,110986,1 F,0,107266,114325,0.8 L,108986,4 V,0,0,1200,4,4,4,-4 R,0,0,1200,0,6.283185 C,0,108986,,86,191,237
Sprite,Background,Centre,"sb/pixel.png",0,0 M,0,109030,111030,491,520,491,-40 F,0,109030,111030,1 F,0,107266,114325,0.8 L,109030,4 V,0,0,1200,4,4,4,-4 R,0,0,1200,0,6.283185 C,0,109030,,119,214,244
Sprite,Background,Centre,"sb/pixel.png",0,0 M,0,109074,111074,718,520,718,-40 F,0,109074,111074,1 F,0,107266,114325,0.8 L,109074,4 V,0,0,1200,4,4,4,-4 R,0,0,1200,0,6.283185 C,0,109074,,86,191,237
Sprite,Background,Centre,"sb/pixel.png",0,0 M,0,109118,111118,197,520,197,-40 F,0,109118,111118,1 F,0,107266,114325,0.8 L,109118,4 V,0,0,1200,4,4,4,-4 R,0,0,1200,0,6.283185 C,0,109118,,86,191,237
Sprite,Background,Centre,"sb/pixel.png",0,0 M,0,109163,111163,553,520,553,-40 F,0,109163,111163,1 F,0,107266,114325,0.8 L,109163,4 V,0,0,1200,4,4,4,-4 R,0,0,1200,0,6.283185 C,0,109163,,119,214,244
Sprite,Background,Centre,"sb/pixel.png",0,0 M,0,109207,111207,-63,520,-63,-40 F,0,109207,111207,1 F,0,107266,114325,0.8 L,109207,4 V,0,0,1200,4,4,4,-4 R,0,0,1200,0,6.283185 C,0,109207,,119,214,244
Sprite,Background,Centre,"sb/pixel.png",0,0 M,0,109251,111251,472,520,472,-40 F,0,109251,111251,1 F,0,107266,114325,0.8 L,109251,4 V,0,0,1200,4,4,4,-4 R,0,0,1200,0,6.283185 C,0,109251,,86,191,237
Sprite,Background,Centre,"sb/pixel.png",0,0 M,0,109295,111295,485,520,485,-40 F,0,109295,111295,1 F,0,107266,114325,0.8 L,109295,4 V,0,0,1200,4,4,4,-4 R,0,0,1200,0,6.283185 C,0,109295,,86,191,237
Sprite,Background,Centre,"sb/pixel.png",0,0 M,0,109339,111339,253,520,253,-40 F,0,109339,111339,1 F,0,107266,114325,0.8 L,109339,4 V,0,0,1200,4,4,4,-4 R,0,0,1200,0,6.283185 C,0,109339,,86,191,237
Sprite,Background,Centre,"sb/pixel.png",0,0 M,0,109383,111383,543,520,543,-40 F,0,109383,111383,1 F,0,107266,114325,0.8 L,109383,4 V,0,0,1200,4,4,4,-4 R,0,0,1200,0,6.283185 C,0,109383,,119,214,244
Sprite,Background,Centre,"sb/pixel.png",0,0 M,0,109427,111427,350,520,350,-40 F,0,109427,111427,1 F,0,107266,114325,0.8 L,109427,4 V,0,0,1200,4,4,4,-4 R,0,0,1200,0,6.283185 C,0,109427,,119,214,244
Sprite,Background,Centre,"sb/pixel.png",0,0 M,0,109471,111471,-44,520,-44,-40 F,0,109471,111471,1 F,0,107266,114325,0.8 L,109471,4 V,0,0,1200,4,4,4,-4 R,0,0,1200,0,6.283185 C,0,109471,,86,191,237
Sprite,Background,Centre,"sb/pixel.png",0,0 M,0,109516,111516,72,520,72,-40 F,0,109516,111516,1 F,0,107266,114325,0.8 L,109516,4 V,0,0,1200,4,4,4,-4 R,0,0,1200,0,6.283185 C,0,109516,,86,191,237
Sprite,Background,Centre,"sb/pixel.png",0,0 M,0,109560,111560,28,520,28,-40 F,0,109560,111560,1 F,0,107266,114325,0.8 L,109560,4 V,0,0,1200,4,4,4,-4 R,0,0,1200,0,6.283185 C,0,109560,,86,191,237
Sprite,Background,Centre,"sb/pixel.png",0,0 M,0,109604,111604,658,520,658,-40 F,0,109604,111604,1 F,0,107266,114325,0.8 L,109604,4 V,0,0,1200,4,4,4,-4 R,0,0,1200,0,6.283185 C,0,109604,,119,214,244
Sprite,Background,Centre,"sb/pixel.png",0,0 M,0,109648,111648,372,520,372,-40 F,0,109648,111648,1 F,0,107266,114325,0.8 L,109648,4 V,0,0,1200,4,4,4,-4 R,0,0,1200,0,6.283185 C,0,109648,,86,191,237
Sprite,Background,Centre,"sb/pixel.png",0,0 M,0,109692,111692,311,520,311,-40 F,0,109692,111692,1 F,0,107266,114325,0.8 L,109692,4 V,0,0,1200,4,4,4,-4 R,0,0,1200,0,6.283185 C,0,109692,,119,214,244
Sprite,Background,Centre,"sb/pixel.png",0,0 M,0,109736,111736,528,520,528,-40 F,0,109736,111736,1 F,0,107266,114325,0.8 L,109736,4 V,0,0,1200,4,4,4,-4 R,0,0,1200,0,6.283185 C,0,109736,,119,214,244
Sprite,Background,Centre,"sb/pixel.png",0,0 M,0,109780,111780,58,520,58,-40 F,0,109780,111780,1 F,0,107266,114325,0.8 L,109780,4 V,0,0,1200,4,4,4,-4 R,0,0,1200,0,6.283185 C,0,109780,,86,191,237
Sprite,Background,Centre,"sb/pixel.png",0,0 M,0,109824,111824,494,520,494,-40 F,0,109824,111824,1 F,0,107266,114325,0.8 L,109824,4 V,0,0,1200,4,4,4,-4 R,0,0,1200,0,6.283185 C,0,109824,,86,191,237
Sprite,Background,Centre,"sb/pixel.png",0,0 M,0,109868,111868,689,520,689,-40 F,0,109868,111868,1 F,0,107266,114325,0.8 L,109868,4 V,0,0,1200,4,4,4,-4 R,0,0,1200,0,6.283185 C,0,109868,,119,214,244
Sprite,Background,Centre,"sb/pixel.png",0,0 M,0,109913,111913,654,520,654,-40 F,0,109913,111913,1 F,0,107266,114325,0.8 L,109913,4 V,0,0,1200,4,4,4,-4 R,0,0,1200,0,6.283185 C,0,109913,,86,191,237
Sprite,Background,Centre,"sb/pixel.png",0,0 M,0,109957,111957,278,520,278,-40 F,0,109957,111957,1 F,0,107266,114325,0.8 L,109957,4 V,0,0,1200,4,4,4,-4 R,0,0,1200,0,6.283185 C,0,109957,,119,214,244
Sprite,Background,Centre,"sb/pixel.png",0,0 M,0,110001,112001,34,520,34,-40 F,0,110001,112001,1 F,0,107266,114325,0.8 L,110001,4 V,0,0,1200,4,4,4,-4 R,0,0,1200,0,6.283185 C,0,110001,,119,214,244
Sprite,Background,Centre,"sb/pixel.png",0,0 M,0,110045,112045,619,520,619,-40 F,0,110045,112045,1 F,0,107266,114325,0.8 L,110045,4 V,0,0,1200,4,4,4,-4 R,0,0,1200,0,6.283185 C,0,110045,,119,214,244
Sprite,Background,Centre,"sb/pixel.png",0,0 M,0,110089,112089,194,520,194,-40 F,0,110089,112089,1 F,0,107266,114325,0.8 L,110089,4 V,0,0,1200,4,4,4,-4 R,0,0,1200,0,6.283185 C,0,110089,,119,214,244
Sprite,Background,Centre,"sb/pixel.png",0,0 M,0,110133,112133,66,520,66,-40 F,0,110133,112133,1 F,0,107266,114325,0.8 L,110133,4 V,0,0,1200,4,4,4,-4 R,0,0,1200,0,6.283185 C,0,110133,,86,191,237
Sprite,Background,Centre,"sb/pixel.png",0,0 M,0,110177,112177,569,520,569,-40 F,0,110177,112177,1 F,0,107266,114325,0.8 L,110177,4 V,0,0,1200,4,4,4,-4 R,0,0,1200,0,6.283185 C,0,110177,,86,191,237
Sprite,Background,Centre,"sb/pixel.png",0,0 M,0,110221,112221,283,520,283,-40 F,0,110221,112221,1 F,0,107266,114325,0.8 L,110221,4 V,0,0,1200,4,4,4,-4 R,0,0,1200,0,6.283185 C,0,110221,,86,191,237
Sprite,Background,Centre,"sb/pixel.png",0,0 M,0,110266,112266,629,520,629,-40 F,0,110266,112266,1 F,0,107266,114325,0.8 L,110266,4 V,0,0,1200,4,4,4,-4 R,0,0,1200,0,6.283185 C,0,110266,,119,214,244
Sprite,Background,Centre,"sb/pixel.png",0,0 M,0,110310,112310,424,520,424,-40 F,0,110310,112310,1 F,0,107266,114325,0.8 L,110310,4 V,0,0,1200,4,4,4,-4 R,0,0,1200,0,6.283185 C,0,110310,,119,214,244
Sprite,Background,Centre,"sb/pixel.png",0,0 M,0,110354,112354,666,520,666,-40 F,0,110354,112354,1 F,0,107266,114325,0.8 L,110354,4 V,0,0,1200,4,4,4,-4 R,0,0,1200,0,6.283185 C,0,110354,,119,214,244
Sprite,Background,Centre,"sb/pixel.png",0,0 M,0,110398,112398,690,520,690,-40 F,0,110398,112398,1 F,0,107266,114325,0.8 L,110398,4 V,0,0,1200,4,4,4,-4 R,0,0,1200,0,6.283185 C,0,110398,,119,214,244
Sprite,Background,Centre,"sb/pixel.png",0,0 M,0,110442,112442,478,520,478,-40 F,0,110442,112442,1 F,0,107266,114325,0.8 L,110442,4 V,0,0,1200,4,4,4,-4 R,0,0,1200,0,6.283185 C,0,110442,,86,191,237
Sprite,Background,Centre,"sb/pixel.png",0,0 M,0,110486,112486,108,520,108,-40 F,0,110486,112486,1 F,0,107266,114325,0.8 L,110486,4 V,0,0,1200,4,4,4,-4 R,0,0,1200,0,6.283185 C,0,110486,,86,191,237
Sprite,Background,Centre,"sb/pixel.png",0,0 M,0,110530,112530,267,520,267,-40 F,0,110530,112530,1 F,0,107266,114325,0.8 L,110530,4 V,0,0,1200,4,4,4,-4 R,0,0,1200,0,6.283185 C,0,110530,,119,214,244
Sprite,Background,Centre,"sb/pixel.png",0,0 M,0,110574,112574,653,520,653,-40 F,0,110574,112574,1 F,0,107266,114325,0.8 L,110574,4 V,0,0,1200,4,4,4,-4 R,0,0,1200,0,6.283185 C,0,110574,,119,214,244
Sprite,Background,Centre,"sb/pixel.png",0,0 M,0,110618,112618,376,520,376,-40 F,0,110618,112618,1 F,0,107266,114325,0.8 L,110618,4 V,0,0,1200,4,4,4,-4 R,0,0,1200,0,6.283185 C,0,110618,,119,214,244
Sprite,Background,Centre,"sb/pixel.png",0,0 M,0,110663,112663,201,520,201,-40 F,0,110663,112663,1 F,0,107266,114325,0.8 L,110663,4 V,0,0,1200,4,4,4,-4 R,0,0,1200,0,6.283185 C,0,110663,,119,214,244
Sprite,Background,Centre,"sb/pixel.png",0,0 M,0,110707,112707,275,520,275,-40 F,0,110707,112707,1 F,0,107266,114325,0.8 L,110707,4 V,0,0,1200,4,4,4,-4 R,0,0,1200,0,6.283185 C,0,110707,,119,214,244
Sprite,Background,Centre,"sb/pixel.png",0,0 M,0,110751,112751,279,520,279,-40 F,0,110751,112751,1 F,0,107266,114325,0.8 L,110751,4 V,0,0,1200,4,4,4,-4 R,0,0,1200,0,6.283185 C,0,110751,,119,214,244
Sprite,Background,Centre,"sb/pixel.png",0,0 M,0,110795,112795,-83,520,-83,-40 F,0,110795,112795,1 F,0,107266,114325,0.8 L,110795,4 V,0,0,1200,4,4,4,-4 R,0,0,1200,0,6.283185 C,0,110795,,119,214,244
Sprite,Background,Centre,"sb/pixel.png",0,0 M,0,110839,112839,-78,520,-78,-40 F,0,110839,112839,1 F,0,107266,114325,0.8 L,110839,4 V,0,0,1200,4,4,4,-4 R,0,0,1200,0,6.283185 C,0,110839,,119,214,244
Sprite,Background,Centre,"sb/pixel.png",0,0 M,0,110883,112883,299,520,299,-40 F,0,110883,112883,1 F,0,107266,114325,0.8 L,110883,4 V,0,0,1200,4,4,4,-4 R,0,0,1200,0,6.283185 C,0,110883,,86,191,237
Sprite,Background,Centre,"sb/pixel.png",0,0 M,0,110927,112927,162,520,162,-40 F,0,110927,112927,1 F,0,107266,114325,0.8 L,110927,4 V,0,0,1200,4,4,4,-4 R,0,0,1200,0,6.283185 C,0,110927,,119,214,244
Sprite,Background,Centre,"sb/pixel.png",0,0 M,0,110971,112971,507,520,507,-40 F,0,110971,112971,1 F,0,107266,114325,0.8 L,110971,4 V,0,0,1200,4,4,4,-4 R,0,0,1200,0,6.283185 C,0,110971,,119,214,244
Sprite,Background,Centre,"sb/pixel.png",0,0 M,0,111016,113016,-46,520,-46,-40 F,0,111016,113016,1 F,0,107266,114325,0.8 L,111016,4 V,0,0,1200,4,4,4,-4 R,0,0,1200,0,6.283185 C,0,111016,,119,214,244
Sprite,Background,Centre,"sb/pixel.png",0,0 M,0,111060,113060,-101,520,-101,-40 F,0,111060,113060,1 F,0,107266,114325,0.8 L,111060,4 V,0,0,1200,4,4,4,-4 R,0,0,1200,0,6.283185 C,0,111060,,119,214,244
Sprite,Background,Centre,"sb/pixel.png",0,0 M,0,111104,113104,39,520,39,-40 F,0,111104,113104,1 F,0,107266,114325,0.8 L,111104,4 V,0,0,1200,4,4,4,-4 R,0,0,1200,0,6.283185 C,0,111104,,119,214,244
Sprite,Background,Centre,"sb/pixel.png",0,0 M,0,111148,113148,593,520,593,-40 F,0,111148,113148,1 F,0,107266,114325,0.8 L,111148,4 V,0,0,1200,4,4,4,-4 R,0,0,1200,0,6.283185 C,0,111148,,119,214,244
Sprite,Background,Centre,"sb/pixel.png",0,0 M,0,111192,113192,310,520,310,-40 F,0,111192,113192,1 F,0,107266,114325,0.8 L,111192,4 V,0,0,1200,4,4,4,-4 R,0,0,1200,0,6.283185 C,0,111192,,86,191,237
Sprite,Background,Centre,"sb/pixel.png",0,0 M,0,111236,113236,548,520,548,-40 F,0,111236,113236,1 F,0,107266,114325,0.8 L,111236,4 V,0,0,1200,4,4,4,-4 R,0,0,1200,0,6.283185 C,0,111236,,119,214,244
Sprite,Background,Centre,"sb/pixel.png",0,0 M,0,111280,113280,-60,520,-60,-40 F,0,111280,113280,1 F,0,107266,114325,0.8 L,111280,4 V,0,0,1200,4,4,4,-4 R,0,0,1200,0,6.283185 C,0,111280,,86,191,237
Sprite,Background,Centre,"sb/pixel.png",0,0 M,0,111324,113324,155,520,155,-40 F,0,111324,113324,1 F,0,107266,114325,0.8 L,111324,4 V,0,0,1200,4,4,4,-4 R,0,0,1200,0,6.283185 C,0,111324,,119,214,244
Sprite,Background,Centre,"sb/pixel.png",0,0 M,0,111368,113368,69,520,69,-40 F,0,111368,113368,1 F,0,107266,114325,0.8 L,111368,4 V,0,0,1200,4,4,4,-4 R,0,0,1200,0,6.283185 C,0,111368,,119,214,244
Sprite,Background,Centre,"sb/pixel.png",0,0 M,0,111413,113413,126,520,126,-40 F,0,111413,113413,1 F,0,107266,114325,0.8 L,111413,4 V,0,0,1200,4,4,4,-4 R,0,0,1200,0,6.283185 C,0,111413,,119,214,244
Sprite,Background,Centre,"sb/pixel.png",0,0 M,0,111457,113457,195,520,195,-40 F,0,111457,113457,1 F,0,107266,114325,0.8 L,111457,4 V,0,0,1200,4,4,4,-4 R,0,0,1200,0,6.283185 C,0,111457,,86,191,237
Sprite,Background,Centre,"sb/pixel.png",0,0 M,0,111501,113501,656,520,656,-40 F,0,111501,113501,1 F,0,107266,114325,0.8 L,111501,4 V,0,0,1200,4,4,4,-4 R,0,0,1200,0,6.283185 C,0,111501,,119,214,244
Sprite,Background,Centre,"sb/pixel.png",0,0 M,0,111545,113545,275,520,275,-40 F,0,111545,113545,1 F,0,107266,114325,0.8 L,111545,4 V,0,0,1200,4,4,4,-4 R,0,0,1200,0,6.283185 C,0,111545,,119,214,244
Sprite,Background,Centre,"sb/pixel.png",0,0 M,0,111589,113589,192,520,192,-40 F,0,111589,113589,1 F,0,107266,114325,0.8 L,111589,4 V,0,0,1200,4,4,4,-4 R,0,0,1200,0,6.283185 C,0,111589,,86,191,237
Sprite,Background,Centre,"sb/pixel.png",0,0 M,0,111633,113633,658,520,658,-40 F,0,111633,113633,1 F,0,107266,114325,0.8 L,111633,4 V,0,0,1200,4,4,4,-4 R,0,0,1200,0,6.283185 C,0,111633,,86,191,237
Sprite,Background,Centre,"sb/pixel.png",0,0 M,0,111677,113677,112,520,112,-40 F,0,111677,113677,1 F,0,107266,114325,0.8 L,111677,4 V,0,0,1200,4,4,4,-4 R,0,0,1200,0,6.283185 C,0,111677,,119,214,244
Sprite,Background,Centre,"sb/pixel.png",0,0 M,0,111721,113721,573,520,573,-40 F,0,111721,113721,1 F,0,107266,114325,0.8 L,111721,4 V,0,0,1200,4,4,4,-4 R,0,0,1200,0,6.283185 C,0,111721,,119,214,244
Sprite,Background,Centre,"sb/pixel.png",0,0 M,0,111766,113766,247,520,247,-40 F,0,111766,113766,1 F,0,107266,114325,0.8 L,111766,4 V,0,0,1200,4,4,4,-4 R,0,0,1200,0,6.283185 C,0,111766,,86,191,237
Sprite,Background,Centre,"sb/pixel.png",0,0 M,0,111810,113810,-3,520,-3,-40 F,0,111810,113810,1 F,0,107266,114325,0.8 L,111810,4 V,0,0,1200,4,4,4,-4 R,0,0,1200,0,6.283185 C,0,111810,,119,214,244
Sprite,Background,Centre,"sb/pixel.png",0,0 M,0,111854,113854,138,520,138,-40 F,0,111854,113854,1 F,0,107266,114325,0.8 L,111854,4 V,0,0,1200,4,4,4,-4 R,0,0,1200,0,6.283185 C,0,111854,,86,191,237
Sprite,Background,Centre,"sb/pixel.png",0,0 M,0,111898,113898,320,520,320,-40 F,0,111898,113898,1 F,0,107266,114325,0.8 L,111898,4 V,0,0,1200,4,4,4,-4 R,0,0,1200,0,6.283185 C,0,111898,,119,214,244
Sprite,Background,Centre,"sb/pixel.png",0,0 M,0,111942,113942,359,520,359,-40 F,0,111942,113942,1 F,0,107266,114325,0.8 L,111942,4 V,0,0,1200,4,4,4,-4 R,0,0,1200,0,6.283185 C,0,111942,,86,191,237
Sprite,Background,Centre,"sb/pixel.png",0,0 M,0,111986,113986,210,520,210,-40 F,0,111986,113986,1 F,0,107266,114325,0.8 L,111986,4 V,0,0,1200,4,4,4,-4 R,0,0,1200,0,6.283185 C,0,111986,,86,191,237
Sprite,Background,Centre,"sb/pixel.png",0,0 M,0,112030,114030,187,520,187,-40 F,0,112030,114030,1 F,0,107266,114325,0.8 L,112030,4 V,0,0,1200,4,4,4,-4 R,0,0,1200,0,6.283185 C,0,112030,,119,214,244
Sprite,Background,Centre,"sb/pixel.png",0,0 M,0,112074,114074,-59,520,-59,-40 F,0,112074,114074,1 F,0,107266,114325,0.8 L,112074,4 V,0,0,1200,4,4,4,-4 R,0,0,1200,0,6.283185 C,0,112074,,119,214,244
Sprite,Background,Centre,"sb/pixel.png",0,0 M,0,112118,114118,329,520,329,-40 F,0,112118,114118,1 F,0,107266,114325,0.8 L,112118,4 V,0,0,1200,4,4,4,-4 R,0,0,1200,0,6.283185 C,0,112118,,86,191,237
Sprite,Background,Centre,"sb/pixel.png",0,0 M,0,112163,114163,607,520,607,-40 F,0,112163,114163,1 F,0,107266,114325,0.8 L,112163,4 V,0,0,1200,4,4,4,-4 R,0,0,1200,0,6.283185 C,0,112163,,86,191,237
Sprite,Background,Centre,"sb/pixel.png",0,0 M,0,112207,114207,-76,520,-76,-40 F,0,112207,114207,1 F,0,107266,114325,0.8 L,112207,4 V,0,0,1200,4,4,4,-4 R,0,0,1200,0,6.283185 C,0,112207,,119,214,244
Sprite,Background,Centre,"sb/pixel.png",0,0 M,0,112251,114251,287,520,287,-40 F,0,112251,114251,1 F,0,107266,114325,0.8 L,112251,4 V,0,0,1200,4,4,4,-4 R,0,0,1200,0,6.283185 C,0,112251,,86,191,237
Sprite,Background,Centre,"sb/pixel.png",0,0 M,0,112295,114295,-100,520,-100,-40 F,0,112295,114295,1 F,0,107266,114325,0.8 L,112295,4 V,0,0,1200,4,4,4,-4 R,0,0,1200,0,6.283185 C,0,112295,,86,191,237
Sprite,Background,Centre,"sb/pixel.png",0,0 M,0,112339,114339,26,520,26,-40 F,0,112339,114339,1 F,0,107266,114325,0.8 L,112339,4 V,0,0,1200,4,4,4,-4 R,0,0,1200,0,6.283185 C,0,112339,,119,214,244
Sprite,Background,Centre,"sb/pixel.png",0,0 M,0,112383,114383,49,520,49,-40 F,0,112383,114383,1 F,0,107266,114325,0.8 L,112383,4 V,0,0,1200,4,4,4,-4 R,0,0,1200,0,6.283185 C,0,112383,,86,191,237
Sprite,Background,Centre,"sb/pixel.png",0,0 M,0,112427,114427,181,520,181,-40 F,0,112427,114427,1 F,0,107266,114325,0.8 L,112427,4 V,0,0,1200,4,4,4,-4 R,0,0,1200,0,6.283185 C,0,112427,,86,191,237
Sprite,Background,Centre,"sb/pixel.png",0,0 M,0,112471,114471,351,520,351,-40 F,0,112471,114471,1 F,0,107266,114325,0.8 L,112471,4 V,0,0,1200,4,4,4,-4 R,0,0,1200,0,6.283185 C,0,112471,,119,214,244
Sprite,Background,Centre,"sb/pixel.png",0,0 M,0,112516,114516,276,520,276,-40 F,0,112516,114516,1 F,0,107266,114325,0.8 L,112516,4 V,0,0,1200,4,4,4,-4 R,0,0,1200,0,6.283185 C,0,112516,,86,191,237
Sprite,Background,Centre,"sb/pixel.png",0,0 M,0,112560,114560,703,520,703,-40 F,0,112560,114560,1 F,0,107266,114325,0.8 L,112560,4 V,0,0,1200,4,4,4,-4 R,0,0,1200,0,6.283185 C,0,112560,,119,214,244
Sprite,Background,Centre,"sb/pixel.png",0,0 M,0,112604,114604,-68,520,-68,-40 F,0,112604,114604,1 F,0,107266,114325,0.8 L,112604,4 V,0,0,1200,4,4,4,-4 R,0,0,1200,0,6.283185 C,0,112604,,119,214,244
Sprite,Background,Centre,"sb/pixel.png",0,0 M,0,112648,114648,436,520,436,-40 F,0,112648,114648,1 F,0,107266,114325,0.8 L,112648,4 V,0,0,1200,4,4,4,-4 R,0,0,1200,0,6.283185 C,0,112648,,86,191,237
Sprite,Background,Centre,"sb/pixel.png",0,0 M,0,112692,114692,132,520,132,-40 F,0,112692,114692,1 F,0,107266,114325,0.8 L,112692,4 V,0,0,1200,4,4,4,-4 R,0,0,1200,0,6.283185 C,0,112692,,119,214,244
Sprite,Background,Centre,"sb/pixel.png",0,0 M,0,112736,114736,-12,520,-12,-40 F,0,112736,114736,1 F,0,107266,114325,0.8 L,112736,4 V,0,0,1200,4,4,4,-4 R,0,0,1200,0,6.283185 C,0,112736,,86,191,237
Sprite,Background,Centre,"sb/pixel.png",0,0 M,0,112780,114780,29,520,29,-40 F,0,112780,114780,1 F,0,107266,114325,0.8 L,112780,4 V,0,0,1200,4,4,4,-4 R,0,0,1200,0,6.283185 C,0,112780,,119,214,244
Sprite,Background,Centre,"sb/pixel.png",0,0 M,0,112824,114824,330,520,330,-40 F,0,112824,114824,1 F,0,107266,114325,0.8 L,112824,4 V,0,0,1200,4,4,4,-4 R,0,0,1200,0,6.283185 C,0,112824,,119,214,244
Sprite,Background,Centre,"sb/pixel.png",0,0 M,0,112868,114868,282,520,282,-40 F,0,112868,114868,1 F,0,107266,114325,0.8 L,112868,4 V,0,0,1200,4,4,4,-4 R,0,0,1200,0,6.283185 C,0,112868,,119,214,244
Sprite,Background,Centre,"sb/pixel.png",0,0 M,0,112913,114913,154,520,154,-40 F,0,112913,114913,1 F,0,107266,114325,0.8 L,112913,4 V,0,0,1200,4,4,4,-4 R,0,0,1200,0,6.283185 C,0,112913,,119,214,244
Sprite,Background,Centre,"sb/pixel.png",0,0 M,0,112957,114957,-99,520,-99,-40 F,0,112957,114957,1 F,0,107266,114325,0.8 L,112957,4 V,0,0,1200,4,4,4,-4 R,0,0,1200,0,6.283185 C,0,112957,,119,214,244
Sprite,Background,Centre,"sb/pixel.png",0,0 M,0,113001,115001,-46,520,-46,-40 F,0,113001,115001,1 F,0,107266,114325,0.8 L,113001,4 V,0,0,1200,4,4,4,-4 R,0,0,1200,0,6.283185 C,0,113001,,86,191,237
Sprite,Background,Centre,"sb/pixel.png",0,0 M,0,113045,115045,-22,520,-22,-40 F,0,113045,115045,1 F,0,107266,114325,0.8 L,113045,4 V,0,0,1200,4,4,4,-4 R,0,0,1200,0,6.283185 C,0,113045,,86,191,237
Sprite,Background,Centre,"sb/pixel.png",0,0 M,0,113089,115089,489,520,489,-40 F,0,113089,115089,1 F,0,107266,114325,0.8 L,113089,4 V,0,0,1200,4,4,4,-4 R,0,0,1200,0,6.283185 C,0,113089,,119,214,244
Sprite,Background,Centre,"sb/pixel.png",0,0 M,0,113133,115133,51,520,51,-40 F,0,113133,115133,1 F,0,107266,114325,0.8 L,113133,4 V,0,0,1200,4,4,4,-4 R,0,0,1200,0,6.283185 C,0,113133,,119,214,244
Sprite,Background,Centre,"sb/pixel.png",0,0 M,0,113177,115177,338,520,338,-40 F,0,113177,115177,1 F,0,107266,114325,0.8 L,113177,4 V,0,0,1200,4,4,4,-4 R,0,0,1200,0,6.283185 C,0,113177,,86,191,237
Sprite,Background,Centre,"sb/pixel.png",0,0 M,0,113221,115221,27,520,27,-40 F,0,113221,115221,1 F,0,107266,114325,0.8 L,113221,4 V,0,0,1200,4,4,4,-4 R,0,0,1200,0,6.283185 C,0,113221,,119,214,244
Sprite,Background,Centre,"sb/pixel.png",0,0 M,0,113266,115266,508,520,508,-40 F,0,113266,115266,1 F,0,107266,114325,0.8 L,113266,4 V,0,0,1200,4,4,4,-4 R,0,0,1200,0,6.283185 C,0,113266,,119,214,244
Sprite,Background,Centre,"sb/pixel.png",0,0 M,0,113310,115310,282,520,282,-40 F,0,113310,115310,1 F,0,107266,114325,0.8 L,113310,4 V,0,0,1200,4,4,4,-4 R,0,0,1200,0,6.283185 C,0,113310,,119,214,244
Sprite,Background,Centre,"sb/pixel.png",0,0 M,0,113354,115354,691,520,691,-40 F,0,113354,115354,1 F,0,107266,114325,0.8 L,113354,4 V,0,0,1200,4,4,4,-4 R,0,0,1200,0,6.283185 C,0,113354,,119,214,244
Sprite,Background,Centre,"sb/pixel.png",0,0 M,0,113398,115398,701,520,701,-40 F,0,113398,115398,1 F,0,107266,114325,0.8 L,113398,4 V,0,0,1200,4,4,4,-4 R,0,0,1200,0,6.283185 C,0,113398,,119,214,244
Sprite,Background,Centre,"sb/pixel.png",0,0 M,0,113442,115442,717,520,717,-40 F,0,113442,115442,1 F,0,107266,114325,0.8 L,113442,4 V,0,0,1200,4,4,4,-4 R,0,0,1200,0,6.283185 C,0,113442,,119,214,244
Sprite,Background,Centre,"sb/pixel.png",0,0 M,0,113486,115486,245,520,245,-40 F,0,113486,115486,1 F,0,107266,114325,0.8 L,113486,4 V,0,0,1200,4,4,4,-4 R,0,0,1200,0,6.283185 C,0,113486,,119,214,244
Sprite,Background,Centre,"sb/pixel.png",0,0 M,0,113530,115530,326,520,326,-40 F,0,113530,115530,1 F,0,107266,114325,0.8 L,113530,4 V,0,0,1200,4,4,4,-4 R,0,0,1200,0,6.283185 C,0,113530,,86,191,237
Sprite,Background,Centre,"sb/pixel.png",0,0 M,0,113574,115574,523,520,523,-40 F,0,113574,115574,1 F,0,107266,114325,0.8 L,113574,4 V,0,0,1200,4,4,4,-4 R,0,0,1200,0,6.283185 C,0,113574,,86,191,237
Sprite,Background,Centre,"sb/pixel.png",0,0 M,0,113618,115618,-52,520,-52,-40 F,0,113618,115618,1 F,0,107266,114325,0.8 L,113618,4 V,0,0,1200,4,4,4,-4 R,0,0,1200,0,6.283185 C,0,113618,,119,214,244
Sprite,Background,Centre,"sb/pixel.png",0,0 M,0,113663,115663,165,520,165,-40 F,0,113663,115663,1 F,0,107266,114325,0.8 L,113663,4 V,0,0,1200,4,4,4,-4 R,0,0,1200,0,6.283185 C,0,113663,,119,214,244
Sprite,Background,Centre,"sb/pixel.png",0,0 M,0,113707,115707,745,520,745,-40 F,0,113707,115707,1 F,0,107266,114325,0.8 L,113707,4 V,0,0,1200,4,4,4,-4 R,0,0,1200,0,6.283185 C,0,113707,,119,214,244
Sprite,Background,Centre,"sb/pixel.png",0,0 M,0,113751,115751,492,520,492,-40 F,0,113751,115751,1 F,0,107266,114325,0.8 L,113751,4 V,0,0,1200,4,4,4,-4 R,0,0,1200,0,6.283185 C,0,113751,,119,214,244
Sprite,Background,Centre,"sb/pixel.png",0,0 M,0,113795,115795,744,520,744,-40 F,0,113795,115795,1 F,0,107266,114325,0.8 L,113795,4 V,0,0,1200,4,4,4,-4 R,0,0,1200,0,6.283185 C,0,113795,,119,214,244
Sprite,Background,Centre,"sb/pixel.png",0,0 M,0,113839,115839,507,520,507,-40 F,0,113839,115839,1 F,0,107266,114325,0.8 L,113839,4 V,0,0,1200,4,4,4,-4 R,0,0,1200,0,6.283185 C,0,113839,,119,214,244
Sprite,Background,Centre,"sb/pixel.png",0,0 M,0,113883,115883,575,520,575,-40 F,0,113883,115883,1 F,0,107266,114325,0.8 L,113883,4 V,0,0,1200,4,4,4,-4 R,0,0,1200,0,6.283185 C,0,113883,,119,214,244
Sprite,Background,Centre,"sb/pixel.png",0,0 M,0,113927,115927,332,520,332,-40 F,0,113927,115927,1 F,0,107266,114325,0.8 L,113927,4 V,0,0,1200,4,4,4,-4 R,0,0,1200,0,6.283185 C,0,113927,,119,214,244
Sprite,Background,Centre,"sb/pixel.png",0,0 M,0,113971,115971,401,520,401,-40 F,0,113971,115971,1 F,0,107266,114325,0.8 L,113971,4 V,0,0,1200,4,4,4,-4 R,0,0,1200,0,6.283185 C,0,113971,,86,191,237
Sprite,Background,Centre,"sb/pixel.png",0,0 M,0,114016,116016,285,520,285,-40 F,0,114016,116016,1 F,0,107266,114325,0.8 L,114016,4 V,0,0,1200,4,4,4,-4 R,0,0,1200,0,6.283185 C,0,114016,,119,214,244
Sprite,Background,Centre,"sb/pixel.png",0,0 M,0,114060,116060,-77,520,-77,-40 F,0,114060,116060,1 F,0,107266,114325,0.8 L,114060,4 V,0,0,1200,4,4,4,-4 R,0,0,1200,0,6.283185 C,0,114060,,119,214,244
Sprite,Background,Centre,"sb/pixel.png",0,0 M,0,114104,116104,182,520,182,-40 F,0,114104,116104,1 F,0,107266,114325,0.8 L,114104,4 V,0,0,1200,4,4,4,-4 R,0,0,1200,0,6.283185 C,0,114104,,86,191,237
Sprite,Background,Centre,"sb/pixel.png",0,0 M,0,114148,116148,121,520,121,-40 F,0,114148,116148,1 F,0,107266,114325,0.8 L,114148,4 V,0,0,1200,4,4,4,-4 R,0,0,1200,0,6.283185 C,0,114148,,86,191,237
Sprite,Background,Centre,"sb/pixel.png",0,0 M,0,114192,116192,66,520,66,-40 F,0,114192,116192,1 F,0,107266,114325,0.8 L,114192,4 V,0,0,1200,4,4,4,-4 R,0,0,1200,0,6.283185 C,0,114192,,86,191,237
Sprite,Background,Centre,"sb/pixel.png",0,0 M,0,114236,116236,50,520,50,-40 F,0,114236,116236,1 F,0,107266,114325,0.8 L,114236,4 V,0,0,1200,4,4,4,-4 R,0,0,1200,0,6.283185 C,0,114236,,86,191,237
Sprite,Background,Centre,"sb/pixel.png",0,0 M,0,114280,116280,-12,520,-12,-40 F,0,114280,116280,1 F,0,107266,114325,0.8 L,114280,4 V,0,0,1200,4,4,4,-4 R,0,0,1200,0,6.283185 C,0,114280,,86,191,237
Sprite,Background,Centre,"sb/pixel.png",0,0 M,0,114324,116324,330,520,330,-40 F,0,114324,116324,1 F,0,107266,114325,0.8 L,114324,4 V,0,0,1200,4,4,4,-4 R,0,0,1200,0,6.283185 C,0,114324,,119,214,244
Sprite,Background,Centre,"sb/star.png",0,0 M,16,138678,141637,320,240,172.4402,311.569 F,0,138678,141637,1,0 S,0,138678,141637,0,0.05
Sprite,Background,Centre,"sb/star.png",0,0 M,16,138728,141563,320,240,195.0345,288.3696 F,0,138728,141563,1,0 S,0,138728,141563,0,0.05
Sprite,Background,Centre,"sb/star.png",0,0 M,16,138778,141360,320,240,254.1704,277.9798 F,0,138778,141360,1,0 S,0,138778,141360,0,0.05
Sprite,Background,Centre,"sb/star.png",0,0 M,16,138828,141336,320,240,112.0745,156.6753 F,0,138828,141336,1,0 S,0,138828,141336,0,0.05
Sprite,Background,Centre,"sb/star.png",0,0 M,16,138878,141130,320,240,512.7166,120.0446 F,0,138878,141130,1,0 S,0,138878,141130,0,0.05
Sprite,Background,Centre,"sb/star.png",0,0 M,16,138928,140976,320,240,234.5279,42.7197 F,0,138928,140976,1,0 S,0,138928,140976,0,0.05
Sprite,Background,Centre,"sb/star.png",0,0 M,16,138978,141493,320,240,221.332,93.05233 F,0,138978,141493,1,0 S,0,138978,141493,0,0.05
Sprite,Background,Centre,"sb/star.png",0,0 M,16,139028,141050,320,240,110.3749,337.048 F,0,139028,141050,1,0 S,0,139028,141050,0,0.05
Sprite,Background,Centre,"sb/star.png",0,0 M,16,139078,141132,320,240,372.4146,267.0872 F,0,139078,141132,1,0 S,0,139078,141132,0,0.05
Sprite,Background,Centre,"sb/star.png",0,0 M,16,139128,141183,320,240,372.0742,314.6276 F,0,139128,141183,1,0 S,0,139128,141183,0,0.05
Sprite,Background,Centre,"sb/star.png",0,0 M,16,139178,141492,320,240,529.7701,28.33866 F,0,139178,141492,1,0 S,0,139178,141492,0,0.05
Sprite,Background,Centre,"sb/star.png",0,0 M,16,139228,141532,320,240,435.3056,282.8206 F,0,139228,141532,1,0 S,0,139228,141532,0,0.05
Sprite,Background,Centre,"sb/star.png",0,0 M,16,139278,142214,320,240,82.20486,263.9681 F,0,139278,142214,1,0 S,0,139278,142214,0,0.05
Sprite,Background,Centre,"sb/star.png",0,0 M,16,139328,141346,320,240,511.2784,150.9294 F,0,139328,141346,1,0 S,0,139328,141346,0,0.05
Sprite,Background,Centre,"sb/star.png",0,0 M,16,139378,142004,320,240,416.0025,478.3957 F,0,139378,142004,1,0 S,0,139378,142004,0,0.05
Sprite,Background,Centre,"sb/star.png",0,0 M,16,139428,142135,320,240,94.22885,250.1681 F,0,139428,142135,1,0 S,0,139428,142135,0,0.05
Sprite,Background,Centre,"sb/star.png",0,0 M,16,139478,142212,320,240,354.5189,316.5797 F,0,139478,142212,1,0 S,0,139478,142212,0,0.05
Sprite,Background,Centre,"sb/star.png",0,0 M,16,139528,141955,320,240,421.9939,241.1179 F,0,139528,141955,1,0 S,0,139528,141955,0,0.05
Sprite,Background,Centre,"sb/star.png",0,0 M,16,139578,142416,320,240,291.5794,-42.57436 F,0,139578,142416,1,0 S,0,139578,142416,0,0.05
Sprite,Background,Centre,"sb/star.png",0,0 M,16,139628,142625,320,240,245.6157,473.4352 F,0,139628,142625,1,0 S,0,139628,142625,0,0.05
Sprite,Background,Centre,"sb/star.png",0,0 M,16,139678,142043,320,240,487.5701,171.5803 F,0,139678,142043,1,0 S,0,139678,142043,0,0.05
Sprite,Background,Centre,"sb/star.png",0,0 M,16,139728,141991,320,240,291.4899,146.2387 F,0,139728,141991,1,0 S,0,139728,141991,0,0.05
Sprite,Background,Centre,"sb/star.png",0,0 M,16,139778,142464,320,240,73.12759,384.3953 F,0,139778,142464,1,0 S,0,139778,142464,0,0.05
Sprite,Background,Centre,"sb/star.png",0,0 M,16,139828,142682,320,240,382.7469,195.3701 F,0,139828,142682,1,0 S,0,139828,142682,0,0.05
Sprite,Background,Centre,"sb/star.png",0,0 M,16,139878,142078,320,240,434.3775,108.8749 F,0,139878,142078,1,0 S,0,139878,142078,0,0.05
Sprite,Background,Centre,"sb/star.png",0,0 M,16,139928,142653,320,240,436.3573,148.5397 F,0,139928,142653,1,0 S,0,139928,142653,0,0.05
Sprite,Background,Centre,"sb/star.png",0,0 M,16,139978,142219,320,240,251.8275,357.6797 F,0,139978,142219,1,0 S,0,139978,142219,0,0.05
Sprite,Background,Centre,"sb/star.png",0,0 M,16,140028,142611,320,240,447.6183,264.7702 F,0,140028,142611,1,0 S,0,140028,142611,0,0.05
Sprite,Background,Centre,"sb/star.png",0,0 M,16,140078,143048,320,240,382.3193,-23.73718 F,0,140078,143048,1,0 S,0,140078,143048,0,0.05
Sprite,Background,Centre,"sb/star.png",0,0 M,16,140128,143000,320,240,216.4839,369.7706 F,0,140128,143000,1,0 S,0,140128,143000,0,0.05
Sprite,Background,Centre,"sb/star.png",0,0 M,16,140178,142500,320,240,601.6058,203.201 F,0,140178,142500,1,0 S,0,140178,142500,0,0.05
Sprite,Background,Centre,"sb/star.png",0,0 M,16,140228,142412,320,240,475.8793,385.1573 F,0,140228,142412,1,0 S,0,140228,142412,0,0.05
Sprite,Background,Centre,"sb/star.png",0,0 M,16,140278,143270,320,240,227.674,134.7578 F,0,140278,143270,1,0 S,0,140278,143270,0,0.05
Sprite,Background,Centre,"sb/star.png",0,0 M,16,140328,142814,320,240,322.7973,185.0712 F,0,140328,142814,1,0 S,0,140328,142814,0,0.05
Sprite,Background,Centre,"sb/star.png",0,0 M,16,140378,142455,320,240,585.8995,280.7241 F,0,140378,142455,1,0 S,0,140378,142455,0,0.05
Sprite,Background,Centre,"sb/star.png",0,0 M,16,140428,142708,320,240,295.0334,136.9822 F,0,140428,142708,1,0 S,0,140428,142708,0,0.05
Sprite,Background,Centre,"sb/star.png",0,0 M,16,140478,142615,320,240,244.7053,219.6358 F,0,140478,142615,1,0 S,0,140478,142615,0,0.05
Sprite,Background,Centre,"sb/star.png",0,0 M,16,140528,143368,320,240,102.8718,337.4645 F,0,140528,143368,1,0 S,0,140528,143368,0,0.05
Sprite,Background,Centre,"sb/star.png",0,0 M,16,140578,143543,320,240,388.491,475.2318 F,0,140578,143543,1,0 S,0,140578,143543,0,0.05
Sprite,Background,Centre,"sb/star.png",0,0 M,16,140628,143535,320,240,276.444,355.0299 F,0,140628,143535,1,0 S,0,140628,143535,0,0.05
Sprite,Background,Centre,"sb/star.png",0,0 M,16,140678,143594,320,240,68.57391,268.1766 F,0,140678,143594,1,0 S,0,140678,143594,0,0.05
Sprite,Background,Centre,"sb/star.png",0,0 M,16,140728,142786,320,240,405.8785,401.5979 F,0,140728,142786,1,0 S,0,140728,142786,0,0.05
Sprite,Background,Centre,"sb/star.png",0,0 M,16,140778,143700,320,240,349.8484,194.9992 F,0,140778,143700,1,0 S,0,140778,143700,0,0.05
Sprite,Background,Centre,"sb/star.png",0,0 M,16,140828,143572,320,240,547.8839,288.5584 F,0,140828,143572,1,0 S,0,140828,143572,0,0.05
Sprite,Background,Centre,"sb/star.png",0,0 M,16,140878,143136,320,240,209.514,450.8005 F,0,140878,143136,1,0 S,0,140878,143136,0,0.05
Sprite,Background,Centre,"sb/star.png",0,0 M,16,140928,143503,320,240,155.5023,302.582 F,0,140928,143503,1,0 S,0,140928,143503,0,0.05
Sprite,Background,Centre,"sb/star.png",0,0 M,16,140978,142984,320,240,201.8693,52.03952 F,0,140978,142984,1,0 S,0,140978,142984,0,0.05
Sprite,Background,Centre,"sb/star.png",0,0 M,16,141028,143102,320,240,180.6182,426.7129 F,0,141028,143102,1,0 S,0,141028,143102,0,0.05
Sprite,Background,Centre,"sb/star.png",0,0 M,16,141078,143893,320,240,388.1502,395.7419 F,0,141078,143893,1,0 S,0,141078,143893,0,0.05
Sprite,Background,Centre,"sb/star.png",0,0 M,16,141128,143674,320,240,391.7196,164.6854 F,0,141128,143674,1,0 S,0,141128,143674,0,0.05
Sprite,Background,Centre,"sb/star.png",0,0 M,16,141178,144092,320,240,384.3873,269.9211 F,0,141178,144092,1,0 S,0,141178,144092,0,0.05
Sprite,Background,Centre,"sb/star.png",0,0 M,16,141228,143555,320,240,371.3257,425.0126 F,0,141228,143555,1,0 S,0,141228,143555,0,0.05
Sprite,Background,Centre,"sb/star.png",0,0 M,16,141278,143553,320,240,289.0264,284.2339 F,0,141278,143553,1,0 S,0,141278,143553,0,0.05
Sprite,Background,Centre,"sb/star.png",0,0 M,16,141328,144179,320,240,354.2689,374.7095 F,0,141328,144179,1,0 S,0,141328,144179,0,0.05
Sprite,Background,Centre,"sb/star.png",0,0 M,16,141378,144246,320,240,211.6619,340.8308 F,0,141378,144246,1,0 S,0,141378,144246,0,0.05
Sprite,Background,Centre,"sb/star.png",0,0 M,16,141428,143936,320,240,514.9983,239.1876 F,0,141428,143936,1,0 S,0,141428,143936,0,0.05
Sprite,Background,Centre,"sb/star.png",0,0 M,16,141478,143584,320,240,295.8909,385.0095 F,0,141478,143584,1,0 S,0,141478,143584,0,0.05
Sprite,Background,Centre,"sb/star.png",0,0 M,16,141528,144290,320,240,101.4481,73.08665 F,0,141528,144290,1,0 S,0,141528,144290,0,0.05
Sprite,Background,Centre,"sb/star.png",0,0 M,16,141578,144224,320,240,548.7175,363.6459 F,0,141578,144224,1,0 S,0,141578,144224,0,0.05
Sprite,Background,Centre,"sb/star.png",0,0 M,16,141628,143758,320,240,424.6645,273.843 F,0,141628,143758,1,0 S,0,141628,143758,0,0.05
Sprite,Background,Centre,"sb/star.png",0,0 M,16,141678,144665,320,240,361.2874,103.09 F,0,141678,144665,1,0 S,0,141678,144665,0,0.05
Sprite,Background,Centre,"sb/star.png",0,0 M,16,141728,144700,320,240,166.819,33.63971 F,0,141728,144700,1,0 S,0,141728,144700,0,0.05
Sprite,Background,Centre,"sb/star.png",0,0 M,16,141778,144742,320,240,430.5109,499.4443 F,0,141778,144742,1,0 S,0,141778,144742,0,0.05
Sprite,Background,Centre,"sb/star.png",0,0 M,16,141828,143947,320,240,196.3794,249.693 F,0,141828,143947,1,0 S,0,141828,143947,0,0.05
Sprite,Background,Centre,"sb/star.png",0,0 M,16,141878,143972,320,240,277.2556,316.9215 F,0,141878,143972,1,0 S,0,141878,143972,0,0.05
Sprite,Background,Centre,"sb/star.png",0,0 M,16,141928,144378,320,240,264.7091,324.5217 F,0,141928,144378,1,0 S,0,141928,144378,0,0.05
Sprite,Background,Centre,"sb/star.png",0,0 M,16,141978,144949,320,240,422.3966,166.577 F,0,141978,144949,1,0 S,0,141978,144949,0,0.05
Sprite,Background,Centre,"sb/star.png",0,0 M,16,142028,144213,320,240,396.4861,99.46577 F,0,142028,144213,1,0 S,0,142028,144213,0,0.05
Sprite,Background,Centre,"sb/star.png",0,0 M,16,142078,144672,320,240,355.5149,319.421 F,0,142078,144672,1,0 S,0,142078,144672,0,0.05
Sprite,Background,Centre,"sb/star.png",0,0 M,16,142128,144593,320,240,290.567,21.97775 F,0,142128,144593,1,0 S,0,142128,144593,0,0.05
Sprite,Background,Centre,"sb/star.png",0,0 M,16,142178,144306,320,240,333.4439,155.0573 F,0,142178,144306,1,0 S,0,142178,144306,0,0.05
Sprite,Background,Centre,"sb/star.png",0,0 M,16,142228,144525,320,240,584.4666,211.479 F,0,142228,144525,1,0 S,0,142228,144525,0,0.05
Sprite,Background,Centre,"sb/star.png",0,0 M,16,142278,144691,320,240,66.76519,135.3667 F,0,142278,144691,1,0 S,0,142278,144691,0,0.05
Sprite,Background,Centre,"sb/star.png",0,0 M,16,142328,145060,320,240,211.3138,89.05861 F,0,142328,145060,1,0 S,0,142328,145060,0,0.05
Sprite,Background,Centre,"sb/star.png",0,0 M,16,142378,145191,320,240,569.4688,399.3152 F,0,142378,145191,1,0 S,0,142378,145191,0,0.05
Sprite,Background,Centre,"sb/star.png",0,0 M,16,142428,145216,320,240,316.0302,24.03648 F,0,142428,145216,1,0 S,0,142428,145216,0,0.05
Sprite,Background,Centre,"sb/star.png",0,0 M,16,142478,144751,320,240,254.7609,165.5362 F,0,142478,144751,1,0 S,0,142478,144751,0,0.05
Sprite,Background,Centre,"sb/star.png",0,0 M,16,142528,145264,320,240,402.1141,205.674 F,0,142528,145264,1,0 S,0,142528,145264,0,0.05
Sprite,Background,Centre,"sb/star.png",0,0 M,16,142578,144726,320,240,549.6609,141.2281 F,0,142578,144726,1,0 S,0,142578,144726,0,0.05
Sprite,Background,Centre,"sb/star.png",0,0 M,16,142628,145595,320,240,257.6549,110.196 F,0,142628,145595,1,0 S,0,142628,145595,0,0.05
Sprite,Background,Centre,"sb/star.png",0,0 M,16,142678,145143,320,240,320.0714,414 F,0,142678,145143,1,0 S,0,142678,145143,0,0.05
Sprite,Background,Centre,"sb/star.png",0,0 M,16,142728,145185,320,240,488.5916,484.5115 F,0,142728,145185,1,0 S,0,142728,145185,0,0.05
Sprite,Background,Centre,"sb/star.png",0,0 M,16,142778,145490,320,240,257.52,481.0337 F,0,142778,145490,1,0 S,0,142778,145490,0,0.05
Sprite,Background,Centre,"sb/star.png",0,0 M,16,142828,145175,320,240,298.6337,294.9953 F,0,142828,145175,1,0 S,0,142828,145175,0,0.05
Sprite,Background,Centre,"sb/star.png",0,0 M,16,142878,145657,320,240,328.2459,131.3123 F,0,142878,145657,1,0 S,0,142878,145657,0,0.05
Sprite,Background,Centre,"sb/star.png",0,0 M,16,142928,145178,320,240,183.8029,280.1789 F,0,142928,145178,1,0 S,0,142928,145178,0,0.05
Sprite,Background,Centre,"sb/star.png",0,0 M,16,142978,145716,320,240,70.29662,265.4799 F,0,142978,145716,1,0 S,0,142978,145716,0,0.05
Sprite,Background,Centre,"sb/star.png",0,0 M,16,143028,145464,320,240,222.4762,249.6493 F,0,143028,145464,1,0 S,0,143028,145464,0,0.05
Sprite,Background,Centre,"sb/star.png",0,0 M,16,143078,145171,320,240,466.4987,227.8708 F,0,143078,145171,1,0 S,0,143078,145171,0,0.05
Sprite,Background,Centre,"sb/star.png",0,0 M,16,143128,145965,320,240,400.6599,272.6033 F,0,143128,145965,1,0 S,0,143128,145965,0,0.05
Sprite,Background,Centre,"sb/star.png",0,0 M,16,143178,145225,320,240,160.2236,220.1882 F,0,143178,145225,1,0 S,0,143178,145225,0,0.05
Sprite,Background,Centre,"sb/star.png",0,0 M,16,143228,146111,320,240,431.2512,272.8507 F,0,143228,146111,1,0 S,0,143228,146111,0,0.05
Sprite,Background,Centre,"sb/star.png",0,0 M,16,143278,145678,320,240,458.9097,234.9899 F,0,143278,145678,1,0 S,0,143278,145678,0,0.05
Sprite,Background,Centre,"sb/star.png",0,0 M,16,143328,146264,320,240,367.3535,189.8138 F,0,143328,146264,1,0 S,0,143328,146264,0,0.05
Sprite,Background,Centre,"sb/star.png",0,0 M,16,143378,145834,320,240,470.6264,477.2187 F,0,143378,145834,1,0 S,0,143378,145834,0,0.05
Sprite,Background,Centre,"sb/star.png",0,0 M,16,143428,145754,320,240,573.0929,100.483 F,0,143428,145754,1,0 S,0,143428,145754,0,0.05
Sprite,Background,Centre,"sb/star.png",0,0 M,16,143478,145652,320,240,71.13234,354.6337 F,0,143478,145652,1,0 S,0,143478,145652,0,0.05
Sprite,Background,Centre,"sb/star.png",0,0 M,16,143528,146009,320,240,223.4714,193.8348 F,0,143528,146009,1,0 S,0,143528,146009,0,0.05
Sprite,Background,Centre,"sb/star.png",0,0 M,16,143578,145772,320,240,300.2204,293.4581 F,0,143578,145772,1,0 S,0,143578,145772,0,0.05
Sprite,Background,Centre,"sb/star.png",0,0 M,16,143628,146393,320,240,206.1771,156.7813 F,0,143628,146393,1,0 S,0,143628,146393,0,0.05
Sprite,Background,Centre,"sb/star.png",0,0 M,16,143678,145845,320,240,160.8394,24.3802 F,0,143678,145845,1,0 S,0,143678,145845,0,0.05
Sprite,Background,Centre,"sb/star.png",0,0 M,16,143728,145957,320,240,214.5254,172.9172 F,0,143728,145957,1,0 S,0,143728,145957,0,0.05
Sprite,Background,Centre,"sb/star.png",0,0 M,16,143778,146567,320,240,589.7609,191.9892 F,0,143778,146567,1,0 S,0,143778,146567,0,0.05
Sprite,Background,Centre,"sb/star.png",0,0 M,16,143828,146544,320,240,580.7691,265.3668 F,0,143828,146544,1,0 S,0,143828,146544,0,0.05
Sprite,Background,Centre,"sb/star.png",0,0 M,16,143878,146338,320,240,288.8268,-8.048847 F,0,143878,146338,1,0 S,0,143878,146338,0,0.05
Sprite,Background,Centre,"sb/star.png",0,0 M,16,143928,146541,320,240,288.4964,532.3073 F,0,143928,146541,1,0 S,0,143928,146541,0,0.05
Sprite,Background,Centre,"sb/star.png",0,0 M,16,143978,146302,320,240,99.10403,336.3637 F,0,143978,146302,1,0 S,0,143978,146302,0,0.05
Sprite,Background,Centre,"sb/star.png",0,0 M,16,144028,146095,320,240,319.7208,454.9998 F,0,144028,146095,1,0 S,0,144028,146095,0,0.05
Sprite,Background,Centre,"sb/star.png",0,0 M,16,144078,146707,320,240,358.1063,427.1601 F,0,144078,146707,1,0 S,0,144078,146707,0,0.05
Sprite,Background,Centre,"sb/star.png",0,0 M,16,144128,147076,320,240,337.0727,461.3426 F,0,144128,147076,1,0 S,0,144128,147076,0,0.05
Sprite,Background,Centre,"sb/star.png",0,0 M,16,144178,146917,320,240,527.7397,229.5972 F,0,144178,146917,1,0 S,0,144178,146917,0,0.05
Sprite,Background,Centre,"sb/star.png",0,0 M,16,144228,146621,320,240,392.5424,470.8714 F,0,144228,146621,1,0 S,0,144228,146621,0,0.05
Sprite,Background,Centre,"sb/star.png",0,0 M,16,144278,146499,320,240,245.0395,165.0539 F,0,144278,146499,1,0 S,0,144278,146499,0,0.05
Sprite,Background,Centre,"sb/star.png",0,0 M,16,144328,146897,320,240,490.8095,308.4112 F,0,144328,146897,1,0 S,0,144328,146897,0,0.05
Sprite,Background,Centre,"sb/star.png",0,0 M,16,144378,147325,320,240,476.3226,289.5908 F,0,144378,147325,1,0 S,0,144378,147325,0,0.05
Sprite,Background,Centre,"sb/star.png",0,0 M,16,144428,146843,320,240,270.828,264.6397 F,0,144428,146843,1,0 S,0,144428,146843,0,0.05
Sprite,Background,Centre,"sb/star.png",0,0 M,16,144478,147318,320,240,505.4553,300.2607 F,0,144478,147318,1,0 S,0,144478,147318,0,0.05
Sprite,Background,Centre,"sb/star.png",0,0 M,16,144528,146567,320,240,189.0885,148.0098 F,0,144528,146567,1,0 S,0,144528,146567,0,0.05
Sprite,Background,Centre,"sb/star.png",0,0 M,16,144578,146743,320,240,337.9682,312.8158 F,0,144578,146743,1,0 S,0,144578,146743,0,0.05
Sprite,Background,Centre,"sb/star.png",0,0 M,16,144628,147026,320,240,299.7103,42.03706 F,0,144628,147026,1,0 S,0,144628,147026,0,0.05
Sprite,Background,Centre,"sb/star.png",0,0 M,16,144678,147050,320,240,388.5938,490.7885 F,0,144678,147050,1,0 S,0,144678,147050,0,0.05
Sprite,Background,Centre,"sb/star.png",0,0 M,16,144728,147462,320,240,385.1063,526.7005 F,0,144728,147462,1,0 S,0,144728,147462,0,0.05
Sprite,Background,Centre,"sb/star.png",0,0 M,16,144778,146801,320,240,384.5953,253.5441 F,0,144778,146801,1,0 S,0,144778,146801,0,0.05
Sprite,Background,Centre,"sb/star.png",0,0 M,16,144828,147356,320,240,321.6779,93.00957 F,0,144828,147356,1,0 S,0,144828,147356,0,0.05
Sprite,Background,Centre,"sb/star.png",0,0 M,16,144878,147520,320,240,350.6334,476.0203 F,0,144878,147520,1,0 S,0,144878,147520,0,0.05
Sprite,Background,Centre,"sb/star.png",0,0 M,16,144928,147301,320,240,342.2823,315.7925 F,0,144928,147301,1,0 S,0,144928,147301,0,0.05
Sprite,Background,Centre,"sb/star.png",0,0 M,16,144978,147179,320,240,221.1986,210.8918 F,0,144978,147179,1,0 S,0,144978,147179,0,0.05
Sprite,Background,Centre,"sb/star.png",0,0 M,16,145028,147819,320,240,379.396,287.4143 F,0,145028,147819,1,0 S,0,145028,147819,0,0.05
Sprite,Background,Centre,"sb/star.png",0,0 M,16,145078,147265,320,240,397.4312,450.1913 F,0,145078,147265,1,0 S,0,145078,147265,0,0.05
Sprite,Background,Centre,"sb/star.png",0,0 M,16,145128,147522,320,240,268.5925,147.3001 F,0,145128,147522,1,0 S,0,145128,147522,0,0.05
Sprite,Background,Centre,"sb/star.png",0,0 M,16,145178,148168,320,240,143.2112,56.23191 F,0,145178,148168,1,0 S,0,145178,148168,0,0.05
Sprite,Background,Centre,"sb/star.png",0,0 M,16,145228,148119,320,240,287.3253,146.5475 F,0,145228,148119,1,0 S,0,145228,148119,0,0.05
Sprite,Background,Centre,"sb/star.png",0,0 M,16,145278,148131,320,240,217.6937,251.9341 F,0,145278,148131,1,0 S,0,145278,148131,0,0.05
Sprite,Background,Centre,"sb/star.png",0,0 M,16,145328,148162,320,240,462.0289,198.3853 F,0,145328,148162,1,0 S,0,145328,148162,0,0.05
Sprite,Background,Centre,"sb/star.png",0,0 M,16,145378,147771,320,240,367.3972,358.9012 F,0,145378,147771,1,0 S,0,145378,147771,0,0.05
Sprite,Background,Centre,"sb/star.png",0,0 M,16,145428,147726,320,240,262.3292,102.6134 F,0,145428,147726,1,0 S,0,145428,147726,0,0.05
Sprite,Background,Centre,"sb/star.png",0,0 M,16,145478,147846,320,240,566.2075,210.236 F,0,145478,147846,1,0 S,0,145478,147846,0,0.05
Sprite,Background,Centre,"sb/star.png",0,0 M,16,145528,147535,320,240,245.5633,305.2701 F,0,145528,147535,1,0 S,0,145528,147535,0,0.05
Sprite,Background,Centre,"sb/star.png",0,0 M,16,145578,147766,320,240,299.1713,46.11559 F,0,145578,147766,1,0 S,0,145578,147766,0,0.05
Sprite,Background,Centre,"sb/star.png",0,0 M,16,145628,147728,320,240,288.5079,423.3146 F,0,145628,147728,1,0 S,0,145628,147728,0,0.05
Sprite,Background,Centre,"sb/star.png",0,0 M,16,145678,147698,320,240,429.2138,64.15536 F,0,145678,147698,1,0 S,0,145678,147698,0,0.05
Sprite,Background,Centre,"sb/star.png",0,0 M,16,145728,148091,320,240,152.9564,162.8481 F,0,145728,148091,1,0 S,0,145728,148091,0,0.05
Sprite,Background,Centre,"sb/star.png",0,0 M,16,145778,147901,320,240,97.96619,157.1146 F,0,145778,147901,1,0 S,0,145778,147901,0,0.05
Sprite,Background,Centre,"sb/star.png",0,0 M,16,145828,148360,320,240,469.2267,139.3452 F,0,145828,148360,1,0 S,0,145828,148360,0,0.05
Sprite,Background,Centre,"sb/star.png",0,0 M,16,145878,148600,320,240,381.2331,112.9901 F,0,145878,148600,1,0 S,0,145878,148600,0,0.05
Sprite,Background,Centre,"sb/star.png",0,0 M,16,145928,148518,320,240,361.9286,97.02102 F,0,145928,148518,1,0 S,0,145928,148518,0,0.05
Sprite,Background,Centre,"sb/star.png",0,0 M,16,145978,148895,320,240,231.4595,497.1859 F,0,145978,148895,1,0 S,0,145978,148895,0,0.05
Sprite,Background,Centre,"sb/star.png",0,0 M,16,146028,148535,320,240,268.495,261.9825 F,0,146028,148535,1,0 S,0,146028,148535,0,0.05
Sprite,Background,Centre,"sb/star.png",0,0 M,16,146078,148766,320,240,112.3452,30.46598 F,0,146078,148766,1,0 S,0,146078,148766,0,0.05
Sprite,Background,Centre,"sb/star.png",0,0 M,16,146128,148370,320,240,153.5984,88.55529 F,0,146128,148370,1,0 S,0,146128,148370,0,0.05
Sprite,Background,Centre,"sb/star.png",0,0 M,16,146178,149141,320,240,201.6354,33.5204 F,0,146178,149141,1,0 S,0,146178,149141,0,0.05
Sprite,Background,Centre,"sb/star.png",0,0 M,16,146228,148432,320,240,341.6296,-12.07372 F,0,146228,148432,1,0 S,0,146228,148432,0,0.05
Sprite,Background,Centre,"sb/star.png",0,0 M,16,146278,148394,320,240,328.5041,183.638 F,0,146278,148394,1,0 S,0,146278,148394,0,0.05
Sprite,Background,Centre,"sb/star.png",0,0 M,16,146328,148948,320,240,263.625,166.0348 F,0,146328,148948,1,0 S,0,146328,148948,0,0.05
Sprite,Background,Centre,"sb/star.png",0,0 M,16,146378,148507,320,240,285.6333,495.7009 F,0,146378,148507,1,0 S,0,146378,148507,0,0.05
Sprite,Background,Centre,"sb/star.png",0,0 M,16,146428,148503,320,240,378.5515,134.1099 F,0,146428,148503,1,0 S,0,146428,148503,0,0.05
Sprite,Background,Centre,"sb/star.png",0,0 M,16,146478,149041,320,240,403.1738,420.7848 F,0,146478,149041,1,0 S,0,146478,149041,0,0.05
Sprite,Background,Centre,"sb/star.png",0,0 M,16,146528,149465,320,240,267.55,160.7914 F,0,146528,149465,1,0 S,0,146528,149465,0,0.05
Sprite,Background,Centre,"sb/star.png",0,0 M,16,146578,149552,320,240,177.5397,133.2805 F,0,146578,149552,1,0 S,0,146578,149552,0,0.05
Sprite,Background,Centre,"sb/star.png",0,0 M,16,146628,149030,320,240,115.1017,165.5641 F,0,146628,149030,1,0 S,0,146628,149030,0,0.05
Sprite,Background,Centre,"sb/star.png",0,0 M,16,146678,149621,320,240,577.9302,319.8247 F,0,146678,149621,1,0 S,0,146678,149621,0,0.05
Sprite,Background,Centre,"sb/star.png",0,0 M,16,146728,149667,320,240,341.6042,49.21934 F,0,146728,149667,1,0 S,0,146728,149667,0,0.05
Sprite,Background,Centre,"sb/star.png",0,0 M,16,146778,149016,320,240,150.8669,181.3911 F,0,146778,149016,1,0 S,0,146778,149016,0,0.05
Sprite,Background,Centre,"sb/star.png",0,0 M,16,146828,148885,320,240,205.6947,363.119 F,0,146828,148885,1,0 S,0,146828,148885,0,0.05
Sprite,Background,Centre,"sb/star.png",0,0 M,16,146878,148899,320,240,293.0352,118.9674 F,0,146878,148899,1,0 S,0,146878,148899,0,0.05
Sprite,Background,Centre,"sb/star.png",0,0 M,16,146928,149584,320,240,371.7612,374.3755 F,0,146928,149584,1,0 S,0,146928,149584,0,0.05
Sprite,Background,Centre,"sb/star.png",0,0 M,16,146978,149142,320,240,256.0788,47.3265 F,0,146978,149142,1,0 S,0,146978,149142,0,0.05
Sprite,Background,Centre,"sb/star.png",0,0 M,16,147028,149823,320,240,492.2726,375.2151 F,0,147028,149823,1,0 S,0,147028,149823,0,0.05
Sprite,Background,Centre,"sb/star.png",0,0 M,16,147078,149514,320,240,269.3504,216.1124 F,0,147078,149514,1,0 S,0,147078,149514,0,0.05
Sprite,Background,Centre,"sb/star.png",0,0 M,16,147128,149138,320,240,286.7832,341.7136 F,0,147128,149138,1,0 S,0,147128,149138,0,0.05
Sprite,Background,Centre,"sb/star.png",0,0 M,16,147178,149339,320,240,180.5117,420.3524 F,0,147178,149339,1,0 S,0,147178,149339,0,0.05
Sprite,Background,Centre,"sb/star.png",0,0 M,16,147228,149446,320,240,261.0639,450.9207 F,0,147228,149446,1,0 S,0,147228,149446,0,0.05
Sprite,Background,Centre,"sb/star.png",0,0 M,16,147278,149876,320,240,310.5386,336.5375 F,0,147278,149876,1,0 S,0,147278,149876,0,0.05
Sprite,Background,Centre,"sb/star.png",0,0 M,16,147328,149831,320,240,345.1779,-17.7733 F,0,147328,149831,1,0 S,0,147328,149831,0,0.05
Sprite,Background,Centre,"sb/star.png",0,0 M,16,147378,149655,320,240,446.4642,362.4042 F,0,147378,149655,1,0 S,0,147378,149655,0,0.05
Sprite,Background,Centre,"sb/star.png",0,0 M,16,147428,150240,320,240,530.2866,56.6409 F,0,147428,150240,1,0 S,0,147428,150240,0,0.05
Sprite,Background,Centre,"sb/star.png",0,0 M,16,147478,150419,320,240,404.4776,337.4912 F,0,147478,150419,1,0 S,0,147478,150419,0,0.05
Sprite,Background,Centre,"sb/star.png",0,0 M,16,147528,149938,320,240,420.923,281.1771 F,0,147528,149938,1,0 S,0,147528,149938,0,0.05
Sprite,Background,Centre,"sb/star.png",0,0 M,16,147578,150434,320,240,345.3594,322.176 F,0,147578,150434,1,0 S,0,147578,150434,0,0.05
Sprite,Background,Centre,"sb/star.png",0,0 M,16,147628,150569,320,240,151.5132,192.7009 F,0,147628,150569,1,0 S,0,147628,150569,0,0.05
Sprite,Background,Centre,"sb/star.png",0,0 M,16,147678,149875,320,240,294.4329,343.9005 F,0,147678,149875,1,0 S,0,147678,149875,0,0.05
Sprite,Background,Centre,"sb/star.png",0,0 M,16,147728,149980,320,240,339.3596,-33.31522 F,0,147728,149980,1,0 S,0,147728,149980,0,0.05
Sprite,Background,Centre,"sb/star.png",0,0 M,16,147778,149792,320,240,136.9059,69.775 F,0,147778,149792,1,0 S,0,147778,149792,0,0.05
Sprite,Background,Centre,"sb/star.png",0,0 M,16,147828,150249,320,240,344.8044,298.9978 F,0,147828,150249,1,0 S,0,147828,150249,0,0.05
Sprite,Background,Centre,"sb/star.png",0,0 M,16,147878,150803,320,240,355.454,27.94337 F,0,147878,150803,1,0 S,0,147878,150803,0,0.05
Sprite,Background,Centre,"sb/star.png",0,0 M,16,147928,150861,320,240,403.5922,398.2825 F,0,147928,150861,1,0 S,0,147928,150861,0,0.05
Sprite,Background,Centre,"sb/star.png",0,0 M,16,147978,150961,320,240,478.0134,370.6016 F,0,147978,150961,1,0 S,0,147978,150961,0,0.05
Sprite,Background,Centre,"sb/star.png",0,0 M,16,148028,150712,320,240,377.0704,204.9006 F,0,148028,150712,1,0 S,0,148028,150712,0,0.05
Sprite,Background,Centre,"sb/star.png",0,0 M,16,148078,150241,320,240,85.825,276.4839 F,0,148078,150241,1,0 S,0,148078,150241,0,0.05
Sprite,Background,Centre,"sb/star.png",0,0 M,16,148128,150421,320,240,182.4472,213.9382 F,0,148128,150421,1,0 S,0,148128,150421,0,0.05
Sprite,Background,Centre,"sb/star.png",0,0 M,16,148178,150269,320,240,237.8991,42.37552 F,0,148178,150269,1,0 S,0,148178,150269,0,0.05
Sprite,Background,Centre,"sb/star.png",0,0 M,16,148228,150949,320,240,222.2849,160.4529 F,0,148228,150949,1,0 S,0,148228,150949,0,0.05
Sprite,Background,Centre,"sb/star.png",0,0 M,16,148278,150755,320,240,276.7341,204.4463 F,0,148278,150755,1,0 S,0,148278,150755,0,0.05
Sprite,Background,Centre,"sb/star.png",0,0 M,16,148328,150689,320,240,509.023,402.0842 F,0,148328,150689,1,0 S,0,148328,150689,0,0.05
Sprite,Background,Centre,"sb/star.png",0,0 M,16,148378,150644,320,240,308.6389,419.6411 F,0,148378,150644,1,0 S,0,148378,150644,0,0.05
Sprite,Background,Centre,"sb/star.png",0,0 M,16,148428,151377,320,240,168.5786,160.5483 F,0,148428,151377,1,0 S,0,148428,151377,0,0.05
Sprite,Background,Centre,"sb/star.png",0,0 M,16,148478,150763,320,240,128.0582,36.14135 F,0,148478,150763,1,0 S,0,148478,150763,0,0.05
Sprite,Background,Centre,"sb/star.png",0,0 M,16,148528,150557,320,240,529.8478,41.29189 F,0,148528,150557,1,0 S,0,148528,150557,0,0.05
Sprite,Background,Centre,"sb/star.png",0,0 M,16,148578,151011,320,240,415.6506,390.1165 F,0,148578,151011,1,0 S,0,148578,151011,0,0.05
Sprite,Background,Centre,"sb/star.png",0,0 M,16,148628,151004,320,240,363.7256,297.202 F,0,148628,151004,1,0 S,0,148628,151004,0,0.05
Sprite,Background,Centre,"sb/star.png",0,0 M,16,148678,150963,320,240,105.4897,322.978 F,0,148678,150963,1,0 S,0,148678,150963,0,0.05
Sprite,Background,Centre,"sb/star.png",0,0 M,16,148728,150817,320,240,212.6707,316.8403 F,0,148728,150817,1,0 S,0,148728,150817,0,0.05
Sprite,Background,Centre,"sb/star.png",0,0 M,16,148778,151277,320,240,258.3582,318.7419 F,0,148778,151277,1,0 S,0,148778,151277,0,0.05
Sprite,Background,Centre,"sb/star.png",0,0 M,16,148828,150995,320,240,156.1333,246.6121 F,0,148828,150995,1,0 S,0,148828,150995,0,0.05
Sprite,Background,Centre,"sb/star.png",0,0 M,16,148878,151441,320,240,414.1062,57.87635 F,0,148878,151441,1,0 S,0,148878,151441,0,0.05
Sprite,Background,Centre,"sb/star.png",0,0 M,16,148928,151925,320,240,173.0632,193.8959 F,0,148928,151925,1,0 S,0,148928,151925,0,0.05
Sprite,Background,Centre,"sb/star.png",0,0 M,16,148978,151630,320,240,309.959,342.5094 F,0,148978,151630,1,0 S,0,148978,151630,0,0.05
Sprite,Background,Centre,"sb/star.png",0,0 M,16,149028,151926,320,240,272.6987,259.0679 F,0,149028,151926,1,0 S,0,149028,151926,0,0.05
Sprite,Background,Centre,"sb/star.png",0,0 M,16,149078,151978,320,240,299.2845,178.3894 F,0,149078,151978,1,0 S,0,149078,151978,0,0.05
Sprite,Background,Centre,"sb/star.png",0,0 M,16,149128,151935,320,240,351.799,122.217 F,0,149128,151935,1,0 S,0,149128,151935,0,0.05
Sprite,Background,Centre,"sb/star.png",0,0 M,16,149178,151627,320,240,388.9191,210.4169 F,0,149178,151627,1,0 S,0,149178,151627,0,0.05
Sprite,Background,Centre,"sb/star.png",0,0 M,16,149228,151691,320,240,380.2433,271.5396 F,0,149228,151691,1,0 S,0,149228,151691,0,0.05
Sprite,Background,Centre,"sb/star.png",0,0 M,16,149278,151949,320,240,354.9807,327.2488 F,0,149278,151949,1,0 S,0,149278,151949,0,0.05
Sprite,Background,Centre,"sb/star.png",0,0 M,16,149328,152186,320,240,288.6754,398.9427 F,0,149328,152186,1,0 S,0,149328,152186,0,0.05
Sprite,Background,Centre,"sb/star.png",0,0 M,16,149378,151599,320,240,242.7441,256.5085 F,0,149378,151599,1,0 S,0,149378,151599,0,0.05
Sprite,Background,Centre,"sb/star.png",0,0 M,16,149428,151564,320,240,234.6111,382.3542 F,0,149428,151564,1,0 S,0,149428,151564,0,0.05
Sprite,Background,Centre,"sb/star.png",0,0 M,16,149478,151531,320,240,450.9773,330.1441 F,0,149478,151531,1,0 S,0,149478,151531,0,0.05
Sprite,Background,Centre,"sb/star.png",0,0 M,16,149528,152139,320,240,482.438,77.16908 F,0,149528,152139,1,0 S,0,149528,152139,0,0.05
Sprite,Background,Centre,"sb/star.png",0,0 M,16,149578,152458,320,240,286.6912,97.85035 F,0,149578,152458,1,0 S,0,149578,152458,0,0.05
Sprite,Background,Centre,"sb/hit/r.png",117,280 S,7,149619,151024,0.25,0.5 F,6,149619,151024,1,0
Sprite,Background,Centre,"sb/hit/r.png",337,154 S,7,151031,152436,0.25,0.5 F,6,151031,152436,1,0
Sprite,Background,Centre,"sb/hit/r.png",441,419 S,7,152443,153848,0.25,0.5 F,6,152443,153848,1,0
Sprite,Background,Centre,"sb/hit/r.png",279,138 S,7,153854,155259,0.25,0.5 F,6,153854,155259,1,0
Sprite,Background,Centre,"sb/hit/r.png",291,317 S,7,155266,156318,0.25,0.5 F,6,155266,156318,1,0
Sprite,Background,Centre,"sb/hit/r.png",217,389 S,7,155972,157024,0.25,0.5 F,6,155972,157024,1,0
Sprite,Background,Centre,"sb/hit/r.png",108,284 S,7,156678,157730,0.25,0.5 F,6,156678,157730,1,0
Sprite,Background,Centre,"sb/hit/r.png",189,216 S,7,157384,158436,0.25,0.5 F,6,157384,158436,1,0
Sprite,Background,Centre,"sb/hit/r.png",320,248 S,7,158090,160201,0.25,0.5 F,6,158090,160201,1,0
Sprite,Background,Centre,"sb/bar.png",0,0 F,0,205384,206090,1,0 V,0,160913,,35,1 C,0,160913,,86,191,237 M,0,160913,,201,243 M,0,160913,160935,201,243,201.8751,236.8116 M,0,160935,160957,201.8751,236.8116,202.7503,230.6231 M,0,160957,160979,202.7503,230.6231,203.6254,224.4347 M,0,160979,161001,203.6254,224.4347,204.5005,218.2463 M,0,161001,161023,204.5005,218.2463,205.3757,212.0579 M,0,161023,161045,205.3757,212.0579,206.2508,205.8694 M,0,161045,161067,206.2508,205.8694,207.1259,199.681 M,0,161067,161089,207.1259,199.681,208.0011,193.4926 M,0,161089,161111,208.0011,193.4926,208.8762,187.3041 M,0,161111,161133,208.8762,187.3041,209.7513,181.1157 M,0,161133,161155,209.7513,181.1157,210.6264,174.9273 M,0,161155,161177,210.6264,174.9273,211.5016,168.7389 M,0,161177,161199,211.5016,168.7389,212.3767,162.5504 M,0,161199,161221,212.3767,162.5504,213.2518,156.362 M,0,161221,161243,213.2518,156.362,214.127,150.1736 M,0,161243,161265,214.127,150.1736,215,144 M,0,161265,161287,215,144,214.127,150.1736 M,0,161287,161310,214.127,150.1736,213.2518,156.362 M,0,161310,161332,213.2518,156.362,212.3767,162.5504 M,0,161332,161354,212.3767,162.5504,211.5016,168.7389 M,0,161354,161376,211.5016,168.7389,210.6264,174.9273 M,0,161376,161398,210.6264,174.9273,209.7513,181.1157 M,0,161398,161420,209.7513,181.1157,208.8762,187.3041 M,0,161420,161442,208.8762,187.3041,208.0011,193.4926 M,0,161442,161464,208.0011,193.4926,207.1259,199.681 M,0,161464,161486,207.1259,199.681,206.2508,205.8694 M,0,161486,161508,206.2508,205.8694,205.3757,212.0579 M,0,161508,161530,205.3757,212.0579,204.5005,218.2463 M,0,161530,161552,204.5005,218.2463,203.6254,224.4347 M,0,161552,161574,203.6254,224.4347,202.7503,230.6231 M,0,161574,161596,202.7503,230.6231,201.8751,236.8116 M,0,161596,161618,201.8751,236.8116,201,243 M,0,161618,161640,201,243 M,0,161618,161972,201,243,266,318 M,0,161972,162678,266,318,395,165 M,0,162678,162700,395,165,394.2553,158.7945 M,0,162700,162722,394.2553,158.7945,393.5107,152.5891 M,0,162722,162744,393.5107,152.5891,392.766,146.3836 M,0,162744,162766,392.766,146.3836,392.0214,140.1781 M,0,162766,162788,392.0214,140.1781,391.2767,133.9726 M,0,162788,162810,391.2767,133.9726,390.532,127.7671 M,0,162810,162832,390.532,127.7671,389.7874,121.5616 M,0,162832,162854,389.7874,121.5616,389.0427,115.3562 M,0,162854,162876,389.0427,115.3562,389.7874,121.5616 M,0,162876,162898,389.7874,121.5616,390.532,127.7671 M,0,162898,162920,390.532,127.7671,391.2767,133.9726 M,0,162920,162942,391.2767,133.9726,392.0214,140.1781 M,0,162942,162964,392.0214,140.1781,392.766,146.3836 M,0,162964,162986,392.766,146.3836,393.5107,152.5891 M,0,162986,163008,393.5107,152.5891,394.2553,158.7945 M,0,163008,163030,394.2553,158.7945,395,165 M,0,163030,163052,395,165 M,0,163030,163384,395,165,466,234 M,0,163384,163737,466,234,395,305 M,0,163737,163759,395,305,388.8401,303.9423 M,0,163759,163781,388.8401,303.9423,382.6803,302.8845 M,0,163781,163803,382.6803,302.8845,376.5205,301.8268 M,0,163803,163825,376.5205,301.8268,370.3606,300.769 M,0,163825,163847,370.3606,300.769,364.2008,299.7112 M,0,163847,163869,364.2008,299.7112,358.041,298.6535 M,0,163869,163891,358.041,298.6535,351.8811,297.5958 M,0,163891,163913,351.8811,297.5958,345.7213,296.538 M,0,163913,163935,345.7213,296.538,339.5614,295.4802 M,0,163935,163957,339.5614,295.4802,333.4016,294.4225 M,0,163957,163979,333.4016,294.4225,327.2417,293.3647 M,0,163979,164001,327.2417,293.3647,321.0819,292.307 M,0,164001,164023,321.0819,292.307,314.9221,291.2492 M,0,164023,164045,314.9221,291.2492,308.7622,290.1915 M,0,164045,164067,308.7622,290.1915,302.6024,289.1337 M,0,164067,164089,302.6024,289.1337,296.4425,288.076 M,0,164089,164111,296.4425,288.076,290.9073,290.7778 M,0,164111,164134,290.9073,290.7778,285.4205,293.7706 M,0,164134,164156,285.4205,293.7706,279.9336,296.7635 M,0,164156,164178,279.9336,296.7635,274.4468,299.7563 M,0,164178,164200,274.4468,299.7563,268.9599,302.7491 M,0,164200,164222,268.9599,302.7491,263.4731,305.7419 M,0,164222,164244,263.4731,305.7419,257.9862,308.7348 M,0,164244,164266,257.9862,308.7348,252.4994,311.7276 M,0,164266,164288,252.4994,311.7276,247.0125,314.7204 M,0,164288,164310,247.0125,314.7204,241.5257,317.7133 M,0,164310,164332,241.5257,317.7133,236.0388,320.7061 M,0,164332,164354,236.0388,320.7061,230.552,323.6989 M,0,164354,164376,230.552,323.6989,225.0652,326.6917 M,0,164376,164398,225.0652,326.6917,219.5783,329.6846 M,0,164398,164420,219.5783,329.6846,214.0915,332.6774 M,0,164420,164442,214.0915,332.6774,208.6046,335.6702 M,0,164442,164464,208.6046,335.6702 M,0,164442,164795,208.6046,335.6702,127,393 M,0,164795,165325,127,393,71,253 M,0,165325,165347,71,253,72.24975,246.8762 M,0,165347,165369,72.24975,246.8762,73.4995,240.7525 M,0,165369,165391,73.4995,240.7525,74.74925,234.6287 M,0,165391,165413,74.74925,234.6287,75.999,228.5049 M,0,165413,165435,75.999,228.5049,77.24875,222.3811 M,0,165435,165457,77.24875,222.3811,78.4985,216.2574 M,0,165457,165479,78.4985,216.2574,79.74825,210.1336 M,0,165479,165501,79.74825,210.1336,80.998,204.0098 M,0,165501,165523,80.998,204.0098,82.24775,197.886 M,0,165523,165545,82.24775,197.886,83.4975,191.7622 M,0,165545,165567,83.4975,191.7622,84.74725,185.6385 M,0,165567,165589,84.74725,185.6385,85.997,179.5147 M,0,165589,165611,85.997,179.5147,87.24675,173.3909 M,0,165611,165633,87.24675,173.3909,88.4965,167.2672 M,0,165633,165655,88.4965,167.2672,89.74625,161.1434 M,0,165655,165677,89.74625,161.1434,90.996,155.0196 M,0,165677,165699,90.996,155.0196,92.24575,148.8958 M,0,165699,165722,92.24575,148.8958,93.4955,142.772 M,0,165722,165744,93.4955,142.772,94.74525,136.6483 M,0,165744,165766,94.74525,136.6483,95.995,130.5245 M,0,165766,165788,95.995,130.5245,97.24475,124.4007 M,0,165788,165810,97.24475,124.4007,98.49451,118.2769 M,0,165810,165832,98.49451,118.2769,99.74425,112.1532 M,0,165832,165854,99.74425,112.1532,100.994,106.0294 M,0,165854,165876,100.994,106.0294 M,0,165854,166207,100.994,106.0294,196,74 M,0,166207,166560,196,74,266,144 M,0,166560,166582,266,144,272.1605,145.0538 M,0,166582,166604,272.1605,145.0538,278.321,146.1075 M,0,166604,166626,278.321,146.1075,284.4816,147.1613 M,0,166626,166648,284.4816,147.1613,290.6421,148.2151 M,0,166648,166670,290.6421,148.2151,296.8026,149.2689 M,0,166670,166692,296.8026,149.2689,302.9631,150.3226 M,0,166692,166714,302.9631,150.3226,309.1237,151.3764 M,0,166714,166736,309.1237,151.3764,315.2842,152.4302 M,0,166736,166758,315.2842,152.4302,321.4447,153.484 M,0,166758,166780,321.4447,153.484,327.6052,154.5377 M,0,166780,166802,327.6052,154.5377,333.7657,155.5915 M,0,166802,166824,333.7657,155.5915,339.9263,156.6453 M,0,166824,166846,339.9263,156.6453,345.7745,155.2843 M,0,166846,166868,345.7745,155.2843,351.4643,152.698 M,0,166868,166890,351.4643,152.698,357.1541,150.1118 M,0,166890,166912,357.1541,150.1118,362.8439,147.5255 M,0,166912,166934,362.8439,147.5255,368.5337,144.9392 M,0,166934,166957,368.5337,144.9392,374.2235,142.353 M,0,166957,166979,374.2235,142.353,379.9133,139.7667 M,0,166979,167001,379.9133,139.7667,385.6031,137.1804 M,0,167001,167023,385.6031,137.1804,391.7491,137.8663 M,0,167023,167045,391.7491,137.8663,397.9293,138.7976 M,0,167045,167067,397.9293,138.7976,404.1096,139.7288 M,0,167067,167089,404.1096,139.7288,410.2898,140.6601 M,0,167089,167111,410.2898,140.6601,416.47,141.5914 M,0,167111,167133,416.47,141.5914,422.6502,142.5226 M,0,167133,167155,422.6502,142.5226,428.8305,143.4539 M,0,167155,167177,428.8305,143.4539,435.0107,144.3852 M,0,167177,167199,435.0107,144.3852,441.1909,145.3164 M,0,167199,167221,441.1909,145.3164,447.3712,146.2477 M,0,167221,167243,447.3712,146.2477,453.5514,147.179 M,0,167243,167265,453.5514,147.179,459,148 M,0,167265,167287,459,148 M,0,167265,167619,459,148,555,177 M,0,167619,168325,555,177,442,342 M,0,168325,168347,442,342,439.8055,336.1479 M,0,168347,168369,439.8055,336.1479,437.611,330.2959 M,0,168369,168391,437.611,330.2959,435.4164,324.4438 M,0,168391,168413,435.4164,324.4438,433.2219,318.5918 M,0,168413,168435,433.2219,318.5918,431.0274,312.7397 M,0,168435,168457,431.0274,312.7397,428.8329,306.8877 M,0,168457,168479,428.8329,306.8877,426.6383,301.0356 M,0,168479,168501,426.6383,301.0356,424.4438,295.1835 M,0,168501,168523,424.4438,295.1835,425.1137,289.14 M,0,168523,168545,425.1137,289.14,426.5099,283.0479 M,0,168545,168567,426.5099,283.0479,427.9059,276.9559 M,0,168567,168589,427.9059,276.9559,429.3021,270.8638 M,0,168589,168611,429.3021,270.8638,430.6982,264.7717 M,0,168611,168633,430.6982,264.7717,432.0942,258.6796 M,0,168633,168655,432.0942,258.6796,433.4904,252.5876 M,0,168655,168677,433.4904,252.5876,434.8864,246.4955 M,0,168677,168699,434.8864,246.4955 M,0,168677,169031,434.8864,246.4955,460,149 M,0,169031,169384,460,149,372,100 M,0,169384,169406,372,100,365.7921,99.27574 M,0,169406,169428,365.7921,99.27574,359.5842,98.55149 M,0,169428,169450,359.5842,98.55149,353.3763,97.82724 M,0,169450,169472,353.3763,97.82724,347.1684,97.10298 M,0,169472,169494,347.1684,97.10298,340.9605,96.37872 M,0,169494,169516,340.9605,96.37872,334.7526,95.65447 M,0,169516,169538,334.7526,95.65447,328.5447,94.93022 M,0,169538,169560,328.5447,94.93022,322.3369,94.20596 M,0,169560,169582,322.3369,94.20596,316.1289,93.48171 M,0,169582,169604,316.1289,93.48171,310.3738,94.31775 M,0,169604,169626,310.3738,94.31775,305.518,98.25265 M,0,169626,169648,305.518,98.25265,300.6622,102.1875 M,0,169648,169670,300.6622,102.1875,295.8063,106.1224 M,0,169670,169692,295.8063,106.1224,290.9505,110.0573 M,0,169692,169714,290.9505,110.0573,286.0947,113.9922 M,0,169714,169736,286.0947,113.9922,281.2389,117.9271 M,0,169736,169758,281.2389,117.9271,276.383,121.862 M,0,169758,169781,276.383,121.862,271.5272,125.7969 M,0,169781,169803,271.5272,125.7969,266.6714,129.7318 M,0,169803,169825,266.6714,129.7318,261.8156,133.6667 M,0,169825,169847,261.8156,133.6667,256.9597,137.6016 M,0,169847,169869,256.9597,137.6016,254.3027,142.4217 M,0,169869,169891,254.3027,142.4217,255.0779,148.6234 M,0,169891,169913,255.0779,148.6234,255.8531,154.8251 M,0,169913,169935,255.8531,154.8251,256.6284,161.0269 M,0,169935,169957,256.6284,161.0269,257.4036,167.2286 M,0,169957,169979,257.4036,167.2286,258.1788,173.4304 M,0,169979,170001,258.1788,173.4304,258.954,179.6321 M,0,170001,170023,258.954,179.6321,259.7292,185.8338 M,0,170023,170045,259.7292,185.8338,260.5045,192.0356 M,0,170045,170067,260.5045,192.0356,261.2797,198.2373 M,0,170067,170089,261.2797,198.2373,262,204 M,0,170089,170111,262,204 M,0,170089,170443,262,204,285,301 M,0,170443,171148,285,301,100,378 M,0,171148,171170,100,378,98.63101,371.9018 M,0,171170,171192,98.63101,371.9018,97.26202,365.8036 M,0,171192,171214,97.26202,365.8036,95.89304,359.7053 M,0,171214,171236,95.89304,359.7053,94.52404,353.6071 M,0,171236,171258,94.52404,353.6071,93.15505,347.5089 M,0,171258,171280,93.15505,347.5089,91.78606,341.4106 M,0,171280,171302,91.78606,341.4106,90.41707,335.3124 M,0,171302,171324,90.41707,335.3124,89.04808,329.2142 M,0,171324,171346,89.04808,329.2142,90.41707,335.3124 M,0,171346,171368,90.41707,335.3124,91.78606,341.4106 M,0,171368,171390,91.78606,341.4106,93.15505,347.5089 M,0,171390,171412,93.15505,347.5089,94.52404,353.6071 M,0,171412,171434,94.52404,353.6071,95.89304,359.7053 M,0,171434,171456,95.89304,359.7053,97.26202,365.8036 M,0,171456,171478,97.26202,365.8036,98.63101,371.9018 M,0,171478,171500,98.63101,371.9018,100,378 M,0,171500,171522,100,378 M,0,171500,171854,100,378,180,437 M,0,171854,172207,180,437 M,0,172207,172229,180,437,186.0166,435.3078 M,0,172229,172251,186.0166,435.3078,192.0331,433.6157 M,0,172251,172273,192.0331,433.6157,198.0497,431.9235 M,0,172273,172295,198.0497,431.9235,204.0663,430.2314 M,0,172295,172317,204.0663,430.2314,210.0828,428.5392 M,0,172317,172339,210.0828,428.5392,216.0994,426.847 M,0,172339,172361,216.0994,426.847,222.116,425.1549 M,0,172361,172383,222.116,425.1549,228.1325,423.4627 M,0,172383,172405,228.1325,423.4627,234.1491,421.7706 M,0,172405,172427,234.1491,421.7706,240.1657,420.0784 M,0,172427,172449,240.1657,420.0784,246.1823,418.3862 M,0,172449,172471,246.1823,418.3862,252.1988,416.6941 M,0,172471,172493,252.1988,416.6941,258.2154,415.0019 M,0,172493,172515,258.2154,415.0019,264.232,413.3098 M,0,172515,172537,264.232,413.3098,270.2485,411.6176 M,0,172537,172559,270.2485,411.6176,276.2651,409.9254 M,0,172559,172581,276.2651,409.9254,282.2817,408.2333 M,0,172581,172604,282.2817,408.2333,288.2982,406.5411 M,0,172604,172626,288.2982,406.5411,294.3148,404.849 M,0,172626,172648,294.3148,404.849,300.3314,403.1568 M,0,172648,172670,300.3314,403.1568,306.3479,401.4646 M,0,172670,172692,306.3479,401.4646,312.3645,399.7725 M,0,172692,172714,312.3645,399.7725,318.3811,398.0803 M,0,172714,172736,318.3811,398.0803,324.3976,396.3882 M,0,172736,172758,324.3976,396.3882,330.4142,394.696 M,0,172758,172780,330.4142,394.696,336.4308,393.0038 M,0,172780,172802,336.4308,393.0038,342.4473,391.3117 M,0,172802,172824,342.4473,391.3117,348.4639,389.6195 M,0,172824,172846,348.4639,389.6195,354.4805,387.9274 M,0,172846,172868,354.4805,387.9274,360.497,386.2352 M,0,172868,172890,360.497,386.2352,366.5136,384.543 M,0,172890,172912,366.5136,384.543,372,383 M,0,172912,172934,372,383 M,0,172912,173266,372,383,471,397 M,0,173266,173972,471,397,420,203 M,0,173972,173994,420,203,418.9929,209.1683 M,0,173994,174016,418.9929,209.1683,417.9858,215.3367 M,0,174016,174038,417.9858,215.3367,416.9788,221.505 M,0,174038,174060,416.9788,221.505,415.9717,227.6733 M,0,174060,174082,415.9717,227.6733,414.9646,233.8416 M,0,174082,174104,414.9646,233.8416,413.9576,240.01 M,0,174104,174126,413.9576,240.01,412.9505,246.1783 M,0,174126,174148,412.9505,246.1783,412,252 M,0,174148,174170,412,252,412.9505,246.1783 M,0,174170,174192,412.9505,246.1783,413.9576,240.01 M,0,174192,174214,413.9576,240.01,414.9646,233.8416 M,0,174214,174236,414.9646,233.8416,415.9717,227.6733 M,0,174236,174258,415.9717,227.6733,416.9788,221.505 M,0,174258,174280,416.9788,221.505,417.9858,215.3367 M,0,174280,174302,417.9858,215.3367,418.9929,209.1683 M,0,174302,174324,418.9929,209.1683,420,203 M,0,174324,174346,420,203 M,0,174324,174678,420,203,488,130 M,0,174678,175031,488,130,407,70 M,0,175031,175053,407,70,400.9423,71.53846 M,0,175053,175075,400.9423,71.53846,394.8846,73.07692 M,0,175075,175097,394.8846,73.07692,388.8269,74.61539 M,0,175097,175119,388.8269,74.61539,382.7692,76.15385 M,0,175119,175141,382.7692,76.15385,376.7115,77.69231 M,0,175141,175163,376.7115,77.69231,370.6538,79.23077 M,0,175163,175185,370.6538,79.23077,364.5962,80.76923 M,0,175185,175207,364.5962,80.76923,358.5385,82.30769 M,0,175207,175229,358.5385,82.30769,352.4808,83.84615 M,0,175229,175251,352.4808,83.84615,346.4231,85.38461 M,0,175251,175273,346.4231,85.38461,341.1913,88.48465 M,0,175273,175295,341.1913,88.48465,336.51,92.62574 M,0,175295,175317,336.51,92.62574,331.8288,96.76683 M,0,175317,175339,331.8288,96.76683,327.1476,100.9079 M,0,175339,175361,327.1476,100.9079,322.4663,105.049 M,0,175361,175383,322.4663,105.049,317.7184,108.9452 M,0,175383,175405,317.7184,108.9452,311.5833,107.7523 M,0,175405,175428,311.5833,107.7523,305.4482,106.5594 M,0,175428,175450,305.4482,106.5594,299.3131,105.3664 M,0,175450,175472,299.3131,105.3664,293.178,104.1735 M,0,175472,175494,293.178,104.1735,287.0429,102.9806 M,0,175494,175516,287.0429,102.9806,280.9269,102.2942 M,0,175516,175538,280.9269,102.2942,274.8994,103.9469 M,0,175538,175560,274.8994,103.9469,268.8719,105.5996 M,0,175560,175582,268.8719,105.5996,262.8444,107.2523 M,0,175582,175604,262.8444,107.2523,256.8168,108.9051 M,0,175604,175626,256.8168,108.9051,250.7893,110.5578 M,0,175626,175648,250.7893,110.5578,244.7618,112.2105 M,0,175648,175670,244.7618,112.2105,238.7343,113.8632 M,0,175670,175692,238.7343,113.8632,232.7068,115.5159 M,0,175692,175714,232.7068,115.5159,226.6792,117.1686 M,0,175714,175736,226.6792,117.1686,220.6517,118.8213 M,0,175736,175758,220.6517,118.8213 M,0,175736,176090,220.6517,118.8213,126,151 M,0,176090,176619,126,151,224,263 M,0,176619,176641,224,263,230.245,263.2498 M,0,176641,176663,230.245,263.2498,236.49,263.4996 M,0,176663,176685,236.49,263.4996,242.735,263.7494 M,0,176685,176707,242.735,263.7494,248.98,263.9992 M,0,176707,176729,248.98,263.9992,255.225,264.249 M,0,176729,176751,255.225,264.249,261.47,264.4988 M,0,176751,176773,261.47,264.4988,267.715,264.7486 M,0,176773,176795,267.715,264.7486,273.9601,264.9984 M,0,176795,176817,273.9601,264.9984,280.205,265.2482 M,0,176817,176839,280.205,265.2482,286.4501,265.498 M,0,176839,176861,286.4501,265.498,292.6951,265.7478 M,0,176861,176883,292.6951,265.7478,298.9401,265.9976 M,0,176883,176905,298.9401,265.9976,305.1851,266.2474 M,0,176905,176927,305.1851,266.2474,311.4301,266.4972 M,0,176927,176949,311.4301,266.4972,317.6751,266.747 M,0,176949,176971,317.6751,266.747,323.9201,266.9968 M,0,176971,176993,323.9201,266.9968,327.1012,272.334 M,0,176993,177016,327.1012,272.334,330.2426,277.7372 M,0,177016,177038,330.2426,277.7372,333.3839,283.1404 M,0,177038,177060,333.3839,283.1404,336.5253,288.5435 M,0,177060,177082,336.5253,288.5435,339.6667,293.9467 M,0,177082,177104,339.6667,293.9467,342.8081,299.3499 M,0,177104,177126,342.8081,299.3499,345.9495,304.7531 M,0,177126,177148,345.9495,304.7531,349,310 M,0,177148,177170,349,310 M,0,177148,177501,349,310,382,404 M,0,177501,177854,382,404,286,432 M,0,177854,177876,286,432,279.755,431.7502 M,0,177876,177898,279.755,431.7502,273.51,431.5004 M,0,177898,177920,273.51,431.5004,267.265,431.2506 M,0,177920,177942,267.265,431.2506,261.02,431.0008 M,0,177942,177964,261.02,431.0008,254.775,430.751 M,0,177964,177986,254.775,430.751,248.53,430.5012 M,0,177986,178008,248.53,430.5012,242.285,430.2514 M,0,178008,178030,242.285,430.2514,236.0399,430.0016 M,0,178030,178052,236.0399,430.0016,229.795,429.7518 M,0,178052,178074,229.795,429.7518,223.5499,429.502 M,0,178074,178096,223.5499,429.502,217.3049,429.2522 M,0,178096,178118,217.3049,429.2522,211.0599,429.0024 M,0,178118,178140,211.0599,429.0024,204.8149,428.7526 M,0,178140,178162,204.8149,428.7526,198.5699,428.5028 M,0,178162,178184,198.5699,428.5028,192.3249,428.253 M,0,178184,178206,192.3249,428.253,186.0799,428.0032 M,0,178206,178228,186.0799,428.0032,182.2682,423.0865 M,0,178228,178251,182.2682,423.0865,178.488,418.1092 M,0,178251,178273,178.488,418.1092,174.7079,413.132 M,0,178273,178295,174.7079,413.132,170.9277,408.1548 M,0,178295,178317,170.9277,408.1548,167.1475,403.1776 M,0,178317,178339,167.1475,403.1776,163.3673,398.2003 M,0,178339,178361,163.3673,398.2003,159.5872,393.2231 M,0,178361,178383,159.5872,393.2231,155.807,388.2458 M,0,178383,178405,155.807,388.2458,152.0268,383.2686 M,0,178405,178427,152.0268,383.2686,148.2466,378.2914 M,0,178427,178449,148.2466,378.2914,144.4665,373.3142 M,0,178449,178471,144.4665,373.3142,140.6863,368.3369 M,0,178471,178493,140.6863,368.3369,136.9061,363.3597 M,0,178493,178515,136.9061,363.3597,133.1259,358.3825 M,0,178515,178537,133.1259,358.3825,129.3458,353.4053 M,0,178537,178559,129.3458,353.4053,126,349 M,0,178559,178581,126,349 M,0,178559,178913,126,349,90,254 M,0,178913,179619,90,254,246,129 M,0,179619,179641,246,129,246.9874,122.8285 M,0,179641,179663,246.9874,122.8285,247.9749,116.657 M,0,179663,179685,247.9749,116.657,248.9623,110.4855 M,0,179685,179707,248.9623,110.4855,249.9498,104.314 M,0,179707,179729,249.9498,104.314,250.9372,98.14248 M,0,179729,179751,250.9372,98.14248,251.9246,91.97098 M,0,179751,179773,251.9246,91.97098,252.9121,85.79947 M,0,179773,179795,252.9121,85.79947,253.8995,79.62797 M,0,179795,179817,253.8995,79.62797,252.9121,85.79947 M,0,179817,179839,252.9121,85.79947,251.9246,91.97098 M,0,179839,179861,251.9246,91.97098,250.9372,98.14248 M,0,179861,179883,250.9372,98.14248,249.9498,104.314 M,0,179883,179905,249.9498,104.314,248.9623,110.4855 M,0,179905,179927,248.9623,110.4855,247.9749,116.657 M,0,179927,179949,247.9749,116.657,246.9874,122.8285 M,0,179949,179971,246.9874,122.8285,246,129 M,0,179971,179993,246,129 M,0,179971,180325,246,129,307,208 M,0,180325,180678,307,208,387,148 M,0,180678,180700,387,148,393.138,149.178 M,0,180700,180722,393.138,149.178,399.276,150.356 M,0,180722,180744,399.276,150.356,405.4139,151.534 M,0,180744,180766,405.4139,151.534,411.5519,152.712 M,0,180766,180788,411.5519,152.712,417.6899,153.89 M,0,180788,180810,417.6899,153.89,423.8279,155.068 M,0,180810,180832,423.8279,155.068,429.9659,156.246 M,0,180832,180854,429.9659,156.246,436.1039,157.424 M,0,180854,180876,436.1039,157.424,442.2418,158.602 M,0,180876,180898,442.2418,158.602,448.3798,159.78 M,0,180898,180920,448.3798,159.78,454.5178,160.958 M,0,180920,180942,454.5178,160.958,460.6558,162.136 M,0,180942,180964,460.6558,162.136,466.7938,163.314 M,0,180964,180986,466.7938,163.314,472.9318,164.4919 M,0,180986,181008,472.9318,164.4919,479.0697,165.67 M,0,181008,181030,479.0697,165.67,485.2077,166.8479 M,0,181030,181052,485.2077,166.8479,486.6616,172.4029 M,0,181052,181075,486.6616,172.4029,487.4212,178.6066 M,0,181075,181097,487.4212,178.6066,488.1808,184.8102 M,0,181097,181119,488.1808,184.8102,488.9405,191.0139 M,0,181119,181141,488.9405,191.0139,489.7001,197.2176 M,0,181141,181163,489.7001,197.2176,490.4597,203.4212 M,0,181163,181185,490.4597,203.4212,491.2194,209.6249 M,0,181185,181207,491.2194,209.6249,491.979,215.8286 M,0,181207,181229,491.979,215.8286,492.7386,222.0322 M,0,181229,181251,492.7386,222.0322,493.4983,228.2359 M,0,181251,181273,493.4983,228.2359,494.2579,234.4395 M,0,181273,181295,494.2579,234.4395,495.0175,240.6432 M,0,181295,181317,495.0175,240.6432,495.7772,246.8469 M,0,181317,181339,495.7772,246.8469,496.5368,253.0505 M,0,181339,181361,496.5368,253.0505,497.2964,259.2542 M,0,181361,181383,497.2964,259.2542,498,265 M,0,181383,181405,498,265 M,0,181383,181737,498,265,510,364 M,0,181737,182443,510,364,315,412 M,0,182443,182465,315,412,308.8488,410.8928 M,0,182465,182487,308.8488,410.8928,302.6977,409.7856 M,0,182487,182509,302.6977,409.7856,296.5466,408.6784 M,0,182509,182531,296.5466,408.6784,290.3954,407.5712 M,0,182531,182553,290.3954,407.5712,284.2443,406.464 M,0,182553,182575,284.2443,406.464,278.0931,405.3568 M,0,182575,182597,278.0931,405.3568,271.942,404.2495 M,0,182597,182619,271.942,404.2495,265.7908,403.1424 M,0,182619,182641,265.7908,403.1424,271.942,404.2495 M,0,182641,182663,271.942,404.2495,278.0931,405.3568 M,0,182663,182685,278.0931,405.3568,284.2443,406.464 M,0,182685,182707,284.2443,406.464,290.3954,407.5712 M,0,182707,182729,290.3954,407.5712,296.5466,408.6784 M,0,182729,182751,296.5466,408.6784,302.6977,409.7856 M,0,182751,182773,302.6977,409.7856,308.8488,410.8928 M,0,182773,182795,308.8488,410.8928,315,412 M,0,182795,182817,315,412 M,0,182795,183148,315,412,377,334 M,0,183148,183501,377,334 M,0,183501,183523,377,334,383.1683,335.0071 M,0,183523,183545,383.1683,335.0071,389.3367,336.0142 M,0,183545,183567,389.3367,336.0142,395.505,337.0212 M,0,183567,183589,395.505,337.0212,401.6733,338.0283 M,0,183589,183611,401.6733,338.0283,407.8416,339.0354 M,0,183611,183633,407.8416,339.0354,414.01,340.0424 M,0,183633,183655,414.01,340.0424,420.1783,341.0495 M,0,183655,183677,420.1783,341.0495,426,342 M,0,183677,183699,426,342,420.1783,341.0495 M,0,183699,183721,420.1783,341.0495,414.01,340.0424 M,0,183721,183743,414.01,340.0424,407.8416,339.0354 M,0,183743,183765,407.8416,339.0354,401.6733,338.0283 M,0,183765,183787,401.6733,338.0283,395.505,337.0212 M,0,183787,183809,395.505,337.0212,389.3367,336.0142 M,0,183809,183831,389.3367,336.0142,383.1683,335.0071 M,0,183831,183853,383.1683,335.0071,377,334 M,0,183853,183875,377,334 M,0,183853,184207,377,334,279,310 M,0,184207,184229,279,310,276.2049,304.4099 M,0,184229,184251,276.2049,304.4099,273.4099,298.8196 M,0,184251,184273,273.4099,298.8196,270.6147,293.2295 M,0,184273,184295,270.6147,293.2295,267.8196,287.6393 M,0,184295,184317,267.8196,287.6393,265.0246,282.0491 M,0,184317,184339,265.0246,282.0491,262.2295,276.459 M,0,184339,184361,262.2295,276.459,259.4344,270.8688 M,0,184361,184383,259.4344,270.8688,257.1429,265.2062 M,0,184383,184405,257.1429,265.2062,258.2501,259.0551 M,0,184405,184427,258.2501,259.0551,259.3573,252.904 M,0,184427,184449,259.3573,252.904,260.4645,246.7528 M,0,184449,184471,260.4645,246.7528,261.5717,240.6017 M,0,184471,184493,261.5717,240.6017,262.6789,234.4505 M,0,184493,184515,262.6789,234.4505,263.7861,228.2994 M,0,184515,184537,263.7861,228.2994,264.8933,222.1482 M,0,184537,184559,264.8933,222.1482,266,216 M,0,184559,184581,266,216 M,0,184559,185266,266,216,434,106 M,0,185266,185288,434,106,440.1683,107.0071 M,0,185288,185310,440.1683,107.0071,446.3367,108.0141 M,0,185310,185332,446.3367,108.0141,452.505,109.0212 M,0,185332,185354,452.505,109.0212,458.6733,110.0283 M,0,185354,185376,458.6733,110.0283,464.8416,111.0354 M,0,185376,185398,464.8416,111.0354,471.01,112.0424 M,0,185398,185420,471.01,112.0424,477.1783,113.0495 M,0,185420,185442,477.1783,113.0495,483,114 M,0,185442,185464,483,114,477.1783,113.0495 M,0,185464,185486,477.1783,113.0495,471.01,112.0424 M,0,185486,185508,471.01,112.0424,464.8416,111.0354 M,0,185508,185530,464.8416,111.0354,458.6733,110.0283 M,0,185530,185552,458.6733,110.0283,452.505,109.0212 M,0,185552,185574,452.505,109.0212,446.3367,108.0141 M,0,185574,185596,446.3367,108.0141,440.1683,107.0071 M,0,185596,185618,440.1683,107.0071,434,106 M,0,185618,185640,434,106 M,0,185618,185972,434,106,353,165 M,0,185972,186325,353,165,280,96 M,0,186325,186347,280,96,273.7528,96.18742 M,0,186347,186369,273.7528,96.18742,267.5056,96.37483 M,0,186369,186391,267.5056,96.37483,261.2584,96.56225 M,0,186391,186413,261.2584,96.56225,255.0112,96.74966 M,0,186413,186435,255.0112,96.74966,248.7641,96.93708 M,0,186435,186457,248.7641,96.93708,242.5169,97.1245 M,0,186457,186479,242.5169,97.1245,236.2697,97.3119 M,0,186479,186501,236.2697,97.3119,230.0225,97.49933 M,0,186501,186523,230.0225,97.49933,223.7753,97.68674 M,0,186523,186545,223.7753,97.68674,217.5281,97.87416 M,0,186545,186567,217.5281,97.87416,211.2809,98.06157 M,0,186567,186589,211.2809,98.06157,205.0337,98.24899 M,0,186589,186611,205.0337,98.24899,198.7865,98.4364 M,0,186611,186633,198.7865,98.4364,192.5394,98.62382 M,0,186633,186655,192.5394,98.62382,186.2922,98.81123 M,0,186655,186677,186.2922,98.81123,180.045,98.99865 M,0,186677,186699,180.045,98.99865,178.0566,104.8928 M,0,186699,186722,178.0566,104.8928,176.0992,110.8284 M,0,186722,186744,176.0992,110.8284,174.1417,116.7639 M,0,186744,186766,174.1417,116.7639,172.1842,122.6995 M,0,186766,186788,172.1842,122.6995,170.2267,128.635 M,0,186788,186810,170.2267,128.635,168.2693,134.5706 M,0,186810,186832,168.2693,134.5706,166.3118,140.5062 M,0,186832,186854,166.3118,140.5062,164.3543,146.4417 M,0,186854,186876,164.3543,146.4417,162.3969,152.3773 M,0,186876,186898,162.3969,152.3773,160.4394,158.3128 M,0,186898,186920,160.4394,158.3128,158.4819,164.2484 M,0,186920,186942,158.4819,164.2484,156.5244,170.1839 M,0,186942,186964,156.5244,170.1839,154.567,176.1195 M,0,186964,186986,154.567,176.1195,152.6095,182.055 M,0,186986,187008,152.6095,182.055,150.652,187.9906 M,0,187008,187030,150.652,187.9906,149,193 M,0,187030,187052,149,193 M,0,187030,187384,149,193,124,291 M,0,187384,187913,124,291,243,381 M,0,187913,187935,243,381,249.0706,382.4867 M,0,187935,187957,249.0706,382.4867,255.1412,383.9734 M,0,187957,187979,255.1412,383.9734,261.2118,385.4601 M,0,187979,188001,261.2118,385.4601,267.2824,386.9467 M,0,188001,188023,267.2824,386.9467,273.353,388.4334 M,0,188023,188045,273.353,388.4334,279.4236,389.9201 M,0,188045,188067,279.4236,389.9201,285.4943,391.4068 M,0,188067,188089,285.4943,391.4068,291.5649,392.8934 M,0,188089,188111,291.5649,392.8934,297.6355,394.3801 M,0,188111,188133,297.6355,394.3801,303.7061,395.8668 M,0,188133,188155,303.7061,395.8668,309.7767,397.3535 M,0,188155,188177,309.7767,397.3535,315.8473,398.8401 M,0,188177,188199,315.8473,398.8401,321.9179,400.3268 M,0,188199,188221,321.9179,400.3268,327.9885,401.8135 M,0,188221,188243,327.9885,401.8135,334.0591,403.3002 M,0,188243,188265,334.0591,403.3002,340.1297,404.7869 M,0,188265,188287,340.1297,404.7869,345.8925,402.8255 M,0,188287,188310,345.8925,402.8255,351.6039,400.2872 M,0,188310,188332,351.6039,400.2872,357.3152,397.7488 M,0,188332,188354,357.3152,397.7488,363.0265,395.2104 M,0,188354,188376,363.0265,395.2104,368.7379,392.6721 M,0,188376,188398,368.7379,392.6721,374.4492,390.1337 M,0,188398,188420,374.4492,390.1337,380.1605,387.5953 M,0,188420,188442,380.1605,387.5953,385.8718,385.057 M,0,188442,188464,385.8718,385.057 M,0,188442,188795,385.8718,385.057,473,347 M,0,188795,189148,473,347,406,272 M,0,189148,189170,406,272,399.795,271.2516 M,0,189170,189192,399.795,271.2516,393.5899,270.5033 M,0,189192,189214,393.5899,270.5033,387.3849,269.7549 M,0,189214,189236,387.3849,269.7549,381.1798,269.0066 M,0,189236,189258,381.1798,269.0066,374.9748,268.2583 M,0,189258,189280,374.9748,268.2583,368.7698,267.5099 M,0,189280,189302,368.7698,267.5099,362.5648,266.7616 M,0,189302,189324,362.5648,266.7616,356.3597,266.0132 M,0,189324,189346,356.3597,266.0132,350.1547,265.2649 M,0,189346,189368,350.1547,265.2649,343.9496,264.5165 M,0,189368,189390,343.9496,264.5165,337.7446,263.7682 M,0,189390,189412,337.7446,263.7682,331.5396,263.0198 M,0,189412,189434,331.5396,263.0198,325.3345,262.2715 M,0,189434,189456,325.3345,262.2715,319.1295,261.5232 M,0,189456,189478,319.1295,261.5232,312.9244,260.7748 M,0,189478,189500,312.9244,260.7748,306.7194,260.0265 M,0,189500,189522,306.7194,260.0265,300.5144,259.2781 M,0,189522,189545,300.5144,259.2781,294.3094,258.5298 M,0,189545,189567,294.3094,258.5298,288.1043,257.7814 M,0,189567,189589,288.1043,257.7814,281.8993,257.0331 M,0,189589,189611,281.8993,257.0331,275.6942,256.2847 M,0,189611,189633,275.6942,256.2847,269.4892,255.5364 M,0,189633,189655,269.4892,255.5364,263.2842,254.788 M,0,189655,189677,263.2842,254.788,257.0791,254.0397 M,0,189677,189699,257.0791,254.0397,250.8741,253.2914 M,0,189699,189721,250.8741,253.2914,244.6691,252.543 M,0,189721,189743,244.6691,252.543,238.464,251.7946 M,0,189743,189765,238.464,251.7946,232.259,251.0463 M,0,189765,189787,232.259,251.0463,226.054,250.298 M,0,189787,189809,226.054,250.298,219.8489,249.5496 M,0,189809,189831,219.8489,249.5496,213.6439,248.8013 M,0,189831,189853,213.6439,248.8013,207.4388,248.0529 M,0,189853,189875,207.4388,248.0529 M,0,189853,190207,207.4388,248.0529,107,235 M,0,190207,190913,107,235,252,98 M,0,190913,190935,252,98,258.2177,98.63446 M,0,190935,190957,258.2177,98.63446,264.4354,99.26892 M,0,190957,190979,264.4354,99.26892,270.6531,99.90338 M,0,190979,191001,270.6531,99.90338,276.8708,100.5378 M,0,191001,191023,276.8708,100.5378,283.0886,101.1723 M,0,191023,191045,283.0886,101.1723,289.3063,101.8068 M,0,191045,191067,289.3063,101.8068,295.524,102.4412 M,0,191067,191089,295.524,102.4412,301,103 M,0,191089,191111,301,103,295.524,102.4412 M,0,191111,191133,295.524,102.4412,289.3063,101.8068 M,0,191133,191155,289.3063,101.8068,283.0886,101.1723 M,0,191155,191177,283.0886,101.1723,276.8708,100.5378 M,0,191177,191199,276.8708,100.5378,270.6531,99.90338 M,0,191199,191221,270.6531,99.90338,264.4354,99.26892 M,0,191221,191243,264.4354,99.26892,258.2177,98.63446 M,0,191243,191265,258.2177,98.63446,252,98 M,0,191265,191287,252,98 M,0,191265,191619,252,98,178,166 M,0,191619,191972,178,166,232,249 M,0,191972,191994,232,249,238.1968,249.8137 M,0,191994,192016,238.1968,249.8137,244.3936,250.6274 M,0,192016,192038,244.3936,250.6274,250.5904,251.4412 M,0,192038,192060,250.5904,251.4412,256.7872,252.2549 M,0,192060,192082,256.7872,252.2549,262.984,253.0686 M,0,192082,192104,262.984,253.0686,269.1808,253.8823 M,0,192104,192126,269.1808,253.8823,275.3776,254.696 M,0,192126,192148,275.3776,254.696,281.5744,255.5098 M,0,192148,192170,281.5744,255.5098,287.7712,256.3235 M,0,192170,192192,287.7712,256.3235,293.968,257.1372 M,0,192192,192214,293.968,257.1372,300.1648,257.9509 M,0,192214,192236,300.1648,257.9509,306.3616,258.7646 M,0,192236,192258,306.3616,258.7646,312.5584,259.5784 M,0,192258,192280,312.5584,259.5784,318.7552,260.3921 M,0,192280,192302,318.7552,260.3921,324.952,261.2058 M,0,192302,192324,324.952,261.2058,331.1008,261.8887 M,0,192324,192346,331.1008,261.8887,335.2956,257.2556 M,0,192346,192369,335.2956,257.2556,339.4904,252.6225 M,0,192369,192391,339.4904,252.6225,343.6853,247.9894 M,0,192391,192413,343.6853,247.9894,347.8802,243.3563 M,0,192413,192435,347.8802,243.3563,352.075,238.7231 M,0,192435,192457,352.075,238.7231,356.2698,234.09 M,0,192457,192479,356.2698,234.09,360.4647,229.4569 M,0,192479,192501,360.4647,229.4569,364.6595,224.8238 M,0,192501,192523,364.6595,224.8238,368.8544,220.1907 M,0,192523,192545,368.8544,220.1907,373.0492,215.5576 M,0,192545,192567,373.0492,215.5576,377.2441,210.9245 M,0,192567,192589,377.2441,210.9245,381.4389,206.2913 M,0,192589,192611,381.4389,206.2913,385.6338,201.6582 M,0,192611,192633,385.6338,201.6582,389.8286,197.0251 M,0,192633,192655,389.8286,197.0251,394.0235,192.392 M,0,192655,192677,394.0235,192.392,398,188 M,0,192677,192699,398,188 M,0,192677,193031,398,188,464,112 M,0,193031,193737,464,112,535,298 M,0,193737,193759,535,298,533.6039,304.0921 M,0,193759,193781,533.6039,304.0921,532.2078,310.1841 M,0,193781,193803,532.2078,310.1841,530.8117,316.2762 M,0,193803,193825,530.8117,316.2762,529.4156,322.3683 M,0,193825,193847,529.4156,322.3683,528.0195,328.4604 M,0,193847,193869,528.0195,328.4604,526.6234,334.5525 M,0,193869,193891,526.6234,334.5525,525.2273,340.6445 M,0,193891,193913,525.2273,340.6445,524,346 M,0,193913,193935,524,346,525.2273,340.6445 M,0,193935,193957,525.2273,340.6445,526.6234,334.5525 M,0,193957,193979,526.6234,334.5525,528.0195,328.4604 M,0,193979,194001,528.0195,328.4604,529.4156,322.3683 M,0,194001,194023,529.4156,322.3683,530.8117,316.2762 M,0,194023,194045,530.8117,316.2762,532.2078,310.1841 M,0,194045,194067,532.2078,310.1841,533.6039,304.0921 M,0,194067,194089,533.6039,304.0921,535,298 M,0,194089,194111,535,298 M,0,194089,194443,535,298,477,215 M,0,194443,194795,477,215 M,0,194795,194817,477,215,470.8395,216.0538 M,0,194817,194839,470.8395,216.0538,464.679,217.1075 M,0,194839,194861,464.679,217.1075,458.5184,218.1613 M,0,194861,194883,458.5184,218.1613,452.3579,219.2151 M,0,194883,194905,452.3579,219.2151,446.1974,220.2689 M,0,194905,194927,446.1974,220.2689,440.0369,221.3226 M,0,194927,194949,440.0369,221.3226,433.8763,222.3764 M,0,194949,194971,433.8763,222.3764,427.7158,223.4302 M,0,194971,194993,427.7158,223.4302,421.5553,224.484 M,0,194993,195015,421.5553,224.484,415.3948,225.5377 M,0,195015,195037,415.3948,225.5377,409.2343,226.5915 M,0,195037,195059,409.2343,226.5915,403.0737,227.6453 M,0,195059,195081,403.0737,227.6453,398.026,230.889 M,0,195081,195103,398.026,230.889,393.543,235.2439 M,0,195103,195125,393.543,235.2439,389.0601,239.5988 M,0,195125,195147,389.0601,239.5988,384.5771,243.9537 M,0,195147,195169,384.5771,243.9537,380.0941,248.3086 M,0,195169,195192,380.0941,248.3086,375.6111,252.6635 M,0,195192,195214,375.6111,252.6635,371.1281,257.0185 M,0,195214,195236,371.1281,257.0185,366.6451,261.3734 M,0,195236,195258,366.6451,261.3734,360.7451,263.0078 M,0,195258,195280,360.7451,263.0078,354.6069,264.185 M,0,195280,195302,354.6069,264.185,348.4688,265.3622 M,0,195302,195324,348.4688,265.3622,342.3307,266.5393 M,0,195324,195346,342.3307,266.5393,336.1925,267.7165 M,0,195346,195368,336.1925,267.7165,330.0544,268.8937 M,0,195368,195390,330.0544,268.8937,323.9163,270.0709 M,0,195390,195412,323.9163,270.0709,317.7781,271.248 M,0,195412,195434,317.7781,271.248,311.64,272.4252 M,0,195434,195456,311.64,272.4252,305.5018,273.6024 M,0,195456,195478,305.5018,273.6024,299.3637,274.7796 M,0,195478,195500,299.3637,274.7796,293.2256,275.9567 M,0,195500,195522,293.2256,275.9567 M,0,195500,195854,293.2256,275.9567,194,292 M,0,195854,196560,194,292,297,120 M,0,196560,196582,297,120,303.2177,120.6345 M,0,196582,196604,303.2177,120.6345,309.4354,121.2689 M,0,196604,196626,309.4354,121.2689,315.6531,121.9034 M,0,196626,196648,315.6531,121.9034,321.8708,122.5378 M,0,196648,196670,321.8708,122.5378,328.0886,123.1723 M,0,196670,196692,328.0886,123.1723,334.3063,123.8068 M,0,196692,196714,334.3063,123.8068,340.524,124.4412 M,0,196714,196736,340.524,124.4412,346,125 M,0,196736,196758,346,125,340.524,124.4412 M,0,196758,196780,340.524,124.4412,334.3063,123.8068 M,0,196780,196802,334.3063,123.8068,328.0886,123.1723 M,0,196802,196824,328.0886,123.1723,321.8708,122.5378 M,0,196824,196846,321.8708,122.5378,315.6531,121.9034 M,0,196846,196868,315.6531,121.9034,309.4354,121.2689 M,0,196868,196890,309.4354,121.2689,303.2177,120.6345 M,0,196890,196912,303.2177,120.6345,297,120 M,0,196912,196934,297,120 M,0,196912,197266,297,120,202,86 M,0,197266,197619,202,86,126,151 M,0,197619,197641,126,151,124.8124,157.1361 M,0,197641,197663,124.8124,157.1361,123.6247,163.2722 M,0,197663,197685,123.6247,163.2722,122.4371,169.4084 M,0,197685,197707,122.4371,169.4084,121.2495,175.5445 M,0,197707,197729,121.2495,175.5445,120.0618,181.6806 M,0,197729,197751,120.0618,181.6806,118.8742,187.8167 M,0,197751,197773,118.8742,187.8167,117.6865,193.9529 M,0,197773,197795,117.6865,193.9529,116.4989,200.089 M,0,197795,197817,116.4989,200.089,115.3113,206.2251 M,0,197817,197839,115.3113,206.2251,114.1236,212.3612 M,0,197839,197861,114.1236,212.3612,110.789,217.5872 M,0,197861,197883,110.789,217.5872,107.2048,222.7074 M,0,197883,197905,107.2048,222.7074,103.6207,227.8276 M,0,197905,197927,103.6207,227.8276,100.0365,232.9478 M,0,197927,197949,100.0365,232.9478,96.45241,238.068 M,0,197949,197971,96.45241,238.068,93.06662,243.2198 M,0,197971,197993,93.06662,243.2198,94.87917,249.2012 M,0,197993,198016,94.87917,249.2012,96.69171,255.1826 M,0,198016,198038,96.69171,255.1826,98.50426,261.1641 M,0,198038,198060,98.50426,261.1641,100.3168,267.1454 M,0,198060,198082,100.3168,267.1454,102.1293,273.1269 M,0,198082,198104,102.1293,273.1269,102.4498,279.2009 M,0,198104,198126,102.4498,279.2009,101.3911,285.3606 M,0,198126,198148,101.3911,285.3606,100.3325,291.5203 M,0,198148,198170,100.3325,291.5203,99.27376,297.6799 M,0,198170,198192,99.27376,297.6799,98.21507,303.8396 M,0,198192,198214,98.21507,303.8396,97.15637,309.9993 M,0,198214,198236,97.15637,309.9993,96.09767,316.159 M,0,198236,198258,96.09767,316.159,95.03898,322.3187 M,0,198258,198280,95.03898,322.3187,93.98029,328.4784 M,0,198280,198302,93.98029,328.4784,92.92159,334.638 M,0,198302,198324,92.92159,334.638,92,340 M,0,198324,198346,92,340 M,0,198324,198678,92,340,129,433 M,0,198678,199207,129,433,251,346 M,0,199207,199229,251,346,256.9684,344.145 M,0,199229,199251,256.9684,344.145,262.9367,342.2899 M,0,199251,199273,262.9367,342.2899,268.9051,340.4349 M,0,199273,199295,268.9051,340.4349,274.8735,338.5799 M,0,199295,199317,274.8735,338.5799,280.8418,336.7249 M,0,199317,199339,280.8418,336.7249,286.8102,334.8698 M,0,199339,199361,286.8102,334.8698,292.7785,333.0148 M,0,199361,199383,292.7785,333.0148,298.7469,331.1598 M,0,199383,199405,298.7469,331.1598,304.7153,329.3047 M,0,199405,199427,304.7153,329.3047,310.6836,327.4497 M,0,199427,199449,310.6836,327.4497,316.652,325.5947 M,0,199449,199471,316.652,325.5947,322.6204,323.7396 M,0,199471,199493,322.6204,323.7396,328.3188,324.7631 M,0,199493,199515,328.3188,324.7631,333.8383,327.6953 M,0,199515,199537,333.8383,327.6953,339.3578,330.6276 M,0,199537,199559,339.3578,330.6276,344.8772,333.5598 M,0,199559,199581,344.8772,333.5598,350.3967,336.492 M,0,199581,199604,350.3967,336.492,355.9162,339.4242 M,0,199604,199626,355.9162,339.4242,361.4356,342.3564 M,0,199626,199648,361.4356,342.3564,366.9551,345.2887 M,0,199648,199670,366.9551,345.2887,372.4746,348.2209 M,0,199670,199692,372.4746,348.2209,377.9941,351.1531 M,0,199692,199714,377.9941,351.1531,383.5135,354.0853 M,0,199714,199736,383.5135,354.0853,389,357 M,0,199736,199758,389,357 M,0,199736,200090,389,357,472,412 M,0,200090,200443,472,412,537,336 M,0,200443,200465,537,336,538.369,329.9018 M,0,200465,200487,538.369,329.9018,539.738,323.8036 M,0,200487,200509,539.738,323.8036,541.1069,317.7053 M,0,200509,200531,541.1069,317.7053,542.476,311.6071 M,0,200531,200553,542.476,311.6071,543.845,305.5089 M,0,200553,200575,543.845,305.5089,545.2139,299.4106 M,0,200575,200597,545.2139,299.4106,546.5829,293.3124 M,0,200597,200619,546.5829,293.3124,547.9519,287.2142 M,0,200619,200641,547.9519,287.2142,549.3209,281.116 M,0,200641,200663,549.3209,281.116,550.6899,275.0177 M,0,200663,200685,550.6899,275.0177,552.0589,268.9195 M,0,200685,200707,552.0589,268.9195,553.4279,262.8213 M,0,200707,200729,553.4279,262.8213,554.7969,256.7231 M,0,200729,200751,554.7969,256.7231,556.1659,250.6248 M,0,200751,200773,556.1659,250.6248,557.5349,244.5266 M,0,200773,200795,557.5349,244.5266,558.9038,238.4284 M,0,200795,200817,558.9038,238.4284,553.3872,236.4955 M,0,200817,200840,553.3872,236.4955,547.3503,234.8774 M,0,200840,200862,547.3503,234.8774,541.3134,233.2592 M,0,200862,200884,541.3134,233.2592,535.2765,231.6411 M,0,200884,200906,535.2765,231.6411,529.2396,230.023 M,0,200906,200928,529.2396,230.023,523.2026,228.4048 M,0,200928,200950,523.2026,228.4048,517.1658,226.7867 M,0,200950,200972,517.1658,226.7867,511.1289,225.1686 M,0,200972,200994,511.1289,225.1686,505.092,223.5504 M,0,200994,201016,505.092,223.5504,499.0551,221.9323 M,0,201016,201038,499.0551,221.9323,493.0182,220.3141 M,0,201038,201060,493.0182,220.3141,486.9813,218.696 M,0,201060,201082,486.9813,218.696,480.9444,217.0779 M,0,201082,201104,480.9444,217.0779,474.9075,215.4597 M,0,201104,201126,474.9075,215.4597,468.8706,213.8416 M,0,201126,201148,468.8706,213.8416,462.8337,212.2235 M,0,201148,201170,462.8337,212.2235 M,0,201148,201501,462.8337,212.2235,364,227 M,0,201501,202207,364,227,183,141 M,0,202207,202229,183,141,176.8762,142.2498 M,0,202229,202251,176.8762,142.2498,170.7524,143.4995 M,0,202251,202273,170.7524,143.4995,164.6287,144.7493 M,0,202273,202295,164.6287,144.7493,158.5049,145.999 M,0,202295,202317,158.5049,145.999,152.3811,147.2487 M,0,202317,202339,152.3811,147.2487,146.2574,148.4985 M,0,202339,202361,146.2574,148.4985,140.1336,149.7483 M,0,202361,202383,140.1336,149.7483,134.0098,150.998 M,0,202383,202405,134.0098,150.998,140.1336,149.7483 M,0,202405,202427,140.1336,149.7483,146.2574,148.4985 M,0,202427,202449,146.2574,148.4985,152.3811,147.2487 M,0,202449,202471,152.3811,147.2487,158.5049,145.999 M,0,202471,202493,158.5049,145.999,164.6287,144.7493 M,0,202493,202515,164.6287,144.7493,170.7524,143.4995 M,0,202515,202537,170.7524,143.4995,176.8762,142.2498 M,0,202537,202559,176.8762,142.2498,183,141 M,0,202559,202581,183,141 M,0,202559,202913,183,141,267,87 M,0,202913,203266,267,87,350,142 M,0,203266,203288,350,142,348.7803,148.1298 M,0,203288,203310,348.7803,148.1298,347.5606,154.2597 M,0,203310,203332,347.5606,154.2597,346.3409,160.3895 M,0,203332,203354,346.3409,160.3895,345.1212,166.5193 M,0,203354,203376,345.1212,166.5193,343.9015,172.6491 M,0,203376,203398,343.9015,172.6491,342.6817,178.779 M,0,203398,203420,342.6817,178.779,341.462,184.9088 M,0,203420,203442,341.462,184.9088,340.2423,191.0386 M,0,203442,203464,340.2423,191.0386,339.0226,197.1685 M,0,203464,203486,339.0226,197.1685,337.8029,203.2983 M,0,203486,203508,337.8029,203.2983,336.5832,209.4281 M,0,203508,203530,336.5832,209.4281,335.3635,215.558 M,0,203530,203552,335.3635,215.558,334.1438,221.6878 M,0,203552,203574,334.1438,221.6878,332.924,227.8176 M,0,203574,203596,332.924,227.8176,331.7043,233.9474 M,0,203596,203618,331.7043,233.9474,330.4846,240.0773 M,0,203618,203640,330.4846,240.0773,329.2649,246.2071 M,0,203640,203663,329.2649,246.2071,328.0452,252.3369 M,0,203663,203685,328.0452,252.3369,326.8255,258.4667 M,0,203685,203707,326.8255,258.4667,325.6058,264.5966 M,0,203707,203729,325.6058,264.5966,324.3861,270.7264 M,0,203729,203751,324.3861,270.7264,323.1664,276.8563 M,0,203751,203773,323.1664,276.8563,321.9467,282.9861 M,0,203773,203795,321.9467,282.9861,320.7269,289.1159 M,0,203795,203817,320.7269,289.1159,319.5072,295.2457 M,0,203817,203839,319.5072,295.2457,318.2875,301.3755 M,0,203839,203861,318.2875,301.3755,317.0678,307.5054 M,0,203861,203883,317.0678,307.5054,315.8481,313.6352 M,0,203883,203905,315.8481,313.6352,314.6284,319.765 M,0,203905,203927,314.6284,319.765,313.4087,325.8949 M,0,203927,203949,313.4087,325.8949,312.189,332.0247 M,0,203949,203971,312.189,332.0247,311,338 M,0,203971,203993,311,338 M,0,203971,204325,311,338,281,433 M,0,204325,205031,281,433,132,299 M,0,205031,205053,132,299,125.8104,299.8665 M,0,205053,205075,125.8104,299.8665,119.6207,300.7331 M,0,205075,205097,119.6207,300.7331,113.4311,301.5996 M,0,205097,205119,113.4311,301.5996,107.2415,302.4662 M,0,205119,205141,107.2415,302.4662,101.0518,303.3328 M,0,205141,205163,101.0518,303.3328,94.86218,304.1993 M,0,205163,205185,94.86218,304.1993,88.67255,305.0659 M,0,205185,205207,88.67255,305.0659,82.48291,305.9324 M,0,205207,205229,82.48291,305.9324 M,0,205207,205560,82.48291,305.9324,67,207 M,0,205560,205582,67,207,73.16833,205.9929 M,0,205582,205604,73.16833,205.9929,79.33666,204.9859 M,0,205604,205626,79.33666,204.9859,85.50499,203.9788 M,0,205626,205648,85.50499,203.9788,91.67332,202.9717 M,0,205648,205670,91.67332,202.9717,97.84165,201.9646 M,0,205670,205692,97.84165,201.9646,104.01,200.9576 M,0,205692,205714,104.01,200.9576,110.1783,199.9505 M,0,205714,205736,110.1783,199.9505,116,199 M,0,205736,205758,116,199 M,0,205736,206090,116,199,210,233
Sprite,Background,Centre,"sb/pixel.png",0,0 C,0,161972,,119,214,244 R,0,161972,,3.148639 S,0,161972,,18 M,19,161972,162572,266,318,265.232,426.9973 F,19,161972,164795,1,0
Sprite,Background,Centre,"sb/pixel.png",0,0 C,0,161972,,86,191,237 R,0,161972,,6.290231 S,0,161972,,19 M,19,161972,162572,266,318,266.768,209.0027 F,19,161972,164795,1,0
Sprite,Background,Centre,"sb/pixel.png",0,0 C,0,161972,,119,214,244 R,0,161972,,4.912636 S,0,161972,,17 M,19,161972,162572,266,318,133.6976,291.147 F,19,161972,164795,1,0
Sprite,Background,Centre,"sb/pixel.png",0,0 C,0,161972,,119,214,244 R,0,161972,,8.054229 S,0,161972,,17 M,19,161972,162572,266,318,398.3024,344.853 F,19,161972,164795,1,0
Sprite,Background,Centre,"sb/pixel.png",0,0 C,0,161972,,119,214,244 R,0,161972,,5.495102 S,0,161972,,16 M,19,161972,162572,266,318,183.7557,236.1961 F,19,161972,164795,1,0
Sprite,Background,Centre,"sb/pixel.png",0,0 C,0,161972,,86,191,237 R,0,161972,,8.636695 S,0,161972,,18 M,19,161972,162572,266,318,348.2443,399.8039 F,19,161972,164795,1,0
Sprite,Background,Centre,"sb/pixel.png",0,0 C,0,161972,,86,191,237 R,0,161972,,6.234712 S,0,161972,,19 M,19,161972,162572,266,318,259.5556,185.1562 F,19,161972,164795,1,0
Sprite,Background,Centre,"sb/pixel.png",0,0 C,0,161972,,86,191,237 R,0,161972,,9.376305 S,0,161972,,17 M,19,161972,162572,266,318,272.4444,450.8438 F,19,161972,164795,1,0
Sprite,Background,Centre,"sb/pixel.png",0,0 C,0,161972,,86,191,237 R,0,161972,,4.280061 S,0,161972,,18 M,19,161972,162572,266,318,141.605,375.401 F,19,161972,164795,1,0
Sprite,Background,Centre,"sb/pixel.png",0,0 C,0,161972,,86,191,237 R,0,161972,,7.421654 S,0,161972,,16 M,19,161972,162572,266,318,390.395,260.599 F,19,161972,164795,1,0
Sprite,Background,Centre,"sb/pixel.png",0,0 C,0,161972,,86,191,237 R,0,161972,,3.332166 S,0,161972,,16 M,19,161972,162572,266,318,241.5646,444.6646 F,19,161972,164795,1,0
Sprite,Background,Centre,"sb/pixel.png",0,0 C,0,161972,,86,191,237 R,0,161972,,6.473759 S,0,161972,,19 M,19,161972,162572,266,318,290.4354,191.3354 F,19,161972,164795,1,0
Sprite,Background,Centre,"sb/pixel.png",0,0 C,0,164795,,86,191,237 R,0,164795,,6.031493 S,0,164795,,16 M,19,164795,165395,127,393,100.3524,289.3713 F,19,164795,167618,1,0
Sprite,Background,Centre,"sb/pixel.png",0,0 C,0,164795,,86,191,237 R,0,164795,,9.173086 S,0,164795,,16 M,19,164795,165395,127,393,153.6476,496.6287 F,19,164795,167618,1,0
Sprite,Background,Centre,"sb/pixel.png",0,0 C,0,164795,,119,214,244 R,0,164795,,3.490331 S,0,164795,,18 M,19,164795,165395,127,393,83.26076,513.295 F,19,164795,167618,1,0
Sprite,Background,Centre,"sb/pixel.png",0,0 C,0,164795,,119,214,244 R,0,164795,,6.631924 S,0,164795,,15 M,19,164795,165395,127,393,170.7392,272.705 F,19,164795,167618,1,0
Sprite,Background,Centre,"sb/pixel.png",0,0 C,0,164795,,86,191,237 R,0,164795,,5.829521 S,0,164795,,15 M,19,164795,165395,127,393,77.91467,292.3291 F,19,164795,167618,1,0
Sprite,Background,Centre,"sb/pixel.png",0,0 C,0,164795,,86,191,237 R,0,164795,,8.971114 S,0,164795,,18 M,19,164795,165395,127,393,176.0853,493.6709 F,19,164795,167618,1,0
Sprite,Background,Centre,"sb/pixel.png",0,0 C,0,164795,,119,214,244 R,0,164795,,5.727766 S,0,164795,,18 M,19,164795,165395,127,393,73.74274,307.1824 F,19,164795,167618,1,0
Sprite,Background,Centre,"sb/pixel.png",0,0 C,0,164795,,119,214,244 R,0,164795,,8.869359 S,0,164795,,19 M,19,164795,165395,127,393,180.2572,478.8176 F,19,164795,167618,1,0
Sprite,Background,Centre,"sb/pixel.png",0,0 C,0,164795,,86,191,237 R,0,164795,,3.341813 S,0,164795,,19 M,19,164795,165395,127,393,98.5594,533.1432 F,19,164795,167618,1,0
Sprite,Background,Centre,"sb/pixel.png",0,0 C,0,164795,,119,214,244 R,0,164795,,6.483406 S,0,164795,,17 M,19,164795,165395,127,393,155.4406,252.8568 F,19,164795,167618,1,0
Sprite,Background,Centre,"sb/pixel.png",0,0 C,0,164795,,86,191,237 R,0,164795,,5.840604 S,0,164795,,16 M,19,164795,165395,127,393,76.03547,285.4658 F,19,164795,167618,1,0
Sprite,Background,Centre,"sb/pixel.png",0,0 C,0,164795,,119,214,244 R,0,164795,,8.982197 S,0,164795,,18 M,19,164795,165395,127,393,177.9645,500.5342 F,19,164795,167618,1,0
Sprite,Background,Centre,"sb/pixel.png",0,0 C,0,167618,,119,214,244 R,0,167619,,3.156472 S,0,167619,,17 M,19,167619,168219,555,177,553.0657,306.9856 F,19,167619,170442,1,0
Sprite,Background,Centre,"sb/pixel.png",0,0 C,0,167618,,86,191,237 R,0,167619,,6.298065 S,0,167619,,15 M,19,167619,168219,555,177,556.9343,47.01439 F,19,167619,170442,1,0
Sprite,Background,Centre,"sb/pixel.png",0,0 C,0,167618,,119,214,244 R,0,167619,,3.858352 S,0,167619,,18 M,19,167619,168219,555,177,470.911,273.5041 F,19,167619,170442,1,0
Sprite,Background,Centre,"sb/pixel.png",0,0 C,0,167618,,86,191,237 R,0,167619,,6.999945 S,0,167619,,17 M,19,167619,168219,555,177,639.089,80.49589 F,19,167619,170442,1,0
Sprite,Background,Centre,"sb/pixel.png",0,0 C,0,167618,,86,191,237 R,0,167619,,4.543549 S,0,167619,,19 M,19,167619,168219,555,177,410.0903,201.7017 F,19,167619,170442,1,0
Sprite,Background,Centre,"sb/pixel.png",0,0 C,0,167618,,86,191,237 R,0,167619,,7.685142 S,0,167619,,18 M,19,167619,168219,555,177,699.9097,152.2983 F,19,167619,170442,1,0
Sprite,Background,Centre,"sb/pixel.png",0,0 C,0,167618,,86,191,237 R,0,167619,,4.908036 S,0,167619,,19 M,19,167619,168219,555,177,445.1367,155.227 F,19,167619,170442,1,0
Sprite,Background,Centre,"sb/pixel.png",0,0 C,0,167618,,119,214,244 R,0,167619,,8.049629 S,0,167619,,18 M,19,167619,168219,555,177,664.8633,198.773 F,19,167619,170442,1,0
Sprite,Background,Centre,"sb/pixel.png",0,0 C,0,167618,,119,214,244 R,0,167619,,4.769594 S,0,167619,,19 M,19,167619,168219,555,177,449.1734,170.9396 F,19,167619,170442,1,0
Sprite,Background,Centre,"sb/pixel.png",0,0 C,0,167618,,86,191,237 R,0,167619,,7.911186 S,0,167619,,19 M,19,167619,168219,555,177,660.8266,183.0604 F,19,167619,170442,1,0
Sprite,Background,Centre,"sb/pixel.png",0,0 C,0,167618,,86,191,237 R,0,167619,,4.570094 S,0,167619,,16 M,19,167619,168219,555,177,426.3139,195.4361 F,19,167619,170442,1,0
Sprite,Background,Centre,"sb/pixel.png",0,0 C,0,167618,,119,214,244 R,0,167619,,7.711686 S,0,167619,,16 M,19,167619,168219,555,177,683.6861,158.5639 F,19,167619,170442,1,0
Sprite,Background,Centre,"sb/pixel.png",0,0 C,0,170441,,119,214,244 R,0,170443,,5.309979 S,0,170443,,16 M,19,170443,171043,285,301,189.1035,235.7324 F,19,170443,173266,1,0
Sprite,Background,Centre,"sb/pixel.png",0,0 C,0,170441,,119,214,244 R,0,170443,,8.451571 S,0,170443,,18 M,19,170443,171043,285,301,380.8965,366.2676 F,19,170443,173266,1,0
Sprite,Background,Centre,"sb/pixel.png",0,0 C,0,170441,,119,214,244 R,0,170443,,4.669948 S,0,170443,,16 M,19,170443,171043,285,301,169.1045,305.9217 F,19,170443,173266,1,0
Sprite,Background,Centre,"sb/pixel.png",0,0 C,0,170441,,86,191,237 R,0,170443,,7.811541 S,0,170443,,17 M,19,170443,171043,285,301,400.8955,296.0783 F,19,170443,173266,1,0
Sprite,Background,Centre,"sb/pixel.png",0,0 C,0,170441,,86,191,237 R,0,170443,,5.750147 S,0,170443,,15 M,19,170443,171043,285,301,211.826,176.9776 F,19,170443,173266,1,0
Sprite,Background,Centre,"sb/pixel.png",0,0 C,0,170441,,86,191,237 R,0,170443,,8.891739 S,0,170443,,15 M,19,170443,171043,285,301,358.174,425.0224 F,19,170443,173266,1,0
Sprite,Background,Centre,"sb/pixel.png",0,0 C,0,170441,,119,214,244 R,0,170443,,5.721422 S,0,170443,,16 M,19,170443,171043,285,301,226.938,208.7514 F,19,170443,173266,1,0
Sprite,Background,Centre,"sb/pixel.png",0,0 C,0,170441,,86,191,237 R,0,170443,,8.863015 S,0,170443,,18 M,19,170443,171043,285,301,343.062,393.2486 F,19,170443,173266,1,0
Sprite,Background,Centre,"sb/pixel.png",0,0 C,0,170441,,86,191,237 R,0,170443,,3.471648 S,0,170443,,17 M,19,170443,171043,285,301,246.7567,412.6309 F,19,170443,173266,1,0
Sprite,Background,Centre,"sb/pixel.png",0,0 C,0,170441,,119,214,244 R,0,170443,,6.613241 S,0,170443,,16 M,19,170443,171043,285,301,323.2433,189.3691 F,19,170443,173266,1,0
Sprite,Background,Centre,"sb/pixel.png",0,0 C,0,170441,,86,191,237 R,0,170443,,5.568213 S,0,170443,,17 M,19,170443,171043,285,301,214.8512,220.2031 F,19,170443,173266,1,0
Sprite,Background,Centre,"sb/pixel.png",0,0 C,0,170441,,119,214,244 R,0,170443,,8.709805 S,0,170443,,16 M,19,170443,171043,285,301,355.1488,381.7969 F,19,170443,173266,1,0
Sprite,Background,Centre,"sb/pixel.png",0,0 C,0,173264,,86,191,237 R,0,173266,,4.622468 S,0,173266,,15 M,19,173266,173866,471,397,355.4687,407.4168 F,19,173266,176089,1,0
Sprite,Background,Centre,"sb/pixel.png",0,0 C,0,173264,,119,214,244 R,0,173266,,7.76406 S,0,173266,,19 M,19,173266,173866,471,397,586.5313,386.5832 F,19,173266,176089,1,0
Sprite,Background,Centre,"sb/pixel.png",0,0 C,0,173264,,86,191,237 R,0,173266,,5.536976 S,0,173266,,17 M,19,173266,173866,471,397,395.6465,315.4963 F,19,173266,176089,1,0
Sprite,Background,Centre,"sb/pixel.png",0,0 C,0,173264,,119,214,244 R,0,173266,,8.678569 S,0,173266,,15 M,19,173266,173866,471,397,546.3535,478.5037 F,19,173266,176089,1,0
Sprite,Background,Centre,"sb/pixel.png",0,0 C,0,173264,,86,191,237 R,0,173266,,3.370837 S,0,173266,,18 M,19,173266,173866,471,397,443.5038,514.8345 F,19,173266,176089,1,0
Sprite,Background,Centre,"sb/pixel.png",0,0 C,0,173264,,119,214,244 R,0,173266,,6.51243 S,0,173266,,19 M,19,173266,173866,471,397,498.4962,279.1656 F,19,173266,176089,1,0
Sprite,Background,Centre,"sb/pixel.png",0,0 C,0,173264,,119,214,244 R,0,173266,,6.155348 S,0,173266,,17 M,19,173266,173866,471,397,455.3188,275.0037 F,19,173266,176089,1,0
Sprite,Background,Centre,"sb/pixel.png",0,0 C,0,173264,,119,214,244 R,0,173266,,9.296941 S,0,173266,,15 M,19,173266,173866,471,397,486.6812,518.9963 F,19,173266,176089,1,0
Sprite,Background,Centre,"sb/pixel.png",0,0 C,0,173264,,119,214,244 R,0,173266,,3.528773 S,0,173266,,18 M,19,173266,173866,471,397,415.4958,533.1187 F,19,173266,176089,1,0
Sprite,Background,Centre,"sb/pixel.png",0,0 C,0,173264,,86,191,237 R,0,173266,,6.670366 S,0,173266,,16 M,19,173266,173866,471,397,526.5042,260.8813 F,19,173266,176089,1,0
Sprite,Background,Centre,"sb/pixel.png",0,0 C,0,173264,,86,191,237 R,0,173266,,5.354685 S,0,173266,,18 M,19,173266,173866,471,397,374.1125,324.5167 F,19,173266,176089,1,0
Sprite,Background,Centre,"sb/pixel.png",0,0 C,0,173264,,86,191,237 R,0,173266,,8.496278 S,0,173266,,16 M,19,173266,173866,471,397,567.8875,469.4833 F,19,173266,176089,1,0
Sprite,Background,Centre,"sb/pixel.png",0,0 C,0,176087,,86,191,237 R,0,176090,,4.382917 S,0,176090,,16 M,19,176090,176690,126,151,-4.577428,195.649 F,19,176090,178913,1,0
Sprite,Background,Centre,"sb/pixel.png",0,0 C,0,176087,,119,214,244 R,0,176090,,7.524509 S,0,176090,,18 M,19,176090,176690,126,151,256.5774,106.351 F,19,176090,178913,1,0
Sprite,Background,Centre,"sb/pixel.png",0,0 C,0,176087,,119,214,244 R,0,176090,,3.546191 S,0,176090,,17 M,19,176090,176690,126,151,75.61288,268.6654 F,19,176090,178913,1,0
Sprite,Background,Centre,"sb/pixel.png",0,0 C,0,176087,,119,214,244 R,0,176090,,6.687783 S,0,176090,,19 M,19,176090,176690,126,151,176.3871,33.33463 F,19,176090,178913,1,0
Sprite,Background,Centre,"sb/pixel.png",0,0 C,0,176087,,86,191,237 R,0,176090,,4.160719 S,0,176090,,19 M,19,176090,176690,126,151,34.87338,207.0798 F,19,176090,178913,1,0
Sprite,Background,Centre,"sb/pixel.png",0,0 C,0,176087,,119,214,244 R,0,176090,,7.302312 S,0,176090,,19 M,19,176090,176690,126,151,217.1266,94.92025 F,19,176090,178913,1,0
Sprite,Background,Centre,"sb/pixel.png",0,0 C,0,176087,,119,214,244 R,0,176090,,5.808218 S,0,176090,,18 M,19,176090,176690,126,151,79.81176,61.17992 F,19,176090,178913,1,0
Sprite,Background,Centre,"sb/pixel.png",0,0 C,0,176087,,86,191,237 R,0,176090,,8.949811 S,0,176090,,16 M,19,176090,176690,126,151,172.1882,240.8201 F,19,176090,178913,1,0
Sprite,Background,Centre,"sb/pixel.png",0,0 C,0,176087,,86,191,237 R,0,176090,,6.101523 S,0,176090,,16 M,19,176090,176690,126,151,99.2616,5.435381 F,19,176090,178913,1,0
Sprite,Background,Centre,"sb/pixel.png",0,0 C,0,176087,,86,191,237 R,0,176090,,9.243115 S,0,176090,,17 M,19,176090,176690,126,151,152.7384,296.5646 F,19,176090,178913,1,0
Sprite,Background,Centre,"sb/pixel.png",0,0 C,0,176087,,86,191,237 R,0,176090,,4.57097 S,0,176090,,17 M,19,176090,176690,126,151,6.207953,168.0548 F,19,176090,178913,1,0
Sprite,Background,Centre,"sb/pixel.png",0,0 C,0,176087,,119,214,244 R,0,176090,,7.712562 S,0,176090,,18 M,19,176090,176690,126,151,245.7921,133.9452 F,19,176090,178913,1,0
Sprite,Background,Centre,"sb/pixel.png",0,0 C,0,178910,,86,191,237 R,0,178913,,3.384054 S,0,178913,,18 M,19,178913,179513,90,254,58.54779,381.1682 F,19,178913,181736,1,0
Sprite,Background,Centre,"sb/pixel.png",0,0 C,0,178910,,119,214,244 R,0,178913,,6.525647 S,0,178913,,17 M,19,178913,179513,90,254,121.4522,126.8318 F,19,178913,181736,1,0
Sprite,Background,Centre,"sb/pixel.png",0,0 C,0,178910,,119,214,244 R,0,178913,,5.36767 S,0,178913,,15 M,19,178913,179513,90,254,-9.902474,177.2179 F,19,178913,181736,1,0
Sprite,Background,Centre,"sb/pixel.png",0,0 C,0,178910,,119,214,244 R,0,178913,,8.509262 S,0,178913,,16 M,19,178913,179513,90,254,189.9025,330.7821 F,19,178913,181736,1,0
Sprite,Background,Centre,"sb/pixel.png",0,0 C,0,178910,,86,191,237 R,0,178913,,5.339377 S,0,178913,,18 M,19,178913,179513,90,254,-22.56199,172.4476 F,19,178913,181736,1,0
Sprite,Background,Centre,"sb/pixel.png",0,0 C,0,178910,,86,191,237 R,0,178913,,8.480969 S,0,178913,,17 M,19,178913,179513,90,254,202.562,335.5524 F,19,178913,181736,1,0
Sprite,Background,Centre,"sb/pixel.png",0,0 C,0,178910,,86,191,237 R,0,178913,,3.707841 S,0,178913,,17 M,19,178913,179513,90,254,18.64954,366.2413 F,19,178913,181736,1,0
Sprite,Background,Centre,"sb/pixel.png",0,0 C,0,178910,,119,214,244 R,0,178913,,6.849433 S,0,178913,,17 M,19,178913,179513,90,254,161.3504,141.7587 F,19,178913,181736,1,0
Sprite,Background,Centre,"sb/pixel.png",0,0 C,0,178910,,86,191,237 R,0,178913,,3.299456 S,0,178913,,18 M,19,178913,179513,90,254,67.20481,397.197 F,19,178913,181736,1,0
Sprite,Background,Centre,"sb/pixel.png",0,0 C,0,178910,,119,214,244 R,0,178913,,6.441049 S,0,178913,,15 M,19,178913,179513,90,254,112.7952,110.803 F,19,178913,181736,1,0
Sprite,Background,Centre,"sb/pixel.png",0,0 C,0,178910,,86,191,237 R,0,178913,,6.142984 S,0,178913,,19 M,19,178913,179513,90,254,70.71555,117.3541 F,19,178913,181736,1,0
Sprite,Background,Centre,"sb/pixel.png",0,0 C,0,178910,,86,191,237 R,0,178913,,9.284576 S,0,178913,,19 M,19,178913,179513,90,254,109.2844,390.6459 F,19,178913,181736,1,0
Sprite,Background,Centre,"sb/pixel.png",0,0 C,0,181733,,86,191,237 R,0,181737,,5.764911 S,0,181737,,18 M,19,181737,182337,510,364,455.0126,267.5771 F,19,181737,184560,1,0
Sprite,Background,Centre,"sb/pixel.png",0,0 C,0,181733,,119,214,244 R,0,181737,,8.906504 S,0,181737,,16 M,19,181737,182337,510,364,564.9874,460.4229 F,19,181737,184560,1,0
Sprite,Background,Centre,"sb/pixel.png",0,0 C,0,181733,,119,214,244 R,0,181737,,5.922109 S,0,181737,,16 M,19,181737,182337,510,364,461.6005,235.8341 F,19,181737,184560,1,0
Sprite,Background,Centre,"sb/pixel.png",0,0 C,0,181733,,86,191,237 R,0,181737,,9.063702 S,0,181737,,15 M,19,181737,182337,510,364,558.3995,492.1659 F,19,181737,184560,1,0
Sprite,Background,Centre,"sb/pixel.png",0,0 C,0,181733,,86,191,237 R,0,181737,,5.117758 S,0,181737,,16 M,19,181737,182337,510,364,386.8598,311.156 F,19,181737,184560,1,0
Sprite,Background,Centre,"sb/pixel.png",0,0 C,0,181733,,119,214,244 R,0,181737,,8.259351 S,0,181737,,17 M,19,181737,182337,510,364,633.1402,416.844 F,19,181737,184560,1,0
Sprite,Background,Centre,"sb/pixel.png",0,0 C,0,181733,,119,214,244 R,0,181737,,5.823793 S,0,181737,,17 M,19,181737,182337,510,364,452.3575,247.4781 F,19,181737,184560,1,0
Sprite,Background,Centre,"sb/pixel.png",0,0 C,0,181733,,86,191,237 R,0,181737,,8.965385 S,0,181737,,17 M,19,181737,182337,510,364,567.6425,480.5219 F,19,181737,184560,1,0
Sprite,Background,Centre,"sb/pixel.png",0,0 C,0,181733,,119,214,244 R,0,181737,,5.713826 S,0,181737,,17 M,19,181737,182337,510,364,430.7534,240.1897 F,19,181737,184560,1,0
Sprite,Background,Centre,"sb/pixel.png",0,0 C,0,181733,,119,214,244 R,0,181737,,8.855419 S,0,181737,,18 M,19,181737,182337,510,364,589.2466,487.8103 F,19,181737,184560,1,0
Sprite,Background,Centre,"sb/pixel.png",0,0 C,0,181733,,86,191,237 R,0,181737,,4.525159 S,0,181737,,15 M,19,181737,182337,510,364,377.3593,389.1285 F,19,181737,184560,1,0
Sprite,Background,Centre,"sb/pixel.png",0,0 C,0,181733,,86,191,237 R,0,181737,,7.666752 S,0,181737,,17 M,19,181737,182337,510,364,642.6407,338.8715 F,19,181737,184560,1,0
Sprite,Background,Centre,"sb/pixel.png",0,0 C,0,187379,,86,191,237 R,0,187384,,5.627578 S,0,187384,,17 M,19,187384,187984,124,291,46.57561,190.3299 F,19,187384,190207,1,0
Sprite,Background,Centre,"sb/pixel.png",0,0 C,0,187379,,86,191,237 R,0,187384,,8.769171 S,0,187384,,18 M,19,187384,187984,124,291,201.4244,391.6701 F,19,187384,190207,1,0
Sprite,Background,Centre,"sb/pixel.png",0,0 C,0,187379,,119,214,244 R,0,187384,,6.24592 S,0,187384,,18 M,19,187384,187984,124,291,118.9331,155.0944 F,19,187384,190207,1,0
Sprite,Background,Centre,"sb/pixel.png",0,0 C,0,187379,,119,214,244 R,0,187384,,9.387513 S,0,187384,,17 M,19,187384,187984,124,291,129.0669,426.9056 F,19,187384,190207,1,0
Sprite,Background,Centre,"sb/pixel.png",0,0 C,0,187379,,119,214,244 R,0,187384,,4.324442 S,0,187384,,16 M,19,187384,187984,124,291,5.511956,339.4209 F,19,187384,190207,1,0
Sprite,Background,Centre,"sb/pixel.png",0,0 C,0,187379,,119,214,244 R,0,187384,,7.466035 S,0,187384,,16 M,19,187384,187984,124,291,242.488,242.5791 F,19,187384,190207,1,0
Sprite,Background,Centre,"sb/pixel.png",0,0 C,0,187379,,86,191,237 R,0,187384,,5.045177 S,0,187384,,16 M,19,187384,187984,124,291,14.36434,253.1051 F,19,187384,190207,1,0
Sprite,Background,Centre,"sb/pixel.png",0,0 C,0,187379,,86,191,237 R,0,187384,,8.18677 S,0,187384,,15 M,19,187384,187984,124,291,233.6357,328.8949 F,19,187384,190207,1,0
Sprite,Background,Centre,"sb/pixel.png",0,0 C,0,187379,,86,191,237 R,0,187384,,3.17144 S,0,187384,,19 M,19,187384,187984,124,291,120.4188,410.9466 F,19,187384,190207,1,0
Sprite,Background,Centre,"sb/pixel.png",0,0 C,0,187379,,86,191,237 R,0,187384,,6.313033 S,0,187384,,19 M,19,187384,187984,124,291,127.5812,171.0535 F,19,187384,190207,1,0
Sprite,Background,Centre,"sb/pixel.png",0,0 C,0,187379,,86,191,237 R,0,187384,,3.458555 S,0,187384,,15 M,19,187384,187984,124,291,85.35142,408.8231 F,19,187384,190207,1,0
Sprite,Background,Centre,"sb/pixel.png",0,0 C,0,187379,,86,191,237 R,0,187384,,6.600148 S,0,187384,,19 M,19,187384,187984,124,291,162.6486,173.1769 F,19,187384,190207,1,0
Sprite,Background,Centre,"sb/pixel.png",0,0 C,0,190202,,119,214,244 R,0,190207,,6.025187 S,0,190207,,17 M,19,190207,190807,107,235,76.38247,118.9717 F,19,190207,193030,1,0
Sprite,Background,Centre,"sb/pixel.png",0,0 C,0,190202,,119,214,244 R,0,190207,,9.16678 S,0,190207,,19 M,19,190207,190807,107,235,137.6175,351.0283 F,19,190207,193030,1,0
Sprite,Background,Centre,"sb/pixel.png",0,0 C,0,190202,,86,191,237 R,0,190207,,3.18849 S,0,190207,,19 M,19,190207,190807,107,235,102.0776,339.8846 F,19,190207,193030,1,0
Sprite,Background,Centre,"sb/pixel.png",0,0 C,0,190202,,119,214,244 R,0,190207,,6.330083 S,0,190207,,18 M,19,190207,190807,107,235,111.9224,130.1154 F,19,190207,193030,1,0
Sprite,Background,Centre,"sb/pixel.png",0,0 C,0,190202,,86,191,237 R,0,190207,,3.995646 S,0,190207,,18 M,19,190207,190807,107,235,29.34322,302.6641 F,19,190207,193030,1,0
Sprite,Background,Centre,"sb/pixel.png",0,0 C,0,190202,,86,191,237 R,0,190207,,7.137239 S,0,190207,,17 M,19,190207,190807,107,235,184.6568,167.336 F,19,190207,193030,1,0
Sprite,Background,Centre,"sb/pixel.png",0,0 C,0,190202,,86,191,237 R,0,190207,,5.869635 S,0,190207,,17 M,19,190207,190807,107,235,57.57081,122.3689 F,19,190207,193030,1,0
Sprite,Background,Centre,"sb/pixel.png",0,0 C,0,190202,,119,214,244 R,0,190207,,9.011228 S,0,190207,,15 M,19,190207,190807,107,235,156.4292,347.6311 F,19,190207,193030,1,0
Sprite,Background,Centre,"sb/pixel.png",0,0 C,0,190202,,86,191,237 R,0,190207,,3.52587 S,0,190207,,17 M,19,190207,190807,107,235,66.512,335.1235 F,19,190207,193030,1,0
Sprite,Background,Centre,"sb/pixel.png",0,0 C,0,190202,,86,191,237 R,0,190207,,6.667462 S,0,190207,,18 M,19,190207,190807,107,235,147.488,134.8765 F,19,190207,193030,1,0
Sprite,Background,Centre,"sb/pixel.png",0,0 C,0,190202,,86,191,237 R,0,190207,,5.319462 S,0,190207,,18 M,19,190207,190807,107,235,14.1907,170.5374 F,19,190207,193030,1,0
Sprite,Background,Centre,"sb/pixel.png",0,0 C,0,190202,,119,214,244 R,0,190207,,8.461055 S,0,190207,,18 M,19,190207,190807,107,235,199.8093,299.4626 F,19,190207,193030,1,0
Sprite,Background,Centre,"sb/pixel.png",0,0 C,0,193025,,86,191,237 R,0,193031,,3.769138 S,0,193031,,19 M,19,193031,193631,464,112,404.6969,193.7566 F,19,193031,195854,1,0
Sprite,Background,Centre,"sb/pixel.png",0,0 C,0,193025,,119,214,244 R,0,193031,,6.910731 S,0,193031,,18 M,19,193031,193631,464,112,523.3031,30.24341 F,19,193031,195854,1,0
Sprite,Background,Centre,"sb/pixel.png",0,0 C,0,193025,,119,214,244 R,0,193031,,3.950697 S,0,193031,,19 M,19,193031,193631,464,112,389.4621,183.0851 F,19,193031,195854,1,0
Sprite,Background,Centre,"sb/pixel.png",0,0 C,0,193025,,86,191,237 R,0,193031,,7.092289 S,0,193031,,19 M,19,193031,193631,464,112,538.538,40.91487 F,19,193031,195854,1,0
Sprite,Background,Centre,"sb/pixel.png",0,0 C,0,193025,,86,191,237 R,0,193031,,3.79363 S,0,193031,,15 M,19,193031,193631,464,112,391.79,206.5871 F,19,193031,195854,1,0
Sprite,Background,Centre,"sb/pixel.png",0,0 C,0,193025,,119,214,244 R,0,193031,,6.935222 S,0,193031,,15 M,19,193031,193631,464,112,536.21,17.41292 F,19,193031,195854,1,0
Sprite,Background,Centre,"sb/pixel.png",0,0 C,0,193025,,86,191,237 R,0,193031,,3.331679 S,0,193031,,19 M,19,193031,193631,464,112,441.8936,226.8926 F,19,193031,195854,1,0
Sprite,Background,Centre,"sb/pixel.png",0,0 C,0,193025,,119,214,244 R,0,193031,,6.473272 S,0,193031,,16 M,19,193031,193631,464,112,486.1064,-2.892586 F,19,193031,195854,1,0
Sprite,Background,Centre,"sb/pixel.png",0,0 C,0,193025,,86,191,237 R,0,193031,,3.167988 S,0,193031,,15 M,19,193031,193631,464,112,460.8065,232.9579 F,19,193031,195854,1,0
Sprite,Background,Centre,"sb/pixel.png",0,0 C,0,193025,,119,214,244 R,0,193031,,6.309581 S,0,193031,,19 M,19,193031,193631,464,112,467.1935,-8.95785 F,19,193031,195854,1,0
Sprite,Background,Centre,"sb/pixel.png",0,0 C,0,193025,,86,191,237 R,0,193031,,5.24676 S,0,193031,,19 M,19,193031,193631,464,112,349.5417,44.26306 F,19,193031,195854,1,0
Sprite,Background,Centre,"sb/pixel.png",0,0 C,0,193025,,86,191,237 R,0,193031,,8.388353 S,0,193031,,17 M,19,193031,193631,464,112,578.4583,179.7369 F,19,193031,195854,1,0
Sprite,Background,Centre,"sb/pixel.png",0,0 C,0,195848,,119,214,244 R,0,195854,,5.545055 S,0,195854,,15 M,19,195854,196454,194,292,126.0365,217.2875 F,19,195854,198677,1,0
Sprite,Background,Centre,"sb/pixel.png",0,0 C,0,195848,,119,214,244 R,0,195854,,8.686647 S,0,195854,,16 M,19,195854,196454,194,292,261.9635,366.7125 F,19,195854,198677,1,0
Sprite,Background,Centre,"sb/pixel.png",0,0 C,0,195848,,86,191,237 R,0,195854,,5.818048 S,0,195854,,15 M,19,195854,196454,194,292,143.7628,191.8989 F,19,195854,198677,1,0
Sprite,Background,Centre,"sb/pixel.png",0,0 C,0,195848,,119,214,244 R,0,195854,,8.959641 S,0,195854,,16 M,19,195854,196454,194,292,244.2372,392.1011 F,19,195854,198677,1,0
Sprite,Background,Centre,"sb/pixel.png",0,0 C,0,195848,,119,214,244 R,0,195854,,5.29942 S,0,195854,,19 M,19,195854,196454,194,292,89.0938,222.2097 F,19,195854,198677,1,0
Sprite,Background,Centre,"sb/pixel.png",0,0 C,0,195848,,86,191,237 R,0,195854,,8.441012 S,0,195854,,15 M,19,195854,196454,194,292,298.9062,361.7903 F,19,195854,198677,1,0
Sprite,Background,Centre,"sb/pixel.png",0,0 C,0,195848,,86,191,237 R,0,195854,,5.516071 S,0,195854,,17 M,19,195854,196454,194,292,113.4889,208.4897 F,19,195854,198677,1,0
Sprite,Background,Centre,"sb/pixel.png",0,0 C,0,195848,,86,191,237 R,0,195854,,8.657663 S,0,195854,,19 M,19,195854,196454,194,292,274.511,375.5103 F,19,195854,198677,1,0
Sprite,Background,Centre,"sb/pixel.png",0,0 C,0,195848,,86,191,237 R,0,195854,,3.672134 S,0,195854,,17 M,19,195854,196454,194,292,141.376,381.7035 F,19,195854,198677,1,0
Sprite,Background,Centre,"sb/pixel.png",0,0 C,0,195848,,119,214,244 R,0,195854,,6.813726 S,0,195854,,19 M,19,195854,196454,194,292,246.624,202.2965 F,19,195854,198677,1,0
Sprite,Background,Centre,"sb/pixel.png",0,0 C,0,195848,,86,191,237 R,0,195854,,3.768594 S,0,195854,,17 M,19,195854,196454,194,292,125.9406,385.9357 F,19,195854,198677,1,0
Sprite,Background,Centre,"sb/pixel.png",0,0 C,0,195848,,119,214,244 R,0,195854,,6.910187 S,0,195854,,16 M,19,195854,196454,194,292,262.0594,198.0643 F,19,195854,198677,1,0
Sprite,Background,Centre,"sb/pixel.png",0,0 C,0,198671,,119,214,244 R,0,198678,,6.12492 S,0,198678,,17 M,19,198678,199278,129,433,105.5168,285.8622 F,19,198678,201501,1,0
Sprite,Background,Centre,"sb/pixel.png",0,0 C,0,198671,,119,214,244 R,0,198678,,9.266513 S,0,198678,,15 M,19,198678,199278,129,433,152.4832,580.1378 F,19,198678,201501,1,0
Sprite,Background,Centre,"sb/pixel.png",0,0 C,0,198671,,119,214,244 R,0,198678,,5.41363 S,0,198678,,16 M,19,198678,199278,129,433,15.15773,336.8702 F,19,198678,201501,1,0
Sprite,Background,Centre,"sb/pixel.png",0,0 C,0,198671,,119,214,244 R,0,198678,,8.555223 S,0,198678,,18 M,19,198678,199278,129,433,242.8423,529.1298 F,19,198678,201501,1,0
Sprite,Background,Centre,"sb/pixel.png",0,0 C,0,198671,,119,214,244 R,0,198678,,5.554231 S,0,198678,,17 M,19,198678,199278,129,433,36.41346,329.3239 F,19,198678,201501,1,0
Sprite,Background,Centre,"sb/pixel.png",0,0 C,0,198671,,119,214,244 R,0,198678,,8.695824 S,0,198678,,15 M,19,198678,199278,129,433,221.5865,536.6761 F,19,198678,201501,1,0
Sprite,Background,Centre,"sb/pixel.png",0,0 C,0,198671,,119,214,244 R,0,198678,,6.105179 S,0,198678,,16 M,19,198678,199278,129,433,108.9914,321.7856 F,19,198678,201501,1,0
Sprite,Background,Centre,"sb/pixel.png",0,0 C,0,198671,,86,191,237 R,0,198678,,9.246772 S,0,198678,,16 M,19,198678,199278,129,433,149.0086,544.2145 F,19,198678,201501,1,0
Sprite,Background,Centre,"sb/pixel.png",0,0 C,0,198671,,119,214,244 R,0,198678,,4.831463 S,0,198678,,18 M,19,198678,199278,129,433,12.82846,419.1013 F,19,198678,201501,1,0
Sprite,Background,Centre,"sb/pixel.png",0,0 C,0,198671,,86,191,237 R,0,198678,,7.973055 S,0,198678,,15 M,19,198678,199278,129,433,245.1715,446.8987 F,19,198678,201501,1,0
Sprite,Background,Centre,"sb/pixel.png",0,0 C,0,198671,,119,214,244 R,0,198678,,4.188744 S,0,198678,,19 M,19,198678,199278,129,433,32.00776,489.0045 F,19,198678,201501,1,0
Sprite,Background,Centre,"sb/pixel.png",0,0 C,0,198671,,86,191,237 R,0,198678,,7.330337 S,0,198678,,17 M,19,198678,199278,129,433,225.9922,376.9955 F,19,198678,201501,1,0
Sprite,Background,Centre,"sb/pixel.png",0,0 C,0,201494,,119,214,244 R,0,201501,,3.334498 S,0,201501,,16 M,19,201501,202101,364,227,343.4869,332.0153 F,19,201501,204324,1,0
Sprite,Background,Centre,"sb/pixel.png",0,0 C,0,201494,,86,191,237 R,0,201501,,6.476091 S,0,201501,,19 M,19,201501,202101,364,227,384.5131,121.9847 F,19,201501,204324,1,0
Sprite,Background,Centre,"sb/pixel.png",0,0 C,0,201494,,86,191,237 R,0,201501,,5.734367 S,0,201501,,15 M,19,201501,202101,364,227,289.3999,105.0007 F,19,201501,204324,1,0
Sprite,Background,Centre,"sb/pixel.png",0,0 C,0,201494,,86,191,237 R,0,201501,,8.87596 S,0,201501,,16 M,19,201501,202101,364,227,438.6001,348.9993 F,19,201501,204324,1,0
Sprite,Background,Centre,"sb/pixel.png",0,0 C,0,201494,,119,214,244 R,0,201501,,5.526392 S,0,201501,,18 M,19,201501,202101,364,227,271.9965,129.5764 F,19,201501,204324,1,0
Sprite,Background,Centre,"sb/pixel.png",0,0 C,0,201494,,119,214,244 R,0,201501,,8.667985 S,0,201501,,15 M,19,201501,202101,364,227,456.0035,324.4236 F,19,201501,204324,1,0
Sprite,Background,Centre,"sb/pixel.png",0,0 C,0,201494,,119,214,244 R,0,201501,,3.172682 S,0,201501,,19 M,19,201501,202101,364,227,359.8969,358.9362 F,19,201501,204324,1,0
Sprite,Background,Centre,"sb/pixel.png",0,0 C,0,201494,,119,214,244 R,0,201501,,6.314275 S,0,201501,,18 M,19,201501,202101,364,227,368.1031,95.06379 F,19,201501,204324,1,0
Sprite,Background,Centre,"sb/pixel.png",0,0 C,0,201494,,119,214,244 R,0,201501,,3.560934 S,0,201501,,15 M,19,201501,202101,364,227,303.3333,363.0902 F,19,201501,204324,1,0
Sprite,Background,Centre,"sb/pixel.png",0,0 C,0,201494,,86,191,237 R,0,201501,,6.702527 S,0,201501,,16 M,19,201501,202101,364,227,424.6667,90.90977 F,19,201501,204324,1,0
Sprite,Background,Centre,"sb/pixel.png",0,0 C,0,201494,,86,191,237 R,0,201501,,4.981685 S,0,201501,,17 M,19,201501,202101,364,227,223.2621,188.1563 F,19,201501,204324,1,0
Sprite,Background,Centre,"sb/pixel.png",0,0 C,0,201494,,119,214,244 R,0,201501,,8.123278 S,0,201501,,19 M,19,201501,202101,364,227,504.7379,265.8437 F,19,201501,204324,1,0
Sprite,Background,Centre,"sb/pixel.png",0,0 C,0,204317,,86,191,237 R,0,204325,,5.80941 S,0,204325,,16 M,19,204325,204925,281,433,222.6001,319.099 F,19,204325,207148,1,0
Sprite,Background,Centre,"sb/pixel.png",0,0 C,0,204317,,119,214,244 R,0,204325,,8.951002 S,0,204325,,15 M,19,204325,204925,281,433,339.3999,546.9011 F,19,204325,207148,1,0
Sprite,Background,Centre,"sb/pixel.png",0,0 C,0,204317,,86,191,237 R,0,204325,,5.125687 S,0,204325,,18 M,19,204325,204925,281,433,170.188,384.4026 F,19,204325,207148,1,0
Sprite,Background,Centre,"sb/pixel.png",0,0 C,0,204317,,86,191,237 R,0,204325,,8.26728 S,0,204325,,15 M,19,204325,204925,281,433,391.812,481.5974 F,19,204325,207148,1,0
Sprite,Background,Centre,"sb/pixel.png",0,0 C,0,204317,,86,191,237 R,0,204325,,5.733191 S,0,204325,,15 M,19,204325,204925,281,433,212.5287,321.3189 F,19,204325,207148,1,0
Sprite,Background,Centre,"sb/pixel.png",0,0 C,0,204317,,86,191,237 R,0,204325,,8.874784 S,0,204325,,16 M,19,204325,204925,281,433,349.4713,544.6812 F,19,204325,207148,1,0
Sprite,Background,Centre,"sb/pixel.png",0,0 C,0,204317,,119,214,244 R,0,204325,,4.51852 S,0,204325,,18 M,19,204325,204925,281,433,171.0982,454.5776 F,19,204325,207148,1,0
Sprite,Background,Centre,"sb/pixel.png",0,0 C,0,204317,,119,214,244 R,0,204325,,7.660113 S,0,204325,,18 M,19,204325,204925,281,433,390.9018,411.4224 F,19,204325,207148,1,0
Sprite,Background,Centre,"sb/pixel.png",0,0 C,0,204317,,86,191,237 R,0,204325,,5.18936 S,0,204325,,16 M,19,204325,204925,281,433,156.6255,368.7273 F,19,204325,207148,1,0
Sprite,Background,Centre,"sb/pixel.png",0,0 C,0,204317,,86,191,237 R,0,204325,,8.330953 S,0,204325,,19 M,19,204325,204925,281,433,405.3745,497.2727 F,19,204325,207148,1,0
Sprite,Background,Centre,"sb/pixel.png",0,0 C,0,204317,,119,214,244 R,0,204325,,4.760301 S,0,204325,,16 M,19,204325,204925,281,433,172.1251,427.7796 F,19,204325,207148,1,0
Sprite,Background,Centre,"sb/pixel.png",0,0 C,0,204317,,86,191,237 R,0,204325,,7.901893 S,0,204325,,19 M,19,204325,204925,281,433,389.8749,438.2204 F,19,204325,207148,1,0
Sprite,Background,Centre,"sb/pixel.png",0,0 M,0,208913,210913,410,520,410,-40 F,0,208913,210913,1 F,0,107266,114325,0.8 L,208913,4 V,0,0,1200,4,4,4,-4 R,0,0,1200,0,6.283185 C,0,208913,,86,191,237
Sprite,Background,Centre,"sb/pixel.png",0,0 M,0,208957,210957,57,520,57,-40 F,0,208957,210957,1 F,0,107266,114325,0.8 L,208957,4 V,0,0,1200,4,4,4,-4 R,0,0,1200,0,6.283185 C,0,208957,,119,214,244
Sprite,Background,Centre,"sb/pixel.png",0,0 M,0,209001,211001,47,520,47,-40 F,0,209001,211001,1 F,0,107266,114325,0.8 L,209001,4 V,0,0,1200,4,4,4,-4 R,0,0,1200,0,6.283185 C,0,209001,,86,191,237
Sprite,Background,Centre,"sb/pixel.png",0,0 M,0,209045,211045,-77,520,-77,-40 F,0,209045,211045,1 F,0,107266,114325,0.8 L,209045,4 V,0,0,1200,4,4,4,-4 R,0,0,1200,0,6.283185 C,0,209045,,119,214,244
Sprite,Background,Centre,"sb/pixel.png",0,0 M,0,209089,211089,-100,520,-100,-40 F,0,209089,211089,1 F,0,107266,114325,0.8 L,209089,4 V,0,0,1200,4,4,4,-4 R,0,0,1200,0,6.283185 C,0,209089,,119,214,244
Sprite,Background,Centre,"sb/pixel.png",0,0 M,0,209133,211133,48,520,48,-40 F,0,209133,211133,1 F,0,107266,114325,0.8 L,209133,4 V,0,0,1200,4,4,4,-4 R,0,0,1200,0,6.283185 C,0,209133,,119,214,244
Sprite,Background,Centre,"sb/pixel.png",0,0 M,0,209177,211177,327,520,327,-40 F,0,209177,211177,1 F,0,107266,114325,0.8 L,209177,4 V,0,0,1200,4,4,4,-4 R,0,0,1200,0,6.283185 C,0,209177,,86,191,237
Sprite,Background,Centre,"sb/pixel.png",0,0 M,0,209221,211221,-35,520,-35,-40 F,0,209221,211221,1 F,0,107266,114325,0.8 L,209221,4 V,0,0,1200,4,4,4,-4 R,0,0,1200,0,6.283185 C,0,209221,,86,191,237
Sprite,Background,Centre,"sb/pixel.png",0,0 M,0,209265,211265,11,520,11,-40 F,0,209265,211265,1 F,0,107266,114325,0.8 L,209265,4 V,0,0,1200,4,4,4,-4 R,0,0,1200,0,6.283185 C,0,209265,,119,214,244
Sprite,Background,Centre,"sb/pixel.png",0,0 M,0,209310,211310,629,520,629,-40 F,0,209310,211310,1 F,0,107266,114325,0.8 L,209310,4 V,0,0,1200,4,4,4,-4 R,0,0,1200,0,6.283185 C,0,209310,,119,214,244
Sprite,Background,Centre,"sb/pixel.png",0,0 M,0,209354,211354,187,520,187,-40 F,0,209354,211354,1 F,0,107266,114325,0.8 L,209354,4 V,0,0,1200,4,4,4,-4 R,0,0,1200,0,6.283185 C,0,209354,,86,191,237
Sprite,Background,Centre,"sb/pixel.png",0,0 M,0,209398,211398,494,520,494,-40 F,0,209398,211398,1 F,0,107266,114325,0.8 L,209398,4 V,0,0,1200,4,4,4,-4 R,0,0,1200,0,6.283185 C,0,209398,,86,191,237
Sprite,Background,Centre,"sb/pixel.png",0,0 M,0,209442,211442,18,520,18,-40 F,0,209442,211442,1 F,0,107266,114325,0.8 L,209442,4 V,0,0,1200,4,4,4,-4 R,0,0,1200,0,6.283185 C,0,209442,,119,214,244
Sprite,Background,Centre,"sb/pixel.png",0,0 M,0,209486,211486,657,520,657,-40 F,0,209486,211486,1 F,0,107266,114325,0.8 L,209486,4 V,0,0,1200,4,4,4,-4 R,0,0,1200,0,6.283185 C,0,209486,,86,191,237
Sprite,Background,Centre,"sb/pixel.png",0,0 M,0,209530,211530,27,520,27,-40 F,0,209530,211530,1 F,0,107266,114325,0.8 L,209530,4 V,0,0,1200,4,4,4,-4 R,0,0,1200,0,6.283185 C,0,209530,,86,191,237
Sprite,Background,Centre,"sb/pixel.png",0,0 M,0,209574,211574,665,520,665,-40 F,0,209574,211574,1 F,0,107266,114325,0.8 L,209574,4 V,0,0,1200,4,4,4,-4 R,0,0,1200,0,6.283185 C,0,209574,,86,191,237
Sprite,Background,Centre,"sb/pixel.png",0,0 M,0,209618,211618,558,520,558,-40 F,0,209618,211618,1 F,0,107266,114325,0.8 L,209618,4 V,0,0,1200,4,4,4,-4 R,0,0,1200,0,6.283185 C,0,209618,,86,191,237
Sprite,Background,Centre,"sb/pixel.png",0,0 M,0,209663,211663,236,520,236,-40 F,0,209663,211663,1 F,0,107266,114325,0.8 L,209663,4 V,0,0,1200,4,4,4,-4 R,0,0,1200,0,6.283185 C,0,209663,,119,214,244
Sprite,Background,Centre,"sb/pixel.png",0,0 M,0,209707,211707,-47,520,-47,-40 F,0,209707,211707,1 F,0,107266,114325,0.8 L,209707,4 V,0,0,1200,4,4,4,-4 R,0,0,1200,0,6.283185 C,0,209707,,119,214,244
Sprite,Background,Centre,"sb/pixel.png",0,0 M,0,209751,211751,-50,520,-50,-40 F,0,209751,211751,1 F,0,107266,114325,0.8 L,209751,4 V,0,0,1200,4,4,4,-4 R,0,0,1200,0,6.283185 C,0,209751,,119,214,244
Sprite,Background,Centre,"sb/pixel.png",0,0 M,0,209795,211795,433,520,433,-40 F,0,209795,211795,1 F,0,107266,114325,0.8 L,209795,4 V,0,0,1200,4,4,4,-4 R,0,0,1200,0,6.283185 C,0,209795,,86,191,237
Sprite,Background,Centre,"sb/pixel.png",0,0 M,0,209839,211839,549,520,549,-40 F,0,209839,211839,1 F,0,107266,114325,0.8 L,209839,4 V,0,0,1200,4,4,4,-4 R,0,0,1200,0,6.283185 C,0,209839,,86,191,237
Sprite,Background,Centre,"sb/pixel.png",0,0 M,0,209883,211883,436,520,436,-40 F,0,209883,211883,1 F,0,107266,114325,0.8 L,209883,4 V,0,0,1200,4,4,4,-4 R,0,0,1200,0,6.283185 C,0,209883,,86,191,237
Sprite,Background,Centre,"sb/pixel.png",0,0 M,0,209927,211927,609,520,609,-40 F,0,209927,211927,1 F,0,107266,114325,0.8 L,209927,4 V,0,0,1200,4,4,4,-4 R,0,0,1200,0,6.283185 C,0,209927,,86,191,237
Sprite,Background,Centre,"sb/pixel.png",0,0 M,0,209971,211971,511,520,511,-40 F,0,209971,211971,1 F,0,107266,114325,0.8 L,209971,4 V,0,0,1200,4,4,4,-4 R,0,0,1200,0,6.283185 C,0,209971,,86,191,237
Sprite,Background,Centre,"sb/pixel.png",0,0 M,0,210015,212015,-71,520,-71,-40 F,0,210015,212015,1 F,0,107266,114325,0.8 L,210015,4 V,0,0,1200,4,4,4,-4 R,0,0,1200,0,6.283185 C,0,210015,,119,214,244
Sprite,Background,Centre,"sb/pixel.png",0,0 M,0,210060,212060,231,520,231,-40 F,0,210060,212060,1 F,0,107266,114325,0.8 L,210060,4 V,0,0,1200,4,4,4,-4 R,0,0,1200,0,6.283185 C,0,210060,,86,191,237
Sprite,Background,Centre,"sb/pixel.png",0,0 M,0,210104,212104,389,520,389,-40 F,0,210104,212104,1 F,0,107266,114325,0.8 L,210104,4 V,0,0,1200,4,4,4,-4 R,0,0,1200,0,6.283185 C,0,210104,,86,191,237
Sprite,Background,Centre,"sb/pixel.png",0,0 M,0,210148,212148,703,520,703,-40 F,0,210148,212148,1 F,0,107266,114325,0.8 L,210148,4 V,0,0,1200,4,4,4,-4 R,0,0,1200,0,6.283185 C,0,210148,,86,191,237
Sprite,Background,Centre,"sb/pixel.png",0,0 M,0,210192,212192,685,520,685,-40 F,0,210192,212192,1 F,0,107266,114325,0.8 L,210192,4 V,0,0,1200,4,4,4,-4 R,0,0,1200,0,6.283185 C,0,210192,,86,191,237
Sprite,Background,Centre,"sb/pixel.png",0,0 M,0,210236,212236,525,520,525,-40 F,0,210236,212236,1 F,0,107266,114325,0.8 L,210236,4 V,0,0,1200,4,4,4,-4 R,0,0,1200,0,6.283185 C,0,210236,,119,214,244
Sprite,Background,Centre,"sb/pixel.png",0,0 M,0,210280,212280,152,520,152,-40 F,0,210280,212280,1 F,0,107266,114325,0.8 L,210280,4 V,0,0,1200,4,4,4,-4 R,0,0,1200,0,6.283185 C,0,210280,,119,214,244
Sprite,Background,Centre,"sb/pixel.png",0,0 M,0,210324,212324,20,520,20,-40 F,0,210324,212324,1 F,0,107266,114325,0.8 L,210324,4 V,0,0,1200,4,4,4,-4 R,0,0,1200,0,6.283185 C,0,210324,,86,191,237
Sprite,Background,Centre,"sb/pixel.png",0,0 M,0,210368,212368,375,520,375,-40 F,0,210368,212368,1 F,0,107266,114325,0.8 L,210368,4 V,0,0,1200,4,4,4,-4 R,0,0,1200,0,6.283185 C,0,210368,,86,191,237
Sprite,Background,Centre,"sb/pixel.png",0,0 M,0,210413,212413,42,520,42,-40 F,0,210413,212413,1 F,0,107266,114325,0.8 L,210413,4 V,0,0,1200,4,4,4,-4 R,0,0,1200,0,6.283185 C,0,210413,,86,191,237
Sprite,Background,Centre,"sb/pixel.png",0,0 M,0,210457,212457,358,520,358,-40 F,0,210457,212457,1 F,0,107266,114325,0.8 L,210457,4 V,0,0,1200,4,4,4,-4 R,0,0,1200,0,6.283185 C,0,210457,,86,191,237
Sprite,Background,Centre,"sb/pixel.png",0,0 M,0,210501,212501,13,520,13,-40 F,0,210501,212501,1 F,0,107266,114325,0.8 L,210501,4 V,0,0,1200,4,4,4,-4 R,0,0,1200,0,6.283185 C,0,210501,,119,214,244
Sprite,Background,Centre,"sb/pixel.png",0,0 M,0,210545,212545,361,520,361,-40 F,0,210545,212545,1 F,0,107266,114325,0.8 L,210545,4 V,0,0,1200,4,4,4,-4 R,0,0,1200,0,6.283185 C,0,210545,,86,191,237
Sprite,Background,Centre,"sb/pixel.png",0,0 M,0,210589,212589,721,520,721,-40 F,0,210589,212589,1 F,0,107266,114325,0.8 L,210589,4 V,0,0,1200,4,4,4,-4 R,0,0,1200,0,6.283185 C,0,210589,,119,214,244
Sprite,Background,Centre,"sb/pixel.png",0,0 M,0,210633,212633,-98,520,-98,-40 F,0,210633,212633,1 F,0,107266,114325,0.8 L,210633,4 V,0,0,1200,4,4,4,-4 R,0,0,1200,0,6.283185 C,0,210633,,86,191,237
Sprite,Background,Centre,"sb/pixel.png",0,0 M,0,210677,212677,271,520,271,-40 F,0,210677,212677,1 F,0,107266,114325,0.8 L,210677,4 V,0,0,1200,4,4,4,-4 R,0,0,1200,0,6.283185 C,0,210677,,86,191,237
Sprite,Background,Centre,"sb/pixel.png",0,0 M,0,210721,212721,-32,520,-32,-40 F,0,210721,212721,1 F,0,107266,114325,0.8 L,210721,4 V,0,0,1200,4,4,4,-4 R,0,0,1200,0,6.283185 C,0,210721,,119,214,244
Sprite,Background,Centre,"sb/pixel.png",0,0 M,0,210765,212765,536,520,536,-40 F,0,210765,212765,1 F,0,107266,114325,0.8 L,210765,4 V,0,0,1200,4,4,4,-4 R,0,0,1200,0,6.283185 C,0,210765,,86,191,237
Sprite,Background,Centre,"sb/pixel.png",0,0 M,0,210810,212810,37,520,37,-40 F,0,210810,212810,1 F,0,107266,114325,0.8 L,210810,4 V,0,0,1200,4,4,4,-4 R,0,0,1200,0,6.283185 C,0,210810,,119,214,244
Sprite,Background,Centre,"sb/pixel.png",0,0 M,0,210854,212854,90,520,90,-40 F,0,210854,212854,1 F,0,107266,114325,0.8 L,210854,4 V,0,0,1200,4,4,4,-4 R,0,0,1200,0,6.283185 C,0,210854,,86,191,237
Sprite,Background,Centre,"sb/pixel.png",0,0 M,0,210898,212898,92,520,92,-40 F,0,210898,212898,1 F,0,107266,114325,0.8 L,210898,4 V,0,0,1200,4,4,4,-4 R,0,0,1200,0,6.283185 C,0,210898,,86,191,237
Sprite,Background,Centre,"sb/pixel.png",0,0 M,0,210942,212942,265,520,265,-40 F,0,210942,212942,1 F,0,107266,114325,0.8 L,210942,4 V,0,0,1200,4,4,4,-4 R,0,0,1200,0,6.283185 C,0,210942,,119,214,244
Sprite,Background,Centre,"sb/pixel.png",0,0 M,0,210986,212986,506,520,506,-40 F,0,210986,212986,1 F,0,107266,114325,0.8 L,210986,4 V,0,0,1200,4,4,4,-4 R,0,0,1200,0,6.283185 C,0,210986,,119,214,244
Sprite,Background,Centre,"sb/pixel.png",0,0 M,0,211030,213030,292,520,292,-40 F,0,211030,213030,1 F,0,107266,114325,0.8 L,211030,4 V,0,0,1200,4,4,4,-4 R,0,0,1200,0,6.283185 C,0,211030,,86,191,237
Sprite,Background,Centre,"sb/pixel.png",0,0 M,0,211074,213074,275,520,275,-40 F,0,211074,213074,1 F,0,107266,114325,0.8 L,211074,4 V,0,0,1200,4,4,4,-4 R,0,0,1200,0,6.283185 C,0,211074,,119,214,244
Sprite,Background,Centre,"sb/pixel.png",0,0 M,0,211118,213118,726,520,726,-40 F,0,211118,213118,1 F,0,107266,114325,0.8 L,211118,4 V,0,0,1200,4,4,4,-4 R,0,0,1200,0,6.283185 C,0,211118,,119,214,244
Sprite,Background,Centre,"sb/pixel.png",0,0 M,0,211163,213163,555,520,555,-40 F,0,211163,213163,1 F,0,107266,114325,0.8 L,211163,4 V,0,0,1200,4,4,4,-4 R,0,0,1200,0,6.283185 C,0,211163,,86,191,237
Sprite,Background,Centre,"sb/pixel.png",0,0 M,0,211207,213207,195,520,195,-40 F,0,211207,213207,1 F,0,107266,114325,0.8 L,211207,4 V,0,0,1200,4,4,4,-4 R,0,0,1200,0,6.283185 C,0,211207,,119,214,244
Sprite,Background,Centre,"sb/pixel.png",0,0 M,0,211251,213251,641,520,641,-40 F,0,211251,213251,1 F,0,107266,114325,0.8 L,211251,4 V,0,0,1200,4,4,4,-4 R,0,0,1200,0,6.283185 C,0,211251,,86,191,237
Sprite,Background,Centre,"sb/pixel.png",0,0 M,0,211295,213295,-2,520,-2,-40 F,0,211295,213295,1 F,0,107266,114325,0.8 L,211295,4 V,0,0,1200,4,4,4,-4 R,0,0,1200,0,6.283185 C,0,211295,,119,214,244
Sprite,Background,Centre,"sb/pixel.png",0,0 M,0,211339,213339,659,520,659,-40 F,0,211339,213339,1 F,0,107266,114325,0.8 L,211339,4 V,0,0,1200,4,4,4,-4 R,0,0,1200,0,6.283185 C,0,211339,,86,191,237
Sprite,Background,Centre,"sb/pixel.png",0,0 M,0,211383,213383,348,520,348,-40 F,0,211383,213383,1 F,0,107266,114325,0.8 L,211383,4 V,0,0,1200,4,4,4,-4 R,0,0,1200,0,6.283185 C,0,211383,,119,214,244
Sprite,Background,Centre,"sb/pixel.png",0,0 M,0,211427,213427,281,520,281,-40 F,0,211427,213427,1 F,0,107266,114325,0.8 L,211427,4 V,0,0,1200,4,4,4,-4 R,0,0,1200,0,6.283185 C,0,211427,,86,191,237
Sprite,Background,Centre,"sb/pixel.png",0,0 M,0,211471,213471,7,520,7,-40 F,0,211471,213471,1 F,0,107266,114325,0.8 L,211471,4 V,0,0,1200,4,4,4,-4 R,0,0,1200,0,6.283185 C,0,211471,,119,214,244
Sprite,Background,Centre,"sb/pixel.png",0,0 M,0,211515,213515,284,520,284,-40 F,0,211515,213515,1 F,0,107266,114325,0.8 L,211515,4 V,0,0,1200,4,4,4,-4 R,0,0,1200,0,6.283185 C,0,211515,,119,214,244
Sprite,Background,Centre,"sb/pixel.png",0,0 M,0,211560,213560,274,520,274,-40 F,0,211560,213560,1 F,0,107266,114325,0.8 L,211560,4 V,0,0,1200,4,4,4,-4 R,0,0,1200,0,6.283185 C,0,211560,,119,214,244
Sprite,Background,Centre,"sb/pixel.png",0,0 M,0,211604,213604,290,520,290,-40 F,0,211604,213604,1 F,0,107266,114325,0.8 L,211604,4 V,0,0,1200,4,4,4,-4 R,0,0,1200,0,6.283185 C,0,211604,,86,191,237
Sprite,Background,Centre,"sb/pixel.png",0,0 M,0,211648,213648,463,520,463,-40 F,0,211648,213648,1 F,0,107266,114325,0.8 L,211648,4 V,0,0,1200,4,4,4,-4 R,0,0,1200,0,6.283185 C,0,211648,,119,214,244
Sprite,Background,Centre,"sb/pixel.png",0,0 M,0,211692,213692,183,520,183,-40 F,0,211692,213692,1 F,0,107266,114325,0.8 L,211692,4 V,0,0,1200,4,4,4,-4 R,0,0,1200,0,6.283185 C,0,211692,,86,191,237
Sprite,Background,Centre,"sb/pixel.png",0,0 M,0,211736,213736,477,520,477,-40 F,0,211736,213736,1 F,0,107266,114325,0.8 L,211736,4 V,0,0,1200,4,4,4,-4 R,0,0,1200,0,6.283185 C,0,211736,,119,214,244
Sprite,Background,Centre,"sb/pixel.png",0,0 M,0,211780,213780,-18,520,-18,-40 F,0,211780,213780,1 F,0,107266,114325,0.8 L,211780,4 V,0,0,1200,4,4,4,-4 R,0,0,1200,0,6.283185 C,0,211780,,119,214,244
Sprite,Background,Centre,"sb/pixel.png",0,0 M,0,211824,213824,456,520,456,-40 F,0,211824,213824,1 F,0,107266,114325,0.8 L,211824,4 V,0,0,1200,4,4,4,-4 R,0,0,1200,0,6.283185 C,0,211824,,86,191,237
Sprite,Background,Centre,"sb/pixel.png",0,0 M,0,211868,213868,430,520,430,-40 F,0,211868,213868,1 F,0,107266,114325,0.8 L,211868,4 V,0,0,1200,4,4,4,-4 R,0,0,1200,0,6.283185 C,0,211868,,119,214,244
Sprite,Background,Centre,"sb/pixel.png",0,0 M,0,211913,213913,37,520,37,-40 F,0,211913,213913,1 F,0,107266,114325,0.8 L,211913,4 V,0,0,1200,4,4,4,-4 R,0,0,1200,0,6.283185 C,0,211913,,119,214,244
Sprite,Background,Centre,"sb/pixel.png",0,0 M,0,211957,213957,664,520,664,-40 F,0,211957,213957,1 F,0,107266,114325,0.8 L,211957,4 V,0,0,1200,4,4,4,-4 R,0,0,1200,0,6.283185 C,0,211957,,119,214,244
Sprite,Background,Centre,"sb/pixel.png",0,0 M,0,212001,214001,-98,520,-98,-40 F,0,212001,214001,1 F,0,107266,114325,0.8 L,212001,4 V,0,0,1200,4,4,4,-4 R,0,0,1200,0,6.283185 C,0,212001,,119,214,244
Sprite,Background,Centre,"sb/pixel.png",0,0 M,0,212045,214045,733,520,733,-40 F,0,212045,214045,1 F,0,107266,114325,0.8 L,212045,4 V,0,0,1200,4,4,4,-4 R,0,0,1200,0,6.283185 C,0,212045,,119,214,244
Sprite,Background,Centre,"sb/pixel.png",0,0 M,0,212089,214089,437,520,437,-40 F,0,212089,214089,1 F,0,107266,114325,0.8 L,212089,4 V,0,0,1200,4,4,4,-4 R,0,0,1200,0,6.283185 C,0,212089,,119,214,244
Sprite,Background,Centre,"sb/pixel.png",0,0 M,0,212133,214133,740,520,740,-40 F,0,212133,214133,1 F,0,107266,114325,0.8 L,212133,4 V,0,0,1200,4,4,4,-4 R,0,0,1200,0,6.283185 C,0,212133,,119,214,244
Sprite,Background,Centre,"sb/pixel.png",0,0 M,0,212177,214177,502,520,502,-40 F,0,212177,214177,1 F,0,107266,114325,0.8 L,212177,4 V,0,0,1200,4,4,4,-4 R,0,0,1200,0,6.283185 C,0,212177,,86,191,237
Sprite,Background,Centre,"sb/pixel.png",0,0 M,0,212221,214221,128,520,128,-40 F,0,212221,214221,1 F,0,107266,114325,0.8 L,212221,4 V,0,0,1200,4,4,4,-4 R,0,0,1200,0,6.283185 C,0,212221,,119,214,244
Sprite,Background,Centre,"sb/pixel.png",0,0 M,0,212265,214265,-25,520,-25,-40 F,0,212265,214265,1 F,0,107266,114325,0.8 L,212265,4 V,0,0,1200,4,4,4,-4 R,0,0,1200,0,6.283185 C,0,212265,,119,214,244
Sprite,Background,Centre,"sb/pixel.png",0,0 M,0,212310,214310,382,520,382,-40 F,0,212310,214310,1 F,0,107266,114325,0.8 L,212310,4 V,0,0,1200,4,4,4,-4 R,0,0,1200,0,6.283185 C,0,212310,,86,191,237
Sprite,Background,Centre,"sb/pixel.png",0,0 M,0,212354,214354,470,520,470,-40 F,0,212354,214354,1 F,0,107266,114325,0.8 L,212354,4 V,0,0,1200,4,4,4,-4 R,0,0,1200,0,6.283185 C,0,212354,,119,214,244
Sprite,Background,Centre,"sb/pixel.png",0,0 M,0,212398,214398,25,520,25,-40 F,0,212398,214398,1 F,0,107266,114325,0.8 L,212398,4 V,0,0,1200,4,4,4,-4 R,0,0,1200,0,6.283185 C,0,212398,,119,214,244
Sprite,Background,Centre,"sb/pixel.png",0,0 M,0,212442,214442,684,520,684,-40 F,0,212442,214442,1 F,0,107266,114325,0.8 L,212442,4 V,0,0,1200,4,4,4,-4 R,0,0,1200,0,6.283185 C,0,212442,,86,191,237
Sprite,Background,Centre,"sb/pixel.png",0,0 M,0,212486,214486,156,520,156,-40 F,0,212486,214486,1 F,0,107266,114325,0.8 L,212486,4 V,0,0,1200,4,4,4,-4 R,0,0,1200,0,6.283185 C,0,212486,,86,191,237
Sprite,Background,Centre,"sb/pixel.png",0,0 M,0,212530,214530,664,520,664,-40 F,0,212530,214530,1 F,0,107266,114325,0.8 L,212530,4 V,0,0,1200,4,4,4,-4 R,0,0,1200,0,6.283185 C,0,212530,,119,214,244
Sprite,Background,Centre,"sb/pixel.png",0,0 M,0,212574,214574,48,520,48,-40 F,0,212574,214574,1 F,0,107266,114325,0.8 L,212574,4 V,0,0,1200,4,4,4,-4 R,0,0,1200,0,6.283185 C,0,212574,,86,191,237
Sprite,Background,Centre,"sb/pixel.png",0,0 M,0,212618,214618,484,520,484,-40 F,0,212618,214618,1 F,0,107266,114325,0.8 L,212618,4 V,0,0,1200,4,4,4,-4 R,0,0,1200,0,6.283185 C,0,212618,,119,214,244
Sprite,Background,Centre,"sb/pixel.png",0,0 M,0,212663,214663,428,520,428,-40 F,0,212663,214663,1 F,0,107266,114325,0.8 L,212663,4 V,0,0,1200,4,4,4,-4 R,0,0,1200,0,6.283185 C,0,212663,,86,191,237
Sprite,Background,Centre,"sb/pixel.png",0,0 M,0,212707,214707,14,520,14,-40 F,0,212707,214707,1 F,0,107266,114325,0.8 L,212707,4 V,0,0,1200,4,4,4,-4 R,0,0,1200,0,6.283185 C,0,212707,,86,191,237
Sprite,Background,Centre,"sb/pixel.png",0,0 M,0,212751,214751,107,520,107,-40 F,0,212751,214751,1 F,0,107266,114325,0.8 L,212751,4 V,0,0,1200,4,4,4,-4 R,0,0,1200,0,6.283185 C,0,212751,,119,214,244
Sprite,Background,Centre,"sb/pixel.png",0,0 M,0,212795,214795,298,520,298,-40 F,0,212795,214795,1 F,0,107266,114325,0.8 L,212795,4 V,0,0,1200,4,4,4,-4 R,0,0,1200,0,6.283185 C,0,212795,,119,214,244
Sprite,Background,Centre,"sb/pixel.png",0,0 M,0,212839,214839,-106,520,-106,-40 F,0,212839,214839,1 F,0,107266,114325,0.8 L,212839,4 V,0,0,1200,4,4,4,-4 R,0,0,1200,0,6.283185 C,0,212839,,119,214,244
Sprite,Background,Centre,"sb/pixel.png",0,0 M,0,212883,214883,-84,520,-84,-40 F,0,212883,214883,1 F,0,107266,114325,0.8 L,212883,4 V,0,0,1200,4,4,4,-4 R,0,0,1200,0,6.283185 C,0,212883,,119,214,244
Sprite,Background,Centre,"sb/pixel.png",0,0 M,0,212927,214927,114,520,114,-40 F,0,212927,214927,1 F,0,107266,114325,0.8 L,212927,4 V,0,0,1200,4,4,4,-4 R,0,0,1200,0,6.283185 C,0,212927,,86,191,237
Sprite,Background,Centre,"sb/pixel.png",0,0 M,0,212971,214971,630,520,630,-40 F,0,212971,214971,1 F,0,107266,114325,0.8 L,212971,4 V,0,0,1200,4,4,4,-4 R,0,0,1200,0,6.283185 C,0,212971,,86,191,237
Sprite,Background,Centre,"sb/pixel.png",0,0 M,0,213015,215015,163,520,163,-40 F,0,213015,215015,1 F,0,107266,114325,0.8 L,213015,4 V,0,0,1200,4,4,4,-4 R,0,0,1200,0,6.283185 C,0,213015,,119,214,244
Sprite,Background,Centre,"sb/pixel.png",0,0 M,0,213060,215060,250,520,250,-40 F,0,213060,215060,1 F,0,107266,114325,0.8 L,213060,4 V,0,0,1200,4,4,4,-4 R,0,0,1200,0,6.283185 C,0,213060,,119,214,244
Sprite,Background,Centre,"sb/pixel.png",0,0 M,0,213104,215104,426,520,426,-40 F,0,213104,215104,1 F,0,107266,114325,0.8 L,213104,4 V,0,0,1200,4,4,4,-4 R,0,0,1200,0,6.283185 C,0,213104,,119,214,244
Sprite,Background,Centre,"sb/pixel.png",0,0 M,0,213148,215148,-13,520,-13,-40 F,0,213148,215148,1 F,0,107266,114325,0.8 L,213148,4 V,0,0,1200,4,4,4,-4 R,0,0,1200,0,6.283185 C,0,213148,,86,191,237
Sprite,Background,Centre,"sb/pixel.png",0,0 M,0,213192,215192,372,520,372,-40 F,0,213192,215192,1 F,0,107266,114325,0.8 L,213192,4 V,0,0,1200,4,4,4,-4 R,0,0,1200,0,6.283185 C,0,213192,,119,214,244
Sprite,Background,Centre,"sb/pixel.png",0,0 M,0,213236,215236,633,520,633,-40 F,0,213236,215236,1 F,0,107266,114325,0.8 L,213236,4 V,0,0,1200,4,4,4,-4 R,0,0,1200,0,6.283185 C,0,213236,,86,191,237
Sprite,Background,Centre,"sb/pixel.png",0,0 M,0,213280,215280,165,520,165,-40 F,0,213280,215280,1 F,0,107266,114325,0.8 L,213280,4 V,0,0,1200,4,4,4,-4 R,0,0,1200,0,6.283185 C,0,213280,,119,214,244
Sprite,Background,Centre,"sb/pixel.png",0,0 M,0,213324,215324,72,520,72,-40 F,0,213324,215324,1 F,0,107266,114325,0.8 L,213324,4 V,0,0,1200,4,4,4,-4 R,0,0,1200,0,6.283185 C,0,213324,,119,214,244
Sprite,Background,Centre,"sb/pixel.png",0,0 M,0,213368,215368,252,520,252,-40 F,0,213368,215368,1 F,0,107266,114325,0.8 L,213368,4 V,0,0,1200,4,4,4,-4 R,0,0,1200,0,6.283185 C,0,213368,,86,191,237
Sprite,Background,Centre,"sb/pixel.png",0,0 M,0,213413,215413,145,520,145,-40 F,0,213413,215413,1 F,0,107266,114325,0.8 L,213413,4 V,0,0,1200,4,4,4,-4 R,0,0,1200,0,6.283185 C,0,213413,,119,214,244
Sprite,Background,Centre,"sb/pixel.png",0,0 M,0,213457,215457,132,520,132,-40 F,0,213457,215457,1 F,0,107266,114325,0.8 L,213457,4 V,0,0,1200,4,4,4,-4 R,0,0,1200,0,6.283185 C,0,213457,,119,214,244
Sprite,Background,Centre,"sb/pixel.png",0,0 M,0,213501,215501,690,520,690,-40 F,0,213501,215501,1 F,0,107266,114325,0.8 L,213501,4 V,0,0,1200,4,4,4,-4 R,0,0,1200,0,6.283185 C,0,213501,,119,214,244
Sprite,Background,Centre,"sb/pixel.png",0,0 M,0,213545,215545,-70,520,-70,-40 F,0,213545,215545,1 F,0,107266,114325,0.8 L,213545,4 V,0,0,1200,4,4,4,-4 R,0,0,1200,0,6.283185 C,0,213545,,119,214,244
Sprite,Background,Centre,"sb/pixel.png",0,0 M,0,213589,215589,7,520,7,-40 F,0,213589,215589,1 F,0,107266,114325,0.8 L,213589,4 V,0,0,1200,4,4,4,-4 R,0,0,1200,0,6.283185 C,0,213589,,86,191,237
Sprite,Background,Centre,"sb/pixel.png",0,0 M,0,213633,215633,155,520,155,-40 F,0,213633,215633,1 F,0,107266,114325,0.8 L,213633,4 V,0,0,1200,4,4,4,-4 R,0,0,1200,0,6.283185 C,0,213633,,86,191,237
Sprite,Background,Centre,"sb/pixel.png",0,0 M,0,213677,215677,443,520,443,-40 F,0,213677,215677,1 F,0,107266,114325,0.8 L,213677,4 V,0,0,1200,4,4,4,-4 R,0,0,1200,0,6.283185 C,0,213677,,86,191,237
Sprite,Background,Centre,"sb/pixel.png",0,0 M,0,213721,215721,-4,520,-4,-40 F,0,213721,215721,1 F,0,107266,114325,0.8 L,213721,4 V,0,0,1200,4,4,4,-4 R,0,0,1200,0,6.283185 C,0,213721,,119,214,244
Sprite,Background,Centre,"sb/pixel.png",0,0 M,0,213765,215765,34,520,34,-40 F,0,213765,215765,1 F,0,107266,114325,0.8 L,213765,4 V,0,0,1200,4,4,4,-4 R,0,0,1200,0,6.283185 C,0,213765,,86,191,237
Sprite,Background,Centre,"sb/pixel.png",0,0 M,0,213810,215810,-3,520,-3,-40 F,0,213810,215810,1 F,0,107266,114325,0.8 L,213810,4 V,0,0,1200,4,4,4,-4 R,0,0,1200,0,6.283185 C,0,213810,,86,191,237
Sprite,Background,Centre,"sb/pixel.png",0,0 M,0,213854,215854,344,520,344,-40 F,0,213854,215854,1 F,0,107266,114325,0.8 L,213854,4 V,0,0,1200,4,4,4,-4 R,0,0,1200,0,6.283185 C,0,213854,,86,191,237
Sprite,Background,Centre,"sb/pixel.png",0,0 M,0,213898,215898,541,520,541,-40 F,0,213898,215898,1 F,0,107266,114325,0.8 L,213898,4 V,0,0,1200,4,4,4,-4 R,0,0,1200,0,6.283185 C,0,213898,,86,191,237
Sprite,Background,Centre,"sb/pixel.png",0,0 M,0,213942,215942,242,520,242,-40 F,0,213942,215942,1 F,0,107266,114325,0.8 L,213942,4 V,0,0,1200,4,4,4,-4 R,0,0,1200,0,6.283185 C,0,213942,,119,214,244
Sprite,Background,Centre,"sb/pixel.png",0,0 M,0,213986,215986,237,520,237,-40 F,0,213986,215986,1 F,0,107266,114325,0.8 L,213986,4 V,0,0,1200,4,4,4,-4 R,0,0,1200,0,6.283185 C,0,213986,,119,214,244
Sprite,Background,Centre,"sb/pixel.png",0,0 M,0,214030,216030,682,520,682,-40 F,0,214030,216030,1 F,0,107266,114325,0.8 L,214030,4 V,0,0,1200,4,4,4,-4 R,0,0,1200,0,6.283185 C,0,214030,,86,191,237
Sprite,Background,Centre,"sb/pixel.png",0,0 M,0,214074,216074,-52,520,-52,-40 F,0,214074,216074,1 F,0,107266,114325,0.8 L,214074,4 V,0,0,1200,4,4,4,-4 R,0,0,1200,0,6.283185 C,0,214074,,86,191,237
Sprite,Background,Centre,"sb/pixel.png",0,0 M,0,214118,216118,580,520,580,-40 F,0,214118,216118,1 F,0,107266,114325,0.8 L,214118,4 V,0,0,1200,4,4,4,-4 R,0,0,1200,0,6.283185 C,0,214118,,86,191,237
Sprite,Background,Centre,"sb/pixel.png",0,0 M,0,214163,216163,291,520,291,-40 F,0,214163,216163,1 F,0,107266,114325,0.8 L,214163,4 V,0,0,1200,4,4,4,-4 R,0,0,1200,0,6.283185 C,0,214163,,119,214,244
Sprite,Background,Centre,"sb/pixel.png",0,0 M,0,214207,216207,236,520,236,-40 F,0,214207,216207,1 F,0,107266,114325,0.8 L,214207,4 V,0,0,1200,4,4,4,-4 R,0,0,1200,0,6.283185 C,0,214207,,119,214,244
Sprite,Background,Centre,"sb/pixel.png",0,0 M,0,214251,216251,355,520,355,-40 F,0,214251,216251,1 F,0,107266,114325,0.8 L,214251,4 V,0,0,1200,4,4,4,-4 R,0,0,1200,0,6.283185 C,0,214251,,119,214,244
Sprite,Background,Centre,"sb/pixel.png",0,0 M,0,214295,216295,-50,520,-50,-40 F,0,214295,216295,1 F,0,107266,114325,0.8 L,214295,4 V,0,0,1200,4,4,4,-4 R,0,0,1200,0,6.283185 C,0,214295,,119,214,244
Sprite,Background,Centre,"sb/pixel.png",0,0 M,0,214339,216339,660,520,660,-40 F,0,214339,216339,1 F,0,107266,114325,0.8 L,214339,4 V,0,0,1200,4,4,4,-4 R,0,0,1200,0,6.283185 C,0,214339,,119,214,244
Sprite,Background,Centre,"sb/pixel.png",0,0 M,0,214383,216383,116,520,116,-40 F,0,214383,216383,1 F,0,107266,114325,0.8 L,214383,4 V,0,0,1200,4,4,4,-4 R,0,0,1200,0,6.283185 C,0,214383,,86,191,237
Sprite,Background,Centre,"sb/pixel.png",0,0 M,0,214427,216427,287,520,287,-40 F,0,214427,216427,1 F,0,107266,114325,0.8 L,214427,4 V,0,0,1200,4,4,4,-4 R,0,0,1200,0,6.283185 C,0,214427,,119,214,244
Sprite,Background,Centre,"sb/pixel.png",0,0 M,0,214471,216471,642,520,642,-40 F,0,214471,216471,1 F,0,107266,114325,0.8 L,214471,4 V,0,0,1200,4,4,4,-4 R,0,0,1200,0,6.283185 C,0,214471,,119,214,244
Sprite,Background,Centre,"sb/pixel.png",0,0 M,0,214515,216515,737,520,737,-40 F,0,214515,216515,1 F,0,107266,114325,0.8 L,214515,4 V,0,0,1200,4,4,4,-4 R,0,0,1200,0,6.283185 C,0,214515,,119,214,244
Sprite,Background,Centre,"sb/pixel.png",0,0 M,0,221619,223619,174,520,174,-40 F,0,221619,223619,1 F,0,107266,114325,0.8 L,221619,4 V,0,0,1200,4,4,4,-4 R,0,0,1200,0,6.283185 C,0,221619,,86,191,237
Sprite,Background,Centre,"sb/pixel.png",0,0 M,0,221663,223663,-81,520,-81,-40 F,0,221663,223663,1 F,0,107266,114325,0.8 L,221663,4 V,0,0,1200,4,4,4,-4 R,0,0,1200,0,6.283185 C,0,221663,,86,191,237
Sprite,Background,Centre,"sb/pixel.png",0,0 M,0,221707,223707,445,520,445,-40 F,0,221707,223707,1 F,0,107266,114325,0.8 L,221707,4 V,0,0,1200,4,4,4,-4 R,0,0,1200,0,6.283185 C,0,221707,,86,191,237
Sprite,Background,Centre,"sb/pixel.png",0,0 M,0,221751,223751,504,520,504,-40 F,0,221751,223751,1 F,0,107266,114325,0.8 L,221751,4 V,0,0,1200,4,4,4,-4 R,0,0,1200,0,6.283185 C,0,221751,,86,191,237
Sprite,Background,Centre,"sb/pixel.png",0,0 M,0,221795,223795,661,520,661,-40 F,0,221795,223795,1 F,0,107266,114325,0.8 L,221795,4 V,0,0,1200,4,4,4,-4 R,0,0,1200,0,6.283185 C,0,221795,,86,191,237
Sprite,Background,Centre,"sb/pixel.png",0,0 M,0,221839,223839,327,520,327,-40 F,0,221839,223839,1 F,0,107266,114325,0.8 L,221839,4 V,0,0,1200,4,4,4,-4 R,0,0,1200,0,6.283185 C,0,221839,,119,214,244
Sprite,Background,Centre,"sb/pixel.png",0,0 M,0,221883,223883,588,520,588,-40 F,0,221883,223883,1 F,0,107266,114325,0.8 L,221883,4 V,0,0,1200,4,4,4,-4 R,0,0,1200,0,6.283185 C,0,221883,,86,191,237
Sprite,Background,Centre,"sb/pixel.png",0,0 M,0,221927,223927,657,520,657,-40 F,0,221927,223927,1 F,0,107266,114325,0.8 L,221927,4 V,0,0,1200,4,4,4,-4 R,0,0,1200,0,6.283185 C,0,221927,,86,191,237
Sprite,Background,Centre,"sb/pixel.png",0,0 M,0,221971,223971,-38,520,-38,-40 F,0,221971,223971,1 F,0,107266,114325,0.8 L,221971,4 V,0,0,1200,4,4,4,-4 R,0,0,1200,0,6.283185 C,0,221971,,86,191,237
Sprite,Background,Centre,"sb/pixel.png",0,0 M,0,222016,224016,593,520,593,-40 F,0,222016,224016,1 F,0,107266,114325,0.8 L,222016,4 V,0,0,1200,4,4,4,-4 R,0,0,1200,0,6.283185 C,0,222016,,86,191,237
Sprite,Background,Centre,"sb/pixel.png",0,0 M,0,222060,224060,34,520,34,-40 F,0,222060,224060,1 F,0,107266,114325,0.8 L,222060,4 V,0,0,1200,4,4,4,-4 R,0,0,1200,0,6.283185 C,0,222060,,119,214,244
Sprite,Background,Centre,"sb/pixel.png",0,0 M,0,222104,224104,331,520,331,-40 F,0,222104,224104,1 F,0,107266,114325,0.8 L,222104,4 V,0,0,1200,4,4,4,-4 R,0,0,1200,0,6.283185 C,0,222104,,119,214,244
Sprite,Background,Centre,"sb/pixel.png",0,0 M,0,222148,224148,486,520,486,-40 F,0,222148,224148,1 F,0,107266,114325,0.8 L,222148,4 V,0,0,1200,4,4,4,-4 R,0,0,1200,0,6.283185 C,0,222148,,86,191,237
Sprite,Background,Centre,"sb/pixel.png",0,0 M,0,222192,224192,159,520,159,-40 F,0,222192,224192,1 F,0,107266,114325,0.8 L,222192,4 V,0,0,1200,4,4,4,-4 R,0,0,1200,0,6.283185 C,0,222192,,86,191,237
Sprite,Background,Centre,"sb/pixel.png",0,0 M,0,222236,224236,475,520,475,-40 F,0,222236,224236,1 F,0,107266,114325,0.8 L,222236,4 V,0,0,1200,4,4,4,-4 R,0,0,1200,0,6.283185 C,0,222236,,119,214,244
Sprite,Background,Centre,"sb/pixel.png",0,0 M,0,222280,224280,402,520,402,-40 F,0,222280,224280,1 F,0,107266,114325,0.8 L,222280,4 V,0,0,1200,4,4,4,-4 R,0,0,1200,0,6.283185 C,0,222280,,86,191,237
Sprite,Background,Centre,"sb/pixel.png",0,0 M,0,222324,224324,625,520,625,-40 F,0,222324,224324,1 F,0,107266,114325,0.8 L,222324,4 V,0,0,1200,4,4,4,-4 R,0,0,1200,0,6.283185 C,0,222324,,86,191,237
Sprite,Background,Centre,"sb/pixel.png",0,0 M,0,222369,224369,103,520,103,-40 F,0,222369,224369,1 F,0,107266,114325,0.8 L,222369,4 V,0,0,1200,4,4,4,-4 R,0,0,1200,0,6.283185 C,0,222369,,86,191,237
Sprite,Background,Centre,"sb/pixel.png",0,0 M,0,222413,224413,463,520,463,-40 F,0,222413,224413,1 F,0,107266,114325,0.8 L,222413,4 V,0,0,1200,4,4,4,-4 R,0,0,1200,0,6.283185 C,0,222413,,86,191,237
Sprite,Background,Centre,"sb/pixel.png",0,0 M,0,222457,224457,585,520,585,-40 F,0,222457,224457,1 F,0,107266,114325,0.8 L,222457,4 V,0,0,1200,4,4,4,-4 R,0,0,1200,0,6.283185 C,0,222457,,86,191,237
Sprite,Background,Centre,"sb/pixel.png",0,0 M,0,222501,224501,298,520,298,-40 F,0,222501,224501,1 F,0,107266,114325,0.8 L,222501,4 V,0,0,1200,4,4,4,-4 R,0,0,1200,0,6.283185 C,0,222501,,86,191,237
Sprite,Background,Centre,"sb/pixel.png",0,0 M,0,222545,224545,77,520,77,-40 F,0,222545,224545,1 F,0,107266,114325,0.8 L,222545,4 V,0,0,1200,4,4,4,-4 R,0,0,1200,0,6.283185 C,0,222545,,119,214,244
Sprite,Background,Centre,"sb/pixel.png",0,0 M,0,222589,224589,475,520,475,-40 F,0,222589,224589,1 F,0,107266,114325,0.8 L,222589,4 V,0,0,1200,4,4,4,-4 R,0,0,1200,0,6.283185 C,0,222589,,86,191,237
Sprite,Background,Centre,"sb/pixel.png",0,0 M,0,222633,224633,247,520,247,-40 F,0,222633,224633,1 F,0,107266,114325,0.8 L,222633,4 V,0,0,1200,4,4,4,-4 R,0,0,1200,0,6.283185 C,0,222633,,86,191,237
Sprite,Background,Centre,"sb/pixel.png",0,0 M,0,222677,224677,717,520,717,-40 F,0,222677,224677,1 F,0,107266,114325,0.8 L,222677,4 V,0,0,1200,4,4,4,-4 R,0,0,1200,0,6.283185 C,0,222677,,86,191,237
Sprite,Background,Centre,"sb/pixel.png",0,0 M,0,222721,224721,96,520,96,-40 F,0,222721,224721,1 F,0,107266,114325,0.8 L,222721,4 V,0,0,1200,4,4,4,-4 R,0,0,1200,0,6.283185 C,0,222721,,119,214,244
Sprite,Background,Centre,"sb/pixel.png",0,0 M,0,222766,224766,129,520,129,-40 F,0,222766,224766,1 F,0,107266,114325,0.8 L,222766,4 V,0,0,1200,4,4,4,-4 R,0,0,1200,0,6.283185 C,0,222766,,119,214,244
Sprite,Background,Centre,"sb/pixel.png",0,0 M,0,222810,224810,181,520,181,-40 F,0,222810,224810,1 F,0,107266,114325,0.8 L,222810,4 V,0,0,1200,4,4,4,-4 R,0,0,1200,0,6.283185 C,0,222810,,119,214,244
Sprite,Background,Centre,"sb/pixel.png",0,0 M,0,222854,224854,171,520,171,-40 F,0,222854,224854,1 F,0,107266,114325,0.8 L,222854,4 V,0,0,1200,4,4,4,-4 R,0,0,1200,0,6.283185 C,0,222854,,86,191,237
Sprite,Background,Centre,"sb/pixel.png",0,0 M,0,222898,224898,-102,520,-102,-40 F,0,222898,224898,1 F,0,107266,114325,0.8 L,222898,4 V,0,0,1200,4,4,4,-4 R,0,0,1200,0,6.283185 C,0,222898,,119,214,244
Sprite,Background,Centre,"sb/pixel.png",0,0 M,0,222942,224942,229,520,229,-40 F,0,222942,224942,1 F,0,107266,114325,0.8 L,222942,4 V,0,0,1200,4,4,4,-4 R,0,0,1200,0,6.283185 C,0,222942,,119,214,244
Sprite,Background,Centre,"sb/pixel.png",0,0 M,0,222986,224986,-16,520,-16,-40 F,0,222986,224986,1 F,0,107266,114325,0.8 L,222986,4 V,0,0,1200,4,4,4,-4 R,0,0,1200,0,6.283185 C,0,222986,,86,191,237
Sprite,Background,Centre,"sb/pixel.png",0,0 M,0,223030,225030,723,520,723,-40 F,0,223030,225030,1 F,0,107266,114325,0.8 L,223030,4 V,0,0,1200,4,4,4,-4 R,0,0,1200,0,6.283185 C,0,223030,,86,191,237
Sprite,Background,Centre,"sb/pixel.png",0,0 M,0,223074,225074,258,520,258,-40 F,0,223074,225074,1 F,0,107266,114325,0.8 L,223074,4 V,0,0,1200,4,4,4,-4 R,0,0,1200,0,6.283185 C,0,223074,,119,214,244
Sprite,Background,Centre,"sb/pixel.png",0,0 M,0,223119,225119,307,520,307,-40 F,0,223119,225119,1 F,0,107266,114325,0.8 L,223119,4 V,0,0,1200,4,4,4,-4 R,0,0,1200,0,6.283185 C,0,223119,,86,191,237
Sprite,Background,Centre,"sb/pixel.png",0,0 M,0,223163,225163,130,520,130,-40 F,0,223163,225163,1 F,0,107266,114325,0.8 L,223163,4 V,0,0,1200,4,4,4,-4 R,0,0,1200,0,6.283185 C,0,223163,,119,214,244
Sprite,Background,Centre,"sb/pixel.png",0,0 M,0,223207,225207,621,520,621,-40 F,0,223207,225207,1 F,0,107266,114325,0.8 L,223207,4 V,0,0,1200,4,4,4,-4 R,0,0,1200,0,6.283185 C,0,223207,,119,214,244
Sprite,Background,Centre,"sb/pixel.png",0,0 M,0,223251,225251,319,520,319,-40 F,0,223251,225251,1 F,0,107266,114325,0.8 L,223251,4 V,0,0,1200,4,4,4,-4 R,0,0,1200,0,6.283185 C,0,223251,,119,214,244
Sprite,Background,Centre,"sb/pixel.png",0,0 M,0,223295,225295,568,520,568,-40 F,0,223295,225295,1 F,0,107266,114325,0.8 L,223295,4 V,0,0,1200,4,4,4,-4 R,0,0,1200,0,6.283185 C,0,223295,,119,214,244
Sprite,Background,Centre,"sb/pixel.png",0,0 M,0,223339,225339,452,520,452,-40 F,0,223339,225339,1 F,0,107266,114325,0.8 L,223339,4 V,0,0,1200,4,4,4,-4 R,0,0,1200,0,6.283185 C,0,223339,,119,214,244
Sprite,Background,Centre,"sb/pixel.png",0,0 M,0,223383,225383,-11,520,-11,-40 F,0,223383,225383,1 F,0,107266,114325,0.8 L,223383,4 V,0,0,1200,4,4,4,-4 R,0,0,1200,0,6.283185 C,0,223383,,86,191,237
Sprite,Background,Centre,"sb/pixel.png",0,0 M,0,223427,225427,390,520,390,-40 F,0,223427,225427,1 F,0,107266,114325,0.8 L,223427,4 V,0,0,1200,4,4,4,-4 R,0,0,1200,0,6.283185 C,0,223427,,119,214,244
Sprite,Background,Centre,"sb/pixel.png",0,0 M,0,223471,225471,614,520,614,-40 F,0,223471,225471,1 F,0,107266,114325,0.8 L,223471,4 V,0,0,1200,4,4,4,-4 R,0,0,1200,0,6.283185 C,0,223471,,119,214,244
Sprite,Background,Centre,"sb/pixel.png",0,0 M,0,223516,225516,362,520,362,-40 F,0,223516,225516,1 F,0,107266,114325,0.8 L,223516,4 V,0,0,1200,4,4,4,-4 R,0,0,1200,0,6.283185 C,0,223516,,86,191,237
Sprite,Background,Centre,"sb/pixel.png",0,0 M,0,223560,225560,84,520,84,-40 F,0,223560,225560,1 F,0,107266,114325,0.8 L,223560,4 V,0,0,1200,4,4,4,-4 R,0,0,1200,0,6.283185 C,0,223560,,86,191,237
Sprite,Background,Centre,"sb/pixel.png",0,0 M,0,223604,225604,438,520,438,-40 F,0,223604,225604,1 F,0,107266,114325,0.8 L,223604,4 V,0,0,1200,4,4,4,-4 R,0,0,1200,0,6.283185 C,0,223604,,86,191,237
Sprite,Background,Centre,"sb/pixel.png",0,0 M,0,223648,225648,541,520,541,-40 F,0,223648,225648,1 F,0,107266,114325,0.8 L,223648,4 V,0,0,1200,4,4,4,-4 R,0,0,1200,0,6.283185 C,0,223648,,86,191,237
Sprite,Background,Centre,"sb/pixel.png",0,0 M,0,223692,225692,150,520,150,-40 F,0,223692,225692,1 F,0,107266,114325,0.8 L,223692,4 V,0,0,1200,4,4,4,-4 R,0,0,1200,0,6.283185 C,0,223692,,119,214,244
Sprite,Background,Centre,"sb/pixel.png",0,0 M,0,223736,225736,442,520,442,-40 F,0,223736,225736,1 F,0,107266,114325,0.8 L,223736,4 V,0,0,1200,4,4,4,-4 R,0,0,1200,0,6.283185 C,0,223736,,119,214,244
Sprite,Background,Centre,"sb/pixel.png",0,0 M,0,223780,225780,342,520,342,-40 F,0,223780,225780,1 F,0,107266,114325,0.8 L,223780,4 V,0,0,1200,4,4,4,-4 R,0,0,1200,0,6.283185 C,0,223780,,119,214,244
Sprite,Background,Centre,"sb/pixel.png",0,0 M,0,223824,225824,50,520,50,-40 F,0,223824,225824,1 F,0,107266,114325,0.8 L,223824,4 V,0,0,1200,4,4,4,-4 R,0,0,1200,0,6.283185 C,0,223824,,119,214,244
Sprite,Background,Centre,"sb/pixel.png",0,0 M,0,223869,225869,-71,520,-71,-40 F,0,223869,225869,1 F,0,107266,114325,0.8 L,223869,4 V,0,0,1200,4,4,4,-4 R,0,0,1200,0,6.283185 C,0,223869,,119,214,244
Sprite,Background,Centre,"sb/pixel.png",0,0 M,0,223913,225913,96,520,96,-40 F,0,223913,225913,1 F,0,107266,114325,0.8 L,223913,4 V,0,0,1200,4,4,4,-4 R,0,0,1200,0,6.283185 C,0,223913,,86,191,237
Sprite,Background,Centre,"sb/pixel.png",0,0 M,0,223957,225957,201,520,201,-40 F,0,223957,225957,1 F,0,107266,114325,0.8 L,223957,4 V,0,0,1200,4,4,4,-4 R,0,0,1200,0,6.283185 C,0,223957,,119,214,244
Sprite,Background,Centre,"sb/pixel.png",0,0 M,0,224001,226001,332,520,332,-40 F,0,224001,226001,1 F,0,107266,114325,0.8 L,224001,4 V,0,0,1200,4,4,4,-4 R,0,0,1200,0,6.283185 C,0,224001,,86,191,237
Sprite,Background,Centre,"sb/pixel.png",0,0 M,0,224045,226045,347,520,347,-40 F,0,224045,226045,1 F,0,107266,114325,0.8 L,224045,4 V,0,0,1200,4,4,4,-4 R,0,0,1200,0,6.283185 C,0,224045,,119,214,244
Sprite,Background,Centre,"sb/pixel.png",0,0 M,0,224089,226089,-75,520,-75,-40 F,0,224089,226089,1 F,0,107266,114325,0.8 L,224089,4 V,0,0,1200,4,4,4,-4 R,0,0,1200,0,6.283185 C,0,224089,,86,191,237
Sprite,Background,Centre,"sb/pixel.png",0,0 M,0,224133,226133,-103,520,-103,-40 F,0,224133,226133,1 F,0,107266,114325,0.8 L,224133,4 V,0,0,1200,4,4,4,-4 R,0,0,1200,0,6.283185 C,0,224133,,86,191,237
Sprite,Background,Centre,"sb/pixel.png",0,0 M,0,224177,226177,392,520,392,-40 F,0,224177,226177,1 F,0,107266,114325,0.8 L,224177,4 V,0,0,1200,4,4,4,-4 R,0,0,1200,0,6.283185 C,0,224177,,86,191,237
Sprite,Background,Centre,"sb/pixel.png",0,0 M,0,224221,226221,723,520,723,-40 F,0,224221,226221,1 F,0,107266,114325,0.8 L,224221,4 V,0,0,1200,4,4,4,-4 R,0,0,1200,0,6.283185 C,0,224221,,86,191,237
Sprite,Background,Centre,"sb/pixel.png",0,0 M,0,224266,226266,5,520,5,-40 F,0,224266,226266,1 F,0,107266,114325,0.8 L,224266,4 V,0,0,1200,4,4,4,-4 R,0,0,1200,0,6.283185 C,0,224266,,86,191,237
Sprite,Background,Centre,"sb/pixel.png",0,0 M,0,224310,226310,-83,520,-83,-40 F,0,224310,226310,1 F,0,107266,114325,0.8 L,224310,4 V,0,0,1200,4,4,4,-4 R,0,0,1200,0,6.283185 C,0,224310,,86,191,237
Sprite,Background,Centre,"sb/pixel.png",0,0 M,0,224354,226354,141,520,141,-40 F,0,224354,226354,1 F,0,107266,114325,0.8 L,224354,4 V,0,0,1200,4,4,4,-4 R,0,0,1200,0,6.283185 C,0,224354,,119,214,244
Sprite,Background,Centre,"sb/pixel.png",0,0 M,0,224398,226398,368,520,368,-40 F,0,224398,226398,1 F,0,107266,114325,0.8 L,224398,4 V,0,0,1200,4,4,4,-4 R,0,0,1200,0,6.283185 C,0,224398,,119,214,244
Sprite,Background,Centre,"sb/pixel.png",0,0 M,0,224442,226442,596,520,596,-40 F,0,224442,226442,1 F,0,107266,114325,0.8 L,224442,4 V,0,0,1200,4,4,4,-4 R,0,0,1200,0,6.283185 C,0,224442,,119,214,244
Sprite,Background,Centre,"sb/pixel.png",0,0 M,0,224486,226486,551,520,551,-40 F,0,224486,226486,1 F,0,107266,114325,0.8 L,224486,4 V,0,0,1200,4,4,4,-4 R,0,0,1200,0,6.283185 C,0,224486,,119,214,244
Sprite,Background,Centre,"sb/pixel.png",0,0 M,0,224530,226530,310,520,310,-40 F,0,224530,226530,1 F,0,107266,114325,0.8 L,224530,4 V,0,0,1200,4,4,4,-4 R,0,0,1200,0,6.283185 C,0,224530,,86,191,237
Sprite,Background,Centre,"sb/pixel.png",0,0 M,0,224574,226574,659,520,659,-40 F,0,224574,226574,1 F,0,107266,114325,0.8 L,224574,4 V,0,0,1200,4,4,4,-4 R,0,0,1200,0,6.283185 C,0,224574,,86,191,237
Sprite,Background,Centre,"sb/pixel.png",0,0 M,0,224619,226619,525,520,525,-40 F,0,224619,226619,1 F,0,107266,114325,0.8 L,224619,4 V,0,0,1200,4,4,4,-4 R,0,0,1200,0,6.283185 C,0,224619,,86,191,237
Sprite,Background,Centre,"sb/pixel.png",0,0 M,0,224663,226663,685,520,685,-40 F,0,224663,226663,1 F,0,107266,114325,0.8 L,224663,4 V,0,0,1200,4,4,4,-4 R,0,0,1200,0,6.283185 C,0,224663,,86,191,237
Sprite,Background,Centre,"sb/pixel.png",0,0 M,0,224707,226707,-89,520,-89,-40 F,0,224707,226707,1 F,0,107266,114325,0.8 L,224707,4 V,0,0,1200,4,4,4,-4 R,0,0,1200,0,6.283185 C,0,224707,,119,214,244
Sprite,Background,Centre,"sb/pixel.png",0,0 M,0,224751,226751,173,520,173,-40 F,0,224751,226751,1 F,0,107266,114325,0.8 L,224751,4 V,0,0,1200,4,4,4,-4 R,0,0,1200,0,6.283185 C,0,224751,,119,214,244
Sprite,Background,Centre,"sb/pixel.png",0,0 M,0,224795,226795,227,520,227,-40 F,0,224795,226795,1 F,0,107266,114325,0.8 L,224795,4 V,0,0,1200,4,4,4,-4 R,0,0,1200,0,6.283185 C,0,224795,,119,214,244
Sprite,Background,Centre,"sb/pixel.png",0,0 M,0,224839,226839,693,520,693,-40 F,0,224839,226839,1 F,0,107266,114325,0.8 L,224839,4 V,0,0,1200,4,4,4,-4 R,0,0,1200,0,6.283185 C,0,224839,,86,191,237
Sprite,Background,Centre,"sb/pixel.png",0,0 M,0,224883,226883,479,520,479,-40 F,0,224883,226883,1 F,0,107266,114325,0.8 L,224883,4 V,0,0,1200,4,4,4,-4 R,0,0,1200,0,6.283185 C,0,224883,,86,191,237
Sprite,Background,Centre,"sb/pixel.png",0,0 M,0,224927,226927,509,520,509,-40 F,0,224927,226927,1 F,0,107266,114325,0.8 L,224927,4 V,0,0,1200,4,4,4,-4 R,0,0,1200,0,6.283185 C,0,224927,,86,191,237
Sprite,Background,Centre,"sb/pixel.png",0,0 M,0,224971,226971,257,520,257,-40 F,0,224971,226971,1 F,0,107266,114325,0.8 L,224971,4 V,0,0,1200,4,4,4,-4 R,0,0,1200,0,6.283185 C,0,224971,,86,191,237
Sprite,Background,Centre,"sb/pixel.png",0,0 M,0,225016,227016,635,520,635,-40 F,0,225016,227016,1 F,0,107266,114325,0.8 L,225016,4 V,0,0,1200,4,4,4,-4 R,0,0,1200,0,6.283185 C,0,225016,,86,191,237
Sprite,Background,Centre,"sb/pixel.png",0,0 M,0,225060,227060,7,520,7,-40 F,0,225060,227060,1 F,0,107266,114325,0.8 L,225060,4 V,0,0,1200,4,4,4,-4 R,0,0,1200,0,6.283185 C,0,225060,,119,214,244
Sprite,Background,Centre,"sb/pixel.png",0,0 M,0,225104,227104,530,520,530,-40 F,0,225104,227104,1 F,0,107266,114325,0.8 L,225104,4 V,0,0,1200,4,4,4,-4 R,0,0,1200,0,6.283185 C,0,225104,,86,191,237
Sprite,Background,Centre,"sb/pixel.png",0,0 M,0,225148,227148,206,520,206,-40 F,0,225148,227148,1 F,0,107266,114325,0.8 L,225148,4 V,0,0,1200,4,4,4,-4 R,0,0,1200,0,6.283185 C,0,225148,,119,214,244
Sprite,Background,Centre,"sb/pixel.png",0,0 M,0,225192,227192,173,520,173,-40 F,0,225192,227192,1 F,0,107266,114325,0.8 L,225192,4 V,0,0,1200,4,4,4,-4 R,0,0,1200,0,6.283185 C,0,225192,,119,214,244
Sprite,Background,Centre,"sb/pixel.png",0,0 M,0,225236,227236,22,520,22,-40 F,0,225236,227236,1 F,0,107266,114325,0.8 L,225236,4 V,0,0,1200,4,4,4,-4 R,0,0,1200,0,6.283185 C,0,225236,,119,214,244
Sprite,Background,Centre,"sb/pixel.png",0,0 M,0,225280,227280,595,520,595,-40 F,0,225280,227280,1 F,0,107266,114325,0.8 L,225280,4 V,0,0,1200,4,4,4,-4 R,0,0,1200,0,6.283185 C,0,225280,,119,214,244
Sprite,Background,Centre,"sb/pixel.png",0,0 M,0,225324,227324,-85,520,-85,-40 F,0,225324,227324,1 F,0,107266,114325,0.8 L,225324,4 V,0,0,1200,4,4,4,-4 R,0,0,1200,0,6.283185 C,0,225324,,119,214,244
Sprite,Background,Centre,"sb/pixel.png",0,0 M,0,225369,227369,636,520,636,-40 F,0,225369,227369,1 F,0,107266,114325,0.8 L,225369,4 V,0,0,1200,4,4,4,-4 R,0,0,1200,0,6.283185 C,0,225369,,119,214,244
Sprite,Background,Centre,"sb/pixel.png",0,0 M,0,225413,227413,-96,520,-96,-40 F,0,225413,227413,1 F,0,107266,114325,0.8 L,225413,4 V,0,0,1200,4,4,4,-4 R,0,0,1200,0,6.283185 C,0,225413,,119,214,244
Sprite,Background,Centre,"sb/pixel.png",0,0 M,0,225457,227457,378,520,378,-40 F,0,225457,227457,1 F,0,107266,114325,0.8 L,225457,4 V,0,0,1200,4,4,4,-4 R,0,0,1200,0,6.283185 C,0,225457,,86,191,237
Sprite,Background,Centre,"sb/pixel.png",0,0 M,0,225501,227501,111,520,111,-40 F,0,225501,227501,1 F,0,107266,114325,0.8 L,225501,4 V,0,0,1200,4,4,4,-4 R,0,0,1200,0,6.283185 C,0,225501,,86,191,237
Sprite,Background,Centre,"sb/pixel.png",0,0 M,0,225545,227545,37,520,37,-40 F,0,225545,227545,1 F,0,107266,114325,0.8 L,225545,4 V,0,0,1200,4,4,4,-4 R,0,0,1200,0,6.283185 C,0,225545,,86,191,237
Sprite,Background,Centre,"sb/pixel.png",0,0 M,0,225589,227589,204,520,204,-40 F,0,225589,227589,1 F,0,107266,114325,0.8 L,225589,4 V,0,0,1200,4,4,4,-4 R,0,0,1200,0,6.283185 C,0,225589,,86,191,237
Sprite,Background,Centre,"sb/pixel.png",0,0 M,0,225633,227633,297,520,297,-40 F,0,225633,227633,1 F,0,107266,114325,0.8 L,225633,4 V,0,0,1200,4,4,4,-4 R,0,0,1200,0,6.283185 C,0,225633,,119,214,244
Sprite,Background,Centre,"sb/pixel.png",0,0 M,0,225677,227677,294,520,294,-40 F,0,225677,227677,1 F,0,107266,114325,0.8 L,225677,4 V,0,0,1200,4,4,4,-4 R,0,0,1200,0,6.283185 C,0,225677,,119,214,244
Sprite,Background,Centre,"sb/pixel.png",0,0 M,0,225721,227721,716,520,716,-40 F,0,225721,227721,1 F,0,107266,114325,0.8 L,225721,4 V,0,0,1200,4,4,4,-4 R,0,0,1200,0,6.283185 C,0,225721,,86,191,237
Sprite,Background,Centre,"sb/pixel.png",0,0 M,0,225766,227766,563,520,563,-40 F,0,225766,227766,1 F,0,107266,114325,0.8 L,225766,4 V,0,0,1200,4,4,4,-4 R,0,0,1200,0,6.283185 C,0,225766,,119,214,244
Sprite,Background,Centre,"sb/pixel.png",0,0 M,0,225810,227810,590,520,590,-40 F,0,225810,227810,1 F,0,107266,114325,0.8 L,225810,4 V,0,0,1200,4,4,4,-4 R,0,0,1200,0,6.283185 C,0,225810,,119,214,244
Sprite,Background,Centre,"sb/pixel.png",0,0 M,0,225854,227854,576,520,576,-40 F,0,225854,227854,1 F,0,107266,114325,0.8 L,225854,4 V,0,0,1200,4,4,4,-4 R,0,0,1200,0,6.283185 C,0,225854,,86,191,237
Sprite,Background,Centre,"sb/pixel.png",0,0 M,0,225898,227898,366,520,366,-40 F,0,225898,227898,1 F,0,107266,114325,0.8 L,225898,4 V,0,0,1200,4,4,4,-4 R,0,0,1200,0,6.283185 C,0,225898,,86,191,237
Sprite,Background,Centre,"sb/pixel.png",0,0 M,0,225942,227942,-49,520,-49,-40 F,0,225942,227942,1 F,0,107266,114325,0.8 L,225942,4 V,0,0,1200,4,4,4,-4 R,0,0,1200,0,6.283185 C,0,225942,,119,214,244
Sprite,Background,Centre,"sb/pixel.png",0,0 M,0,225986,227986,20,520,20,-40 F,0,225986,227986,1 F,0,107266,114325,0.8 L,225986,4 V,0,0,1200,4,4,4,-4 R,0,0,1200,0,6.283185 C,0,225986,,119,214,244
Sprite,Background,Centre,"sb/pixel.png",0,0 M,0,226030,228030,324,520,324,-40 F,0,226030,228030,1 F,0,107266,114325,0.8 L,226030,4 V,0,0,1200,4,4,4,-4 R,0,0,1200,0,6.283185 C,0,226030,,86,191,237
Sprite,Background,Centre,"sb/pixel.png",0,0 M,0,226074,228074,583,520,583,-40 F,0,226074,228074,1 F,0,107266,114325,0.8 L,226074,4 V,0,0,1200,4,4,4,-4 R,0,0,1200,0,6.283185 C,0,226074,,86,191,237
Sprite,Background,Centre,"sb/pixel.png",0,0 M,0,226119,228119,592,520,592,-40 F,0,226119,228119,1 F,0,107266,114325,0.8 L,226119,4 V,0,0,1200,4,4,4,-4 R,0,0,1200,0,6.283185 C,0,226119,,86,191,237
Sprite,Background,Centre,"sb/pixel.png",0,0 M,0,226163,228163,480,520,480,-40 F,0,226163,228163,1 F,0,107266,114325,0.8 L,226163,4 V,0,0,1200,4,4,4,-4 R,0,0,1200,0,6.283185 C,0,226163,,119,214,244
Sprite,Background,Centre,"sb/pixel.png",0,0 M,0,226207,228207,207,520,207,-40 F,0,226207,228207,1 F,0,107266,114325,0.8 L,226207,4 V,0,0,1200,4,4,4,-4 R,0,0,1200,0,6.283185 C,0,226207,,119,214,244
Sprite,Background,Centre,"sb/pixel.png",0,0 M,0,226251,228251,187,520,187,-40 F,0,226251,228251,1 F,0,107266,114325,0.8 L,226251,4 V,0,0,1200,4,4,4,-4 R,0,0,1200,0,6.283185 C,0,226251,,119,214,244
Sprite,Background,Centre,"sb/pixel.png",0,0 M,0,226295,228295,159,520,159,-40 F,0,226295,228295,1 F,0,107266,114325,0.8 L,226295,4 V,0,0,1200,4,4,4,-4 R,0,0,1200,0,6.283185 C,0,226295,,86,191,237
Sprite,Background,Centre,"sb/pixel.png",0,0 M,0,226339,228339,380,520,380,-40 F,0,226339,228339,1 F,0,107266,114325,0.8 L,226339,4 V,0,0,1200,4,4,4,-4 R,0,0,1200,0,6.283185 C,0,226339,,86,191,237
Sprite,Background,Centre,"sb/pixel.png",0,0 M,0,226383,228383,513,520,513,-40 F,0,226383,228383,1 F,0,107266,114325,0.8 L,226383,4 V,0,0,1200,4,4,4,-4 R,0,0,1200,0,6.283185 C,0,226383,,119,214,244
Sprite,Background,Centre,"sb/pixel.png",0,0 M,0,226427,228427,620,520,620,-40 F,0,226427,228427,1 F,0,107266,114325,0.8 L,226427,4 V,0,0,1200,4,4,4,-4 R,0,0,1200,0,6.283185 C,0,226427,,119,214,244
Sprite,Background,Centre,"sb/pixel.png",0,0 M,0,226471,228471,43,520,43,-40 F,0,226471,228471,1 F,0,107266,114325,0.8 L,226471,4 V,0,0,1200,4,4,4,-4 R,0,0,1200,0,6.283185 C,0,226471,,119,214,244
Sprite,Background,Centre,"sb/pixel.png",0,0 M,0,226516,228516,403,520,403,-40 F,0,226516,228516,1 F,0,107266,114325,0.8 L,226516,4 V,0,0,1200,4,4,4,-4 R,0,0,1200,0,6.283185 C,0,226516,,86,191,237
Sprite,Background,Centre,"sb/pixel.png",0,0 M,0,226560,228560,95,520,95,-40 F,0,226560,228560,1 F,0,107266,114325,0.8 L,226560,4 V,0,0,1200,4,4,4,-4 R,0,0,1200,0,6.283185 C,0,226560,,86,191,237
Sprite,Background,Centre,"sb/pixel.png",0,0 M,0,226604,228604,96,520,96,-40 F,0,226604,228604,1 F,0,107266,114325,0.8 L,226604,4 V,0,0,1200,4,4,4,-4 R,0,0,1200,0,6.283185 C,0,226604,,119,214,244
Sprite,Background,Centre,"sb/pixel.png",0,0 M,0,226648,228648,317,520,317,-40 F,0,226648,228648,1 F,0,107266,114325,0.8 L,226648,4 V,0,0,1200,4,4,4,-4 R,0,0,1200,0,6.283185 C,0,226648,,86,191,237
Sprite,Background,Centre,"sb/pixel.png",0,0 M,0,226692,228692,461,520,461,-40 F,0,226692,228692,1 F,0,107266,114325,0.8 L,226692,4 V,0,0,1200,4,4,4,-4 R,0,0,1200,0,6.283185 C,0,226692,,119,214,244
Sprite,Background,Centre,"sb/pixel.png",0,0 M,0,226736,228736,386,520,386,-40 F,0,226736,228736,1 F,0,107266,114325,0.8 L,226736,4 V,0,0,1200,4,4,4,-4 R,0,0,1200,0,6.283185 C,0,226736,,86,191,237
Sprite,Background,Centre,"sb/pixel.png",0,0 M,0,226780,228780,283,520,283,-40 F,0,226780,228780,1 F,0,107266,114325,0.8 L,226780,4 V,0,0,1200,4,4,4,-4 R,0,0,1200,0,6.283185 C,0,226780,,86,191,237
Sprite,Background,Centre,"sb/pixel.png",0,0 M,0,226824,228824,672,520,672,-40 F,0,226824,228824,1 F,0,107266,114325,0.8 L,226824,4 V,0,0,1200,4,4,4,-4 R,0,0,1200,0,6.283185 C,0,226824,,86,191,237
Sprite,Background,Centre,"sb/pixel.png",0,0 M,0,226869,228869,161,520,161,-40 F,0,226869,228869,1 F,0,107266,114325,0.8 L,226869,4 V,0,0,1200,4,4,4,-4 R,0,0,1200,0,6.283185 C,0,226869,,86,191,237
Sprite,Background,Centre,"sb/pixel.png",0,0 M,0,226913,228913,217,520,217,-40 F,0,226913,228913,1 F,0,107266,114325,0.8 L,226913,4 V,0,0,1200,4,4,4,-4 R,0,0,1200,0,6.283185 C,0,226913,,86,191,237
Sprite,Background,Centre,"sb/pixel.png",0,0 M,0,226957,228957,49,520,49,-40 F,0,226957,228957,1 F,0,107266,114325,0.8 L,226957,4 V,0,0,1200,4,4,4,-4 R,0,0,1200,0,6.283185 C,0,226957,,86,191,237
Sprite,Background,Centre,"sb/pixel.png",0,0 M,0,227001,229001,705,520,705,-40 F,0,227001,229001,1 F,0,107266,114325,0.8 L,227001,4 V,0,0,1200,4,4,4,-4 R,0,0,1200,0,6.283185 C,0,227001,,119,214,244
Sprite,Background,Centre,"sb/pixel.png",0,0 M,0,227045,229045,702,520,702,-40 F,0,227045,229045,1 F,0,107266,114325,0.8 L,227045,4 V,0,0,1200,4,4,4,-4 R,0,0,1200,0,6.283185 C,0,227045,,119,214,244
Sprite,Background,Centre,"sb/pixel.png",0,0 M,0,227089,229089,253,520,253,-40 F,0,227089,229089,1 F,0,107266,114325,0.8 L,227089,4 V,0,0,1200,4,4,4,-4 R,0,0,1200,0,6.283185 C,0,227089,,86,191,237
Sprite,Background,Centre,"sb/pixel.png",0,0 M,0,227133,229133,-27,520,-27,-40 F,0,227133,229133,1 F,0,107266,114325,0.8 L,227133,4 V,0,0,1200,4,4,4,-4 R,0,0,1200,0,6.283185 C,0,227133,,86,191,237
Sprite,Background,Centre,"sb/pixel.png",0,0 M,0,227177,229177,25,520,25,-40 F,0,227177,229177,1 F,0,107266,114325,0.8 L,227177,4 V,0,0,1200,4,4,4,-4 R,0,0,1200,0,6.283185 C,0,227177,,119,214,244
Sprite,Background,Centre,"sb/pixel.png",0,0 M,0,227221,229221,-42,520,-42,-40 F,0,227221,229221,1 F,0,107266,114325,0.8 L,227221,4 V,0,0,1200,4,4,4,-4 R,0,0,1200,0,6.283185 C,0,227221,,119,214,244
Sprite,Background,Centre,"sb/pixel.png",0,0 M,0,227266,229266,710,520,710,-40 F,0,227266,229266,1 F,0,107266,114325,0.8 L,227266,4 V,0,0,1200,4,4,4,-4 R,0,0,1200,0,6.283185 C,0,227266,,119,214,244
Sprite,Background,Centre,"sb/pixel.png",0,0 M,0,227310,229310,230,520,230,-40 F,0,227310,229310,1 F,0,107266,114325,0.8 L,227310,4 V,0,0,1200,4,4,4,-4 R,0,0,1200,0,6.283185 C,0,227310,,119,214,244
Sprite,Background,Centre,"sb/pixel.png",0,0 M,0,227354,229354,274,520,274,-40 F,0,227354,229354,1 F,0,107266,114325,0.8 L,227354,4 V,0,0,1200,4,4,4,-4 R,0,0,1200,0,6.283185 C,0,227354,,86,191,237
Sprite,Background,Centre,"sb/pixel.png",0,0 M,0,227398,229398,643,520,643,-40 F,0,227398,229398,1 F,0,107266,114325,0.8 L,227398,4 V,0,0,1200,4,4,4,-4 R,0,0,1200,0,6.283185 C,0,227398,,86,191,237
Sprite,Background,Centre,"sb/pixel.png",0,0 M,0,227442,229442,294,520,294,-40 F,0,227442,229442,1 F,0,107266,114325,0.8 L,227442,4 V,0,0,1200,4,4,4,-4 R,0,0,1200,0,6.283185 C,0,227442,,119,214,244
Sprite,Background,Centre,"sb/pixel.png",0,0 M,0,227486,229486,600,520,600,-40 F,0,227486,229486,1 F,0,107266,114325,0.8 L,227486,4 V,0,0,1200,4,4,4,-4 R,0,0,1200,0,6.283185 C,0,227486,,119,214,244
Sprite,Background,Centre,"sb/pixel.png",0,0 M,0,227530,229530,172,520,172,-40 F,0,227530,229530,1 F,0,107266,114325,0.8 L,227530,4 V,0,0,1200,4,4,4,-4 R,0,0,1200,0,6.283185 C,0,227530,,86,191,237
Sprite,Background,Centre,"sb/pixel.png",0,0 M,0,227574,229574,519,520,519,-40 F,0,227574,229574,1 F,0,107266,114325,0.8 L,227574,4 V,0,0,1200,4,4,4,-4 R,0,0,1200,0,6.283185 C,0,227574,,86,191,237
Sprite,Background,Centre,"sb/pixel.png",0,0 M,0,227619,229619,645,520,645,-40 F,0,227619,229619,1 F,0,107266,114325,0.8 L,227619,4 V,0,0,1200,4,4,4,-4 R,0,0,1200,0,6.283185 C,0,227619,,119,214,244
Sprite,Background,Centre,"sb/pixel.png",0,0 M,0,227663,229663,492,520,492,-40 F,0,227663,229663,1 F,0,107266,114325,0.8 L,227663,4 V,0,0,1200,4,4,4,-4 R,0,0,1200,0,6.283185 C,0,227663,,86,191,237
Sprite,Background,Centre,"sb/pixel.png",0,0 M,0,227707,229707,-33,520,-33,-40 F,0,227707,229707,1 F,0,107266,114325,0.8 L,227707,4 V,0,0,1200,4,4,4,-4 R,0,0,1200,0,6.283185 C,0,227707,,86,191,237
Sprite,Background,Centre,"sb/pixel.png",0,0 M,0,227751,229751,557,520,557,-40 F,0,227751,229751,1 F,0,107266,114325,0.8 L,227751,4 V,0,0,1200,4,4,4,-4 R,0,0,1200,0,6.283185 C,0,227751,,86,191,237
Sprite,Background,Centre,"sb/pixel.png",0,0 M,0,227795,229795,460,520,460,-40 F,0,227795,229795,1 F,0,107266,114325,0.8 L,227795,4 V,0,0,1200,4,4,4,-4 R,0,0,1200,0,6.283185 C,0,227795,,119,214,244
Sprite,Background,Centre,"sb/pixel.png",0,0 M,0,227839,229839,404,520,404,-40 F,0,227839,229839,1 F,0,107266,114325,0.8 L,227839,4 V,0,0,1200,4,4,4,-4 R,0,0,1200,0,6.283185 C,0,227839,,86,191,237
Sprite,Background,Centre,"sb/pixel.png",0,0 M,0,227883,229883,450,520,450,-40 F,0,227883,229883,1 F,0,107266,114325,0.8 L,227883,4 V,0,0,1200,4,4,4,-4 R,0,0,1200,0,6.283185 C,0,227883,,86,191,237
Sprite,Background,Centre,"sb/pixel.png",0,0 M,0,227927,229927,-28,520,-28,-40 F,0,227927,229927,1 F,0,107266,114325,0.8 L,227927,4 V,0,0,1200,4,4,4,-4 R,0,0,1200,0,6.283185 C,0,227927,,86,191,237
Sprite,Background,Centre,"sb/pixel.png",0,0 M,0,227971,229971,611,520,611,-40 F,0,227971,229971,1 F,0,107266,114325,0.8 L,227971,4 V,0,0,1200,4,4,4,-4 R,0,0,1200,0,6.283185 C,0,227971,,119,214,244
Sprite,Background,Centre,"sb/pixel.png",0,0 M,0,228016,230016,621,520,621,-40 F,0,228016,230016,1 F,0,107266,114325,0.8 L,228016,4 V,0,0,1200,4,4,4,-4 R,0,0,1200,0,6.283185 C,0,228016,,86,191,237
Sprite,Background,Centre,"sb/pixel.png",0,0 M,0,228060,230060,273,520,273,-40 F,0,228060,230060,1 F,0,107266,114325,0.8 L,228060,4 V,0,0,1200,4,4,4,-4 R,0,0,1200,0,6.283185 C,0,228060,,119,214,244
Sprite,Background,Centre,"sb/pixel.png",0,0 M,0,228104,230104,183,520,183,-40 F,0,228104,230104,1 F,0,107266,114325,0.8 L,228104,4 V,0,0,1200,4,4,4,-4 R,0,0,1200,0,6.283185 C,0,228104,,86,191,237
Sprite,Background,Centre,"sb/pixel.png",0,0 M,0,228148,230148,499,520,499,-40 F,0,228148,230148,1 F,0,107266,114325,0.8 L,228148,4 V,0,0,1200,4,4,4,-4 R,0,0,1200,0,6.283185 C,0,228148,,86,191,237
Sprite,Background,Centre,"sb/pixel.png",0,0 M,0,228192,230192,46,520,46,-40 F,0,228192,230192,1 F,0,107266,114325,0.8 L,228192,4 V,0,0,1200,4,4,4,-4 R,0,0,1200,0,6.283185 C,0,228192,,86,191,237
Sprite,Background,Centre,"sb/pixel.png",0,0 M,0,228236,230236,389,520,389,-40 F,0,228236,230236,1 F,0,107266,114325,0.8 L,228236,4 V,0,0,1200,4,4,4,-4 R,0,0,1200,0,6.283185 C,0,228236,,86,191,237
Sprite,Background,Centre,"sb/pixel.png",0,0 M,0,228280,230280,482,520,482,-40 F,0,228280,230280,1 F,0,107266,114325,0.8 L,228280,4 V,0,0,1200,4,4,4,-4 R,0,0,1200,0,6.283185 C,0,228280,,86,191,237
Sprite,Background,Centre,"sb/pixel.png",0,0 M,0,228324,230324,41,520,41,-40 F,0,228324,230324,1 F,0,107266,114325,0.8 L,228324,4 V,0,0,1200,4,4,4,-4 R,0,0,1200,0,6.283185 C,0,228324,,119,214,244
Sprite,Background,Centre,"sb/pixel.png",0,0 M,0,228369,230369,740,520,740,-40 F,0,228369,230369,1 F,0,107266,114325,0.8 L,228369,4 V,0,0,1200,4,4,4,-4 R,0,0,1200,0,6.283185 C,0,228369,,119,214,244
Sprite,Background,Centre,"sb/pixel.png",0,0 M,0,228413,230413,204,520,204,-40 F,0,228413,230413,1 F,0,107266,114325,0.8 L,228413,4 V,0,0,1200,4,4,4,-4 R,0,0,1200,0,6.283185 C,0,228413,,119,214,244
Sprite,Background,Centre,"sb/pixel.png",0,0 M,0,228457,230457,18,520,18,-40 F,0,228457,230457,1 F,0,107266,114325,0.8 L,228457,4 V,0,0,1200,4,4,4,-4 R,0,0,1200,0,6.283185 C,0,228457,,119,214,244
Sprite,Background,Centre,"sb/pixel.png",0,0 M,0,228501,230501,149,520,149,-40 F,0,228501,230501,1 F,0,107266,114325,0.8 L,228501,4 V,0,0,1200,4,4,4,-4 R,0,0,1200,0,6.283185 C,0,228501,,86,191,237
Sprite,Background,Centre,"sb/pixel.png",0,0 M,0,228545,230545,356,520,356,-40 F,0,228545,230545,1 F,0,107266,114325,0.8 L,228545,4 V,0,0,1200,4,4,4,-4 R,0,0,1200,0,6.283185 C,0,228545,,119,214,244
Sprite,Background,Centre,"sb/pixel.png",0,0 M,0,228589,230589,-49,520,-49,-40 F,0,228589,230589,1 F,0,107266,114325,0.8 L,228589,4 V,0,0,1200,4,4,4,-4 R,0,0,1200,0,6.283185 C,0,228589,,119,214,244
Sprite,Background,Centre,"sb/pixel.png",0,0 M,0,228633,230633,720,520,720,-40 F,0,228633,230633,1 F,0,107266,114325,0.8 L,228633,4 V,0,0,1200,4,4,4,-4 R,0,0,1200,0,6.283185 C,0,228633,,86,191,237
Sprite,Background,Centre,"sb/pixel.png",0,0 M,0,228677,230677,-105,520,-105,-40 F,0,228677,230677,1 F,0,107266,114325,0.8 L,228677,4 V,0,0,1200,4,4,4,-4 R,0,0,1200,0,6.283185 C,0,228677,,119,214,244
//Storyboard Layer 1 (Fail)
//Storyboard Layer 2 (Pass)
//Storyboard Layer 3 (Foreground)
//Storyboard Sound Samples

[TimingPoints]
2796,352.941176470588,4,2,1,70,1,0
25384,-111.111111111111,4,2,1,40,0,0
35619,-111.111111111111,4,2,1,30,0,0
53619,-111.111111111111,4,2,1,35,0,0
55031,-111.111111111111,4,2,1,40,0,0
56443,-111.111111111111,4,2,1,45,0,0
57148,-111.111111111111,4,2,1,50,0,0
57854,-111.111111111111,4,2,1,55,0,0
58207,-111.111111111111,4,2,1,60,0,0
58560,-111.111111111111,4,2,1,65,0,0
58913,-111.111111111111,4,2,1,70,0,0
59266,-100,4,2,1,80,0,0
60590,-100,4,2,1,5,0,0
60854,-100,4,2,1,50,0,0
61031,-100,4,2,1,80,0,0
63413,-100,4,2,1,5,0,0
63678,-100,4,2,1,60,0,0
63854,-100,4,2,1,70,0,0
64207,-100,4,2,1,80,0,0
66237,-100,4,2,1,5,0,0
66501,-100,4,2,1,80,0,0
69060,-100,4,2,1,5,0,0
69384,-100,4,2,1,65,0,0
69501,-100,4,2,1,80,0,0
71884,-100,4,2,1,5,0,0
72148,-100,4,2,1,50,0,0
72325,-100,4,2,1,80,0,0
74707,-100,4,2,1,5,0,0
74972,-100,4,2,1,80,0,0
75148,-100,4,2,1,60,0,0
75325,-100,4,2,1,70,0,0
75501,-100,4,2,1,80,0,0
77531,-100,4,2,1,5,0,0
77795,-100,4,2,1,80,0,0
80354,-100,4,2,1,5,0,0
80795,-100,4,2,1,80,0,0
83178,-100,4,2,1,5,0,0
83442,-100,4,2,1,50,0,0
83619,-100,4,2,1,80,0,0
86001,-100,4,2,1,5,0,0
86266,-100,4,2,1,80,0,0
88825,-100,4,2,1,5,0,0
89090,-100,4,2,1,80,0,0
91648,-100,4,2,1,5,0,0
91972,-100,4,2,1,65,0,0
92089,-100,4,2,1,80,0,0
94472,-100,4,2,1,5,0,0
94736,-100,4,2,1,50,0,0
94913,-100,4,2,1,80,0,0
97295,-100,4,2,1,5,0,0
97560,-100,4,2,1,80,0,0
97736,-100,4,2,1,60,0,0
97913,-100,4,2,1,70,0,0
98089,-100,4,2,1,80,0,0
100119,-100,4,2,1,5,0,0
100384,-100,4,2,1,80,0,0
102942,-100,4,2,1,5,0,0
103207,-100,4,2,1,60,0,0
115737,-111.111111111111,4,2,1,40,0,0
136913,-111.111111111111,4,2,1,30,0,0
137619,-111.111111111111,4,2,1,35,0,0
138325,-111.111111111111,4,2,1,40,0,0
149619,-111.111111111111,4,2,1,30,0,0
155266,-111.111111111111,4,2,1,35,0,0
156678,-111.111111111111,4,2,1,40,0,0
158090,-111.111111111111,4,2,1,45,0,0
158795,-111.111111111111,4,2,1,50,0,0
159501,-111.111111111111,4,2,1,55,0,0
159854,-111.111111111111,4,2,1,60,0,0
160207,-111.111111111111,4,2,1,65,0,0
160560,-111.111111111111,4,2,1,70,0,0
160913,-100,4,2,1,80,0,0
162237,-100,4,2,1,5,0,0
162501,-100,4,2,1,50,0,0
162678,-100,4,2,1,80,0,0
165060,-100,4,2,1,5,0,0
165325,-100,4,2,1,80,0,0
165501,-100,4,2,1,60,0,0
165678,-100,4,2,1,70,0,0
165854,-100,4,2,1,80,0,0
167884,-100,4,2,1,5,0,0
168148,-100,4,2,1,80,0,0
170707,-100,4,2,1,5,0,0
171031,-100,4,2,1,65,0,0
171148,-100,4,2,1,80,0,0
173531,-100,4,2,1,5,0,0
173795,-100,4,2,1,50,0,0
173972,-100,4,2,1,80,0,0
176354,-100,4,2,1,5,0,0
176619,-100,4,2,1,80,0,0
176795,-100,4,2,1,60,0,0
176972,-100,4,2,1,70,0,0
177148,-100,4,2,1,80,0,0
179178,-100,4,2,1,5,0,0
179442,-100,4,2,1,80,0,0
182001,-100,4,2,1,5,0,0
182442,-100,4,2,1,80,0,0
184825,-100,4,2,1,5,0,0
185089,-100,4,2,1,50,0,0
185266,-100,4,2,1,80,0,0
187648,-100,4,2,1,5,0,0
187913,-100,4,2,1,80,0,0
190472,-100,4,2,1,5,0,0
190737,-100,4,2,1,80,0,0
193295,-100,4,2,1,5,0,0
193619,-100,4,2,1,65,0,0
193736,-100,4,2,1,80,0,0
196119,-100,4,2,1,5,0,0
196383,-100,4,2,1,50,0,0
196560,-100,4,2,1,80,0,0
198942,-100,4,2,1,5,0,0
199207,-100,4,2,1,80,0,0
201766,-100,4,2,1,5,0,0
202031,-100,4,2,1,80,0,0
204589,-100,4,2,1,5,0,0
204854,-100,4,2,1,60,0,0

[Colours]
Combo1 : 118,120,192
Combo2 : 143,216,224
Combo3 : 174,179,221
Combo4 : 145,188,191

[HitObjects]
423,195,25384,6,0,L|402:61,2,134.999995880127,0|8|8,1:0|0:0|0:0,0:0:0:0:
359,258,26795,2,0,L|365:302,2,44.999998626709,0|0|0,1:0|1:0|3:0,0:0:0:0:
285,203,27501,2,0,P|244:186|200:191,1,89.9999972534181,0|0,0:0|3:0,0:0:0:0:
119,230,28207,1,0,1:0:0:0:
61,107,28737,6,0,L|194:85,1,134.999995880127,8|0,0:0|0:0,0:0:0:0:
268,34,29619,2,0,L|356:48,1,89.9999972534181,0|0,1:0|3:0,0:0:0:0:
419,112,30325,2,0,P|432:154|420:197,1,89.9999972534181,0|0,0:0|0:0,0:0:0:0:
365,268,31031,6,0,P|428:287|487:259,2,134.999995880127,0|8|8,1:0|0:0|0:0,0:0:0:0:
293,212,32443,2,0,L|288:167,2,44.999998626709,0|0|0,1:0|1:0|3:0,0:0:0:0:
226,272,33148,2,0,L|129:255,1,89.9999972534181,0|0,0:0|3:0,0:0:0:0:
68,315,33854,1,0,1:0:0:0:
187,378,34384,6,0,B|277:372|277:372|308:339,1,134.999995880127,8|8,0:0|0:0,0:0:0:0:
373,277,35266,2,0,L|417:285,2,44.999998626709,0|0|0,1:0|1:0|3:0,0:0:0:0:
323,199,35972,2,0,P|327:114|409:91,1,179.999994506836,0|4,0:0|0:1,0:0:0:0:
427,82,47972,6,0,L|248:59,1,179.999994506836,0|0,1:0|1:0,0:0:0:0:
225,237,49384,2,0,L|403:259,1,179.999994506836,0|0,1:0|1:0,0:0:0:0:
270,138,50795,6,0,P|182:139|122:203,1,179.999994506836,0|0,1:0|1:0,0:0:0:0:
190,370,52207,2,0,P|277:368|337:304,1,179.999994506836,0|0,1:0|1:0,0:0:0:0:
270,138,53619,6,0,L|181:154,2,89.9999972534181,0|0|0,1:0|1:0|1:0,0:0:0:0:
424,232,55031,2,0,L|512:215,2,89.9999972534181,0|0|0,1:0|1:0|1:0,0:0:0:0:
256,192,56443,12,0,57854,1:0:0:0:
51,356,59266,6,0,B|116:280|116:280|108:180,1,200,4|8,1:0|0:1,0:0:0:0:
92,81,60325,1,0,1:0:0:0:
270,171,61031,2,0,L|366:148,1,100,2|8,1:2|0:1,0:0:0:0:
461,114,61737,1,0,1:0:0:0:
507,203,62090,6,0,B|441:220|441:220|403:273|403:273|339:290,1,200,0|8,1:0|0:1,0:0:0:0:
241,315,63148,1,0,1:0:0:0:
115,232,63678,2,0,B|63:177|63:177|77:103,1,150,0|8,1:0|0:1,0:0:0:0:
118,12,64560,1,0,1:0:0:0:
198,70,64913,6,0,L|396:47,1,200,0|8,1:0|0:1,0:0:0:0:
493,22,65972,1,0,1:0:0:0:
386,191,66678,2,0,L|380:141,2,50,2|2|8,0:0|1:2|0:1,0:0:0:0:
441,276,67384,1,0,1:0:0:0:
373,349,67737,6,0,B|284:303|284:303|186:323,1,200,0|8,1:0|0:1,0:0:0:0:
91,356,68795,1,0,1:0:0:0:
91,155,69501,2,0,L|78:99,2,50,0|0|8,1:0|1:0|0:1,0:0:0:0:
178,204,70207,1,0,1:2:0:0:
178,204,70560,6,0,B|276:187|276:187|351:253,1,200,4|8,1:0|0:1,0:0:0:0:
424,322,71619,1,0,1:0:0:0:
498,136,72325,2,0,B|509:88|509:88|488:41,1,100,0|8,1:0|0:1,0:0:0:0:
409,103,73031,1,0,1:0:0:0:
336,34,73384,6,0,B|272:45|272:45|244:66|244:66|209:56|209:56|146:67,1,200,0|8,1:0|0:1,0:0:0:0:
50,38,74443,1,0,1:0:0:0:
188,182,75148,2,0,L|198:281,1,100,0|8,0:0|0:1,0:0:0:0:
129,354,75854,1,0,1:0:0:0:
54,286,76207,6,0,L|75:87,1,200,0|8,1:0|0:1,0:0:0:0:
145,16,77266,1,0,1:0:0:0:
301,140,77972,2,0,L|294:189,2,50,2|2|8,1:2|1:2|0:1,0:0:0:0:
365,62,78678,1,0,1:0:0:0:
438,130,79031,6,0,B|465:226|465:226|412:312,1,200,0|8,1:0|0:1,0:0:0:0:
342,382,80090,1,0,1:0:0:0:
161,295,80795,2,0,L|112:305,2,50,0|0|8,1:0|1:0|0:0,0:0:0:0:
219,213,81501,1,2,1:0:0:0:
219,213,81854,6,0,L|211:163,2,50,4|2|2,1:0|0:0|0:0,0:0:0:0:
300,271,82560,2,0,L|397:250,1,100,8|0,0:1|1:0,0:0:0:0:
481,68,83619,2,0,L|381:54,1,100,2|8,1:2|0:1,0:0:0:0:
301,114,84325,1,0,1:0:0:0:
210,71,84678,6,0,B|115:103|115:103|133:200,1,200,0|8,1:0|0:1,0:0:0:0:
162,297,85737,1,0,1:0:0:0:
312,165,86443,2,0,L|411:173,1,100,0|8,0:0|0:1,0:0:0:0:
464,258,87148,1,0,1:0:0:0:
386,321,87501,6,0,B|311:314|311:314|272:341|272:341|194:334,1,200,0|8,1:0|0:1,0:0:0:0:
95,321,88560,1,0,1:0:0:0:
24,133,89266,2,0,L|30:83,2,50,2|2|8,0:0|1:2|0:0,0:0:0:0:
100,197,89972,1,0,1:0:0:0:
193,161,90325,6,0,L|390:189,1,200,0|8,1:0|0:1,0:0:0:0:
489,205,91384,1,0,1:0:0:0:
354,56,92090,2,0,L|359:6,2,50,0|0|8,1:0|1:0|0:1,0:0:0:0:
275,117,92795,1,0,0:0:0:0:
275,117,93148,6,0,B|176:95|176:95|88:139,1,200,4|8,1:0|0:1,0:0:0:0:
2,192,94207,1,0,1:0:0:0:
149,327,94913,2,0,B|199:333|199:333|243:310,1,100,2|8,1:2|0:1,0:0:0:0:
325,253,95619,1,0,1:0:0:0:
409,307,95972,6,0,B|450:216|450:216|419:120,1,200,0|8,1:0|0:1,0:0:0:0:
375,30,97031,1,0,1:0:0:0:
240,177,97737,2,0,L|250:276,1,100,0|8,0:0|0:1,0:0:0:0:
199,362,98443,1,0,1:0:0:0:
118,303,98795,6,0,B|104:228|104:228|127:184|127:184|118:110,1,200,0|8,1:0|0:1,0:0:0:0:
95,12,99854,1,0,1:0:0:0:
242,146,100560,2,0,L|234:195,2,50,2|2|8,0:0|1:2|0:1,0:0:0:0:
315,77,101266,1,0,1:0:0:0:
405,118,101619,6,0,B|440:212|440:212|385:295,1,200,0|8,1:0|0:1,0:0:0:0:
328,378,102678,1,0,1:0:0:0:
160,268,103384,2,0,L|110:276,2,50,0|8|0,0:0|0:1|0:0,0:0:0:0:
237,204,104090,2,0,B|253:156|253:156|238:108,1,100,8|4,0:1|1:0,0:0:0:0:
108,55,115737,6,0,L|241:72,2,134.999995880127,0|8|8,1:0|0:0|0:0,0:0:0:0:
45,120,117148,2,0,L|1:112,2,44.999998626709,0|0|0,1:0|1:0|3:0,0:0:0:0:
98,192,117854,2,0,P|109:234|94:276,1,89.9999972534181,0|0,0:0|3:0,0:0:0:0:
39,347,118560,1,0,1:0:0:0:
168,313,119090,6,0,P|233:298|296:320,1,134.999995880127,8|8,0:0|0:0,0:0:0:0:
370,372,119972,1,0,1:0:0:0:
424,300,120325,1,0,3:0:0:0:
352,244,120678,2,0,L|366:156,1,89.9999972534181,0|0,0:0|0:0,0:0:0:0:
308,87,121384,6,0,P|371:67|432:92,2,134.999995880127,0|8|8,1:0|0:0|0:0,0:0:0:0:
237,149,122795,2,0,L|193:138,2,44.999998626709,0|0|0,1:0|1:0|3:0,0:0:0:0:
298,214,123501,2,0,P|300:258|282:299,1,89.9999972534181,0|0,0:0|3:0,3:0:0:0:
218,361,124207,1,0,1:0:0:0:
95,301,124737,6,0,P|126:241|115:176,1,134.999995880127,8|8,0:0|0:0,0:0:0:0:
55,108,125619,2,0,L|10:112,2,44.999998626709,0|0|0,1:0|1:0|3:0,0:0:0:0:
120,45,126325,2,0,L|209:53,1,89.9999972534181,0|0,0:0|0:0,0:0:0:0:
287,99,127031,6,0,B|334:94|334:94|368:69|368:69|412:65,2,134.999995880127,0|8|8,1:0|0:0|0:0,0:0:0:0:
209,53,128443,2,0,L|199:9,2,44.999998626709,0|0|0,1:0|1:0|3:0,0:0:0:0:
143,114,129148,2,0,P|130:157|139:201,1,89.9999972534181,0|0,0:0|3:0,0:0:0:0:
195,271,129854,1,0,1:0:0:0:
306,196,130384,6,0,P|373:193|424:235,1,134.999995880127,8|8,0:0|0:0,0:0:0:0:
468,313,131266,2,0,L|512:306,2,44.999998626709,0|0|0,1:0|1:0|3:0,0:0:0:0:
395,367,131972,2,0,P|352:378|309:367,1,89.9999972534181,0|0,0:0|3:0,0:0:0:0:
237,312,132678,5,0,1:0:0:0:
112,363,133207,2,0,L|93:229,1,134.999995880127,8|8,0:0|0:0,0:0:0:0:
138,151,134090,2,0,L|131:106,2,44.999998626709,0|0|0,1:0|1:0|3:0,0:0:0:0:
210,204,134795,2,0,P|253:213|297:204,1,89.9999972534181,0|0,0:0|3:0,0:0:0:0:
374,157,135501,1,0,1:0:0:0:
459,260,136031,6,0,P|412:307|346:304,1,134.999995880127,8|8,0:0|0:0,0:0:0:0:
275,249,136913,2,0,L|277:204,2,44.999998626709,0|0|0,1:0|1:0|3:0,0:0:0:0:
203,302,137619,2,0,P|158:306|119:285,1,89.9999972534181,0|8,0:0|0:0,0:0:0:0:
53,224,138325,5,4,0:1:0:0:
53,224,149619,6,0,B|104:149|104:149|97:59,1,179.999994506836,4|0,1:0|1:0,0:0:0:0:
273,98,151031,2,0,B|222:173|222:173|228:262,1,179.999994506836,0|0,1:0|1:0,0:0:0:0:
377,363,152443,6,0,L|364:183,1,179.999994506836,0|0,1:0|1:0,0:0:0:0:
215,82,153854,2,0,L|228:262,1,179.999994506836,0|0,1:0|1:0,0:0:0:0:
227,261,155266,6,0,L|138:244,1,89.9999972534181,0|0,1:0|1:0,0:0:0:0:
153,333,155972,2,0,L|64:316,1,89.9999972534181,0|0,1:0|1:0,0:0:0:0:
44,228,156678,2,0,L|38:138,1,89.9999972534181,0|0,1:0|1:0,0:0:0:0:
125,160,157384,2,0,L|119:70,1,89.9999972534181,0|0,1:0|1:0,0:0:0:0:
256,192,158090,12,0,159501,1:0:0:0:
137,187,160913,6,0,L|151:88,2,100,6|0|8,1:0|0:0|0:1,0:0:0:0:
202,262,161972,1,0,1:0:0:0:
331,109,162678,2,0,L|325:59,2,50,0|0|8,1:0|1:0|0:1,0:0:0:0:
402,178,163384,1,0,1:0:0:0:
331,249,163737,6,0,B|232:232|232:232|144:280,1,200,0|8,1:0|0:1,0:0:0:0:
63,337,164795,1,0,1:0:0:0:
7,197,165325,2,0,L|37:50,1,150,0|8,1:0|0:1,0:0:0:0:
132,18,166207,1,0,1:0:0:0:
202,88,166560,6,0,B|278:101|278:101|322:81|322:81|395:92,1,200,0|8,1:0|0:1,0:0:0:0:
491,121,167619,1,0,1:0:0:0:
378,286,168325,2,0,B|360:238|360:238|371:190,1,100,2|8,0:0|0:1,0:0:0:0:
396,93,169031,1,0,1:0:0:0:
308,44,169384,6,0,B|248:37|248:37|190:84|190:84|198:148,1,200,0|8,1:0|0:1,0:0:0:0:
221,245,170443,1,0,1:0:0:0:
36,322,171148,2,0,L|25:273,2,50,0|0|8,1:2|1:2|0:1,0:0:0:0:
116,381,171854,1,0,0:0:0:0:
116,381,172207,6,0,L|308:327,1,200,4|8,1:0|0:1,0:0:0:0:
407,341,173266,1,0,1:0:0:0:
356,147,173972,2,0,L|348:196,2,50,0|0|8,1:0|1:0|0:1,0:0:0:0:
424,74,174678,1,0,1:0:0:0:
343,14,175031,6,0,B|280:30|280:30|254:53|254:53|218:46|218:46|156:63,1,200,0|8,1:0|0:1,0:0:0:0:
62,95,176090,1,0,1:0:0:0:
160,207,176619,2,0,B|260:211|260:211|285:254,1,150,0|8,1:0|0:1,0:0:0:0:
318,348,177501,1,0,1:0:0:0:
222,376,177854,6,0,B|122:372|122:372|62:293,1,200,0|8,1:0|0:1,0:0:0:0:
26,198,178913,1,0,1:0:0:0:
182,73,179619,2,0,L|190:23,2,50,2|2|8,0:0|1:2|0:1,0:0:0:0:
243,152,180325,1,0,1:0:0:0:
323,92,180678,6,0,B|422:111|422:111|434:209,1,200,0|8,1:0|0:1,0:0:0:0:
446,308,181737,1,0,1:0:0:0:
251,356,182443,2,0,L|201:347,2,50,0|0|8,1:0|1:0|0:1,0:0:0:0:
313,278,183148,1,0,1:0:0:0:
313,278,183501,6,0,L|362:286,2,50,4|2|2,1:0|0:0|0:0,0:0:0:0:
215,254,184207,2,0,B|193:210|193:210|202:160,1,100,8|0,0:1|1:0,0:0:0:0:
370,50,185266,2,0,L|419:58,2,50,2|2|8,1:2|1:2|0:1,0:0:0:0:
289,109,185972,1,0,1:0:0:0:
216,40,186325,6,0,B|116:43|116:43|85:137,1,200,0|8,1:0|0:1,0:0:0:0:
60,235,187384,1,0,1:0:0:0:
179,325,187913,2,0,B|277:349|277:349|322:329,1,150,0|8,1:0|0:1,0:0:0:0:
409,291,188795,1,0,1:0:0:0:
342,216,189148,6,0,L|143:192,1,200,0|8,1:0|0:1,0:0:0:0:
43,179,190207,1,0,1:0:0:0:
188,42,190913,2,0,L|237:47,2,50,2|2|8,0:0|1:2|0:1,0:0:0:0:
114,110,191619,1,0,1:0:0:0:
168,193,191972,6,0,B|267:206|267:206|334:132,1,200,0|8,1:0|0:1,0:0:0:0:
400,56,193031,1,0,1:0:0:0:
471,242,193737,2,0,L|460:290,2,50,0|0|8,1:0|1:0|0:1,0:0:0:0:
413,159,194443,1,0,1:0:0:0:
413,159,194795,6,0,B|337:172|337:172|302:206|302:206|229:220,1,200,4|8,1:0|0:1,0:0:0:0:
130,236,195854,1,0,1:0:0:0:
233,64,196560,2,0,L|282:69,2,50,0|0|8,1:0|1:0|0:1,0:0:0:0:
138,30,197266,1,0,1:0:0:0:
62,95,197619,6,0,B|50:157|50:157|29:187|29:187|39:220|39:220|28:284,1,200,0|8,1:0|0:1,0:0:0:0:
65,377,198678,1,0,1:0:0:0:
187,290,199207,2,0,B|261:267|261:267|325:301,1,150,0|8,1:0|0:1,0:0:0:0:
408,356,200090,1,0,1:0:0:0:
473,280,200443,6,0,B|495:182|495:182|398:156,1,200,0|8,1:0|0:1,0:0:0:0:
300,171,201501,1,0,1:0:0:0:
119,85,202207,2,0,L|70:95,2,50,2|2|8,0:0|1:2|0:1,0:0:0:0:
203,31,202913,1,0,1:0:0:0:
286,86,203266,6,0,L|247:282,1,200,0|8,1:0|0:1,0:0:0:0:
217,377,204325,1,0,1:0:0:0:
68,243,205031,2,0,L|18:250,1,50,0|8,0:0|0:1,0:0:0:0:
3,151,205560,2,0,L|52:143,1,50,2|0,0:0|1:0,0:0:0:0:
146,177,206090,5,4,1:0:0:0:
