osu file format v14

[General]
AudioFilename: audio.mp3
AudioLeadIn: 0
PreviewTime: 59178
Countdown: 0
SampleSet: Soft
StackLeniency: 0.2
Mode: 0
LetterboxInBreaks: 0
EpilepsyWarning: 1
WidescreenStoryboard: 1

[Editor]
Bookmarks: 25384,36678,47972,59266,104443,115737,138325,149619,160913,206090
DistanceSpacing: 0.4
BeatDivisor: 4
GridSize: 4
TimelineZoom: 1.7

[Metadata]
Title:Treason
TitleUnicode:Treason
Artist:Dictate
ArtistUnicode:Dictate
Creator:Realazy
Version:Collab Insane
Source:
Tags:enkrypton lowcombofc lcfc kalibe toybot pishifat neurofunk neuro featured artist fa mappers guild
BeatmapID:1778356
BeatmapSetID:848976

[Difficulty]
HPDrainRate:5
CircleSize:5
OverallDifficulty:8
ApproachRate:9
SliderMultiplier:1.5
SliderTickRate:1

[Events]
//Background and Video events
0,0,"treason.png",0,0
//Break Periods
2,36878,46666
2,104643,115137
2,138525,149019
//Storyboard Layer 0 (Background)
Sprite,Background,Centre,"treason.png",320,240 F,0,0,,0
Sprite,Background,Centre,"sb\desat.png",320,240 S,0,0,,0.4444444 F,0,0,59266,1
Sprite,Background,Centre,"sb\pixel.png",320,240 C,0,0,,0,0,0 V,0,0,,1920,1080 F,0,0,25384,1
Sprite,Background,Centre,"sb\pixel.png",320,240 C,0,0,,0,0,0 V,0,0,,1920,1080 F,0,25384,25736,0.2,0.5 F,0,25384,25737,1,0.5 F,0,26795,27148,0.2,0.5 F,0,28207,28560,0.2,0.5 F,0,29619,29972,0.2,0.5 F,0,31031,31384,0.2,0.5 F,0,32442,32795,0.2,0.5 F,0,33854,34207,0.2,0.5 F,0,35266,35619,0.2,0.5 F,0,35619,36678,0.5,1 F,0,36678,37031,1,0.5 F,0,37031,47972,0.5
Sprite,Background,Centre,"sb\pixel.png",320,240 C,0,0,,0,0,0 V,0,0,,1920,1080 F,0,47972,48678,0.5,0.3 F,0,48678,56443,0.3,0
Sprite,Background,Centre,"sb\normal.png",320,240 F,0,0,,0 S,0,0,,0.4444444 F,0,59266,103737,1 F,0,103737,104443,1,0
Sprite,Background,Centre,"sb\light.png",320,240 F,0,0,,0 S,0,0,,0.4444444 F,0,59266,59619,1,0 F,0,61737,62090,1,0 F,0,62090,62443,1,0 F,0,64560,64913,1,0 F,0,64913,65266,1,0 F,0,67384,67737,1,0 F,0,67736,68089,1,0 F,0,70559,70912,1,0 F,0,73031,73384,1,0 F,0,73382,73735,1,0 F,0,75854,76207,1,0 F,0,76205,76558,1,0 F,0,78678,79031,1,0 F,0,79028,79381,1,0 F,0,81851,82204,1,0 F,0,84325,84678,1,0 F,0,84674,85027,1,0 F,0,87148,87501,1,0 F,0,87497,87850,1,0 F,0,89972,90325,1,0 F,0,90320,90673,1,0 F,0,93143,93496,1,0 F,0,95619,95972,1,0 F,0,95966,96319,1,0 F,0,98443,98796,1,0 F,0,98789,99142,1,0 F,0,101266,101619,1,0 F,0,101612,101965,1,0
Sprite,Background,Centre,"sb\zoomlight.png",320,240 F,0,0,,0 S,0,0,,0.4444444 F,0,60325,60678,1,0 F,0,63148,63501,1,0 F,0,65971,66324,1,0 F,0,68794,69147,1,0 F,0,71617,71970,1,0 F,0,74440,74793,1,0 F,0,77263,77616,1,0 F,0,80086,80439,1,0 F,0,82909,83262,1,0 F,0,85732,86085,1,0 F,0,88555,88908,1,0 F,0,91378,91731,1,0 F,0,94201,94554,1,0 F,0,97024,97377,1,0 F,0,99847,100200,1,0 F,0,102670,103023,1,0
Sprite,Background,Centre,"sb\desat.png",320,240 S,0,0,,0.4444444 F,0,115736,,0 F,0,115737,160913,1
Sprite,Background,Centre,"sb\pixel.png",320,240 C,0,0,,0,0,0 V,0,0,,1920,1080 F,0,115736,,0 F,0,115737,116443,1,0.5 F,0,117148,117500,0.2,0.5 F,0,118559,118912,0.2,0.5 F,0,119971,120324,0.2,0.5 F,0,121383,121736,0.2,0.5 F,0,122795,123147,0.2,0.5 F,0,124206,124559,0.2,0.5 F,0,125618,125971,0.2,0.5 F,0,127030,127383,0.2,0.5 F,0,128442,128795,0.2,0.5 F,0,129853,130206,0.2,0.5 F,0,131265,131618,0.2,0.5 F,0,132677,133030,0.2,0.5 F,0,134089,134442,0.2,0.5 F,0,135500,135853,0.2,0.5 F,0,136912,137265,0.2,0.5 F,0,138325,138501,0.5,0.8 F,0,138501,149619,0.8
Sprite,Background,Centre,"sb\pixel.png",320,240 C,0,0,,0,0,0 V,0,0,,1920,1080 F,0,149619,,0 F,0,149619,149795,0.8,0.5 F,0,149795,158090,0.5 F,0,158090,160913,0.5,0.3
Sprite,Background,Centre,"sb\normal.png",320,240 F,0,0,,0 S,0,0,,0.4444444 F,0,160913,205384,1 F,0,205384,206090,1,0
Sprite,Background,Centre,"sb\light.png",320,240 F,0,0,,0 S,0,0,,0.4444444 F,0,160913,161266,1,0 F,0,163384,163737,1,0 F,0,163737,164090,1,0 F,0,166207,166560,1,0 F,0,166560,166913,1,0 F,0,169031,169384,1,0 F,0,169383,169736,1,0 F,0,172206,172559,1,0 F,0,174678,175031,1,0 F,0,175029,175382,1,0 F,0,177501,177854,1,0 F,0,177852,178205,1,0 F,0,180325,180678,1,0 F,0,180675,181028,1,0 F,0,183498,183851,1,0 F,0,185972,186325,1,0 F,0,186321,186674,1,0 F,0,188795,189148,1,0 F,0,189144,189497,1,0 F,0,191619,191972,1,0 F,0,191967,192320,1,0 F,0,194790,195143,1,0 F,0,197266,197619,1,0 F,0,197613,197966,1,0 F,0,200090,200443,1,0 F,0,200436,200789,1,0 F,0,202913,203266,1,0 F,0,203259,203612,1,0
Sprite,Background,Centre,"sb\zoomlight.png",320,240 F,0,0,,0 S,0,0,,0.4444444 F,0,161972,162325,1,0 F,0,164795,165148,1,0 F,0,167618,167971,1,0 F,0,170441,170794,1,0 F,0,173264,173617,1,0 F,0,176087,176440,1,0 F,0,178910,179263,1,0 F,0,181733,182086,1,0 F,0,184556,184909,1,0 F,0,187379,187732,1,0 F,0,190202,190555,1,0 F,0,193025,193378,1,0 F,0,195848,196201,1,0 F,0,198671,199024,1,0 F,0,201494,201847,1,0 F,0,204317,204670,1,0
Sprite,Background,Centre,"sb\w\2795\0054.png",66.75,131.5 S,0,2795,,0.5 F,19,2796,3096,0,1 F,0,5619,22560,1 F,0,22560,25384,1,0
Sprite,Background,Centre,"sb\w\2795\0072.png",88.25,131.5 S,0,2795,,0.5 F,19,2798,3098,0,1 F,0,5619,22560,1 F,0,22560,25384,1,0
Sprite,Background,Centre,"sb\w\2795\0065.png",109.75,131.5 S,0,2795,,0.5 F,19,2805,3105,0,1 F,0,5619,22560,1 F,0,22560,25384,1,0
Sprite,Background,Centre,"sb\w\2795\0061.png",129.25,131.5 S,0,2795,,0.5 F,19,2817,3117,0,1 F,0,5619,22560,1 F,0,22560,25384,1,0
Sprite,Background,Centre,"sb\w\2795\0073.png",148.75,131.5 S,0,2795,,0.5 F,19,2834,3134,0,1 F,0,5619,22560,1 F,0,22560,25384,1,0
Sprite,Background,Centre,"sb\w\2795\006f.png",170.25,131.5 S,0,2795,,0.5 F,19,2856,3156,0,1 F,0,5619,22560,1 F,0,22560,25384,1,0
Sprite,Background,Centre,"sb\w\2795\006e.png",192.5,131.5 S,0,2795,,0.5 F,19,2883,3183,0,1 F,0,5619,22560,1 F,0,22560,25384,1,0
Sprite,Background,Centre,"sb\pixel.png",0,0 F,0,2795,,1 MY,0,2795,,129 V,0,2795,,12,21 MX,19,2795,3215,56,210 F,0,3215,3568,0 F,0,3568,3921,1 F,0,3921,4274,0 F,0,4274,4627,1 F,0,4627,4980,0 F,0,4980,5333,1
Sprite,Background,Centre,"sb\w\5619\0044.png",64.5,158 S,0,5619,,0.5 F,19,5620,5920,0,1 F,0,8162,22560,1 F,0,22560,25384,1,0
Sprite,Background,Centre,"sb\w\5619\0069.png",74,158 S,0,5619,,0.5 F,19,5622,5922,0,1 F,0,8162,22560,1 F,0,22560,25384,1,0
Sprite,Background,Centre,"sb\w\5619\0063.png",83.5,158 S,0,5619,,0.5 F,19,5629,5929,0,1 F,0,8162,22560,1 F,0,22560,25384,1,0
Sprite,Background,Centre,"sb\w\5619\0074.png",98.5,158 S,0,5619,,0.5 F,19,5641,5941,0,1 F,0,8162,22560,1 F,0,22560,25384,1,0
Sprite,Background,Centre,"sb\w\5619\0061.png",112,158 S,0,5619,,0.5 F,19,5658,5958,0,1 F,0,8162,22560,1 F,0,22560,25384,1,0
Sprite,Background,Centre,"sb\w\5619\0074.png",125.5,158 S,0,5619,,0.5 F,19,5680,5980,0,1 F,0,8162,22560,1 F,0,22560,25384,1,0
Sprite,Background,Centre,"sb\w\5619\0065.png",140.5,158 S,0,5619,,0.5 F,19,5707,6007,0,1 F,0,8162,22560,1 F,0,22560,25384,1,0
Sprite,Background,Centre,"sb\pixel.png",0,0 F,0,5619,,1 MY,0,5619,,156 V,0,5619,,12,15 MX,19,5619,6099,50,154 F,0,6099,6452,0 F,0,6452,6805,1 F,0,6805,7158,0 F,0,7158,7511,1 F,0,7511,7864,0 F,0,7864,8217,1
Sprite,Background,Centre,"sb\w\8443\004d.png",65.75,183 S,0,8443,,0.5 F,19,8444,8744,0,1 F,0,11266,22560,1 F,0,22560,25384,1,0
Sprite,Background,Centre,"sb\w\8443\0061.png",80.5,183 S,0,8443,,0.5 F,19,8446,8746,0,1 F,0,11266,22560,1 F,0,22560,25384,1,0
Sprite,Background,Centre,"sb\w\8443\0070.png",94,183 S,0,8443,,0.5 F,19,8453,8753,0,1 F,0,11266,22560,1 F,0,22560,25384,1,0
Sprite,Background,Centre,"sb\w\8443\0070.png",109,183 S,0,8443,,0.5 F,19,8465,8765,0,1 F,0,11266,22560,1 F,0,22560,25384,1,0
Sprite,Background,Centre,"sb\w\8443\0065.png",124,183 S,0,8443,,0.5 F,19,8482,8782,0,1 F,0,11266,22560,1 F,0,22560,25384,1,0
Sprite,Background,Centre,"sb\w\8443\0072.png",139,183 S,0,8443,,0.5 F,19,8504,8804,0,1 F,0,11266,22560,1 F,0,22560,25384,1,0
Sprite,Background,Centre,"sb\w\8443\003a.png",149.5,183 S,0,8443,,0.5 F,19,8531,8831,0,1 F,0,11266,22560,1 F,0,22560,25384,1,0
Sprite,Background,Centre,"sb\w\8443\0052.png",167,183 S,0,8443,,0.5 F,19,8563,8863,0,1 F,0,11266,22560,1 F,0,22560,25384,1,0
Sprite,Background,Centre,"sb\w\8443\0065.png",182,183 S,0,8443,,0.5 F,19,8600,8900,0,1 F,0,11266,22560,1 F,0,22560,25384,1,0
Sprite,Background,Centre,"sb\w\8443\0061.png",195.5,183 S,0,8443,,0.5 F,19,8642,8942,0,1 F,0,11266,22560,1 F,0,22560,25384,1,0
Sprite,Background,Centre,"sb\w\8443\006c.png",209,183 S,0,8443,,0.5 F,19,8689,8989,0,1 F,0,11266,22560,1 F,0,22560,25384,1,0
Sprite,Background,Centre,"sb\w\8443\0061.png",222.5,183 S,0,8443,,0.5 F,19,8741,9041,0,1 F,0,11266,22560,1 F,0,22560,25384,1,0
Sprite,Background,Centre,"sb\w\8443\007a.png",235.25,183 S,0,8443,,0.5 F,19,8798,9098,0,1 F,0,11266,22560,1 F,0,22560,25384,1,0
Sprite,Background,Centre,"sb\w\8443\0079.png",249.5,183 S,0,8443,,0.5 F,19,8860,9160,0,1 F,0,11266,22560,1 F,0,22560,25384,1,0
Sprite,Background,Centre,"sb\pixel.png",0,0 F,0,8443,,1 MY,0,8443,,181 V,0,8443,,12,15 MX,19,8443,9343,57,263 F,0,9343,9696,0 F,0,9696,10049,1 F,0,10049,10402,0 F,0,10402,10755,1 F,0,10755,11108,0 F,0,11108,11461,1
Sprite,Background,Centre,"sb\w\11266\0044.png",64.5,233 S,0,11266,,0.5 F,19,11267,11567,0,1 F,0,14090,22560,1 F,0,22560,25384,1,0
Sprite,Background,Centre,"sb\w\11266\0069.png",74,233 S,0,11266,,0.5 F,19,11269,11569,0,1 F,0,14090,22560,1 F,0,22560,25384,1,0
Sprite,Background,Centre,"sb\w\11266\0066.png",83.5,233 S,0,11266,,0.5 F,19,11276,11576,0,1 F,0,14090,22560,1 F,0,22560,25384,1,0
Sprite,Background,Centre,"sb\w\11266\0066.png",98.5,233 S,0,11266,,0.5 F,19,11288,11588,0,1 F,0,14090,22560,1 F,0,22560,25384,1,0
Sprite,Background,Centre,"sb\w\11266\0069.png",108,233 S,0,11266,,0.5 F,19,11305,11605,0,1 F,0,14090,22560,1 F,0,22560,25384,1,0
Sprite,Background,Centre,"sb\w\11266\0063.png",117.5,233 S,0,11266,,0.5 F,19,11327,11627,0,1 F,0,14090,22560,1 F,0,22560,25384,1,0
Sprite,Background,Centre,"sb\w\11266\0075.png",132.5,233 S,0,11266,,0.5 F,19,11354,11654,0,1 F,0,14090,22560,1 F,0,22560,25384,1,0
Sprite,Background,Centre,"sb\w\11266\006c.png",147.5,233 S,0,11266,,0.5 F,19,11386,11686,0,1 F,0,14090,22560,1 F,0,22560,25384,1,0
Sprite,Background,Centre,"sb\w\11266\0074.png",162.5,233 S,0,11266,,0.5 F,19,11423,11723,0,1 F,0,14090,22560,1 F,0,22560,25384,1,0
Sprite,Background,Centre,"sb\w\11266\0079.png",177.5,233 S,0,11266,,0.5 F,19,11465,11765,0,1 F,0,14090,22560,1 F,0,22560,25384,1,0
Sprite,Background,Centre,"sb\w\11266\003a.png",188,233 S,0,11266,,0.5 F,19,11512,11812,0,1 F,0,14090,22560,1 F,0,22560,25384,1,0
Sprite,Background,Centre,"sb\pixel.png",0,0 F,0,11266,,1 MY,0,11266,,231 V,0,11266,,12,15 MX,19,11266,11926,57,197 F,0,11926,12279,0 F,0,12279,12632,1 F,0,12632,12985,0 F,0,12985,13338,1 F,0,13338,13691,0 F,0,13691,14044,1
Sprite,Background,Centre,"sb\w\14090\0043.png",64.5,258 S,0,14090,,0.5 F,19,14091,14391,0,1 F,0,16913,22560,1 F,0,22560,25384,1,0
Sprite,Background,Centre,"sb\w\14090\006f.png",79.5,258 S,0,14090,,0.5 F,19,14093,14393,0,1 F,0,16913,22560,1 F,0,22560,25384,1,0
Sprite,Background,Centre,"sb\w\14090\006c.png",94.5,258 S,0,14090,,0.5 F,19,14100,14400,0,1 F,0,16913,22560,1 F,0,22560,25384,1,0
Sprite,Background,Centre,"sb\w\14090\006c.png",109.5,258 S,0,14090,,0.5 F,19,14112,14412,0,1 F,0,16913,22560,1 F,0,22560,25384,1,0
Sprite,Background,Centre,"sb\w\14090\0061.png",123,258 S,0,14090,,0.5 F,19,14129,14429,0,1 F,0,16913,22560,1 F,0,22560,25384,1,0
Sprite,Background,Centre,"sb\w\14090\0062.png",136.5,258 S,0,14090,,0.5 F,19,14151,14451,0,1 F,0,16913,22560,1 F,0,22560,25384,1,0
Sprite,Background,Centre,"sb\w\14090\0049.png",153,258 S,0,14090,,0.5 F,19,14178,14478,0,1 F,0,16913,22560,1 F,0,22560,25384,1,0
Sprite,Background,Centre,"sb\w\14090\006e.png",163,258 S,0,14090,,0.5 F,19,14210,14510,0,1 F,0,16913,22560,1 F,0,22560,25384,1,0
Sprite,Background,Centre,"sb\w\14090\0073.png",178.5,258 S,0,14090,,0.5 F,19,14247,14547,0,1 F,0,16913,22560,1 F,0,22560,25384,1,0
Sprite,Background,Centre,"sb\w\14090\0061.png",192,258 S,0,14090,,0.5 F,19,14289,14589,0,1 F,0,16913,22560,1 F,0,22560,25384,1,0
Sprite,Background,Centre,"sb\w\14090\006e.png",206,258 S,0,14090,,0.5 F,19,14336,14636,0,1 F,0,16913,22560,1 F,0,22560,25384,1,0
Sprite,Background,Centre,"sb\w\14090\0065.png",221.5,258 S,0,14090,,0.5 F,19,14388,14688,0,1 F,0,16913,22560,1 F,0,22560,25384,1,0
Sprite,Background,Centre,"sb\pixel.png",0,0 F,0,14090,,1 MY,0,14090,,256 V,0,14090,,12,15 MX,19,14090,14870,57,235 F,0,14870,15223,0 F,0,15223,15576,1 F,0,15576,15929,0 F,0,15929,16282,1 F,0,16282,16635,0 F,0,16635,16988,1
Sprite,Background,Centre,"sb\w\16913\0053.png",64.5,308 S,0,16913,,0.5 F,19,16914,17214,0,1 F,0,19737,22560,1 F,0,22560,25384,1,0
Sprite,Background,Centre,"sb\w\16913\0074.png",79.5,308 S,0,16913,,0.5 F,19,16916,17216,0,1 F,0,19737,22560,1 F,0,22560,25384,1,0
Sprite,Background,Centre,"sb\w\16913\006f.png",94.5,308 S,0,16913,,0.5 F,19,16923,17223,0,1 F,0,19737,22560,1 F,0,22560,25384,1,0
Sprite,Background,Centre,"sb\w\16913\0072.png",109.5,308 S,0,16913,,0.5 F,19,16935,17235,0,1 F,0,19737,22560,1 F,0,22560,25384,1,0
Sprite,Background,Centre,"sb\w\16913\0079.png",124.5,308 S,0,16913,,0.5 F,19,16952,17252,0,1 F,0,19737,22560,1 F,0,22560,25384,1,0
Sprite,Background,Centre,"sb\w\16913\0062.png",139.5,308 S,0,16913,,0.5 F,19,16974,17274,0,1 F,0,19737,22560,1 F,0,22560,25384,1,0
Sprite,Background,Centre,"sb\w\16913\006f.png",154.5,308 S,0,16913,,0.5 F,19,17001,17301,0,1 F,0,19737,22560,1 F,0,22560,25384,1,0
Sprite,Background,Centre,"sb\w\16913\0061.png",168,308 S,0,16913,,0.5 F,19,17033,17333,0,1 F,0,19737,22560,1 F,0,22560,25384,1,0
Sprite,Background,Centre,"sb\w\16913\0072.png",181.5,308 S,0,16913,,0.5 F,19,17070,17370,0,1 F,0,19737,22560,1 F,0,22560,25384,1,0
Sprite,Background,Centre,"sb\w\16913\0064.png",196.5,308 S,0,16913,,0.5 F,19,17112,17412,0,1 F,0,19737,22560,1 F,0,22560,25384,1,0
Sprite,Background,Centre,"sb\w\16913\003a.png",207,308 S,0,16913,,0.5 F,19,17159,17459,0,1 F,0,19737,22560,1 F,0,22560,25384,1,0
Sprite,Background,Centre,"sb\pixel.png",0,0 F,0,16913,,1 MY,0,16913,,306 V,0,16913,,12,15 MX,19,16913,17573,57,216 F,0,17573,17926,0 F,0,17926,18279,1 F,0,18279,18632,0 F,0,18632,18985,1 F,0,18985,19338,0 F,0,19338,19691,1
Sprite,Background,Centre,"sb\w\19737\0045.png",64.5,333 S,0,19737,,0.5 F,19,19738,20038,0,1 F,0,22560,,1 F,0,22560,25384,1,0
Sprite,Background,Centre,"sb\w\19737\006e.png",80,333 S,0,19737,,0.5 F,19,19740,20040,0,1 F,0,22560,,1 F,0,22560,25384,1,0
Sprite,Background,Centre,"sb\w\19737\006b.png",94.75,333 S,0,19737,,0.5 F,19,19747,20047,0,1 F,0,22560,,1 F,0,22560,25384,1,0
Sprite,Background,Centre,"sb\w\19737\0072.png",109,333 S,0,19737,,0.5 F,19,19759,20059,0,1 F,0,22560,,1 F,0,22560,25384,1,0
Sprite,Background,Centre,"sb\w\19737\0079.png",124,333 S,0,19737,,0.5 F,19,19776,20076,0,1 F,0,22560,,1 F,0,22560,25384,1,0
Sprite,Background,Centre,"sb\w\19737\0070.png",139,333 S,0,19737,,0.5 F,19,19798,20098,0,1 F,0,22560,,1 F,0,22560,25384,1,0
Sprite,Background,Centre,"sb\w\19737\0074.png",154,333 S,0,19737,,0.5 F,19,19825,20125,0,1 F,0,22560,,1 F,0,22560,25384,1,0
Sprite,Background,Centre,"sb\w\19737\006f.png",169,333 S,0,19737,,0.5 F,19,19857,20157,0,1 F,0,22560,,1 F,0,22560,25384,1,0
Sprite,Background,Centre,"sb\w\19737\006e.png",184.5,333 S,0,19737,,0.5 F,19,19894,20194,0,1 F,0,22560,,1 F,0,22560,25384,1,0
Sprite,Background,Centre,"sb\pixel.png",0,0 F,0,19737,,1 MY,0,19737,,331 V,0,19737,,12,15 MX,19,19737,20277,57,198.5 F,0,20277,20630,0 F,0,20630,20983,1 F,0,20983,21336,0 F,0,21336,21689,1 F,0,21689,22042,0 F,0,22042,22395,1
Sprite,Background,Centre,"sb\w\208913\0054.png",160,251.5 S,0,208913,,0.5 F,19,208914,209214,0,1 F,0,211737,212089,1,0
Sprite,Background,Centre,"sb\w\208913\0068.png",181.5,251.5 S,0,208913,,0.5 F,19,208916,209216,0,1 F,0,211737,212089,1,0
Sprite,Background,Centre,"sb\w\208913\0061.png",201,251.5 S,0,208913,,0.5 F,19,208923,209223,0,1 F,0,211737,212089,1,0
Sprite,Background,Centre,"sb\w\208913\006e.png",221.25,251.5 S,0,208913,,0.5 F,19,208935,209235,0,1 F,0,211737,212089,1,0
Sprite,Background,Centre,"sb\w\208913\006b.png",242.5,251.5 S,0,208913,,0.5 F,19,208952,209252,0,1 F,0,211737,212089,1,0
Sprite,Background,Centre,"sb\w\208913\0073.png",263,251.5 S,0,208913,,0.5 F,19,208974,209274,0,1 F,0,211737,212089,1,0
Sprite,Background,Centre,"sb\w\208913\0066.png",294.5,251.5 S,0,208913,,0.5 F,19,209001,209301,0,1 F,0,211737,212089,1,0
Sprite,Background,Centre,"sb\w\208913\006f.png",316,251.5 S,0,208913,,0.5 F,19,209033,209333,0,1 F,0,211737,212089,1,0
Sprite,Background,Centre,"sb\w\208913\0072.png",337.5,251.5 S,0,208913,,0.5 F,19,209070,209370,0,1 F,0,211737,212089,1,0
Sprite,Background,Centre,"sb\w\208913\0050.png",369,251.5 S,0,208913,,0.5 F,19,209112,209412,0,1 F,0,211737,212089,1,0
Sprite,Background,Centre,"sb\w\208913\006c.png",390.5,251.5 S,0,208913,,0.5 F,19,209159,209459,0,1 F,0,211737,212089,1,0
Sprite,Background,Centre,"sb\w\208913\0061.png",410,251.5 S,0,208913,,0.5 F,19,209211,209511,0,1 F,0,211737,212089,1,0
Sprite,Background,Centre,"sb\w\208913\0079.png",429.5,251.5 S,0,208913,,0.5 F,19,209268,209568,0,1 F,0,211737,212089,1,0
Sprite,Background,Centre,"sb\w\208913\0069.png",443.25,251.5 S,0,208913,,0.5 F,19,209330,209630,0,1 F,0,211737,212089,1,0
Sprite,Background,Centre,"sb\w\208913\006e.png",457.75,251.5 S,0,208913,,0.5 F,19,209397,209697,0,1 F,0,211737,212089,1,0
Sprite,Background,Centre,"sb\w\208913\0067.png",480,251.5 S,0,208913,,0.5 F,19,209469,209769,0,1 F,0,211737,212089,1,0
Sprite,Background,Centre,"sb\pixel.png",0,0 F,0,208913,,1 MY,0,208913,,249 V,0,208913,,12,21 MX,19,208913,209993,149.25,496.75 F,0,209993,210346,0 F,0,210346,210699,1 F,0,210699,211052,0 F,0,211052,211405,1
Sprite,Background,Centre,"sb\star.png",0,0 M,16,36678,39404,320,240,348.7015,-12.37318 F,0,36678,39404,1,0 S,0,36678,39404,0,0.05
Sprite,Background,Centre,"sb\star.png",0,0 M,16,36728,39286,320,240,225.8344,203.4783 F,0,36728,39286,1,0 S,0,36728,39286,0,0.05
Sprite,Background,Centre,"sb\star.png",0,0 M,16,36778,39684,320,240,478.4108,217.5053 F,0,36778,39684,1,0 S,0,36778,39684,0,0.05
Sprite,Background,Centre,"sb\star.png",0,0 M,16,36828,39101,320,240,200.5637,264.8791 F,0,36828,39101,1,0 S,0,36828,39101,0,0.05
Sprite,Background,Centre,"sb\star.png",0,0 M,16,36878,39510,320,240,485.9509,221.3107 F,0,36878,39510,1,0 S,0,36878,39510,0,0.05
Sprite,Background,Centre,"sb\star.png",0,0 M,16,36928,38958,320,240,584.8868,232.2538 F,0,36928,38958,1,0 S,0,36928,38958,0,0.05
Sprite,Background,Centre,"sb\star.png",0,0 M,16,36978,39655,320,240,372.2395,123.1452 F,0,36978,39655,1,0 S,0,36978,39655,0,0.05
Sprite,Background,Centre,"sb\star.png",0,0 M,16,37028,39876,320,240,610.7817,300.4566 F,0,37028,39876,1,0 S,0,37028,39876,0,0.05
Sprite,Background,Centre,"sb\star.png",0,0 M,16,37078,39777,320,240,485.6672,167.0934 F,0,37078,39777,1,0 S,0,37078,39777,0,0.05
Sprite,Background,Centre,"sb\star.png",0,0 M,16,37128,39815,320,240,482.3642,330.7407 F,0,37128,39815,1,0 S,0,37128,39815,0,0.05
Sprite,Background,Centre,"sb\star.png",0,0 M,16,37178,39365,320,240,272.3927,395.8927 F,0,37178,39365,1,0 S,0,37178,39365,0,0.05
Sprite,Background,Centre,"sb\star.png",0,0 M,16,37228,40216,320,240,337.0862,30.69624 F,0,37228,40216,1,0 S,0,37228,40216,0,0.05
Sprite,Background,Centre,"sb\star.png",0,0 M,16,37278,39308,320,240,239.9036,360.87 F,0,37278,39308,1,0 S,0,37278,39308,0,0.05
Sprite,Background,Centre,"sb\star.png",0,0 M,16,37328,40285,320,240,282.657,68.00726 F,0,37328,40285,1,0 S,0,37328,40285,0,0.05
Sprite,Background,Centre,"sb\star.png",0,0 M,16,37378,39496,320,240,418.4613,174.9664 F,0,37378,39496,1,0 S,0,37378,39496,0,0.05
Sprite,Background,Centre,"sb\star.png",0,0 M,16,37428,40222,320,240,190.8142,275.5954 F,0,37428,40222,1,0 S,0,37428,40222,0,0.05
Sprite,Background,Centre,"sb\star.png",0,0 M,16,37478,39624,320,240,231.3197,296.221 F,0,37478,39624,1,0 S,0,37478,39624,0,0.05
Sprite,Background,Centre,"sb\star.png",0,0 M,16,37528,40246,320,240,116.5827,255.4075 F,0,37528,40246,1,0 S,0,37528,40246,0,0.05
Sprite,Background,Centre,"sb\star.png",0,0 M,16,37578,39772,320,240,442.7603,0.6448114 F,0,37578,39772,1,0 S,0,37578,39772,0,0.05
Sprite,Background,Centre,"sb\star.png",0,0 M,16,37628,40363,320,240,207.2177,1.30322 F,0,37628,40363,1,0 S,0,37628,40363,0,0.05
Sprite,Background,Centre,"sb\star.png",0,0 M,16,37678,40302,320,240,402.3211,176.445 F,0,37678,40302,1,0 S,0,37678,40302,0,0.05
Sprite,Background,Centre,"sb\star.png",0,0 M,16,37728,40624,320,240,357.507,179.7155 F,0,37728,40624,1,0 S,0,37728,40624,0,0.05
Sprite,Background,Centre,"sb\star.png",0,0 M,16,37778,39948,320,240,417.929,53.10187 F,0,37778,39948,1,0 S,0,37778,39948,0,0.05
Sprite,Background,Centre,"sb\star.png",0,0 M,16,37828,40047,320,240,23.04707,274.9279 F,0,37828,40047,1,0 S,0,37828,40047,0,0.05
Sprite,Background,Centre,"sb\star.png",0,0 M,16,37878,40530,320,240,403.5811,26.79774 F,0,37878,40530,1,0 S,0,37878,40530,0,0.05
Sprite,Background,Centre,"sb\star.png",0,0 M,16,37928,40028,320,240,274.3112,12.54333 F,0,37928,40028,1,0 S,0,37928,40028,0,0.05
Sprite,Background,Centre,"sb\star.png",0,0 M,16,37978,40103,320,240,423.0136,496.0551 F,0,37978,40103,1,0 S,0,37978,40103,0,0.05
Sprite,Background,Centre,"sb\star.png",0,0 M,16,38028,40504,320,240,235.4936,404.5712 F,0,38028,40504,1,0 S,0,38028,40504,0,0.05
Sprite,Background,Centre,"sb\star.png",0,0 M,16,38078,40749,320,240,403.6486,95.45965 F,0,38078,40749,1,0 S,0,38078,40749,0,0.05
Sprite,Background,Centre,"sb\star.png",0,0 M,16,38128,40937,320,240,342.5724,-6.970621 F,0,38128,40937,1,0 S,0,38128,40937,0,0.05
Sprite,Background,Centre,"sb\star.png",0,0 M,16,38178,41115,320,240,198.2583,222.4509 F,0,38178,41115,1,0 S,0,38178,41115,0,0.05
Sprite,Background,Centre,"sb\star.png",0,0 M,16,38228,40891,320,240,289.584,369.4753 F,0,38228,40891,1,0 S,0,38228,40891,0,0.05
Sprite,Background,Centre,"sb\star.png",0,0 M,16,38278,41098,320,240,360.5645,336.8479 F,0,38278,41098,1,0 S,0,38278,41098,0,0.05
Sprite,Background,Centre,"sb\star.png",0,0 M,16,38328,40396,320,240,247.8445,47.05029 F,0,38328,40396,1,0 S,0,38328,40396,0,0.05
Sprite,Background,Centre,"sb\star.png",0,0 M,16,38378,41008,320,240,370.3248,516.4569 F,0,38378,41008,1,0 S,0,38378,41008,0,0.05
Sprite,Background,Centre,"sb\star.png",0,0 M,16,38428,41356,320,240,373.4205,201.2412 F,0,38428,41356,1,0 S,0,38428,41356,0,0.05
Sprite,Background,Centre,"sb\star.png",0,0 M,16,38478,41156,320,240,363.2426,298.814 F,0,38478,41156,1,0 S,0,38478,41156,0,0.05
Sprite,Background,Centre,"sb\star.png",0,0 M,16,38528,40634,320,240,513.2717,181.2627 F,0,38528,40634,1,0 S,0,38528,40634,0,0.05
Sprite,Background,Centre,"sb\star.png",0,0 M,16,38578,41068,320,240,281.7801,161.8448 F,0,38578,41068,1,0 S,0,38578,41068,0,0.05
Sprite,Background,Centre,"sb\star.png",0,0 M,16,38628,41197,320,240,241.9056,168.3253 F,0,38628,41197,1,0 S,0,38628,41197,0,0.05
Sprite,Background,Centre,"sb\star.png",0,0 M,16,38678,40683,320,240,402.6347,126.9889 F,0,38678,40683,1,0 S,0,38678,40683,0,0.05
Sprite,Background,Centre,"sb\star.png",0,0 M,16,38728,40790,320,240,286.5036,124.7698 F,0,38728,40790,1,0 S,0,38728,40790,0,0.05
Sprite,Background,Centre,"sb\star.png",0,0 M,16,38778,41736,320,240,94.60001,433.4007 F,0,38778,41736,1,0 S,0,38778,41736,0,0.05
Sprite,Background,Centre,"sb\star.png",0,0 M,16,38828,41350,320,240,200.1024,235.0431 F,0,38828,41350,1,0 S,0,38828,41350,0,0.05
Sprite,Background,Centre,"sb\star.png",0,0 M,16,38878,41409,320,240,307.789,302.8243 F,0,38878,41409,1,0 S,0,38878,41409,0,0.05
Sprite,Background,Centre,"sb\star.png",0,0 M,16,38928,41424,320,240,122.2364,69.67515 F,0,38928,41424,1,0 S,0,38928,41424,0,0.05
Sprite,Background,Centre,"sb\star.png",0,0 M,16,38978,41082,320,240,128.266,375.8788 F,0,38978,41082,1,0 S,0,38978,41082,0,0.05
Sprite,Background,Centre,"sb\star.png",0,0 M,16,39028,41961,320,240,294.4903,162.0689 F,0,39028,41961,1,0 S,0,39028,41961,0,0.05
Sprite,Background,Centre,"sb\star.png",0,0 M,16,39078,41693,320,240,218.1206,4.055973 F,0,39078,41693,1,0 S,0,39078,41693,0,0.05
Sprite,Background,Centre,"sb\star.png",0,0 M,16,39128,41697,320,240,357.1852,325.2424 F,0,39128,41697,1,0 S,0,39128,41697,0,0.05
Sprite,Background,Centre,"sb\star.png",0,0 M,16,39178,41787,320,240,431.9816,237.9697 F,0,39178,41787,1,0 S,0,39178,41787,0,0.05
Sprite,Background,Centre,"sb\star.png",0,0 M,16,39228,41796,320,240,314.4183,304.7599 F,0,39228,41796,1,0 S,0,39228,41796,0,0.05
Sprite,Background,Centre,"sb\star.png",0,0 M,16,39278,42120,320,240,203.2679,87.5611 F,0,39278,42120,1,0 S,0,39278,42120,0,0.05
Sprite,Background,Centre,"sb\star.png",0,0 M,16,39328,41844,320,240,577.8798,376.9746 F,0,39328,41844,1,0 S,0,39328,41844,0,0.05
Sprite,Background,Centre,"sb\star.png",0,0 M,16,39378,41890,320,240,354.2641,158.9446 F,0,39378,41890,1,0 S,0,39378,41890,0,0.05
Sprite,Background,Centre,"sb\star.png",0,0 M,16,39428,42070,320,240,137.5481,177.069 F,0,39428,42070,1,0 S,0,39428,42070,0,0.05
Sprite,Background,Centre,"sb\star.png",0,0 M,16,39478,42150,320,240,224.9961,522.4504 F,0,39478,42150,1,0 S,0,39478,42150,0,0.05
Sprite,Background,Centre,"sb\star.png",0,0 M,16,39528,41592,320,240,154.9379,257.6206 F,0,39528,41592,1,0 S,0,39528,41592,0,0.05
Sprite,Background,Centre,"sb\star.png",0,0 M,16,39578,41794,320,240,328.2968,306.4843 F,0,39578,41794,1,0 S,0,39578,41794,0,0.05
Sprite,Background,Centre,"sb\star.png",0,0 M,16,39628,41778,320,240,166.546,288.7122 F,0,39628,41778,1,0 S,0,39628,41778,0,0.05
Sprite,Background,Centre,"sb\star.png",0,0 M,16,39678,41697,320,240,379.2651,105.4762 F,0,39678,41697,1,0 S,0,39678,41697,0,0.05
Sprite,Background,Centre,"sb\star.png",0,0 M,16,39728,41930,320,240,593.2133,291.366 F,0,39728,41930,1,0 S,0,39728,41930,0,0.05
Sprite,Background,Centre,"sb\star.png",0,0 M,16,39778,42287,320,240,609.7635,228.2901 F,0,39778,42287,1,0 S,0,39778,42287,0,0.05
Sprite,Background,Centre,"sb\star.png",0,0 M,16,39828,41844,320,240,282.2859,449.6346 F,0,39828,41844,1,0 S,0,39828,41844,0,0.05
Sprite,Background,Centre,"sb\star.png",0,0 M,16,39878,42845,320,240,347.253,45.90395 F,0,39878,42845,1,0 S,0,39878,42845,0,0.05
Sprite,Background,Centre,"sb\star.png",0,0 M,16,39928,42252,320,240,473.0815,215.6882 F,0,39928,42252,1,0 S,0,39928,42252,0,0.05
Sprite,Background,Centre,"sb\star.png",0,0 M,16,39978,42863,320,240,310.4756,532.8452 F,0,39978,42863,1,0 S,0,39978,42863,0,0.05
Sprite,Background,Centre,"sb\star.png",0,0 M,16,40028,42160,320,240,439.4271,486.6032 F,0,40028,42160,1,0 S,0,40028,42160,0,0.05
Sprite,Background,Centre,"sb\star.png",0,0 M,16,40078,42960,320,240,360.6263,58.49102 F,0,40078,42960,1,0 S,0,40078,42960,0,0.05
Sprite,Background,Centre,"sb\star.png",0,0 M,16,40128,42642,320,240,457.8145,232.8472 F,0,40128,42642,1,0 S,0,40128,42642,0,0.05
Sprite,Background,Centre,"sb\star.png",0,0 M,16,40178,42211,320,240,480.694,393.1713 F,0,40178,42211,1,0 S,0,40178,42211,0,0.05
Sprite,Background,Centre,"sb\star.png",0,0 M,16,40228,42422,320,240,168.2068,154.9423 F,0,40228,42422,1,0 S,0,40228,42422,0,0.05
Sprite,Background,Centre,"sb\star.png",0,0 M,16,40278,42539,320,240,326.2726,366.845 F,0,40278,42539,1,0 S,0,40278,42539,0,0.05
Sprite,Background,Centre,"sb\star.png",0,0 M,16,40328,43112,320,240,256.8876,186.0943 F,0,40328,43112,1,0 S,0,40328,43112,0,0.05
Sprite,Background,Centre,"sb\star.png",0,0 M,16,40378,42937,320,240,204.7099,419.1011 F,0,40378,42937,1,0 S,0,40378,42937,0,0.05
Sprite,Background,Centre,"sb\star.png",0,0 M,16,40428,42451,320,240,373.274,188.6397 F,0,40428,42451,1,0 S,0,40428,42451,0,0.05
Sprite,Background,Centre,"sb\star.png",0,0 M,16,40478,43188,320,240,161.2942,17.87059 F,0,40478,43188,1,0 S,0,40478,43188,0,0.05
Sprite,Background,Centre,"sb\star.png",0,0 M,16,40528,42783,320,240,205.5429,258.8568 F,0,40528,42783,1,0 S,0,40528,42783,0,0.05
Sprite,Background,Centre,"sb\star.png",0,0 M,16,40578,42773,320,240,49.37875,254.3226 F,0,40578,42773,1,0 S,0,40578,42773,0,0.05
Sprite,Background,Centre,"sb\star.png",0,0 M,16,40628,43265,320,240,232.3026,334.6053 F,0,40628,43265,1,0 S,0,40628,43265,0,0.05
Sprite,Background,Centre,"sb\star.png",0,0 M,16,40678,42922,320,240,90.99233,49.31836 F,0,40678,42922,1,0 S,0,40678,42922,0,0.05
Sprite,Background,Centre,"sb\star.png",0,0 M,16,40728,42729,320,240,606.5396,169.8569 F,0,40728,42729,1,0 S,0,40728,42729,0,0.05
Sprite,Background,Centre,"sb\star.png",0,0 M,16,40778,42935,320,240,524.1215,371.8463 F,0,40778,42935,1,0 S,0,40778,42935,0,0.05
Sprite,Background,Centre,"sb\star.png",0,0 M,16,40828,43018,320,240,370.0672,281.4521 F,0,40828,43018,1,0 S,0,40828,43018,0,0.05
Sprite,Background,Centre,"sb\star.png",0,0 M,16,40878,43610,320,240,360.1183,176.6318 F,0,40878,43610,1,0 S,0,40878,43610,0,0.05
Sprite,Background,Centre,"sb\star.png",0,0 M,16,40928,43570,320,240,330.1404,432.7334 F,0,40928,43570,1,0 S,0,40928,43570,0,0.05
Sprite,Background,Centre,"sb\star.png",0,0 M,16,40978,43815,320,240,70.3027,325.7162 F,0,40978,43815,1,0 S,0,40978,43815,0,0.05
Sprite,Background,Centre,"sb\star.png",0,0 M,16,41028,43935,320,240,77.75902,301.8005 F,0,41028,43935,1,0 S,0,41028,43935,0,0.05
Sprite,Background,Centre,"sb\star.png",0,0 M,16,41078,43418,320,240,101.2913,348.1782 F,0,41078,43418,1,0 S,0,41078,43418,0,0.05
Sprite,Background,Centre,"sb\star.png",0,0 M,16,41128,43775,320,240,88.34302,50.96021 F,0,41128,43775,1,0 S,0,41128,43775,0,0.05
Sprite,Background,Centre,"sb\star.png",0,0 M,16,41178,43267,320,240,524.6464,227.9649 F,0,41178,43267,1,0 S,0,41178,43267,0,0.05
Sprite,Background,Centre,"sb\star.png",0,0 M,16,41228,44101,320,240,439.3759,380.0193 F,0,41228,44101,1,0 S,0,41228,44101,0,0.05
Sprite,Background,Centre,"sb\star.png",0,0 M,16,41278,43279,320,240,231.2387,73.1395 F,0,41278,43279,1,0 S,0,41278,43279,0,0.05
Sprite,Background,Centre,"sb\star.png",0,0 M,16,41328,43707,320,240,199.1954,476.9858 F,0,41328,43707,1,0 S,0,41328,43707,0,0.05
Sprite,Background,Centre,"sb\star.png",0,0 M,16,41378,44164,320,240,405.8754,82.94456 F,0,41378,44164,1,0 S,0,41378,44164,0,0.05
Sprite,Background,Centre,"sb\star.png",0,0 M,16,41428,43969,320,240,413.6548,393.7165 F,0,41428,43969,1,0 S,0,41428,43969,0,0.05
Sprite,Background,Centre,"sb\star.png",0,0 M,16,41478,44112,320,240,245.7592,412.7203 F,0,41478,44112,1,0 S,0,41478,44112,0,0.05
Sprite,Background,Centre,"sb\star.png",0,0 M,16,41528,43777,320,240,77.80294,301.9724 F,0,41528,43777,1,0 S,0,41528,43777,0,0.05
Sprite,Background,Centre,"sb\star.png",0,0 M,16,41578,44499,320,240,367.5607,365.2756 F,0,41578,44499,1,0 S,0,41578,44499,0,0.05
Sprite,Background,Centre,"sb\star.png",0,0 M,16,41628,43778,320,240,379.6049,446.5726 F,0,41628,43778,1,0 S,0,41628,43778,0,0.05
Sprite,Background,Centre,"sb\star.png",0,0 M,16,41678,44212,320,240,345.7662,64.88545 F,0,41678,44212,1,0 S,0,41678,44212,0,0.05
Sprite,Background,Centre,"sb\star.png",0,0 M,16,41728,44210,320,240,250.5014,268.1947 F,0,41728,44210,1,0 S,0,41728,44210,0,0.05
Sprite,Background,Centre,"sb\star.png",0,0 M,16,41778,43897,320,240,76.01963,139.1557 F,0,41778,43897,1,0 S,0,41778,43897,0,0.05
Sprite,Background,Centre,"sb\star.png",0,0 M,16,41828,44530,320,240,529.0037,260.4315 F,0,41828,44530,1,0 S,0,41828,44530,0,0.05
Sprite,Background,Centre,"sb\star.png",0,0 M,16,41878,44447,320,240,483.8596,233.2143 F,0,41878,44447,1,0 S,0,41878,44447,0,0.05
Sprite,Background,Centre,"sb\star.png",0,0 M,16,41928,44050,320,240,303.4285,318.2648 F,0,41928,44050,1,0 S,0,41928,44050,0,0.05
Sprite,Background,Centre,"sb\star.png",0,0 M,16,41978,44608,320,240,311.2019,488.8445 F,0,41978,44608,1,0 S,0,41978,44608,0,0.05
Sprite,Background,Centre,"sb\star.png",0,0 M,16,42028,44291,320,240,270.0468,257.7111 F,0,42028,44291,1,0 S,0,42028,44291,0,0.05
Sprite,Background,Centre,"sb\star.png",0,0 M,16,42078,44372,320,240,434.9816,7.921915 F,0,42078,44372,1,0 S,0,42078,44372,0,0.05
Sprite,Background,Centre,"sb\star.png",0,0 M,16,42128,44658,320,240,404.998,514.1247 F,0,42128,44658,1,0 S,0,42128,44658,0,0.05
Sprite,Background,Centre,"sb\star.png",0,0 M,16,42178,45123,320,240,528.1489,80.88365 F,0,42178,45123,1,0 S,0,42178,45123,0,0.05
Sprite,Background,Centre,"sb\star.png",0,0 M,16,42228,44694,320,240,158.4836,445.0206 F,0,42228,44694,1,0 S,0,42228,44694,0,0.05
Sprite,Background,Centre,"sb\star.png",0,0 M,16,42278,44829,320,240,210.0645,301.5645 F,0,42278,44829,1,0 S,0,42278,44829,0,0.05
Sprite,Background,Centre,"sb\star.png",0,0 M,16,42328,44718,320,240,239.3266,107.6489 F,0,42328,44718,1,0 S,0,42328,44718,0,0.05
Sprite,Background,Centre,"sb\star.png",0,0 M,16,42378,44978,320,240,560.5009,92.74748 F,0,42378,44978,1,0 S,0,42378,44978,0,0.05
Sprite,Background,Centre,"sb\star.png",0,0 M,16,42428,44727,320,240,199.0147,423.7459 F,0,42428,44727,1,0 S,0,42428,44727,0,0.05
Sprite,Background,Centre,"sb\star.png",0,0 M,16,42478,44944,320,240,371.417,483.6335 F,0,42478,44944,1,0 S,0,42478,44944,0,0.05
Sprite,Background,Centre,"sb\star.png",0,0 M,16,42528,45437,320,240,435.8758,103.5676 F,0,42528,45437,1,0 S,0,42528,45437,0,0.05
Sprite,Background,Centre,"sb\star.png",0,0 M,16,42578,45527,320,240,203.021,242.2186 F,0,42578,45527,1,0 S,0,42578,45527,0,0.05
Sprite,Background,Centre,"sb\star.png",0,0 M,16,42628,44955,320,240,313.0256,336.7489 F,0,42628,44955,1,0 S,0,42628,44955,0,0.05
Sprite,Background,Centre,"sb\star.png",0,0 M,16,42678,45293,320,240,485.0402,132.4326 F,0,42678,45293,1,0 S,0,42678,45293,0,0.05
Sprite,Background,Centre,"sb\star.png",0,0 M,16,42728,45088,320,240,377.8899,8.116925 F,0,42728,45088,1,0 S,0,42728,45088,0,0.05
Sprite,Background,Centre,"sb\star.png",0,0 M,16,42778,44897,320,240,263.3128,190.8923 F,0,42778,44897,1,0 S,0,42778,44897,0,0.05
Sprite,Background,Centre,"sb\star.png",0,0 M,16,42828,45465,320,240,397.5881,64.37514 F,0,42828,45465,1,0 S,0,42828,45465,0,0.05
Sprite,Background,Centre,"sb\star.png",0,0 M,16,42878,45742,320,240,241.7293,315.8597 F,0,42878,45742,1,0 S,0,42878,45742,0,0.05
Sprite,Background,Centre,"sb\star.png",0,0 M,16,42928,45520,320,240,507.7575,344.7479 F,0,42928,45520,1,0 S,0,42928,45520,0,0.05
Sprite,Background,Centre,"sb\star.png",0,0 M,16,42978,45511,320,240,480.8678,490.8497 F,0,42978,45511,1,0 S,0,42978,45511,0,0.05
Sprite,Background,Centre,"sb\star.png",0,0 M,16,43028,45508,320,240,357.4405,293.1339 F,0,43028,45508,1,0 S,0,43028,45508,0,0.05
Sprite,Background,Centre,"sb\star.png",0,0 M,16,43078,46063,320,240,290.9026,291.3259 F,0,43078,46063,1,0 S,0,43078,46063,0,0.05
Sprite,Background,Centre,"sb\star.png",0,0 M,16,43128,45162,320,240,159.715,160.3149 F,0,43128,45162,1,0 S,0,43128,45162,0,0.05
Sprite,Background,Centre,"sb\star.png",0,0 M,16,43178,46037,320,240,398.9499,310.7313 F,0,43178,46037,1,0 S,0,43178,46037,0,0.05
Sprite,Background,Centre,"sb\star.png",0,0 M,16,43228,45385,320,240,440.9259,29.2254 F,0,43228,45385,1,0 S,0,43228,45385,0,0.05
Sprite,Background,Centre,"sb\star.png",0,0 M,16,43278,46032,320,240,369.8179,338.0723 F,0,43278,46032,1,0 S,0,43278,46032,0,0.05
Sprite,Background,Centre,"sb\star.png",0,0 M,16,43328,45451,320,240,237.0559,195.7702 F,0,43328,45451,1,0 S,0,43328,45451,0,0.05
Sprite,Background,Centre,"sb\star.png",0,0 M,16,43378,46107,320,240,354.3019,494.7006 F,0,43378,46107,1,0 S,0,43378,46107,0,0.05
Sprite,Background,Centre,"sb\star.png",0,0 M,16,43428,45828,320,240,308.562,299.918 F,0,43428,45828,1,0 S,0,43428,45828,0,0.05
Sprite,Background,Centre,"sb\star.png",0,0 M,16,43478,45962,320,240,211.496,153.1214 F,0,43478,45962,1,0 S,0,43478,45962,0,0.05
Sprite,Background,Centre,"sb\star.png",0,0 M,16,43528,45943,320,240,407.2244,472.1549 F,0,43528,45943,1,0 S,0,43528,45943,0,0.05
Sprite,Background,Centre,"sb\star.png",0,0 M,16,43578,45680,320,240,238.0293,226.9692 F,0,43578,45680,1,0 S,0,43578,45680,0,0.05
Sprite,Background,Centre,"sb\star.png",0,0 M,16,43628,46383,320,240,293.6086,99.45643 F,0,43628,46383,1,0 S,0,43628,46383,0,0.05
Sprite,Background,Centre,"sb\star.png",0,0 M,16,43678,46134,320,240,258.957,203.7405 F,0,43678,46134,1,0 S,0,43678,46134,0,0.05
Sprite,Background,Centre,"sb\star.png",0,0 M,16,43728,45768,320,240,181.2509,440.7105 F,0,43728,45768,1,0 S,0,43728,45768,0,0.05
Sprite,Background,Centre,"sb\star.png",0,0 M,16,43778,46477,320,240,99.72211,290.5337 F,0,43778,46477,1,0 S,0,43778,46477,0,0.05
Sprite,Background,Centre,"sb\star.png",0,0 M,16,43828,46372,320,240,90.60441,360.2442 F,0,43828,46372,1,0 S,0,43828,46372,0,0.05
Sprite,Background,Centre,"sb\star.png",0,0 M,16,43878,46783,320,240,380.81,100.6941 F,0,43878,46783,1,0 S,0,43878,46783,0,0.05
Sprite,Background,Centre,"sb\star.png",0,0 M,16,43928,46509,320,240,343.3449,475.8474 F,0,43928,46509,1,0 S,0,43928,46509,0,0.05
Sprite,Background,Centre,"sb\star.png",0,0 M,16,43978,46901,320,240,515.7371,229.8508 F,0,43978,46901,1,0 S,0,43978,46901,0,0.05
Sprite,Background,Centre,"sb\star.png",0,0 M,16,44028,46080,320,240,419.8874,398.087 F,0,44028,46080,1,0 S,0,44028,46080,0,0.05
Sprite,Background,Centre,"sb\star.png",0,0 M,16,44078,47043,320,240,175.2147,308.0971 F,0,44078,47043,1,0 S,0,44078,47043,0,0.05
Sprite,Background,Centre,"sb\star.png",0,0 M,16,44128,47051,320,240,280.0286,191.3042 F,0,44128,47051,1,0 S,0,44128,47051,0,0.05
Sprite,Background,Centre,"sb\star.png",0,0 M,16,44178,46485,320,240,518.1726,16.10582 F,0,44178,46485,1,0 S,0,44178,46485,0,0.05
Sprite,Background,Centre,"sb\star.png",0,0 M,16,44228,46682,320,240,499.1125,360.7257 F,0,44228,46682,1,0 S,0,44228,46682,0,0.05
Sprite,Background,Centre,"sb\star.png",0,0 M,16,44278,47270,320,240,530.4766,310.5945 F,0,44278,47270,1,0 S,0,44278,47270,0,0.05
Sprite,Background,Centre,"sb\star.png",0,0 M,16,44328,47210,320,240,202.5203,431.8945 F,0,44328,47210,1,0 S,0,44328,47210,0,0.05
Sprite,Background,Centre,"sb\star.png",0,0 M,16,44378,47193,320,240,38.01728,206.2103 F,0,44378,47193,1,0 S,0,44378,47193,0,0.05
Sprite,Background,Centre,"sb\star.png",0,0 M,16,44428,46612,320,240,187.4652,357.318 F,0,44428,46612,1,0 S,0,44428,46612,0,0.05
Sprite,Background,Centre,"sb\star.png",0,0 M,16,44478,46855,320,240,186.1585,360.3597 F,0,44478,46855,1,0 S,0,44478,46855,0,0.05
Sprite,Background,Centre,"sb\star.png",0,0 M,16,44528,46818,320,240,384.8258,-9.723079 F,0,44528,46818,1,0 S,0,44528,46818,0,0.05
Sprite,Background,Centre,"sb\star.png",0,0 M,16,44578,47306,320,240,172.8112,206.2886 F,0,44578,47306,1,0 S,0,44578,47306,0,0.05
Sprite,Background,Centre,"sb\star.png",0,0 M,16,44628,47052,320,240,285.4683,298.5796 F,0,44628,47052,1,0 S,0,44628,47052,0,0.05
Sprite,Background,Centre,"sb\star.png",0,0 M,16,44678,47594,320,240,179.1538,40.75554 F,0,44678,47594,1,0 S,0,44678,47594,0,0.05
Sprite,Background,Centre,"sb\star.png",0,0 M,16,44728,47551,320,240,377.7652,147.5652 F,0,44728,47551,1,0 S,0,44728,47551,0,0.05
Sprite,Background,Centre,"sb\star.png",0,0 M,16,44778,47335,320,240,312.6931,78.16487 F,0,44778,47335,1,0 S,0,44778,47335,0,0.05
Sprite,Background,Centre,"sb\star.png",0,0 M,16,44828,47549,320,240,501.9504,315.5186 F,0,44828,47549,1,0 S,0,44828,47549,0,0.05
Sprite,Background,Centre,"sb\star.png",0,0 M,16,44878,47060,320,240,364.7087,199.9859 F,0,44878,47060,1,0 S,0,44878,47060,0,0.05
Sprite,Background,Centre,"sb\star.png",0,0 M,16,44928,47582,320,240,235.7995,170.781 F,0,44928,47582,1,0 S,0,44928,47582,0,0.05
Sprite,Background,Centre,"sb\star.png",0,0 M,16,44978,47619,320,240,543.6271,139.9205 F,0,44978,47619,1,0 S,0,44978,47619,0,0.05
Sprite,Background,Centre,"sb\star.png",0,0 M,16,45028,47073,320,240,138.2679,200.3838 F,0,45028,47073,1,0 S,0,45028,47073,0,0.05
Sprite,Background,Centre,"sb\star.png",0,0 M,16,45078,47335,320,240,346.9346,286.8031 F,0,45078,47335,1,0 S,0,45078,47335,0,0.05
Sprite,Background,Centre,"sb\star.png",0,0 M,16,45128,47202,320,240,302.6368,470.3465 F,0,45128,47202,1,0 S,0,45128,47202,0,0.05
Sprite,Background,Centre,"sb\star.png",0,0 M,16,45178,47736,320,240,176.4518,114.0043 F,0,45178,47736,1,0 S,0,45178,47736,0,0.05
Sprite,Background,Centre,"sb\star.png",0,0 M,16,45228,47944,320,240,578.6845,106.7209 F,0,45228,47944,1,0 S,0,45228,47944,0,0.05
Sprite,Background,Centre,"sb\star.png",0,0 M,16,45278,47963,320,240,233.6316,-45.20958 F,0,45278,47963,1,0 S,0,45278,47963,0,0.05
Sprite,Background,Centre,"sb\star.png",0,0 M,16,45328,48008,320,240,511.9403,314.7991 F,0,45328,48008,1,0 S,0,45328,48008,0,0.05
Sprite,Background,Centre,"sb\star.png",0,0 M,16,45378,48019,320,240,514.9388,151.7114 F,0,45378,48019,1,0 S,0,45378,48019,0,0.05
Sprite,Background,Centre,"sb\star.png",0,0 M,16,45428,47748,320,240,339.6038,165.5373 F,0,45428,47748,1,0 S,0,45428,47748,0,0.05
Sprite,Background,Centre,"sb\star.png",0,0 M,16,45478,48384,320,240,353.2657,299.3076 F,0,45478,48384,1,0 S,0,45478,48384,0,0.05
Sprite,Background,Centre,"sb\star.png",0,0 M,16,45528,48454,320,240,255.2907,476.3 F,0,45528,48454,1,0 S,0,45528,48454,0,0.05
Sprite,Background,Centre,"sb\star.png",0,0 M,16,45578,47979,320,240,352.9782,504.9555 F,0,45578,47979,1,0 S,0,45578,47979,0,0.05
Sprite,Background,Centre,"sb\star.png",0,0 M,16,45628,47745,320,240,356.0663,427.5639 F,0,45628,47745,1,0 S,0,45628,47745,0,0.05
Sprite,Background,Centre,"sb\star.png",0,0 M,16,45678,48350,320,240,293.4268,72.08971 F,0,45678,48350,1,0 S,0,45678,48350,0,0.05
Sprite,Background,Centre,"sb\star.png",0,0 M,16,45728,48208,320,240,409.2219,251.8094 F,0,45728,48208,1,0 S,0,45728,48208,0,0.05
Sprite,Background,Centre,"sb\star.png",0,0 M,16,45778,48225,320,240,467.9117,315.3534 F,0,45778,48225,1,0 S,0,45778,48225,0,0.05
Sprite,Background,Centre,"sb\star.png",0,0 M,16,45828,48787,320,240,331.4849,531.774 F,0,45828,48787,1,0 S,0,45828,48787,0,0.05
Sprite,Background,Centre,"sb\star.png",0,0 M,16,45878,48784,320,240,482.6624,480.0853 F,0,45878,48784,1,0 S,0,45878,48784,0,0.05
Sprite,Background,Centre,"sb\star.png",0,0 M,16,45928,48801,320,240,435.5758,144.3849 F,0,45928,48801,1,0 S,0,45928,48801,0,0.05
Sprite,Background,Centre,"sb\star.png",0,0 M,16,45978,48579,320,240,558.8431,86.34469 F,0,45978,48579,1,0 S,0,45978,48579,0,0.05
Sprite,Background,Centre,"sb\star.png",0,0 M,16,46028,48403,320,240,266.7014,165.0116 F,0,46028,48403,1,0 S,0,46028,48403,0,0.05
Sprite,Background,Centre,"sb\star.png",0,0 M,16,46078,48171,320,240,364.1133,36.73166 F,0,46078,48171,1,0 S,0,46078,48171,0,0.05
Sprite,Background,Centre,"sb\star.png",0,0 M,16,46128,48450,320,240,425.7277,312.1503 F,0,46128,48450,1,0 S,0,46128,48450,0,0.05
Sprite,Background,Centre,"sb\star.png",0,0 M,16,46178,48871,320,240,149.2287,325.5463 F,0,46178,48871,1,0 S,0,46178,48871,0,0.05
Sprite,Background,Centre,"sb\star.png",0,0 M,16,46228,48711,320,240,352.2589,280.7843 F,0,46228,48711,1,0 S,0,46228,48711,0,0.05
Sprite,Background,Centre,"sb\star.png",0,0 M,16,46278,48612,320,240,230.0723,243.6066 F,0,46278,48612,1,0 S,0,46278,48612,0,0.05
Sprite,Background,Centre,"sb\star.png",0,0 M,16,46328,49239,320,240,151.697,31.43799 F,0,46328,49239,1,0 S,0,46328,49239,0,0.05
Sprite,Background,Centre,"sb\star.png",0,0 M,16,46378,49093,320,240,545.5183,415.8906 F,0,46378,49093,1,0 S,0,46378,49093,0,0.05
Sprite,Background,Centre,"sb\star.png",0,0 M,16,46428,49352,320,240,344.1686,190.5948 F,0,46428,49352,1,0 S,0,46428,49352,0,0.05
Sprite,Background,Centre,"sb\star.png",0,0 M,16,46478,48615,320,240,142.784,276.8168 F,0,46478,48615,1,0 S,0,46478,48615,0,0.05
Sprite,Background,Centre,"sb\star.png",0,0 M,16,46528,48868,320,240,197.438,109.541 F,0,46528,48868,1,0 S,0,46528,48868,0,0.05
Sprite,Background,Centre,"sb\hit\r.png",297,119 F,6,47972,49377,1,0 S,7,47972,49377,0.25,0.5
Sprite,Background,Centre,"sb\hit\r.png",320,368 F,6,49384,50084,1,0 S,7,49384,50084,0.25,0.5
Sprite,Background,Centre,"sb\hit\r.png",320,368 F,6,50090,50790,1,0 S,7,50090,50790,0.25,0.5
Sprite,Background,Centre,"sb\hit\r.png",390,147 F,6,50795,51495,1,0 S,7,50795,51495,0.25,0.5
Sprite,Background,Centre,"sb\hit\r.png",390,147 F,6,51501,52201,1,0 S,7,51501,52201,0.25,0.5
Sprite,Background,Centre,"sb\hit\r.png",242,280 F,6,52207,52907,1,0 S,7,52207,52907,0.25,0.5
Sprite,Background,Centre,"sb\hit\r.png",242,280 F,6,52913,53613,1,0 S,7,52913,53613,0.25,0.5
Sprite,Background,Centre,"sb\hit\r.png",76,131 F,6,53619,54671,1,0 S,7,53619,54671,0.25,0.5
Sprite,Background,Centre,"sb\hit\r.png",83,210 F,6,54325,55377,1,0 S,7,54325,55377,0.25,0.5
Sprite,Background,Centre,"sb\hit\r.png",340,116 F,6,55031,55731,1,0 S,7,55031,55731,0.25,0.5
Sprite,Background,Centre,"sb\hit\r.png",340,116 F,6,55031,55731,1,0 S,7,55031,55731,0.25,0.5
Sprite,Background,Centre,"sb\hit\r.png",455,217 F,6,55737,56789,1,0 S,7,55737,56789,0.25,0.5
Sprite,Background,Centre,"sb\hit\r.png",176,405 F,6,56443,57143,1,0 S,7,56443,57143,0.25,0.5
Sprite,Background,Centre,"sb\hit\r.png",176,405 F,6,56443,57143,1,0 S,7,56443,57143,0.25,0.5
Sprite,Background,Centre,"sb\hit\r.png",166,330 F,6,56619,57319,1,0 S,7,56619,57319,0.25,0.5
Sprite,Background,Centre,"sb\hit\r.png",251,395 F,6,56795,57495,1,0 S,7,56795,57495,0.25,0.5
Sprite,Background,Centre,"sb\hit\r.png",241,320 F,6,56971,57671,1,0 S,7,56971,57671,0.25,0.5
Sprite,Background,Centre,"sb\hit\r.png",167,416 F,6,57148,57848,1,0 S,7,57148,57848,0.25,0.5
Sprite,Background,Centre,"sb\hit\r.png",157,341 F,6,57324,58024,1,0 S,7,57324,58024,0.25,0.5
Sprite,Background,Centre,"sb\hit\r.png",242,406 F,6,57501,58201,1,0 S,7,57501,58201,0.25,0.5
Sprite,Background,Centre,"sb\hit\r.png",232,331 F,6,57678,58378,1,0 S,7,57678,58378,0.25,0.5
Sprite,Background,Centre,"sb\hit\h.png",90,295 F,7,57854,59118,1,0 S,7,57854,59118,0.7,1.4
Sprite,Background,Centre,"sb\hit\h.png",158,234 F,7,58207,59471,1,0 S,7,58207,59471,0.7,1.4
Sprite,Background,Centre,"sb\hit\h.png",112,147 F,7,58560,59560,1,0 S,7,58560,59560,0.7,1.4
Sprite,Background,Centre,"sb\hit\h.png",136,133 F,7,58648,59648,1,0 S,7,58648,59648,0.7,1.4
Sprite,Background,Centre,"sb\hit\h.png",164,129 F,7,58736,59736,1,0 S,7,58736,59736,0.7,1.4
Sprite,Background,Centre,"sb\hit\h.png",191,136 F,7,58824,59824,1,0 S,7,58824,59824,0.7,1.4
Sprite,Background,Centre,"sb\hit\h.png",214,151 F,7,58912,59912,1,0 S,7,58912,59912,0.7,1.4
Sprite,Background,Centre,"sb\hit\h.png",237,166 F,7,59002,60002,1,0 S,7,59002,60002,0.7,1.4
Sprite,Background,Centre,"sb\hit\h.png",264,173 F,7,59090,60090,1,0 S,7,59090,60090,0.7,1.4
Sprite,Background,Centre,"sb\hit\h.png",292,169 F,7,59178,60178,1,0 S,7,59178,60178,0.7,1.4
Sprite,Background,Centre,"sb\bar.png",0,0 M,0,59266,,316,155 C,0,59266,,86,191,237 V,0,59266,,35,1 M,0,59266,59288,316,155,328.0169,147.7272 M,0,59288,59310,328.0169,147.7272,341.0958,142.6105 M,0,59310,59332,341.0958,142.6105,354.8666,139.8493 M,0,59332,59354,354.8666,139.8493,368.9063,139.3611 M,0,59354,59376,368.9063,139.3611,382.8776,140.867 M,0,59376,59398,382.8776,140.867,396.576,144.015 M,0,59398,59420,396.576,144.015,396.6614,149.6975 M,0,59420,59442,396.6614,149.6975,384.5145,156.7832 M,0,59442,59531,384.5145,156.7832,489,137 M,0,59531,59553,489,137,476.9831,144.2728 M,0,59553,59575,476.9831,144.2728,463.9042,149.3895 M,0,59575,59597,463.9042,149.3895,450.1334,152.1507 M,0,59597,59619,450.1334,152.1507,436.0937,152.6389 M,0,59619,59641,436.0937,152.6389,422.1224,151.133 M,0,59641,59663,422.1224,151.133,408.424,147.985 M,0,59663,59685,408.424,147.985,408.3386,142.3025 M,0,59685,59707,408.3386,142.3025,420.4855,135.2168 M,0,59707,59795,420.4855,135.2168,386,74 M,0,59795,59972,386,74,415,221 M,0,59972,60148,415,221,397,62 M,0,60148,60170,397,62,395.56,75.98858 M,0,60170,60192,395.56,75.98858,394.12,89.97716 M,0,60192,60214,394.12,89.97716,392.68,103.9657 M,0,60214,60236,392.68,103.9657,391.24,117.9543 M,0,60236,60258,391.24,117.9543 M,0,60236,60325,391.24,117.9543,438,239 M,0,60325,60347,438,239,450.2796,233.554 M,0,60347,60369,450.2796,233.554,458.3291,223.2024 M,0,60369,60391,458.3291,223.2024,459.194,209.8093 M,0,60391,60413,459.194,209.8093,451.1599,199.1233 M,0,60413,60435,451.1599,199.1233,439.1555,194.2025 M,0,60435,60457,439.1555,194.2025,426.2693,196.8706 M,0,60457,60479,426.2693,196.8706,416.8825,206.566 M,0,60479,60501,416.8825,206.566,414.9637,220.2082 M,0,60501,60523,414.9637,220.2082 M,0,60501,61031,414.9637,220.2082,414,220 M,0,61031,61053,414,220,427.4517,224.0294 M,0,61053,61075,427.4517,224.0294,441.1989,226.8366 M,0,61075,61097,441.1989,226.8366,455.176,228.1556 M,0,61097,61119,455.176,228.1556,469,228 M,0,61119,61141,469,228 M,0,61119,61207,469,228,410,332 M,0,61207,61229,410,332,423.5276,328.3225 M,0,61229,61251,423.5276,328.3225,437.3698,325.9886 M,0,61251,61273,437.3698,325.9886,451.383,326.3481 M,0,61273,61295,451.383,326.3481,465,328 M,0,61295,61317,465,328 M,0,61295,61384,465,328,528,280 M,0,61384,61560,528,280,350,277 M,0,61560,61582,350,277,335.9611,276.1862 M,0,61582,61604,335.9611,276.1862,321.9221,275.3723 M,0,61604,61626,321.9221,275.3723,307.8832,274.5584 M,0,61626,61648,307.8832,274.5584,293.8443,273.7446 M,0,61648,61670,293.8443,273.7446 M,0,61648,61737,293.8443,273.7446,357,267 M,0,61737,61759,357,267,342.9548,266.3027 M,0,61759,61781,342.9548,266.3027,328.9096,265.6054 M,0,61781,61803,328.9096,265.6054,314.8644,264.9081 M,0,61803,61825,314.8644,264.9081,300.8192,264.2109 M,0,61825,61847,300.8192,264.2109,286.774,263.5136 M,0,61847,61869,286.774,263.5136,272.7288,262.8163 M,0,61869,61891,272.7288,262.8163,258.6836,262.119 M,0,61891,61913,258.6836,262.119,244.6384,261.4218 M,0,61913,61935,244.6384,261.4218,230.5932,260.7245 M,0,61935,61957,230.5932,260.7245,216.548,260.0272 M,0,61957,61979,216.548,260.0272,222.2086,272.0032 M,0,61979,62001,222.2086,272.0032,228.6692,284.4938 M,0,62001,62023,228.6692,284.4938 M,0,62001,62090,228.6692,284.4938,230,353 M,0,62090,62112,230,353,237.2728,340.9831 M,0,62112,62134,237.2728,340.9831,242.3895,327.9042 M,0,62134,62156,242.3895,327.9042,245.1507,314.1334 M,0,62156,62178,245.1507,314.1334,245.6389,300.0937 M,0,62178,62200,245.6389,300.0937,244.133,286.1224 M,0,62200,62222,244.133,286.1224,240.9849,272.424 M,0,62222,62244,240.9849,272.424,235.3025,272.3386 M,0,62244,62266,235.3025,272.3386,228.2168,284.4855 M,0,62266,62355,228.2168,284.4855,248,180 M,0,62355,62377,248,180,240.7272,192.0169 M,0,62377,62399,240.7272,192.0169,235.6105,205.0958 M,0,62399,62421,235.6105,205.0958,232.8493,218.8666 M,0,62421,62443,232.8493,218.8666,232.3611,232.9063 M,0,62443,62465,232.3611,232.9063,233.867,246.8776 M,0,62465,62487,233.867,246.8776,237.015,260.576 M,0,62487,62509,237.015,260.576,242.6975,260.6614 M,0,62509,62531,242.6975,260.6614,249.7832,248.5145 M,0,62531,62619,249.7832,248.5145,311,218 M,0,62619,62795,311,218,164,262 M,0,62795,62972,164,262,320,231 M,0,62972,62994,320,231,306.0788,229.0113 M,0,62994,63016,306.0788,229.0113,292.1577,227.0225 M,0,63016,63038,292.1577,227.0225,278.2365,225.0338 M,0,63038,63060,278.2365,225.0338,264.3153,223.045 M,0,63060,63082,264.3153,223.045 M,0,63060,63148,264.3153,223.045,141,281 M,0,63148,63170,141,281,128.4876,276.1349 M,0,63170,63192,128.4876,276.1349,119.8733,266.2209 M,0,63192,63214,119.8733,266.2209,118.2175,252.808 M,0,63214,63236,118.2175,252.808,125.7899,241.7816 M,0,63236,63258,125.7899,241.7816,137.483,236.0721 M,0,63258,63280,137.483,236.0721,150.6634,237.8671 M,0,63280,63302,150.6634,237.8671,159.6372,247.7368 M,0,63302,63324,159.6372,247.7368,163.1094,260.6659 M,0,63324,63346,163.1094,260.6659 M,0,63324,63678,163.1094,260.6659,163,261 M,0,63678,63700,163,261,162.9483,246.9389 M,0,63700,63722,162.9483,246.9389,162.605,232.8823 M,0,63722,63744,162.605,232.8823,161.9043,218.838 M,0,63744,63766,161.9043,218.838,160.7434,204.8248 M,0,63766,63788,160.7434,204.8248,159.2875,190.8397 M,0,63788,63810,159.2875,190.8397,157.4763,176.8952 M,0,63810,63832,157.4763,176.8952,155.2134,163.0173 M,0,63832,63854,155.2134,163.0173,152.6541,149.1916 M,0,63854,63876,152.6541,149.1916,152.6541,149.1915 M,0,63854,64031,152.6541,149.1915,295,125 M,0,64031,64053,295,125,295.5903,139.0447 M,0,64053,64075,295.5903,139.0447,296.6727,153.062 M,0,64075,64097,296.6727,153.062,298.686,166.974 M,0,64097,64119,298.686,166.974,301,180 M,0,64119,64141,301,180 M,0,64119,64207,301,180,232,194 M,0,64207,64384,232,194,368,145 M,0,64384,64406,368,145,381.3864,141.9361 M,0,64406,64428,381.3864,141.9361,394.8261,143.7288 M,0,64428,64450,394.8261,143.7288,406.4174,151.0571 M,0,64450,64472,406.4174,151.0571,413.8999,162.7869 M,0,64472,64494,413.8999,162.7869 M,0,64472,64560,413.8999,162.7869,375,131 M,0,64560,64582,375,131,389.0082,131.7687 M,0,64582,64604,389.0082,131.7687,402.3999,135.9294 M,0,64604,64626,402.3999,135.9294,414.3049,143.3415 M,0,64626,64648,414.3049,143.3415,424.0352,153.4469 M,0,64648,64670,424.0352,153.4469,431.2169,165.5034 M,0,64670,64692,431.2169,165.5034,435.7106,178.8023 M,0,64692,64714,435.7106,178.8023,437.5261,192.725 M,0,64714,64736,437.5261,192.725,436.7633,206.7474 M,0,64736,64758,436.7633,206.7474,433.5999,220.4319 M,0,64758,64780,433.5999,220.4319,428.2841,233.4353 M,0,64780,64802,428.2841,233.4353,415.6311,239.233 M,0,64802,64824,415.6311,239.233,402.68,244.7123 M,0,64824,64846,402.68,244.7123 M,0,64824,64913,402.68,244.7123,325,306 M,0,64913,64935,325,306,321.7251,292.3372 M,0,64935,64957,321.7251,292.3372,320.912,278.3245 M,0,64957,64979,320.912,278.3245,323.5586,264.5618 M,0,64979,65001,323.5586,264.5618,330.1994,252.2314 M,0,65001,65023,330.1994,252.2314,333.8666,261.03 M,0,65023,65045,333.8666,261.03,338.47,274.291 M,0,65045,65067,338.47,274.291,345.9243,286.1736 M,0,65067,65089,345.9243,286.1736,356.0529,295.8777 M,0,65089,65111,356.0529,295.8777,356.053,295.8777 M,0,65089,65178,356.053,295.8777,375,365 M,0,65178,65200,375,365,377.9664,378.7315 M,0,65200,65222,377.9664,378.7315,378.3466,392.7603 M,0,65222,65244,378.3466,392.7603,375.2058,406.4184 M,0,65244,65266,375.2058,406.4184,368.1975,418.5489 M,0,65266,65288,368.1975,418.5489,364.8965,408.0127 M,0,65288,65310,364.8965,408.0127,360.1024,394.8204 M,0,65310,65332,360.1024,394.8204,352.4467,383.0668 M,0,65332,65354,352.4467,383.0668,342.1542,373.5358 M,0,65354,65376,342.1542,373.5358 M,0,65354,65443,342.1542,373.5358,275,362 M,0,65443,65619,275,362,427,311 M,0,65619,65795,427,311,258,349 M,0,65795,65817,258,349,272.0333,348.0946 M,0,65817,65839,272.0333,348.0946,286.0667,347.1892 M,0,65839,65861,286.0667,347.1892,300.1,346.2839 M,0,65861,65883,300.1,346.2839,314.1333,345.3785 M,0,65883,65905,314.1333,345.3785 M,0,65883,65972,314.1333,345.3785,465,330 M,0,65972,65994,465,330,464.1828,315.9687 M,0,65994,66016,464.1828,315.9687,464.877,301.9296 M,0,66016,66038,464.877,301.9296,466.9327,288.0232 M,0,66038,66060,466.9327,288.0232,469.644,275.579 M,0,66060,66082,469.644,275.579,461.1824,286.786 M,0,66082,66104,461.1824,286.786,450.8915,296.3459 M,0,66104,66126,450.8915,296.3459,439.2492,304.2122 M,0,66126,66148,439.2492,304.2122,426.6929,310.5263 M,0,66148,66170,426.6929,310.5263 M,0,66148,66501,426.6929,310.5263,427,311 M,0,66501,66523,427,311,428.7178,297.0428 M,0,66523,66545,428.7178,297.0428,430.4356,283.0856 M,0,66545,66567,430.4356,283.0856,432.1534,269.1284 M,0,66567,66589,432.1534,269.1284,433.8712,255.1713 M,0,66589,66611,433.8712,255.1713,433.8712,255.1712 M,0,66589,66678,433.8712,255.1712,393,146 M,0,66678,66700,393,146,384.9227,157.3768 M,0,66700,66722,384.9227,157.3768,379.1357,170.0362 M,0,66722,66744,379.1357,170.0362,377.0927,183.8203 M,0,66744,66766,377.0927,183.8203,378.0496,197.6565 M,0,66766,66788,378.0496,197.6565 M,0,66766,66854,378.0496,197.6565,506,215 M,0,66854,66876,506,215,508.4514,201.2019 M,0,66876,66898,508.4514,201.2019,509.0358,187.2237 M,0,66898,66920,509.0358,187.2237,507.3518,173.3074 M,0,66920,66942,507.3518,173.3074,503.3083,159.8616 M,0,66942,66964,503.3083,159.8616 M,0,66942,67031,503.3083,159.8616,444,190 M,0,67031,67207,444,190,436,320 M,0,67207,67229,436,320,437.7178,306.0428 M,0,67229,67251,437.7178,306.0428,439.4356,292.0856 M,0,67251,67273,439.4356,292.0856,441.1534,278.1284 M,0,67273,67295,441.1534,278.1284,442.8712,264.1713 M,0,67295,67317,442.8712,264.1713 M,0,67295,67384,442.8712,264.1713,445,330 M,0,67384,67406,445,330,446.6032,316.0292 M,0,67406,67428,446.6032,316.0292,448.2064,302.0584 M,0,67428,67450,448.2064,302.0584,449.8096,288.0876 M,0,67450,67472,449.8096,288.0876,451.4128,274.1168 M,0,67472,67494,451.4128,274.1168,443.491,271.6503 M,0,67494,67516,443.491,271.6503,430.0648,275.8323 M,0,67516,67538,430.0648,275.8323,416.6385,280.0143 M,0,67538,67560,416.6385,280.0143,403.2122,284.1962 M,0,67560,67582,403.2122,284.1962,389.7859,288.3782 M,0,67582,67604,389.7859,288.3782,376.3596,292.5601 M,0,67604,67626,376.3596,292.5601,362.9333,296.7421 M,0,67626,67648,362.9333,296.7421,349.507,300.924 M,0,67648,67670,349.507,300.924 M,0,67648,67737,349.507,300.924,299,244 M,0,67737,67759,299,244,301.9197,230.2568 M,0,67759,67781,301.9197,230.2568,302.4021,216.2279 M,0,67781,67803,302.4021,216.2279,299.5205,202.5095 M,0,67803,67825,299.5205,202.5095,292.7951,190.2209 M,0,67825,67847,292.7951,190.2209,289.1306,199.0413 M,0,67847,67869,289.1306,199.0413,284.525,212.3015 M,0,67869,67891,284.525,212.3015,277.0684,224.1827 M,0,67891,67913,277.0684,224.1827,266.9377,233.8847 M,0,67913,67935,266.9377,233.8847 M,0,67913,68002,266.9377,233.8847,249,303 M,0,68002,68024,249,303,245.6702,316.6477 M,0,68024,68046,245.6702,316.6477,244.9532,330.6622 M,0,68046,68068,244.9532,330.6622,247.8625,344.3682 M,0,68068,68090,247.8625,344.3682,254.7949,356.538 M,0,68090,68112,254.7949,356.538,258.1002,346.0255 M,0,68112,68134,258.1002,346.0255,262.8917,332.8323 M,0,68134,68156,262.8917,332.8323,270.5447,321.0769 M,0,68156,68178,270.5447,321.0769,280.835,311.5435 M,0,68178,68200,280.835,311.5435 M,0,68178,68267,280.835,311.5435,349,300 M,0,68267,68443,349,300,197,247 M,0,68443,68619,197,247,363,309 M,0,68619,68641,363,309,349.0311,310.6196 M,0,68641,68663,349.0311,310.6196,335.0621,312.2392 M,0,68663,68685,335.0621,312.2392,321.0932,313.8588 M,0,68685,68707,321.0932,313.8588,307.1243,315.4783 M,0,68707,68729,307.1243,315.4783 M,0,68707,68795,307.1243,315.4783,180,257 M,0,68795,68817,180,257,180.8117,271.0334 M,0,68817,68839,180.8117,271.0334,180.2641,285.0799 M,0,68839,68861,180.2641,285.0799,178.411,299.0148 M,0,68861,68883,178.411,299.0148,175.3434,312.7343 M,0,68883,68905,175.3434,312.7343,182.4969,303.7039 M,0,68905,68927,182.4969,303.7039,192.559,293.9044 M,0,68927,68949,192.559,293.9044,204.0378,285.8028 M,0,68949,68971,204.0378,285.8028,216.4872,279.2813 M,0,68971,68993,216.4872,279.2813 M,0,68971,69501,216.4872,279.2813,216,279 M,0,69501,69523,216,279,211.9706,265.5483 M,0,69523,69545,211.9706,265.5483,209.1634,251.8011 M,0,69545,69567,209.1634,251.8011,207.8444,237.824 M,0,69567,69589,207.8444,237.824,208,224 M,0,69589,69611,208,224 M,0,69589,69677,208,224,104,283 M,0,69677,69699,104,283,107.6775,269.4724 M,0,69699,69721,107.6775,269.4724,110.0115,255.6302 M,0,69721,69743,110.0115,255.6302,109.6519,241.617 M,0,69743,69765,109.6519,241.617,108,228 M,0,69765,69787,108,228 M,0,69765,69854,108,228,156,165 M,0,69854,70031,156,165,162,344 M,0,70031,70207,162,344,153,331 M,0,70207,70229,153,331,161.58,320.075 M,0,70229,70251,161.58,320.075,172.5689,311.7209 M,0,70251,70273,172.5689,311.7209,185.6556,307.0612 M,0,70273,70295,185.6556,307.0612,199.5259,307.4173 M,0,70295,70317,199.5259,307.4173,212.6704,311.5096 M,0,70317,70339,212.6704,311.5096,224.0048,319.4201 M,0,70339,70361,224.0048,319.4201,232.4661,330.474 M,0,70361,70383,232.4661,330.474,236.2843,343.8183 M,0,70383,70405,236.2843,343.8183,236.4181,357.5942 M,0,70405,70427,236.4181,357.5942,232.3547,370.8272 M,0,70427,70449,232.3547,370.8272,224.4044,382.2928 M,0,70449,70471,224.4044,382.2928,212.8129,389.9376 M,0,70471,70493,212.8129,389.9376 M,0,70471,70560,212.8129,389.9376,192,405 M,0,70560,70582,192,405,205.9346,403.1076 M,0,70582,70604,205.9346,403.1076,219.8692,401.2153 M,0,70604,70626,219.8692,401.2153,233.8038,399.3229 M,0,70626,70648,233.8038,399.3229,247.7384,397.4306 M,0,70648,70670,247.7384,397.4306,261.673,395.5382 M,0,70670,70692,261.673,395.5382,275.1775,395.4776 M,0,70692,70714,275.1775,395.4776,286.8139,403.3737 M,0,70714,70736,286.8139,403.3737,298.4503,411.2698 M,0,70736,70758,298.4503,411.2698 M,0,70736,70825,298.4503,411.2698,334,349 M,0,70825,70847,334,349,347.9346,350.8924 M,0,70847,70869,347.9346,350.8924,361.8692,352.7847 M,0,70869,70891,361.8692,352.7847,375.8038,354.6771 M,0,70891,70913,375.8038,354.6771,389.7384,356.5694 M,0,70913,70935,389.7384,356.5694,403.673,358.4618 M,0,70935,70957,403.673,358.4618,417.1775,358.5224 M,0,70957,70979,417.1775,358.5224,428.8139,350.6263 M,0,70979,71001,428.8139,350.6263,440.4503,342.7302 M,0,71001,71023,440.4503,342.7302 M,0,71001,71090,440.4503,342.7302,474,407 M,0,71090,71266,474,407,476,282 M,0,71266,71443,476,282,489,416 M,0,71443,71465,489,416,501.1091,419.0847 M,0,71465,71487,501.1091,419.0847,513.3472,414.3345 M,0,71487,71509,513.3472,414.3345,513.8044,401.8839 M,0,71509,71531,513.8044,401.8839,507,391 M,0,71531,71553,507,391 M,0,71531,71619,507,391,513,232 M,0,71619,71641,513,232,501.3163,224.7878 M,0,71641,71663,501.3163,224.7878,488.015,222.187 M,0,71663,71685,488.015,222.187,474.7048,225.4499 M,0,71685,71707,474.7048,225.4499,464.6823,234.7822 M,0,71707,71729,464.6823,234.7822,459.1155,247.0584 M,0,71729,71751,459.1155,247.0584,459.2047,260.6183 M,0,71751,71773,459.2047,260.6183,465.0489,273.0267 M,0,71773,71795,465.0489,273.0267,475.7902,281.8686 M,0,71795,71817,475.7902,281.8686 M,0,71795,72325,475.7902,281.8686,475,281 M,0,72325,72347,475,281,460.955,280.2977 M,0,72347,72369,460.955,280.2977,446.9101,279.5955 M,0,72369,72391,446.9101,279.5955,432.8651,278.8932 M,0,72391,72413,432.8651,278.8932,418.8202,278.191 M,0,72413,72435,418.8202,278.191 M,0,72413,72501,418.8202,278.191,416,159 M,0,72501,72523,416,159,430.0424,158.2477 M,0,72523,72545,430.0424,158.2477,444.0847,157.4955 M,0,72545,72567,444.0847,157.4955,458.1271,156.7432 M,0,72567,72589,458.1271,156.7432,472,156 M,0,72589,72611,472,156 M,0,72589,72678,472,156,520,212 M,0,72678,72854,520,212,361,209 M,0,72854,72876,361,209,347.2367,210.0075 M,0,72876,72898,347.2367,210.0075,333.9523,206.7683 M,0,72898,72920,333.9523,206.7683,322.6865,198.7579 M,0,72920,72942,322.6865,198.7579,315.3985,186.8707 M,0,72942,72964,315.3985,186.8707,315.3985,186.8706 M,0,72942,73031,315.3985,186.8706,345,121 M,0,73031,73053,345,121,331.8085,125.4935 M,0,73053,73075,331.8085,125.4935,319.9614,132.7094 M,0,73075,73097,319.9614,132.7094,310.3646,142.8178 M,0,73097,73119,310.3646,142.8178,304.401,155.4001 M,0,73119,73141,304.401,155.4001,301.5621,168.9504 M,0,73141,73163,301.5621,168.9504,302.3602,182.8153 M,0,73163,73185,302.3602,182.8153,306.7785,196.0622 M,0,73185,73207,306.7785,196.0622,315.1613,207.1857 M,0,73207,73229,315.1613,207.1857,325.7916,216.0697 M,0,73229,73251,325.7916,216.0697,338.4207,221.8929 M,0,73251,73273,338.4207,221.8929,352.2181,224.2249 M,0,73273,73295,352.2181,224.2249,366.1073,222.4199 M,0,73295,73317,366.1073,222.4199 M,0,73295,73384,366.1073,222.4199,420,265 M,0,73384,73406,420,265,406.0654,263.1077 M,0,73406,73428,406.0654,263.1077,392.1308,261.2153 M,0,73428,73450,392.1308,261.2153,378.1962,259.3229 M,0,73450,73472,378.1962,259.3229,364.2616,257.4306 M,0,73472,73494,364.2616,257.4306,350.327,255.5382 M,0,73494,73516,350.327,255.5382,336.8225,255.4776 M,0,73516,73538,336.8225,255.4776,325.1861,263.3737 M,0,73538,73560,325.1861,263.3737,313.5497,271.2698 M,0,73560,73582,313.5497,271.2698 M,0,73560,73649,313.5497,271.2698,278,209 M,0,73649,73671,278,209,264.0654,210.8923 M,0,73671,73693,264.0654,210.8923,250.1308,212.7847 M,0,73693,73715,250.1308,212.7847,236.1962,214.6771 M,0,73715,73737,236.1962,214.6771,222.2616,216.5694 M,0,73737,73759,222.2616,216.5694,208.327,218.4618 M,0,73759,73781,208.327,218.4618,194.8225,218.5224 M,0,73781,73803,194.8225,218.5224,183.1861,210.6263 M,0,73803,73825,183.1861,210.6263,171.5497,202.7302 M,0,73825,73847,171.5497,202.7302 M,0,73825,73914,171.5497,202.7302,138,267 M,0,73914,74090,138,267,218,148 M,0,74090,74266,218,148,124,276 M,0,74266,74288,124,276,110.074,277.9545 M,0,74288,74310,110.074,277.9545,96.14798,279.9091 M,0,74310,74332,96.14798,279.9091,82.22197,281.8636 M,0,74332,74354,82.22197,281.8636,68.29596,283.8181 M,0,74354,74376,68.29596,283.8181 M,0,74354,74443,68.29596,283.8181,218,148 M,0,74443,74465,218,148,231.9178,145.9878 M,0,74465,74487,231.9178,145.9878,245.8356,143.9756 M,0,74487,74509,245.8356,143.9756,259.7534,141.9634 M,0,74509,74531,259.7534,141.9634,273.6711,139.9512 M,0,74531,74553,273.6711,139.9512,287.589,137.9389 M,0,74553,74575,287.589,137.9389,300.6979,136.4134 M,0,74575,74597,300.6979,136.4134,292.4008,147.7673 M,0,74597,74619,292.4008,147.7673,284.1037,159.1213 M,0,74619,74641,284.1037,159.1213 M,0,74619,74972,284.1037,159.1213,284,159 M,0,74972,74994,284,159,280.8878,172.7048 M,0,74994,75016,280.8878,172.7048,278.5441,186.5579 M,0,75016,75038,278.5441,186.5579,277.1453,200.5442 M,0,75038,75060,277.1453,200.5442,276.9439,214.596 M,0,75060,75082,276.9439,214.596,277.5553,228.6314 M,0,75082,75104,277.5553,228.6314,279.1183,242.5983 M,0,75104,75126,279.1183,242.5983,281.8364,256.3857 M,0,75126,75148,281.8364,256.3857,285.3754,269.9805 M,0,75148,75170,285.3754,269.9805 M,0,75148,75325,285.3754,269.9805,413,186 M,0,75325,75347,413,186,415.1579,199.8521 M,0,75347,75369,415.1579,199.8521,415.9492,213.8668 M,0,75369,75391,415.9492,213.8668,414.0714,227.7587 M,0,75391,75413,414.0714,227.7587,411,241 M,0,75413,75435,411,241 M,0,75413,75501,411,241,346,213 M,0,75501,75678,346,213,380,333 M,0,75678,75700,380,333,393.743,330.0196 M,0,75700,75722,393.743,330.0196,407.4861,327.0392 M,0,75722,75744,407.4861,327.0392,421.2291,324.0587 M,0,75744,75766,421.2291,324.0587,434.9721,321.0783 M,0,75766,75788,434.9721,321.0783 M,0,75766,75854,434.9721,321.0783,478,268 M,0,75854,75876,478,268,487.9437,258.0563 M,0,75876,75898,487.9437,258.0563,493.3181,257.4551 M,0,75898,75920,493.3181,257.4551,491.5739,271.4091 M,0,75920,75942,491.5739,271.4091,489.8296,285.3629 M,0,75942,75964,489.8296,285.3629,488.0854,299.3168 M,0,75964,75986,488.0854,299.3168,474.9266,302.8198 M,0,75986,76008,474.9266,302.8198,461.1802,305.7847 M,0,76008,76030,461.1802,305.7847,447.4338,308.7496 M,0,76030,76052,447.4338,308.7496,433.6874,311.7145 M,0,76052,76074,433.6874,311.7145,419.941,314.6794 M,0,76074,76096,419.941,314.6794,406.1946,317.6443 M,0,76096,76118,406.1946,317.6443,392.4482,320.6092 M,0,76118,76140,392.4482,320.6092 M,0,76118,76207,392.4482,320.6092,282,293 M,0,76207,76229,282,293,280.1,279.0665 M,0,76229,76251,280.1,279.0665,284.7446,272.4362 M,0,76251,76273,284.7446,272.4362,298.3872,275.8468 M,0,76273,76295,298.3872,275.8468,312.0298,279.2574 M,0,76295,76317,312.0298,279.2574,325.6725,282.6681 M,0,76317,76339,325.6725,282.6681,319.9586,293.5621 M,0,76339,76361,319.9586,293.5621,312.1581,305.2629 M,0,76361,76383,312.1581,305.2629,304.3576,316.9636 M,0,76383,76405,304.3576,316.9636 M,0,76383,76472,304.3576,316.9636,226,382 M,0,76472,76494,226,382,224.1,395.9336 M,0,76494,76516,224.1,395.9336,228.7446,402.5638 M,0,76516,76538,228.7446,402.5638,242.3872,399.1532 M,0,76538,76560,242.3872,399.1532,256.0298,395.7425 M,0,76560,76582,256.0298,395.7425,269.6725,392.3319 M,0,76582,76604,269.6725,392.3319,263.9586,381.4378 M,0,76604,76626,263.9586,381.4378,256.1581,369.7372 M,0,76626,76648,256.1581,369.7372,249,359 M,0,76648,76670,249,359 M,0,76648,76737,249,359,208,299 M,0,76737,76913,208,299,340,380 M,0,76913,77090,340,380,208,281 M,0,77090,77112,208,281,194.3939,280.8601 M,0,77112,77134,194.3939,280.8601,182.129,286.1829 M,0,77134,77156,182.129,286.1829,173.8589,296.9645 M,0,77156,77178,173.8589,296.9645,171.9948,310.6943 M,0,77178,77200,171.9948,310.6943 M,0,77178,77266,171.9948,310.6943,282,293 M,0,77266,77288,282,293,290.2745,281.8722 M,0,77288,77310,290.2745,281.8722,295.316,269.0469 M,0,77310,77332,295.316,269.0469,296.0316,255.1556 M,0,77332,77354,296.0316,255.1556,291.2795,242.141 M,0,77354,77376,291.2795,242.141,283.2065,231.0115 M,0,77376,77398,283.2065,231.0115,271.9352,222.9545 M,0,77398,77420,271.9352,222.9545,258.4584,219.782 M,0,77420,77442,258.4584,219.782,244.7558,220.5905 M,0,77442,77464,244.7558,220.5905 M,0,77442,77795,244.7558,220.5905,244,220 M,0,77795,77817,244,220,242.2822,206.0428 M,0,77817,77839,242.2822,206.0428,240.5644,192.0856 M,0,77839,77861,240.5644,192.0856,238.8466,178.1284 M,0,77861,77883,238.8466,178.1284,237.1288,164.1713 M,0,77883,77905,237.1288,164.1713,237.1288,164.1712 M,0,77883,77972,237.1288,164.1712,287,117 M,0,77972,77994,287,117,294.9698,128.4759 M,0,77994,78016,294.9698,128.4759,300.8389,141.1229 M,0,78016,78038,300.8389,141.1229,303.3354,154.8548 M,0,78038,78060,303.3354,154.8548,303.0753,168.7542 M,0,78060,78082,303.0753,168.7542 M,0,78060,78148,303.0753,168.7542,172,183 M,0,78148,78170,172,183,169.6024,169.228 M,0,78170,78192,169.6024,169.228,169.1067,155.2252 M,0,78192,78214,169.1067,155.2252,172.2791,141.6132 M,0,78214,78236,172.2791,141.6132,177,129 M,0,78236,78258,177,129 M,0,78236,78325,177,129,228,82 M,0,78325,78501,228,82,250,275 M,0,78501,78523,250,275,248.475,261.0204 M,0,78523,78545,248.475,261.0204,246.9499,247.0409 M,0,78545,78567,246.9499,247.0409,245.4249,233.0613 M,0,78567,78589,245.4249,233.0613,244,220 M,0,78589,78611,244,220 M,0,78589,78678,244,220,243,289 M,0,78678,78700,243,289,241.0113,275.0789 M,0,78700,78722,241.0113,275.0789,239.0225,261.1577 M,0,78722,78744,239.0225,261.1577,237.0338,247.2365 M,0,78744,78766,237.0338,247.2365,235.045,233.3153 M,0,78766,78788,235.045,233.3153,248.0766,237.2307 M,0,78788,78810,248.0766,237.2307,261.4563,241.5594 M,0,78810,78832,261.4563,241.5594,274.836,245.8881 M,0,78832,78854,274.836,245.8881,288.2157,250.2168 M,0,78854,78876,288.2157,250.2168,301.5954,254.5456 M,0,78876,78898,301.5954,254.5456,315.3947,252.8127 M,0,78898,78920,315.3947,252.8127,329.2432,250.3689 M,0,78920,78942,329.2432,250.3689,343.0917,247.925 M,0,78942,78964,343.0917,247.925 M,0,78942,79031,343.0917,247.925,428,247 M,0,79031,79053,428,247,429.9,260.9335 M,0,79053,79075,429.9,260.9335,425.2554,267.5638 M,0,79075,79097,425.2554,267.5638,411.6128,264.1532 M,0,79097,79119,411.6128,264.1532,397.9702,260.7426 M,0,79119,79141,397.9702,260.7426,384.3275,257.3319 M,0,79141,79163,384.3275,257.3319,389.8961,246.3424 M,0,79163,79185,389.8961,246.3424,397.5356,234.5359 M,0,79185,79207,397.5356,234.5359,405,223 M,0,79207,79229,405,223 M,0,79207,79295,405,223,373,158 M,0,79295,79317,373,158,374.9,144.0665 M,0,79317,79339,374.9,144.0665,370.2554,137.4362 M,0,79339,79361,370.2554,137.4362,356.6128,140.8468 M,0,79361,79383,356.6128,140.8468,342.9702,144.2575 M,0,79383,79405,342.9702,144.2575,329.3275,147.6681 M,0,79405,79427,329.3275,147.6681,335.0414,158.5621 M,0,79427,79449,335.0414,158.5621,342.8419,170.2629 M,0,79449,79471,342.8419,170.2629,350.6424,181.9636 M,0,79471,79493,350.6424,181.9636 M,0,79471,79561,350.6424,181.9636,447,164 M,0,79561,79737,447,164,337,76 M,0,79737,79913,337,76,462,172 M,0,79913,79935,462,172,475.6207,168.5028 M,0,79935,79957,475.6207,168.5028,489.2414,165.0056 M,0,79957,79979,489.2414,165.0056,502.8621,161.5084 M,0,79979,80001,502.8621,161.5084,516.4828,158.0112 M,0,80001,80023,516.4828,158.0112 M,0,80001,80090,516.4828,158.0112,337,76 M,0,80090,80112,337,76,323.1515,73.55614 M,0,80112,80134,323.1515,73.55614,309.303,71.11229 M,0,80134,80156,309.303,71.11229,295.4544,68.66843 M,0,80156,80178,295.4544,68.66843,281.6059,66.22458 M,0,80178,80200,281.6059,66.22458,267.7574,63.78072 M,0,80200,80222,267.7574,63.78072,253.9089,61.33686 M,0,80222,80244,253.9089,61.33686,257.2126,71.94638 M,0,80244,80266,257.2126,71.94638,263.2585,84.64286 M,0,80266,80288,263.2585,84.64286,263.2585,84.64287 M,0,80266,80795,263.2585,84.64287,263,84 M,0,80795,80817,263,84,260.8291,97.89392 M,0,80817,80839,260.8291,97.89392,258.6581,111.7878 M,0,80839,80861,258.6581,111.7878,256.4872,125.6818 M,0,80861,80883,256.4872,125.6818,254.3163,139.5757 M,0,80883,80905,254.3163,139.5757 M,0,80883,80972,254.3163,139.5757,263,157 M,0,80972,80994,263,157,264.9887,143.0788 M,0,80994,81016,264.9887,143.0788,266.9775,129.1577 M,0,81016,81038,266.9775,129.1577,268.9662,115.2365 M,0,81038,81060,268.9662,115.2365,270.955,101.3153 M,0,81060,81082,270.955,101.3153 M,0,81060,81148,270.955,101.3153,189,112 M,0,81148,81325,189,112,335,144 M,0,81325,81347,335,144,348.7609,141.103 M,0,81347,81369,348.7609,141.103,362.602,141.3582 M,0,81369,81391,362.602,141.3582,376.411,142.0697 M,0,81391,81413,376.411,142.0697,389.978,138.3696 M,0,81413,81435,389.978,138.3696 M,0,81413,81501,389.978,138.3696,263,157 M,0,81501,81523,263,157,252.323,166.1517 M,0,81523,81545,252.323,166.1517,242.463,174.9443 M,0,81545,81567,242.463,174.9443,256.4249,173.2654 M,0,81567,81589,256.4249,173.2654,270.3868,171.5864 M,0,81589,81611,270.3868,171.5864,284.3488,169.9074 M,0,81611,81633,284.3488,169.9074,298.3107,168.2285 M,0,81633,81655,298.3107,168.2285,312.2726,166.5495 M,0,81655,81677,312.2726,166.5495,326.2345,164.8705 M,0,81677,81699,326.2345,164.8705,340.1964,163.1916 M,0,81699,81721,340.1964,163.1916,354.1583,161.5126 M,0,81721,81743,354.1583,161.5126,368.1202,159.8336 M,0,81743,81765,368.1202,159.8336,382.0822,158.1547 M,0,81765,81787,382.0822,158.1547 M,0,81765,81854,382.0822,158.1547,454,106 M,0,81854,81876,454,106,467.0863,101.2521 M,0,81876,81898,467.0863,101.2521,480.8399,99.51644 M,0,81898,81920,480.8399,99.51644,494.6559,101.56 M,0,81920,81942,494.6559,101.56,506.9244,108.1258 M,0,81942,81964,506.9244,108.1258,517.3248,117.266 M,0,81964,81986,517.3248,117.266,524.9352,128.9425 M,0,81986,82008,524.9352,128.9425,528.241,142.4535 M,0,82008,82030,528.241,142.4535,528.2858,156.2855 M,0,82030,82052,528.2858,156.2855,524.5917,169.6978 M,0,82052,82074,524.5917,169.6978,516.7462,181.1781 M,0,82074,82096,516.7462,181.1781,506.4237,190.3685 M,0,82096,82118,506.4237,190.3685,493.9517,196.4795 M,0,82118,82140,493.9517,196.4795 M,0,82118,82207,493.9517,196.4795,422,216 M,0,82207,82229,422,216,422.4375,220.667 M,0,82229,82251,422.4375,220.667,422.8751,225.3341 M,0,82251,82273,422.8751,225.3341,423.3126,230.0011 M,0,82273,82295,423.3126,230.0011,423.7502,234.6681 M,0,82295,82384,423.7502,234.6681,469,288 M,0,82384,82560,469,288,382,158 M,0,82560,82737,382,158,483,298 M,0,82737,82759,483,298,485.1932,284.1096 M,0,82759,82781,485.1932,284.1096,487.3864,270.2192 M,0,82781,82803,487.3864,270.2192,489.5797,256.3287 M,0,82803,82825,489.5797,256.3287,491.7729,242.4383 M,0,82825,82847,491.7729,242.4383 M,0,82825,82913,491.7729,242.4383,382,158 M,0,82913,82935,382,158,368.0975,160.1156 M,0,82935,82957,368.0975,160.1156,354.1951,162.2312 M,0,82957,82979,354.1951,162.2312,340.2926,164.3468 M,0,82979,83001,340.2926,164.3468,330.4059,172.9494 M,0,83001,83023,330.4059,172.9494,322.3131,184.4498 M,0,83023,83045,322.3131,184.4498,321.7672,191.2217 M,0,83045,83067,321.7672,191.2217,335.6459,188.9558 M,0,83067,83089,335.6459,188.9558,349.5247,186.6898 M,0,83089,83111,349.5247,186.6898 M,0,83089,83619,349.5247,186.6898,349,186 M,0,83619,83641,349,186,346.8068,172.1096 M,0,83641,83663,346.8068,172.1096,344.6136,158.2192 M,0,83663,83685,344.6136,158.2192,342.4203,144.3288 M,0,83685,83707,342.4203,144.3288,340.2271,130.4383 M,0,83707,83729,340.2271,130.4383 M,0,83707,83795,340.2271,130.4383,362,261 M,0,83795,83817,362,261,364.0241,274.9161 M,0,83817,83839,364.0241,274.9161,366.0483,288.8321 M,0,83839,83861,366.0483,288.8321,368.0724,302.7482 M,0,83861,83883,368.0724,302.7482,370,316 M,0,83883,83905,370,316 M,0,83883,83972,370,316,420,212 M,0,83972,84148,420,212,291,234 M,0,84148,84170,291,234,277.1233,231.7217 M,0,84170,84192,277.1233,231.7217,263.2466,229.4435 M,0,84192,84214,263.2466,229.4435,249.3698,227.1652 M,0,84214,84236,249.3698,227.1652,235.4931,224.8869 M,0,84236,84258,235.4931,224.8869 M,0,84236,84325,235.4931,224.8869,294,248 M,0,84325,84347,294,248,280.1464,245.5851 M,0,84347,84369,280.1464,245.5851,266.2928,243.1703 M,0,84369,84391,266.2928,243.1703,252.4392,240.7554 M,0,84391,84413,252.4392,240.7554,238.5856,238.3406 M,0,84413,84435,238.5856,238.3406,224.732,235.9258 M,0,84435,84457,224.732,235.9258,210.8784,233.5109 M,0,84457,84479,210.8784,233.5109,197.0247,231.0961 M,0,84479,84501,197.0247,231.0961,186.6483,229.854 M,0,84501,84523,186.6483,229.854,199.1243,236.3397 M,0,84523,84545,199.1243,236.3397,210.5955,244.423 M,0,84545,84567,210.5955,244.423,219.5023,255.2408 M,0,84567,84589,219.5023,255.2408,225.335,268.0048 M,0,84589,84611,225.335,268.0048 M,0,84589,84678,225.335,268.0048,160,293 M,0,84678,84700,160,293,164.5336,279.7014 M,0,84700,84722,164.5336,279.7014,168.1338,266.1273 M,0,84722,84744,168.1338,266.1273,170.5935,252.2952 M,0,84744,84766,170.5935,252.2952,171.6922,238.2894 M,0,84766,84788,171.6922,238.2894,171.7254,224.2487 M,0,84788,84810,171.7254,224.2487,170.5905,210.2509 M,0,84810,84832,170.5905,210.2509,168.2945,196.3902 M,0,84832,84854,168.2945,196.3902,164.651,182.822 M,0,84854,84876,164.651,182.822 M,0,84854,84943,164.651,182.822,323,173 M,0,84943,84965,323,173,313.3435,162.8115 M,0,84965,84987,313.3435,162.8115,302.7486,153.6228 M,0,84987,85009,302.7486,153.6228,291.1378,145.735 M,0,85009,85031,291.1378,145.735,278.5447,139.5385 M,0,85031,85053,278.5447,139.5385,265.3801,134.7195 M,0,85053,85075,265.3801,134.7195,251.7337,131.4778 M,0,85075,85097,251.7337,131.4778,237.7879,129.8597 M,0,85097,85119,237.7879,129.8597,223.737,129.9675 M,0,85119,85141,223.737,129.9675 M,0,85119,85207,223.737,129.9675,150,110 M,0,85207,85384,150,110,241,209 M,0,85384,85560,241,209,135,89 M,0,85560,85582,135,89,140.0067,75.94395 M,0,85582,85604,140.0067,75.94395,147.8144,81.49292 M,0,85604,85626,147.8144,81.49292,150.0648,95.32406 M,0,85626,85648,150.0648,95.32406,149.4836,109.3628 M,0,85648,85670,149.4836,109.3628 M,0,85648,85737,149.4836,109.3628,236,226 M,0,85737,85759,236,226,230.0314,238.733 M,0,85759,85781,230.0314,238.733,224.0628,251.466 M,0,85781,85803,224.0628,251.466,216.8239,252.5817 M,0,85803,85825,216.8239,252.5817,210.8235,239.9188 M,0,85825,85847,210.8235,239.9188,208.482,226.0904 M,0,85847,85869,208.482,226.0904,209.1965,212.0669 M,0,85869,85891,209.1965,212.0669,212.1283,198.3242 M,0,85891,85913,212.1283,198.3242,216.6099,185.0009 M,0,85913,85935,216.6099,185.0009 M,0,85913,86266,216.6099,185.0009,217,185 M,0,86266,86288,217,185,230.5164,188.7679 M,0,86288,86310,230.5164,188.7679,243.5298,193.9724 M,0,86310,86332,243.5298,193.9724,255.7669,200.8361 M,0,86332,86354,255.7669,200.8361,266.7977,209.5035 M,0,86354,86376,266.7977,209.5035,276.7155,219.3971 M,0,86376,86398,276.7155,219.3971,285.2647,230.5058 M,0,86398,86420,285.2647,230.5058,292.301,242.6483 M,0,86420,86442,292.301,242.6483,297.3536,255.736 M,0,86442,86464,297.3536,255.736,300.8495,269.3026 M,0,86464,86486,300.8495,269.3026,302.5488,283.219 M,0,86486,86508,302.5488,283.219,302.419,297.2557 M,0,86508,86530,302.419,297.2557,300.0738,311.0881 M,0,86530,86552,300.0738,311.0881 M,0,86530,86619,300.0738,311.0881,346,362 M,0,86619,86641,346,362,356.187,352.5209 M,0,86641,86663,356.187,352.5209,364.0862,341.1123 M,0,86663,86685,364.0862,341.1123,367.8898,327.7515 M,0,86685,86707,367.8898,327.7515,368.328,313.9505 M,0,86707,86729,368.328,313.9505 M,0,86707,86795,368.328,313.9505,229,272 M,0,86795,86972,229,272,427,279 M,0,86972,86994,427,279,419.3156,267.3768 M,0,86994,87016,419.3156,267.3768,409.3082,257.7783 M,0,87016,87038,409.3082,257.7783,397.0623,251.1389 M,0,87038,87060,397.0623,251.1389,383.4012,248.0569 M,0,87060,87082,383.4012,248.0569 M,0,87060,87148,383.4012,248.0569,359,177 M,0,87148,87170,359,177,350.7513,188.3771 M,0,87170,87192,350.7513,188.3771,344.2829,200.8444 M,0,87192,87214,344.2829,200.8444,340.317,214.3079 M,0,87214,87236,340.317,214.3079,339.52,228.3136 M,0,87236,87258,339.52,228.3136,342.0547,242.1139 M,0,87258,87280,342.0547,242.1139,353.3904,241.3189 M,0,87280,87302,353.3904,241.3189,367.0381,237.9777 M,0,87302,87324,367.0381,237.9777,381.0446,237.0316 M,0,87324,87346,381.0446,237.0316,394.9403,239.0168 M,0,87346,87368,394.9403,239.0168,408.2392,243.5402 M,0,87368,87390,408.2392,243.5402,420.8295,249.7887 M,0,87390,87412,420.8295,249.7887,432.8308,257.1126 M,0,87412,87434,432.8308,257.1126 M,0,87412,87501,432.8308,257.1126,507,259 M,0,87501,87523,507,259,498.5476,247.9627 M,0,87523,87545,498.5476,247.9627,497.0131,234.1746 M,0,87545,87567,497.0131,234.1746,504.0894,222.5046 M,0,87567,87589,504.0894,222.5046,516.4553,225.4489 M,0,87589,87611,516.4553,225.4489,521.0161,238.5574 M,0,87611,87633,521.0161,238.5574,520.286,252.5524 M,0,87633,87655,520.286,252.5524,516.4023,266.0429 M,0,87655,87677,516.4023,266.0429,510.2768,278.6851 M,0,87677,87699,510.2768,278.6851 M,0,87677,87766,510.2768,278.6851,440,340 M,0,87766,87788,440,340,434.1726,352.6206 M,0,87788,87810,434.1726,352.6206,422.7672,360.5349 M,0,87810,87832,422.7672,360.5349,409.1423,359.9781 M,0,87832,87854,409.1423,359.9781,406.1355,347.6277 M,0,87854,87876,406.1355,347.6277,415.4672,337.3298 M,0,87876,87898,415.4672,337.3298,428.0059,331.0659 M,0,87898,87920,428.0059,331.0659,441.6548,327.7801 M,0,87920,87942,441.6548,327.7801,455.6701,326.846 M,0,87942,87964,455.6701,326.846 M,0,87942,88031,455.6701,326.846,523,344 M,0,88031,88207,523,344,432,257 M,0,88207,88384,432,257,533,357 M,0,88384,88406,533,357,529.7059,370.6645 M,0,88406,88428,529.7059,370.6645,526.9343,384.4473 M,0,88428,88450,526.9343,384.4473,525.1946,398.395 M,0,88450,88472,525.1946,398.395,524,412 M,0,88472,88494,524,412 M,0,88472,88560,524,412,437,240 M,0,88560,88582,437,240,435.0899,226.0678 M,0,88582,88604,435.0899,226.0678,433.1799,212.1357 M,0,88604,88626,433.1799,212.1357,431.2698,198.2035 M,0,88626,88648,431.2698,198.2035,429.3598,184.2713 M,0,88648,88670,429.3598,184.2713,427.4497,170.3391 M,0,88670,88692,427.4497,170.3391,425.5397,156.4069 M,0,88692,88714,425.5397,156.4069,423.6296,142.4747 M,0,88714,88736,423.6296,142.4747,421.7195,128.5426 M,0,88736,88758,421.7195,128.5426 M,0,88736,89090,421.7195,128.5426,421,128 M,0,89090,89112,421,128,434.7128,131.1165 M,0,89112,89134,434.7128,131.1165,448.4256,134.2331 M,0,89134,89156,448.4256,134.2331,462.1384,137.3496 M,0,89156,89178,462.1384,137.3496,475.8512,140.4662 M,0,89178,89200,475.8512,140.4662 M,0,89178,89266,475.8512,140.4662,567,66 M,0,89266,89288,567,66,553.0473,65.35635 M,0,89288,89310,553.0473,65.35635,539.2654,67.32127 M,0,89310,89332,539.2654,67.32127,526.2305,72.36166 M,0,89332,89354,526.2305,72.36166,514.7419,80.39667 M,0,89354,89376,514.7419,80.39667 M,0,89354,89443,514.7419,80.39667,486,212 M,0,89443,89465,486,212,492.7233,224.2222 M,0,89465,89487,492.7233,224.2222,501.3285,235.2584 M,0,89487,89509,501.3285,235.2584,512.8368,243.1364 M,0,89509,89531,512.8368,243.1364,525,249 M,0,89531,89553,525,249 M,0,89531,89619,525,249,553,160 M,0,89619,89795,553,160,411,116 M,0,89795,89817,411,116,424.7128,119.1165 M,0,89817,89839,424.7128,119.1165,438.4256,122.2331 M,0,89839,89861,438.4256,122.2331,452.1384,125.3496 M,0,89861,89883,452.1384,125.3496,465.8512,128.4662 M,0,89883,89905,465.8512,128.4662 M,0,89883,89972,465.8512,128.4662,557,88 M,0,89972,89994,557,88,542.9895,88.9371 M,0,89994,90016,542.9895,88.9371,529.434,92.58707 M,0,90016,90038,529.434,92.58707,516.869,98.85197 M,0,90038,90060,516.869,98.85197,505.6356,107.2839 M,0,90060,90082,505.6356,107.2839,495.8031,117.3222 M,0,90082,90104,495.8031,117.3222,486.0581,125.2645 M,0,90104,90126,486.0581,125.2645,472.4155,121.8539 M,0,90126,90148,472.4155,121.8539,458.7729,118.4432 M,0,90148,90170,458.7729,118.4432,445.1302,115.0326 M,0,90170,90192,445.1302,115.0326,431.4876,111.6219 M,0,90192,90214,431.4876,111.6219,417.845,108.2112 M,0,90214,90236,417.845,108.2112,405,105 M,0,90236,90258,405,105 M,0,90236,90325,405,105,318,90 M,0,90325,90347,318,90,306.2972,82.44508 M,0,90347,90369,306.2972,82.44508,299.8607,70.14663 M,0,90369,90391,299.8607,70.14663,302.4368,56.77698 M,0,90391,90413,302.4368,56.77698,315.129,55.54734 M,0,90413,90435,315.129,55.54734,323.8353,66.3514 M,0,90435,90457,323.8353,66.3514,327.8258,79.78461 M,0,90457,90479,327.8258,79.78461,328.6306,93.80018 M,0,90479,90501,328.6306,93.80018,327.0801,107.7614 M,0,90501,90523,327.0801,107.7614 M,0,90501,90590,327.0801,107.7614,400,185 M,0,90590,90612,400,185,407.62,196.6189 M,0,90612,90634,407.62,196.6189,420.1687,202.5172 M,0,90634,90656,420.1687,202.5172,433.3569,199.1991 M,0,90656,90678,433.3569,199.1991,433.7017,186.4099 M,0,90678,90700,433.7017,186.4099,422.643,177.9903 M,0,90700,90722,422.643,177.9903,409.1632,174.1425 M,0,90722,90744,409.1632,174.1425,395.145,173.3741 M,0,90744,90766,395.145,173.3741,381.1844,174.9312 M,0,90766,90788,381.1844,174.9312 M,0,90766,90854,381.1844,174.9312,404,104 M,0,90854,91031,404,104,308,186 M,0,91031,91207,308,186,414,91 M,0,91207,91229,414,91,428.0359,90.34544 M,0,91229,91251,428.0359,90.34544,442.0256,88.98475 M,0,91251,91273,442.0256,88.98475,455.8107,86.26517 M,0,91273,91295,455.8107,86.26517,469,83 M,0,91295,91317,469,83 M,0,91295,91384,469,83,294,198 M,0,91384,91406,294,198,279.9904,196.7818 M,0,91406,91428,279.9904,196.7818,265.9807,195.5635 M,0,91428,91450,265.9807,195.5635,251.9711,194.3453 M,0,91450,91472,251.9711,194.3453,237.9615,193.1271 M,0,91472,91494,237.9615,193.1271,223.9518,191.9089 M,0,91494,91516,223.9518,191.9089,209.9422,190.6906 M,0,91516,91538,209.9422,190.6906,195.9326,189.4724 M,0,91538,91560,195.9326,189.4724,181.9229,188.2542 M,0,91560,91582,181.9229,188.2542 M,0,91560,92090,181.9229,188.2542,181,188 M,0,92090,92112,181,188,182.525,201.9796 M,0,92112,92134,182.525,201.9796,184.0501,215.9591 M,0,92134,92156,184.0501,215.9591,185.5751,229.9387 M,0,92156,92178,185.5751,229.9387,187,243 M,0,92178,92200,187,243 M,0,92178,92266,187,243,98,201 M,0,92266,92288,98,201,99.52504,214.9796 M,0,92288,92310,99.52504,214.9796,101.0501,228.9591 M,0,92310,92332,101.0501,228.9591,102.5751,242.9387 M,0,92332,92354,102.5751,242.9387,104,256 M,0,92354,92376,104,256 M,0,92354,92443,104,256,155,315 M,0,92443,92619,155,315,140,119 M,0,92619,92795,140,119,130,134 M,0,92795,92817,130,134,126.5021,120.5178 M,0,92817,92839,126.5021,120.5178,126.0582,106.6598 M,0,92839,92861,126.0582,106.6598,129.3355,93.1053 M,0,92861,92883,129.3355,93.1053,136.8043,81.36073 M,0,92883,92905,136.8043,81.36073,146.7523,71.73962 M,0,92905,92927,146.7523,71.73962,158.9517,65.07951 M,0,92927,92949,158.9517,65.07951,172.5807,61.88637 M,0,92949,92971,172.5807,61.88637,186.4219,63.43822 M,0,92971,92993,186.4219,63.43822,199.5178,67.98666 M,0,92993,93015,199.5178,67.98666,210.997,75.89938 M,0,93015,93037,210.997,75.89938,219.296,87.07213 M,0,93037,93059,219.296,87.07213,225.0948,99.73224 M,0,93059,93081,225.0948,99.73224,225.0948,99.73225 M,0,93059,93148,225.0948,99.73225,275,145 M,0,93148,93170,275,145,289.0268,143.9981 M,0,93170,93192,289.0268,143.9981,303.0535,142.9962 M,0,93192,93214,303.0535,142.9962,317.0655,141.9532 M,0,93214,93236,317.0655,141.9532,328.5086,133.7796 M,0,93236,93258,328.5086,133.7796,339.9518,125.6059 M,0,93258,93280,339.9518,125.6059,352.7273,123.431 M,0,93280,93302,352.7273,123.431,366.5547,125.9916 M,0,93302,93324,366.5547,125.9916,380.3821,128.5522 M,0,93324,93346,380.3821,128.5522 M,0,93324,93413,380.3821,128.5522,420,287 M,0,93413,93435,420,287,413.7111,274.4221 M,0,93435,93457,413.7111,274.4221,407.4221,261.8442 M,0,93457,93479,407.4221,261.8442,401.1332,249.2664 M,0,93479,93501,401.1332,249.2664,389.4864,241.4566 M,0,93501,93523,389.4864,241.4566,377.7236,233.75 M,0,93523,93545,377.7236,233.75,370.5589,222.9254 M,0,93545,93567,370.5589,222.9254,367.752,209.1459 M,0,93567,93589,367.752,209.1459,364.945,195.3664 M,0,93589,93611,364.945,195.3664 M,0,93589,93678,364.945,195.3664,433,177 M,0,93678,93854,433,177,296,219 M,0,93854,94031,296,219,447,184 M,0,94031,94053,447,184,454.894,172.6539 M,0,94053,94075,454.894,172.6539,459.9986,159.7021 M,0,94075,94097,459.9986,159.7021,458.9615,145.9243 M,0,94097,94119,458.9615,145.9243,455,133 M,0,94119,94141,455,133 M,0,94119,94207,455,133,289,236 M,0,94207,94229,289,236,288.6269,250.046 M,0,94229,94251,288.6269,250.046,290.3297,263.9904 M,0,94251,94273,290.3297,263.9904,294.2255,277.4863 M,0,94273,94295,294.2255,277.4863,300.2254,290.1887 M,0,94295,94317,300.2254,290.1887,308.0475,301.8607 M,0,94317,94339,308.0475,301.8607,312.2998,308.0114 M,0,94339,94361,312.2998,308.0114,299.947,301.3502 M,0,94361,94383,299.947,301.3502,286.5286,297.2019 M,0,94383,94405,286.5286,297.2019 M,0,94383,94913,286.5286,297.2019,286,297 M,0,94913,94935,286,297,272.2199,299.4516 M,0,94935,94957,272.2199,299.4516,258.2599,299.6927 M,0,94957,94979,258.2599,299.6927,244.4766,297.2682 M,0,94979,95001,244.4766,297.2682,231.398,292.1821 M,0,95001,95023,231.398,292.1821 M,0,95001,95090,231.398,292.1821,375,198 M,0,95090,95112,375,198,376.186,211.8833 M,0,95112,95134,376.186,211.8833,375.0133,225.8222 M,0,95134,95156,375.0133,225.8222,369.416,238.5796 M,0,95156,95178,369.416,238.5796,362,250 M,0,95178,95200,362,250 M,0,95178,95266,362,250,354,324 M,0,95266,95443,354,324,289,222 M,0,95443,95465,289,222,286.8068,208.1096 M,0,95465,95487,286.8068,208.1096,284.6136,194.2192 M,0,95487,95509,284.6136,194.2192,282.4203,180.3288 M,0,95509,95531,282.4203,180.3288,280.2271,166.4383 M,0,95531,95553,280.2271,166.4383 M,0,95531,95619,280.2271,166.4383,308,105 M,0,95619,95641,308,105,296.8804,96.39131 M,0,95641,95663,296.8804,96.39131,285.7609,87.78263 M,0,95663,95685,285.7609,87.78263,277.457,83.94769 M,0,95685,95707,277.457,83.94769,279.6115,97.84417 M,0,95707,95729,279.6115,97.84417,281.766,111.7406 M,0,95729,95751,281.766,111.7406,283.9205,125.6371 M,0,95751,95773,283.9205,125.6371,286.075,139.5336 M,0,95773,95795,286.075,139.5336,288.2295,153.4301 M,0,95795,95817,288.2295,153.4301,290.384,167.3266 M,0,95817,95839,290.384,167.3266,292.5385,181.223 M,0,95839,95861,292.5385,181.223,294.6929,195.1195 M,0,95861,95883,294.6929,195.1195,296.8474,209.016 M,0,95883,95905,296.8474,209.016 M,0,95883,95972,296.8474,209.016,360,158 M,0,95972,95994,360,158,345.9732,156.9981 M,0,95994,96016,345.9732,156.9981,331.9465,155.9962 M,0,96016,96038,331.9465,155.9962,317.9345,154.9532 M,0,96038,96060,317.9345,154.9532,306.4914,146.7796 M,0,96060,96082,306.4914,146.7796,295.0482,138.6059 M,0,96082,96104,295.0482,138.6059,282.2727,136.431 M,0,96104,96126,282.2727,136.431,268.4453,138.9916 M,0,96126,96148,268.4453,138.9916,254.6179,141.5522 M,0,96148,96170,254.6179,141.5522 M,0,96148,96237,254.6179,141.5522,311,321 M,0,96237,96259,311,321,317.02,308.2912 M,0,96259,96281,317.02,308.2912,323.0399,295.5824 M,0,96281,96303,323.0399,295.5824,329.117,282.9233 M,0,96303,96325,329.117,282.9233,340.8798,275.2167 M,0,96325,96347,340.8798,275.2167,352.6425,267.5101 M,0,96347,96369,352.6425,267.5101,359.5285,256.4966 M,0,96369,96391,359.5285,256.4966,362.3354,242.717 M,0,96391,96413,362.3354,242.717,365.1424,228.9375 M,0,96413,96435,365.1424,228.9375 M,0,96413,96501,365.1424,228.9375,427,191 M,0,96501,96678,427,191,289,222 M,0,96678,96854,289,222,438,202 M,0,96854,96876,438,202,445.7807,213.4803 M,0,96876,96898,445.7807,213.4803,450.983,226.4025 M,0,96898,96920,450.983,226.4025,450.7301,240.2598 M,0,96920,96942,450.7301,240.2598,448,253 M,0,96942,96964,448,253 M,0,96942,97031,448,253,283,207 M,0,97031,97053,283,207,287.4202,193.6601 M,0,97053,97075,287.4202,193.6601,293.6405,181.0637 M,0,97075,97097,293.6405,181.0637,301.8381,169.6606 M,0,97097,97119,301.8381,169.6606,311.9771,159.9465 M,0,97119,97141,311.9771,159.9465,323.7322,152.2641 M,0,97141,97163,323.7322,152.2641,336.6232,146.6825 M,0,97163,97185,336.6232,146.6825,333.7081,143.4924 M,0,97185,97207,333.7081,143.4924,319.8724,140.9768 M,0,97207,97229,319.8724,140.9768 M,0,97207,97560,319.8724,140.9768,320,141 M,0,97560,97582,320,141,306.0847,138.9707 M,0,97582,97604,306.0847,138.9707,292.1694,136.9414 M,0,97604,97626,292.1694,136.9414,278.2541,134.912 M,0,97626,97648,278.2541,134.912,264.3388,132.8827 M,0,97648,97670,264.3388,132.8827,250.4235,130.8534 M,0,97670,97692,250.4235,130.8534,236.5081,128.8241 M,0,97692,97714,236.5081,128.8241,222.5928,126.7948 M,0,97714,97736,222.5928,126.7948,208.6775,124.7655 M,0,97736,97758,208.6775,124.7655 M,0,97736,97913,208.6775,124.7655,177,266 M,0,97913,97935,177,266,190.743,263.0196 M,0,97935,97957,190.743,263.0196,204.4861,260.0392 M,0,97957,97979,204.4861,260.0392,218.2291,257.0587 M,0,97979,98001,218.2291,257.0587,231.9721,254.0783 M,0,98001,98023,231.9721,254.0783 M,0,98001,98090,231.9721,254.0783,283,207 M,0,98090,98266,283,207,119,224 M,0,98266,98288,119,224,111.3611,235.6307 M,0,98288,98310,111.3611,235.6307,105.9076,248.5035 M,0,98310,98332,105.9076,248.5035,105.2504,262.4008 M,0,98332,98354,105.2504,262.4008,107,276 M,0,98354,98376,107,276 M,0,98354,98443,107,276,158,335 M,0,98443,98465,158,335,144.4655,331.1826 M,0,98465,98487,144.4655,331.1826,130.9311,327.3652 M,0,98487,98509,130.9311,327.3652,117.8434,322.8011 M,0,98509,98531,117.8434,322.8011,108.7746,312.0663 M,0,98531,98553,108.7746,312.0663,101.2992,300.1722 M,0,98553,98575,101.2992,300.1722,95.90408,287.2065 M,0,98575,98597,95.90408,287.2065,92.98881,273.4716 M,0,98597,98619,92.98881,273.4716,92.67255,259.4325 M,0,98619,98641,92.67255,259.4325,94.74596,245.5391 M,0,98641,98663,94.74596,245.5391,98.8046,232.0859 M,0,98663,98685,98.8046,232.0859,104.4216,219.2014 M,0,98685,98707,104.4216,219.2014,111.2368,206.9058 M,0,98707,98729,111.2368,206.9058,111.2368,206.9057 M,0,98707,98795,111.2368,206.9057,175,183 M,0,98795,98817,175,183,187.3293,189.6457 M,0,98817,98839,187.3293,189.6457,197.6497,199.1518 M,0,98839,98861,197.6497,199.1518,205.9371,210.485 M,0,98861,98883,205.9371,210.485,211.8981,223.1903 M,0,98883,98905,211.8981,223.1903,214.1078,236.9805 M,0,98905,98927,214.1078,236.9805,210.2402,238.6564 M,0,98927,98949,210.2402,238.6564,221.7269,230.8915 M,0,98949,98971,221.7269,230.8915,235.2921,227.2804 M,0,98971,98993,235.2921,227.2804 M,0,98971,99060,235.2921,227.2804,365,183 M,0,99060,99082,365,183,354.374,192.1295 M,0,99082,99104,354.374,192.1295,341.837,198.4335 M,0,99104,99126,341.837,198.4335,328.3239,202.248 M,0,99126,99148,328.3239,202.248,314.3408,203.4676 M,0,99148,99170,314.3408,203.4676,300.5948,200.9395 M,0,99170,99192,300.5948,200.9395,299.9411,196.3227 M,0,99192,99214,299.9411,196.3227,303.6447,209.6524 M,0,99214,99236,303.6447,209.6524,302.435,223.635 M,0,99236,99258,302.435,223.635 M,0,99236,99325,302.435,223.635,248,150 M,0,99325,99501,248,150,276,289 M,0,99501,99678,276,289,260,140 M,0,99678,99700,260,140,264.2251,126.6271 M,0,99700,99722,264.2251,126.6271,265.0365,112.6213 M,0,99722,99744,265.0365,112.6213,271.2529,123.8413 M,0,99744,99766,271.2529,123.8413,281.3388,133.549 M,0,99766,99788,281.3388,133.549 M,0,99766,99854,281.3388,133.549,321,294 M,0,99854,99876,321,294,311.0898,303.9574 M,0,99876,99898,311.0898,303.9574,302.9214,315.3836 M,0,99898,99920,302.9214,315.3836,296.8196,328.0341 M,0,99920,99942,296.8196,328.0341,292.9634,340.4689 M,0,99942,99964,292.9634,340.4689,291.143,326.5334 M,0,99964,99986,291.143,326.5334,287.5648,312.9447 M,0,99986,100008,287.5648,312.9447,282.1461,299.981 M,0,100008,100030,282.1461,299.981,275,288 M,0,100030,100052,275,288 M,0,100030,100384,275,288,276,289 M,0,100384,100406,276,289,289.1429,293.6968 M,0,100406,100428,289.1429,293.6968,301.429,300.3943 M,0,100428,100450,301.429,300.3943,311.1976,310.3568 M,0,100450,100472,311.1976,310.3568,319,321 M,0,100472,100494,319,321 M,0,100472,100560,319,321,398,332 M,0,100560,100582,398,332,387.2433,340.8716 M,0,100582,100604,387.2433,340.8716,378.6397,351.7661 M,0,100604,100626,378.6397,351.7661,373.061,364.5457 M,0,100626,100648,373.061,364.5457,371.039,378.4075 M,0,100648,100670,371.039,378.4075 M,0,100648,100737,371.039,378.4075,385,260 M,0,100737,100759,385,260,371.7669,255.4305 M,0,100759,100781,371.7669,255.4305,359.42,248.8999 M,0,100781,100803,359.42,248.8999,348.4673,240.179 M,0,100803,100825,348.4673,240.179,339.3716,229.4913 M,0,100825,100847,339.3716,229.4913 M,0,100825,100913,339.3716,229.4913,402,194 M,0,100913,101090,402,194,437,389 M,0,101090,101112,437,389,450.159,392.5448 M,0,101112,101134,450.159,392.5448,463.6209,391.147 M,0,101134,101156,463.6209,391.147,474.2238,382.6927 M,0,101156,101178,474.2238,382.6927,481.0846,370.9406 M,0,101178,101200,481.0846,370.9406 M,0,101178,101266,481.0846,370.9406,432,403 M,0,101266,101288,432,403,445.9087,404.23 M,0,101288,101310,445.9087,404.23,459.7437,402.7629 M,0,101310,101332,459.7437,402.7629,472.9102,398.1086 M,0,101332,101354,472.9102,398.1086,484.263,389.9955 M,0,101354,101376,484.263,389.9955,493.6414,379.7481 M,0,101376,101398,493.6414,379.7481,500.4055,367.5759 M,0,101398,101420,500.4055,367.5759,504.1758,354.1082 M,0,101420,101442,504.1758,354.1082,503.9799,340.1523 M,0,101442,101464,503.9799,340.1523,500.9909,326.5789 M,0,101464,101486,500.9909,326.5789,494.9177,314.0309 M,0,101486,101508,494.9177,314.0309,486.0538,303.1837 M,0,101508,101530,486.0538,303.1837,474.6669,295.0077 M,0,101530,101552,474.6669,295.0077 M,0,101530,101619,474.6669,295.0077,338,315 M,0,101619,101641,338,315,351.7233,317.7989 M,0,101641,101663,351.7233,317.7989,365.7326,316.9637 M,0,101663,101685,365.7326,316.9637,379.3044,313.3673 M,0,101685,101707,379.3044,313.3673,391.916,307.2125 M,0,101707,101729,391.916,307.2125,402.1953,297.767 M,0,101729,101751,402.1953,297.767,399.9618,294.7878 M,0,101751,101773,399.9618,294.7878,403.8499,308.1161 M,0,101773,101795,403.8499,308.1161,411.8532,319.6491 M,0,101795,101817,411.8532,319.6491 M,0,101795,101884,411.8532,319.6491,395,189 M,0,101884,101906,395,189,382.6707,195.6457 M,0,101906,101928,382.6707,195.6457,372.3503,205.1518 M,0,101928,101950,372.3503,205.1518,364.0629,216.4849 M,0,101950,101972,364.0629,216.4849,358.1019,229.1903 M,0,101972,101994,358.1019,229.1903,355.8922,242.9805 M,0,101994,102016,355.8922,242.9805,359.7598,244.6565 M,0,102016,102038,359.7598,244.6565,348.2731,236.8916 M,0,102038,102060,348.2731,236.8916,334.708,233.2804 M,0,102060,102082,334.708,233.2804 M,0,102060,102148,334.708,233.2804,277,275 M,0,102148,102325,277,275,448,232 M,0,102325,102501,448,232,261,263 M,0,102501,102523,261,263,247.1455,260.5905 M,0,102523,102545,247.1455,260.5905,233.2909,258.181 M,0,102545,102567,233.2909,258.181,219.4364,255.7715 M,0,102567,102589,219.4364,255.7715,205.5818,253.3621 M,0,102589,102611,205.5818,253.3621 M,0,102589,102678,205.5818,253.3621,458,248 M,0,102678,102700,458,248,471.85,250.4352 M,0,102700,102722,471.85,250.4352,485.7001,252.8703 M,0,102722,102744,485.7001,252.8703,499.5501,255.3055 M,0,102744,102766,499.5501,255.3055,513.4002,257.7407 M,0,102766,102788,513.4002,257.7407,527.2502,260.1759 M,0,102788,102810,527.2502,260.1759,541.1003,262.611 M,0,102810,102832,541.1003,262.611,543.401,266.2699 M,0,102832,102854,543.401,266.2699,530.3688,271.5532 M,0,102854,102876,530.3688,271.5532,530.3687,271.5532 M,0,102854,103031,530.3687,271.5532,530,271 M,0,103031,103053,530,271,531.0167,280.3197 M,0,103053,103075,531.0167,280.3197,532.0334,289.6394 M,0,103075,103097,532.0334,289.6394,533.05,298.9591 M,0,103097,103119,533.05,298.9591,534.0668,308.2788 M,0,103119,103207,534.0668,308.2788,462,277 M,0,103207,103229,462,277,462.8643,286.3351 M,0,103229,103251,462.8643,286.3351,463.7287,295.6701 M,0,103251,103273,463.7287,295.6701,464.5931,305.0052 M,0,103273,103295,464.5931,305.0052,465.4574,314.3403 M,0,103295,103384,465.4574,314.3403,383,401 M,0,103384,103472,383,401,392,405 M,0,103472,103560,392,405,400,409 M,0,103560,103582,400,409,401.3766,395.005 M,0,103582,103604,401.3766,395.005,402.7531,381.0101 M,0,103604,103626,402.7531,381.0101,404.1297,367.0151 M,0,103626,103648,404.1297,367.0151,405.5062,353.0201 M,0,103648,103670,405.5062,353.0201 M,0,103648,103737,405.5062,353.0201,314,264 M,0,103737,103759,314,264,300.004,265.3655 F,0,103737,104443,1,0 M,0,103759,103781,300.004,265.3655,286.0079,266.731 M,0,103781,103803,286.0079,266.731,272.2486,268.6489 M,0,103803,103825,272.2486,268.6489,261.6058,277.8405 M,0,103825,103847,261.6058,277.8405,250.9513,287.0049 M,0,103847,103869,250.9513,287.0049,236.9586,288.4041 M,0,103869,103891,236.9586,288.4041,222.9659,289.8034 M,0,103891,103913,222.9659,289.8034,208.9732,291.2027 M,0,103913,103935,208.9732,291.2027,208.9731,291.2027 M,0,103913,104001,208.9731,291.2027,133,171 M,0,104001,104090,133,171,140,175 M,0,104090,104112,140,175,142.0242,188.9161 M,0,104112,104134,142.0242,188.9161,144.0483,202.8321 M,0,104134,104156,144.0483,202.8321,146.0725,216.7482 M,0,104156,104178,146.0725,216.7482,148,230 M,0,104178,104200,148,230 M,0,104178,104266,148,230,208,164 M,0,104266,104288,208,164,210.0242,177.9161 M,0,104288,104310,210.0242,177.9161,212.0483,191.8321 M,0,104310,104332,212.0483,191.8321,214.0725,205.7482 M,0,104332,104354,214.0725,205.7482,216,219 M,0,104354,104376,216,219 M,0,104354,104443,216,219,303,333
Sprite,Background,Centre,"sb\pixel.png",0,0 S,0,60325,,15 R,0,60325,,4.117843 C,0,60325,,119,214,244 M,19,60325,60925,438,239,343.5621,302.8551 F,19,60325,63148,1,0
Sprite,Background,Centre,"sb\pixel.png",0,0 S,0,60325,,17 R,0,60325,,7.259436 C,0,60325,,119,214,244 M,19,60325,60925,438,239,532.4379,175.1449 F,19,60325,63148,1,0
Sprite,Background,Centre,"sb\pixel.png",0,0 S,0,60325,,19 R,0,60325,,3.885935 C,0,60325,,119,214,244 M,19,60325,60925,438,239,366.1862,316.9666 F,19,60325,63148,1,0
Sprite,Background,Centre,"sb\pixel.png",0,0 S,0,60325,,17 R,0,60325,,7.027528 C,0,60325,,119,214,244 M,19,60325,60925,438,239,509.8138,161.0334 F,19,60325,63148,1,0
Sprite,Background,Centre,"sb\pixel.png",0,0 S,0,60325,,15 R,0,60325,,5.710316 C,0,60325,,86,191,237 M,19,60325,60925,438,239,372.4125,137.3177 F,19,60325,63148,1,0
Sprite,Background,Centre,"sb\pixel.png",0,0 S,0,60325,,16 R,0,60325,,8.851909 C,0,60325,,86,191,237 M,19,60325,60925,438,239,503.5875,340.6823 F,19,60325,63148,1,0
Sprite,Background,Centre,"sb\pixel.png",0,0 S,0,60325,,16 R,0,60325,,4.386849 C,0,60325,,119,214,244 M,19,60325,60925,438,239,311.0379,281.8559 F,19,60325,63148,1,0
Sprite,Background,Centre,"sb\pixel.png",0,0 S,0,60325,,16 R,0,60325,,7.528442 C,0,60325,,86,191,237 M,19,60325,60925,438,239,564.9621,196.1441 F,19,60325,63148,1,0
Sprite,Background,Centre,"sb\pixel.png",0,0 S,0,60325,,19 R,0,60325,,4.857638 C,0,60325,,86,191,237 M,19,60325,60925,438,239,331.1372,223.3682 F,19,60325,63148,1,0
Sprite,Background,Centre,"sb\pixel.png",0,0 S,0,60325,,18 R,0,60325,,7.99923 C,0,60325,,119,214,244 M,19,60325,60925,438,239,544.8627,254.6318 F,19,60325,63148,1,0
Sprite,Background,Centre,"sb\pixel.png",0,0 S,0,60325,,18 R,0,60325,,5.114221 C,0,60325,,119,214,244 M,19,60325,60925,438,239,330.3195,193.2407 F,19,60325,63148,1,0
Sprite,Background,Centre,"sb\pixel.png",0,0 S,0,60325,,18 R,0,60325,,8.255814 C,0,60325,,119,214,244 M,19,60325,60925,438,239,545.6805,284.7593 F,19,60325,63148,1,0
Sprite,Background,Centre,"sb\pixel.png",0,0 S,0,63148,,19 R,0,63148,,5.745384 C,0,63148,,86,191,237 M,19,63148,63748,141,281,83.11585,183.9514 F,19,63148,65971,1,0
Sprite,Background,Centre,"sb\pixel.png",0,0 S,0,63148,,18 R,0,63148,,8.886976 C,0,63148,,86,191,237 M,19,63148,63748,141,281,198.8842,378.0486 F,19,63148,65971,1,0
Sprite,Background,Centre,"sb\pixel.png",0,0 S,0,63148,,18 R,0,63148,,4.683674 C,0,63148,,86,191,237 M,19,63148,63748,141,281,5.056065,284.9047 F,19,63148,65971,1,0
Sprite,Background,Centre,"sb\pixel.png",0,0 S,0,63148,,17 R,0,63148,,7.825267 C,0,63148,,119,214,244 M,19,63148,63748,141,281,276.9439,277.0953 F,19,63148,65971,1,0
Sprite,Background,Centre,"sb\pixel.png",0,0 S,0,63148,,16 R,0,63148,,5.87239 C,0,63148,,86,191,237 M,19,63148,63748,141,281,98.67014,183.8188 F,19,63148,65971,1,0
Sprite,Background,Centre,"sb\pixel.png",0,0 S,0,63148,,19 R,0,63148,,9.013983 C,0,63148,,86,191,237 M,19,63148,63748,141,281,183.3299,378.1812 F,19,63148,65971,1,0
Sprite,Background,Centre,"sb\pixel.png",0,0 S,0,63148,,15 R,0,63148,,4.921194 C,0,63148,,86,191,237 M,19,63148,63748,141,281,41.21551,259.8563 F,19,63148,65971,1,0
Sprite,Background,Centre,"sb\pixel.png",0,0 S,0,63148,,16 R,0,63148,,8.062787 C,0,63148,,86,191,237 M,19,63148,63748,141,281,240.7845,302.1437 F,19,63148,65971,1,0
Sprite,Background,Centre,"sb\pixel.png",0,0 S,0,63148,,16 R,0,63148,,6.025942 C,0,63148,,86,191,237 M,19,63148,63748,141,281,112.251,171.7183 F,19,63148,65971,1,0
Sprite,Background,Centre,"sb\pixel.png",0,0 S,0,63148,,19 R,0,63148,,9.167534 C,0,63148,,119,214,244 M,19,63148,63748,141,281,169.749,390.2817 F,19,63148,65971,1,0
Sprite,Background,Centre,"sb\pixel.png",0,0 S,0,63148,,16 R,0,63148,,4.241451 C,0,63148,,119,214,244 M,19,63148,63748,141,281,50.99453,326.8259 F,19,63148,65971,1,0
Sprite,Background,Centre,"sb\pixel.png",0,0 S,0,63148,,16 R,0,63148,,7.383044 C,0,63148,,119,214,244 M,19,63148,63748,141,281,231.0055,235.1741 F,19,63148,65971,1,0
Sprite,Background,Centre,"sb\pixel.png",0,0 C,0,65971,,119,214,244 S,0,65972,,16 R,0,65972,,4.614895 M,19,65972,66572,465,330,344.5746,341.778 F,19,65972,68795,1,0
Sprite,Background,Centre,"sb\pixel.png",0,0 C,0,65971,,86,191,237 S,0,65972,,19 R,0,65972,,7.756488 M,19,65972,66572,465,330,585.4254,318.222 F,19,65972,68795,1,0
Sprite,Background,Centre,"sb\pixel.png",0,0 C,0,65971,,119,214,244 S,0,65972,,15 R,0,65972,,4.836933 M,19,65972,66572,465,330,324.0999,312.3604 F,19,65972,68795,1,0
Sprite,Background,Centre,"sb\pixel.png",0,0 C,0,65971,,119,214,244 S,0,65972,,15 R,0,65972,,7.978526 M,19,65972,66572,465,330,605.9001,347.6396 F,19,65972,68795,1,0
Sprite,Background,Centre,"sb\pixel.png",0,0 C,0,65971,,119,214,244 S,0,65972,,16 R,0,65972,,5.651825 M,19,65972,66572,465,330,394.1708,233.1329 F,19,65972,68795,1,0
Sprite,Background,Centre,"sb\pixel.png",0,0 C,0,65971,,119,214,244 S,0,65972,,15 R,0,65972,,8.793418 M,19,65972,66572,465,330,535.8292,426.8671 F,19,65972,68795,1,0
Sprite,Background,Centre,"sb\pixel.png",0,0 C,0,65971,,86,191,237 S,0,65972,,17 R,0,65972,,3.379849 M,19,65972,66572,465,330,432.9028,462.1581 F,19,65972,68795,1,0
Sprite,Background,Centre,"sb\pixel.png",0,0 C,0,65971,,119,214,244 S,0,65972,,16 R,0,65972,,6.521442 M,19,65972,66572,465,330,497.0972,197.8419 F,19,65972,68795,1,0
Sprite,Background,Centre,"sb\pixel.png",0,0 C,0,65971,,119,214,244 S,0,65972,,18 R,0,65972,,5.673545 M,19,65972,66572,465,330,404.3073,243.0955 F,19,65972,68795,1,0
Sprite,Background,Centre,"sb\pixel.png",0,0 C,0,65971,,119,214,244 S,0,65972,,15 R,0,65972,,8.815138 M,19,65972,66572,465,330,525.6927,416.9045 F,19,65972,68795,1,0
Sprite,Background,Centre,"sb\pixel.png",0,0 C,0,65971,,86,191,237 S,0,65972,,18 R,0,65972,,4.231613 M,19,65972,66572,465,330,348.8506,390.5832 F,19,65972,68795,1,0
Sprite,Background,Centre,"sb\pixel.png",0,0 C,0,65971,,86,191,237 S,0,65972,,17 R,0,65972,,7.373206 M,19,65972,66572,465,330,581.1494,269.4168 F,19,65972,68795,1,0
Sprite,Background,Centre,"sb\pixel.png",0,0 C,0,68794,,119,214,244 S,0,68795,,18 R,0,68795,,5.684906 M,19,68795,69395,180,257,116.9192,164.4537 F,19,68795,71618,1,0
Sprite,Background,Centre,"sb\pixel.png",0,0 C,0,68794,,86,191,237 S,0,68795,,18 R,0,68795,,8.826499 M,19,68795,69395,180,257,243.0808,349.5463 F,19,68795,71618,1,0
Sprite,Background,Centre,"sb\pixel.png",0,0 C,0,68794,,119,214,244 S,0,68795,,19 R,0,68795,,3.637715 M,19,68795,69395,180,257,110.9773,384.5181 F,19,68795,71618,1,0
Sprite,Background,Centre,"sb\pixel.png",0,0 C,0,68794,,86,191,237 S,0,68795,,19 R,0,68795,,6.779307 M,19,68795,69395,180,257,249.0227,129.4819 F,19,68795,71618,1,0
Sprite,Background,Centre,"sb\pixel.png",0,0 C,0,68794,,86,191,237 S,0,68795,,15 R,0,68795,,4.718861 M,19,68795,69395,180,257,74.00222,256.314 F,19,68795,71618,1,0
Sprite,Background,Centre,"sb\pixel.png",0,0 C,0,68794,,119,214,244 S,0,68795,,17 R,0,68795,,7.860454 M,19,68795,69395,180,257,285.9978,257.686 F,19,68795,71618,1,0
Sprite,Background,Centre,"sb\pixel.png",0,0 C,0,68794,,119,214,244 S,0,68795,,18 R,0,68795,,4.854945 M,19,68795,69395,180,257,36.47086,236.3994 F,19,68795,71618,1,0
Sprite,Background,Centre,"sb\pixel.png",0,0 C,0,68794,,86,191,237 S,0,68795,,18 R,0,68795,,7.996537 M,19,68795,69395,180,257,323.5291,277.6006 F,19,68795,71618,1,0
Sprite,Background,Centre,"sb\pixel.png",0,0 C,0,68794,,119,214,244 S,0,68795,,19 R,0,68795,,4.835289 M,19,68795,69395,180,257,43.04089,240.0825 F,19,68795,71618,1,0
Sprite,Background,Centre,"sb\pixel.png",0,0 C,0,68794,,86,191,237 S,0,68795,,17 R,0,68795,,7.976882 M,19,68795,69395,180,257,316.9591,273.9175 F,19,68795,71618,1,0
Sprite,Background,Centre,"sb\pixel.png",0,0 C,0,68794,,86,191,237 S,0,68795,,19 R,0,68795,,3.50777 M,19,68795,69395,180,257,142.7629,354.1051 F,19,68795,71618,1,0
Sprite,Background,Centre,"sb\pixel.png",0,0 C,0,68794,,119,214,244 S,0,68795,,19 R,0,68795,,6.649363 M,19,68795,69395,180,257,217.2371,159.8949 F,19,68795,71618,1,0
Sprite,Background,Centre,"sb\pixel.png",0,0 C,0,71617,,119,214,244 S,0,71619,,15 R,0,71619,,5.84826 M,19,71619,72219,513,232,463.2815,124.9856 F,19,71619,74442,1,0
Sprite,Background,Centre,"sb\pixel.png",0,0 C,0,71617,,119,214,244 S,0,71619,,15 R,0,71619,,8.989852 M,19,71619,72219,513,232,562.7184,339.0144 F,19,71619,74442,1,0
Sprite,Background,Centre,"sb\pixel.png",0,0 C,0,71617,,86,191,237 S,0,71619,,17 R,0,71619,,3.820637 M,19,71619,72219,513,232,421.3048,345.6133 F,19,71619,74442,1,0
Sprite,Background,Centre,"sb\pixel.png",0,0 C,0,71617,,119,214,244 S,0,71619,,16 R,0,71619,,6.962229 M,19,71619,72219,513,232,604.6952,118.3867 F,19,71619,74442,1,0
Sprite,Background,Centre,"sb\pixel.png",0,0 C,0,71617,,119,214,244 S,0,71619,,17 R,0,71619,,4.064777 M,19,71619,72219,513,232,424.4745,298.9645 F,19,71619,74442,1,0
Sprite,Background,Centre,"sb\pixel.png",0,0 C,0,71617,,119,214,244 S,0,71619,,19 R,0,71619,,7.20637 M,19,71619,72219,513,232,601.5255,165.0355 F,19,71619,74442,1,0
Sprite,Background,Centre,"sb\pixel.png",0,0 C,0,71617,,86,191,237 S,0,71619,,18 R,0,71619,,3.52777 M,19,71619,72219,513,232,471.9452,332.9728 F,19,71619,74442,1,0
Sprite,Background,Centre,"sb\pixel.png",0,0 C,0,71617,,119,214,244 S,0,71619,,18 R,0,71619,,6.669363 M,19,71619,72219,513,232,554.0548,131.0272 F,19,71619,74442,1,0
Sprite,Background,Centre,"sb\pixel.png",0,0 C,0,71617,,119,214,244 S,0,71619,,18 R,0,71619,,3.758429 M,19,71619,72219,513,232,449.9481,320.9127 F,19,71619,74442,1,0
Sprite,Background,Centre,"sb\pixel.png",0,0 C,0,71617,,86,191,237 S,0,71619,,17 R,0,71619,,6.900022 M,19,71619,72219,513,232,576.0519,143.0873 F,19,71619,74442,1,0
Sprite,Background,Centre,"sb\pixel.png",0,0 C,0,71617,,86,191,237 S,0,71619,,19 R,0,71619,,4.089674 M,19,71619,72219,513,232,407.4013,307.8216 F,19,71619,74442,1,0
Sprite,Background,Centre,"sb\pixel.png",0,0 C,0,71617,,119,214,244 S,0,71619,,19 R,0,71619,,7.231266 M,19,71619,72219,513,232,618.5987,156.1784 F,19,71619,74442,1,0
Sprite,Background,Centre,"sb\pixel.png",0,0 C,0,74440,,86,191,237 S,0,74443,,16 R,0,74443,,3.977628 M,19,74443,75043,218,148,125.9931,231.1308 F,19,74443,77266,1,0
Sprite,Background,Centre,"sb\pixel.png",0,0 C,0,74440,,119,214,244 S,0,74443,,17 R,0,74443,,7.11922 M,19,74443,75043,218,148,310.0069,64.86916 F,19,74443,77266,1,0
Sprite,Background,Centre,"sb\pixel.png",0,0 C,0,74440,,119,214,244 S,0,74443,,16 R,0,74443,,3.415926 M,19,74443,75043,218,148,189.5549,249.0736 F,19,74443,77266,1,0
Sprite,Background,Centre,"sb\pixel.png",0,0 C,0,74440,,86,191,237 S,0,74443,,17 R,0,74443,,6.557519 M,19,74443,75043,218,148,246.4451,46.92638 F,19,74443,77266,1,0
Sprite,Background,Centre,"sb\pixel.png",0,0 C,0,74440,,86,191,237 S,0,74443,,19 R,0,74443,,3.146563 M,19,74443,75043,218,148,217.349,278.9984 F,19,74443,77266,1,0
Sprite,Background,Centre,"sb\pixel.png",0,0 C,0,74440,,86,191,237 S,0,74443,,16 R,0,74443,,6.288155 M,19,74443,75043,218,148,218.651,17.00162 F,19,74443,77266,1,0
Sprite,Background,Centre,"sb\pixel.png",0,0 C,0,74440,,119,214,244 S,0,74443,,16 R,0,74443,,3.896445 M,19,74443,75043,218,148,141.2598,229.5778 F,19,74443,77266,1,0
Sprite,Background,Centre,"sb\pixel.png",0,0 C,0,74440,,86,191,237 S,0,74443,,16 R,0,74443,,7.038037 M,19,74443,75043,218,148,294.7402,66.42222 F,19,74443,77266,1,0
Sprite,Background,Centre,"sb\pixel.png",0,0 C,0,74440,,119,214,244 S,0,74443,,15 R,0,74443,,5.991525 M,19,74443,75043,218,148,182.3447,29.2368 F,19,74443,77266,1,0
Sprite,Background,Centre,"sb\pixel.png",0,0 C,0,74440,,119,214,244 S,0,74443,,18 R,0,74443,,9.133118 M,19,74443,75043,218,148,253.6553,266.7632 F,19,74443,77266,1,0
Sprite,Background,Centre,"sb\pixel.png",0,0 C,0,74440,,86,191,237 S,0,74443,,18 R,0,74443,,4.779942 M,19,74443,75043,218,148,94.28282,139.6299 F,19,74443,77266,1,0
Sprite,Background,Centre,"sb\pixel.png",0,0 C,0,74440,,119,214,244 S,0,74443,,18 R,0,74443,,7.921534 M,19,74443,75043,218,148,341.7172,156.3701 F,19,74443,77266,1,0
Sprite,Background,Centre,"sb\pixel.png",0,0 C,0,77263,,86,191,237 S,0,77266,,15 R,0,77266,,4.157419 M,19,77266,77866,282,293,160.462,368.3493 F,19,77266,80089,1,0
Sprite,Background,Centre,"sb\pixel.png",0,0 C,0,77263,,86,191,237 S,0,77266,,15 R,0,77266,,7.299011 M,19,77266,77866,282,293,403.538,217.6507 F,19,77266,80089,1,0
Sprite,Background,Centre,"sb\pixel.png",0,0 C,0,77263,,119,214,244 S,0,77266,,18 R,0,77266,,4.02633 M,19,77266,77866,282,293,169.0327,385.49 F,19,77266,80089,1,0
Sprite,Background,Centre,"sb\pixel.png",0,0 C,0,77263,,86,191,237 S,0,77266,,15 R,0,77266,,7.167922 M,19,77266,77866,282,293,394.9673,200.51 F,19,77266,80089,1,0
Sprite,Background,Centre,"sb\pixel.png",0,0 C,0,77263,,86,191,237 S,0,77266,,17 R,0,77266,,4.865514 M,19,77266,77866,282,293,159.4509,274.0867 F,19,77266,80089,1,0
Sprite,Background,Centre,"sb\pixel.png",0,0 C,0,77263,,86,191,237 S,0,77266,,15 R,0,77266,,8.007106 M,19,77266,77866,282,293,404.5491,311.9133 F,19,77266,80089,1,0
Sprite,Background,Centre,"sb\pixel.png",0,0 C,0,77263,,86,191,237 S,0,77266,,16 R,0,77266,,5.064476 M,19,77266,77866,282,293,147.7723,243.6854 F,19,77266,80089,1,0
Sprite,Background,Centre,"sb\pixel.png",0,0 C,0,77263,,119,214,244 S,0,77266,,19 R,0,77266,,8.206068 M,19,77266,77866,282,293,416.2277,342.3146 F,19,77266,80089,1,0
Sprite,Background,Centre,"sb\pixel.png",0,0 C,0,77263,,86,191,237 S,0,77266,,19 R,0,77266,,4.485025 M,19,77266,77866,282,293,184.5736,315.541 F,19,77266,80089,1,0
Sprite,Background,Centre,"sb\pixel.png",0,0 C,0,77263,,86,191,237 S,0,77266,,15 R,0,77266,,7.626617 M,19,77266,77866,282,293,379.4264,270.459 F,19,77266,80089,1,0
Sprite,Background,Centre,"sb\pixel.png",0,0 C,0,77263,,119,214,244 S,0,77266,,16 R,0,77266,,4.637382 M,19,77266,77866,282,293,165.329,301.7676 F,19,77266,80089,1,0
Sprite,Background,Centre,"sb\pixel.png",0,0 C,0,77263,,119,214,244 S,0,77266,,19 R,0,77266,,7.778975 M,19,77266,77866,282,293,398.671,284.2324 F,19,77266,80089,1,0
Sprite,Background,Centre,"sb\pixel.png",0,0 C,0,80086,,86,191,237 S,0,80090,,15 R,0,80090,,4.497903 M,19,80090,80690,337,76,235.3831,98.13588 F,19,80090,82913,1,0
Sprite,Background,Centre,"sb\pixel.png",0,0 C,0,80086,,119,214,244 S,0,80090,,19 R,0,80090,,7.639496 M,19,80090,80690,337,76,438.6169,53.86412 F,19,80090,82913,1,0
Sprite,Background,Centre,"sb\pixel.png",0,0 C,0,80086,,86,191,237 S,0,80090,,15 R,0,80090,,5.381914 M,19,80090,80690,337,76,254.6677,10.83561 F,19,80090,82913,1,0
Sprite,Background,Centre,"sb\pixel.png",0,0 C,0,80086,,86,191,237 S,0,80090,,18 R,0,80090,,8.523506 M,19,80090,80690,337,76,419.3323,141.1644 F,19,80090,82913,1,0
Sprite,Background,Centre,"sb\pixel.png",0,0 C,0,80086,,86,191,237 S,0,80090,,19 R,0,80090,,5.772515 M,19,80090,80690,337,76,287.6351,-12.11414 F,19,80090,82913,1,0
Sprite,Background,Centre,"sb\pixel.png",0,0 C,0,80086,,119,214,244 S,0,80090,,16 R,0,80090,,8.914108 M,19,80090,80690,337,76,386.3649,164.1142 F,19,80090,82913,1,0
Sprite,Background,Centre,"sb\pixel.png",0,0 C,0,80086,,86,191,237 S,0,80090,,19 R,0,80090,,3.213962 M,19,80090,80690,337,76,329.7694,175.7383 F,19,80090,82913,1,0
Sprite,Background,Centre,"sb\pixel.png",0,0 C,0,80086,,86,191,237 S,0,80090,,17 R,0,80090,,6.355554 M,19,80090,80690,337,76,344.2306,-23.73825 F,19,80090,82913,1,0
Sprite,Background,Centre,"sb\pixel.png",0,0 C,0,80086,,119,214,244 S,0,80090,,16 R,0,80090,,3.457416 M,19,80090,80690,337,76,299.1069,191.966 F,19,80090,82913,1,0
Sprite,Background,Centre,"sb\pixel.png",0,0 C,0,80086,,119,214,244 S,0,80090,,16 R,0,80090,,6.599009 M,19,80090,80690,337,76,374.8931,-39.96601 F,19,80090,82913,1,0
Sprite,Background,Centre,"sb\pixel.png",0,0 C,0,80086,,119,214,244 S,0,80090,,19 R,0,80090,,5.501654 M,19,80090,80690,337,76,256.7021,-4.921279 F,19,80090,82913,1,0
Sprite,Background,Centre,"sb\pixel.png",0,0 C,0,80086,,119,214,244 S,0,80090,,17 R,0,80090,,8.643247 M,19,80090,80690,337,76,417.2979,156.9213 F,19,80090,82913,1,0
Sprite,Background,Centre,"sb\pixel.png",0,0 C,0,82909,,86,191,237 S,0,82913,,18 R,0,82913,,4.095393 M,19,82913,83513,382,158,280.8631,229.7449 F,19,82913,85736,1,0
Sprite,Background,Centre,"sb\pixel.png",0,0 C,0,82909,,86,191,237 S,0,82913,,16 R,0,82913,,7.236985 M,19,82913,83513,382,158,483.1369,86.25511 F,19,82913,85736,1,0
Sprite,Background,Centre,"sb\pixel.png",0,0 C,0,82909,,119,214,244 S,0,82913,,16 R,0,82913,,3.527652 M,19,82913,83513,382,158,336.8151,269.168 F,19,82913,85736,1,0
Sprite,Background,Centre,"sb\pixel.png",0,0 C,0,82909,,119,214,244 S,0,82913,,18 R,0,82913,,6.669245 M,19,82913,83513,382,158,427.1849,46.83199 F,19,82913,85736,1,0
Sprite,Background,Centre,"sb\pixel.png",0,0 C,0,82909,,119,214,244 S,0,82913,,15 R,0,82913,,4.05304 M,19,82913,83513,382,158,282.4107,235.1879 F,19,82913,85736,1,0
Sprite,Background,Centre,"sb\pixel.png",0,0 C,0,82909,,119,214,244 S,0,82913,,17 R,0,82913,,7.194632 M,19,82913,83513,382,158,481.5893,80.81206 F,19,82913,85736,1,0
Sprite,Background,Centre,"sb\pixel.png",0,0 C,0,82909,,119,214,244 S,0,82913,,15 R,0,82913,,4.27375 M,19,82913,83513,382,158,267.023,211.9379 F,19,82913,85736,1,0
Sprite,Background,Centre,"sb\pixel.png",0,0 C,0,82909,,119,214,244 S,0,82913,,18 R,0,82913,,7.415342 M,19,82913,83513,382,158,496.977,104.0621 F,19,82913,85736,1,0
Sprite,Background,Centre,"sb\pixel.png",0,0 C,0,82909,,86,191,237 S,0,82913,,17 R,0,82913,,5.388048 M,19,82913,83513,382,158,288.3646,82.95057 F,19,82913,85736,1,0
Sprite,Background,Centre,"sb\pixel.png",0,0 C,0,82909,,119,214,244 S,0,82913,,16 R,0,82913,,8.529641 M,19,82913,83513,382,158,475.6354,233.0494 F,19,82913,85736,1,0
Sprite,Background,Centre,"sb\pixel.png",0,0 C,0,82909,,86,191,237 S,0,82913,,17 R,0,82913,,5.101453 M,19,82913,83513,382,158,247.8366,102.9983 F,19,82913,85736,1,0
Sprite,Background,Centre,"sb\pixel.png",0,0 C,0,82909,,86,191,237 S,0,82913,,17 R,0,82913,,8.243046 M,19,82913,83513,382,158,516.1634,213.0017 F,19,82913,85736,1,0
Sprite,Background,Centre,"sb\pixel.png",0,0 C,0,85732,,119,214,244 S,0,85737,,16 R,0,85737,,5.051043 M,19,85737,86337,236,226,128.4749,188.1272 F,19,85737,88560,1,0
Sprite,Background,Centre,"sb\pixel.png",0,0 C,0,85732,,86,191,237 S,0,85737,,16 R,0,85737,,8.192636 M,19,85737,86337,236,226,343.5251,263.8728 F,19,85737,88560,1,0
Sprite,Background,Centre,"sb\pixel.png",0,0 C,0,85732,,119,214,244 S,0,85737,,17 R,0,85737,,3.356693 M,19,85737,86337,236,226,206.5445,360.8198 F,19,85737,88560,1,0
Sprite,Background,Centre,"sb\pixel.png",0,0 C,0,85732,,119,214,244 S,0,85737,,18 R,0,85737,,6.498286 M,19,85737,86337,236,226,265.4555,91.18021 F,19,85737,88560,1,0
Sprite,Background,Centre,"sb\pixel.png",0,0 C,0,85732,,119,214,244 S,0,85737,,17 R,0,85737,,3.405401 M,19,85737,86337,236,226,200.7976,356.3295 F,19,85737,88560,1,0
Sprite,Background,Centre,"sb\pixel.png",0,0 C,0,85732,,86,191,237 S,0,85737,,17 R,0,85737,,6.546993 M,19,85737,86337,236,226,271.2024,95.67046 F,19,85737,88560,1,0
Sprite,Background,Centre,"sb\pixel.png",0,0 C,0,85732,,119,214,244 S,0,85737,,15 R,0,85737,,3.526809 M,19,85737,86337,236,226,196.1695,324.232 F,19,85737,88560,1,0
Sprite,Background,Centre,"sb\pixel.png",0,0 C,0,85732,,119,214,244 S,0,85737,,15 R,0,85737,,6.668402 M,19,85737,86337,236,226,275.8305,127.768 F,19,85737,88560,1,0
Sprite,Background,Centre,"sb\pixel.png",0,0 C,0,85732,,119,214,244 S,0,85737,,16 R,0,85737,,4.480358 M,19,85737,86337,236,226,104.6178,257.0439 F,19,85737,88560,1,0
Sprite,Background,Centre,"sb\pixel.png",0,0 C,0,85732,,86,191,237 S,0,85737,,15 R,0,85737,,7.621951 M,19,85737,86337,236,226,367.3822,194.9561 F,19,85737,88560,1,0
Sprite,Background,Centre,"sb\pixel.png",0,0 C,0,85732,,86,191,237 S,0,85737,,18 R,0,85737,,5.391022 M,19,85737,86337,236,226,124.6843,136.2347 F,19,85737,88560,1,0
Sprite,Background,Centre,"sb\pixel.png",0,0 C,0,85732,,119,214,244 S,0,85737,,19 R,0,85737,,8.532615 M,19,85737,86337,236,226,347.3157,315.7653 F,19,85737,88560,1,0
Sprite,Background,Centre,"sb\pixel.png",0,0 C,0,88555,,86,191,237 S,0,88560,,15 R,0,88560,,3.250267 M,19,88560,89160,437,240,425.9371,341.3983 F,19,88560,91383,1,0
Sprite,Background,Centre,"sb\pixel.png",0,0 C,0,88555,,119,214,244 S,0,88560,,16 R,0,88560,,6.391859 M,19,88560,89160,437,240,448.0629,138.6017 F,19,88560,91383,1,0
Sprite,Background,Centre,"sb\pixel.png",0,0 C,0,88555,,119,214,244 S,0,88560,,15 R,0,88560,,3.8595 M,19,88560,89160,437,240,364.6409,322.8503 F,19,88560,91383,1,0
Sprite,Background,Centre,"sb\pixel.png",0,0 C,0,88555,,119,214,244 S,0,88560,,17 R,0,88560,,7.001092 M,19,88560,89160,437,240,509.3591,157.1497 F,19,88560,91383,1,0
Sprite,Background,Centre,"sb\pixel.png",0,0 C,0,88555,,119,214,244 S,0,88560,,17 R,0,88560,,3.754303 M,19,88560,89160,437,240,377.7661,324.2635 F,19,88560,91383,1,0
Sprite,Background,Centre,"sb\pixel.png",0,0 C,0,88555,,119,214,244 S,0,88560,,17 R,0,88560,,6.895895 M,19,88560,89160,437,240,496.2339,155.7365 F,19,88560,91383,1,0
Sprite,Background,Centre,"sb\pixel.png",0,0 C,0,88555,,119,214,244 S,0,88560,,16 R,0,88560,,3.404871 M,19,88560,89160,437,240,404.2088,361.6583 F,19,88560,91383,1,0
Sprite,Background,Centre,"sb\pixel.png",0,0 C,0,88555,,86,191,237 S,0,88560,,15 R,0,88560,,6.546463 M,19,88560,89160,437,240,469.7912,118.3417 F,19,88560,91383,1,0
Sprite,Background,Centre,"sb\pixel.png",0,0 C,0,88555,,119,214,244 S,0,88560,,16 R,0,88560,,3.656673 M,19,88560,89160,437,240,367.0501,363.576 F,19,88560,91383,1,0
Sprite,Background,Centre,"sb\pixel.png",0,0 C,0,88555,,86,191,237 S,0,88560,,15 R,0,88560,,6.798265 M,19,88560,89160,437,240,506.9499,116.424 F,19,88560,91383,1,0
Sprite,Background,Centre,"sb\pixel.png",0,0 C,0,88555,,119,214,244 S,0,88560,,15 R,0,88560,,6.002395 M,19,88560,89160,437,240,404.5775,127.5821 F,19,88560,91383,1,0
Sprite,Background,Centre,"sb\pixel.png",0,0 C,0,88555,,86,191,237 S,0,88560,,17 R,0,88560,,9.143988 M,19,88560,89160,437,240,469.4225,352.4179 F,19,88560,91383,1,0
Sprite,Background,Centre,"sb\pixel.png",0,0 C,0,91378,,119,214,244 S,0,91384,,16 R,0,91384,,5.441654 M,19,91384,91984,294,198,217.1966,129.3689 F,19,91384,94207,1,0
Sprite,Background,Centre,"sb\pixel.png",0,0 C,0,91378,,86,191,237 S,0,91384,,18 R,0,91384,,8.583246 M,19,91384,91984,294,198,370.8034,266.6311 F,19,91384,94207,1,0
Sprite,Background,Centre,"sb\pixel.png",0,0 C,0,91378,,119,214,244 S,0,91384,,18 R,0,91384,,5.584375 M,19,91384,91984,294,198,216.8032,106.127 F,19,91384,94207,1,0
Sprite,Background,Centre,"sb\pixel.png",0,0 C,0,91378,,119,214,244 S,0,91384,,18 R,0,91384,,8.725968 M,19,91384,91984,294,198,371.1968,289.873 F,19,91384,94207,1,0
Sprite,Background,Centre,"sb\pixel.png",0,0 C,0,91378,,86,191,237 S,0,91384,,16 R,0,91384,,5.496618 M,19,91384,91984,294,198,214.7115,118.8967 F,19,91384,94207,1,0
Sprite,Background,Centre,"sb\pixel.png",0,0 C,0,91378,,86,191,237 S,0,91384,,19 R,0,91384,,8.638211 M,19,91384,91984,294,198,373.2885,277.1033 F,19,91384,94207,1,0
Sprite,Background,Centre,"sb\pixel.png",0,0 C,0,91378,,119,214,244 S,0,91384,,18 R,0,91384,,5.221583 M,19,91384,91984,294,198,172.6339,130.2411 F,19,91384,94207,1,0
Sprite,Background,Centre,"sb\pixel.png",0,0 C,0,91378,,86,191,237 S,0,91384,,16 R,0,91384,,8.363176 M,19,91384,91984,294,198,415.3661,265.7589 F,19,91384,94207,1,0
Sprite,Background,Centre,"sb\pixel.png",0,0 C,0,91378,,119,214,244 S,0,91384,,16 R,0,91384,,3.737297 M,19,91384,91984,294,198,213.7639,316.3688 F,19,91384,94207,1,0
Sprite,Background,Centre,"sb\pixel.png",0,0 C,0,91378,,119,214,244 S,0,91384,,19 R,0,91384,,6.87889 M,19,91384,91984,294,198,374.2361,79.63123 F,19,91384,94207,1,0
Sprite,Background,Centre,"sb\pixel.png",0,0 C,0,91378,,86,191,237 S,0,91384,,19 R,0,91384,,3.927076 M,19,91384,91984,294,198,220.4546,271.5329 F,19,91384,94207,1,0
Sprite,Background,Centre,"sb\pixel.png",0,0 C,0,91378,,86,191,237 S,0,91384,,16 R,0,91384,,7.068668 M,19,91384,91984,294,198,367.5453,124.4671 F,19,91384,94207,1,0
Sprite,Background,Centre,"sb\pixel.png",0,0 C,0,94201,,86,191,237 S,0,94207,,17 R,0,94207,,4.765654 M,19,94207,94807,289,236,146.2028,228.3867 F,19,94207,97030,1,0
Sprite,Background,Centre,"sb\pixel.png",0,0 C,0,94201,,119,214,244 S,0,94207,,17 R,0,94207,,7.907247 M,19,94207,94807,289,236,431.7972,243.6133 F,19,94207,97030,1,0
Sprite,Background,Centre,"sb\pixel.png",0,0 C,0,94201,,86,191,237 S,0,94207,,17 R,0,94207,,5.179014 M,19,94207,94807,289,236,175.5774,178.8659 F,19,94207,97030,1,0
Sprite,Background,Centre,"sb\pixel.png",0,0 C,0,94201,,86,191,237 S,0,94207,,17 R,0,94207,,8.320607 M,19,94207,94807,289,236,402.4226,293.1341 F,19,94207,97030,1,0
Sprite,Background,Centre,"sb\pixel.png",0,0 C,0,94201,,86,191,237 S,0,94207,,16 R,0,94207,,4.974948 M,19,94207,94807,289,236,166.3524,203.0368 F,19,94207,97030,1,0
Sprite,Background,Centre,"sb\pixel.png",0,0 C,0,94201,,119,214,244 S,0,94207,,18 R,0,94207,,8.11654 M,19,94207,94807,289,236,411.6476,268.9632 F,19,94207,97030,1,0
Sprite,Background,Centre,"sb\pixel.png",0,0 C,0,94201,,119,214,244 S,0,94207,,18 R,0,94207,,4.285456 M,19,94207,94807,289,236,197.976,277.4081 F,19,94207,97030,1,0
Sprite,Background,Centre,"sb\pixel.png",0,0 C,0,94201,,119,214,244 S,0,94207,,19 R,0,94207,,7.427048 M,19,94207,94807,289,236,380.024,194.5919 F,19,94207,97030,1,0
Sprite,Background,Centre,"sb\pixel.png",0,0 C,0,94201,,119,214,244 S,0,94207,,17 R,0,94207,,4.293542 M,19,94207,94807,289,236,173.8916,287.2451 F,19,94207,97030,1,0
Sprite,Background,Centre,"sb\pixel.png",0,0 C,0,94201,,119,214,244 S,0,94207,,19 R,0,94207,,7.435135 M,19,94207,94807,289,236,404.1084,184.7549 F,19,94207,97030,1,0
Sprite,Background,Centre,"sb\pixel.png",0,0 C,0,94201,,119,214,244 S,0,94207,,16 R,0,94207,,3.388066 M,19,94207,94807,289,236,253.3782,377.5877 F,19,94207,97030,1,0
Sprite,Background,Centre,"sb\pixel.png",0,0 C,0,94201,,86,191,237 S,0,94207,,18 R,0,94207,,6.529658 M,19,94207,94807,289,236,324.6218,94.41227 F,19,94207,97030,1,0
Sprite,Background,Centre,"sb\pixel.png",0,0 C,0,97024,,119,214,244 S,0,97031,,18 R,0,97031,,3.838402 M,19,97031,97631,283,207,213.0466,290.5914 F,19,97031,99854,1,0
Sprite,Background,Centre,"sb\pixel.png",0,0 C,0,97024,,119,214,244 S,0,97031,,16 R,0,97031,,6.979995 M,19,97031,97631,283,207,352.9534,123.4086 F,19,97031,99854,1,0
Sprite,Background,Centre,"sb\pixel.png",0,0 C,0,97024,,119,214,244 S,0,97031,,19 R,0,97031,,4.467038 M,19,97031,97631,283,207,149.1328,240.5197 F,19,97031,99854,1,0
Sprite,Background,Centre,"sb\pixel.png",0,0 C,0,97024,,86,191,237 S,0,97031,,17 R,0,97031,,7.608631 M,19,97031,97631,283,207,416.8672,173.4803 F,19,97031,99854,1,0
Sprite,Background,Centre,"sb\pixel.png",0,0 C,0,97024,,86,191,237 S,0,97031,,19 R,0,97031,,4.007555 M,19,97031,97631,283,207,174.8358,299.0028 F,19,97031,99854,1,0
Sprite,Background,Centre,"sb\pixel.png",0,0 C,0,97024,,119,214,244 S,0,97031,,18 R,0,97031,,7.149148 M,19,97031,97631,283,207,391.1642,114.9972 F,19,97031,99854,1,0
Sprite,Background,Centre,"sb\pixel.png",0,0 C,0,97024,,86,191,237 S,0,97031,,18 R,0,97031,,3.27059 M,19,97031,97631,283,207,265.2477,343.8534 F,19,97031,99854,1,0
Sprite,Background,Centre,"sb\pixel.png",0,0 C,0,97024,,119,214,244 S,0,97031,,19 R,0,97031,,6.412183 M,19,97031,97631,283,207,300.7523,70.14659 F,19,97031,99854,1,0
Sprite,Background,Centre,"sb\pixel.png",0,0 C,0,97024,,119,214,244 S,0,97031,,19 R,0,97031,,3.606901 M,19,97031,97631,283,207,233.1945,306.1989 F,19,97031,99854,1,0
Sprite,Background,Centre,"sb\pixel.png",0,0 C,0,97024,,119,214,244 S,0,97031,,18 R,0,97031,,6.748493 M,19,97031,97631,283,207,332.8055,107.8011 F,19,97031,99854,1,0
Sprite,Background,Centre,"sb\pixel.png",0,0 C,0,97024,,86,191,237 S,0,97031,,19 R,0,97031,,3.279113 M,19,97031,97631,283,207,267.6462,317.9426 F,19,97031,99854,1,0
Sprite,Background,Centre,"sb\pixel.png",0,0 C,0,97024,,119,214,244 S,0,97031,,16 R,0,97031,,6.420706 M,19,97031,97631,283,207,298.3538,96.0574 F,19,97031,99854,1,0
Sprite,Background,Centre,"sb\pixel.png",0,0 C,0,99847,,86,191,237 S,0,99854,,19 R,0,99854,,4.455695 M,19,99854,100454,321,294,192.3578,327.7666 F,19,99854,102677,1,0
Sprite,Background,Centre,"sb\pixel.png",0,0 C,0,99847,,119,214,244 S,0,99854,,16 R,0,99854,,7.597288 M,19,99854,100454,321,294,449.6422,260.2334 F,19,99854,102677,1,0
Sprite,Background,Centre,"sb\pixel.png",0,0 C,0,99847,,86,191,237 S,0,99854,,18 R,0,99854,,5.34972 M,19,99854,100454,321,294,222.1465,220.8086 F,19,99854,102677,1,0
Sprite,Background,Centre,"sb\pixel.png",0,0 C,0,99847,,119,214,244 S,0,99854,,17 R,0,99854,,8.491312 M,19,99854,100454,321,294,419.8535,367.1914 F,19,99854,102677,1,0
Sprite,Background,Centre,"sb\pixel.png",0,0 C,0,99847,,119,214,244 S,0,99854,,18 R,0,99854,,4.086537 M,19,99854,100454,321,294,230.228,359.6083 F,19,99854,102677,1,0
Sprite,Background,Centre,"sb\pixel.png",0,0 C,0,99847,,119,214,244 S,0,99854,,15 R,0,99854,,7.228129 M,19,99854,100454,321,294,411.772,228.3917 F,19,99854,102677,1,0
Sprite,Background,Centre,"sb\pixel.png",0,0 C,0,99847,,119,214,244 S,0,99854,,16 R,0,99854,,6.160815 M,19,99854,100454,321,294,305.6198,168.9422 F,19,99854,102677,1,0
Sprite,Background,Centre,"sb\pixel.png",0,0 C,0,99847,,86,191,237 S,0,99854,,19 R,0,99854,,9.302407 M,19,99854,100454,321,294,336.3802,419.0578 F,19,99854,102677,1,0
Sprite,Background,Centre,"sb\pixel.png",0,0 C,0,99847,,119,214,244 S,0,99854,,18 R,0,99854,,3.517027 M,19,99854,100454,321,294,274.7988,411.2239 F,19,99854,102677,1,0
Sprite,Background,Centre,"sb\pixel.png",0,0 C,0,99847,,86,191,237 S,0,99854,,17 R,0,99854,,6.658619 M,19,99854,100454,321,294,367.2012,176.7761 F,19,99854,102677,1,0
Sprite,Background,Centre,"sb\pixel.png",0,0 C,0,99847,,86,191,237 S,0,99854,,16 R,0,99854,,5.728667 M,19,99854,100454,321,294,258.869,193.6818 F,19,99854,102677,1,0
Sprite,Background,Centre,"sb\pixel.png",0,0 C,0,99847,,119,214,244 S,0,99854,,18 R,0,99854,,8.87026 M,19,99854,100454,321,294,383.131,394.3182 F,19,99854,102677,1,0
Sprite,Background,Centre,"sb\pixel.png",0,0 C,0,102670,,119,214,244 S,0,102678,,17 R,0,102678,,5.721318 M,19,102678,103278,458,248,400.4611,156.6037 F,19,102678,105501,1,0
Sprite,Background,Centre,"sb\pixel.png",0,0 C,0,102670,,86,191,237 S,0,102678,,18 R,0,102678,,8.86291 M,19,102678,103278,458,248,515.5389,339.3963 F,19,102678,105501,1,0
Sprite,Background,Centre,"sb\pixel.png",0,0 C,0,102670,,119,214,244 S,0,102678,,18 R,0,102678,,3.453322 M,19,102678,103278,458,248,421.8088,360.313 F,19,102678,105501,1,0
Sprite,Background,Centre,"sb\pixel.png",0,0 C,0,102670,,86,191,237 S,0,102678,,15 R,0,102678,,6.594914 M,19,102678,103278,458,248,494.1912,135.687 F,19,102678,105501,1,0
Sprite,Background,Centre,"sb\pixel.png",0,0 C,0,102670,,86,191,237 S,0,102678,,18 R,0,102678,,3.764538 M,19,102678,103278,458,248,391.489,340.5867 F,19,102678,105501,1,0
Sprite,Background,Centre,"sb\pixel.png",0,0 C,0,102670,,86,191,237 S,0,102678,,18 R,0,102678,,6.90613 M,19,102678,103278,458,248,524.5109,155.4133 F,19,102678,105501,1,0
Sprite,Background,Centre,"sb\pixel.png",0,0 C,0,102670,,119,214,244 S,0,102678,,15 R,0,102678,,3.779279 M,19,102678,103278,458,248,397.2755,329.9545 F,19,102678,105501,1,0
Sprite,Background,Centre,"sb\pixel.png",0,0 C,0,102670,,86,191,237 S,0,102678,,19 R,0,102678,,6.920871 M,19,102678,103278,458,248,518.7244,166.0455 F,19,102678,105501,1,0
Sprite,Background,Centre,"sb\pixel.png",0,0 C,0,102670,,86,191,237 S,0,102678,,17 R,0,102678,,5.820742 M,19,102678,103278,458,248,411.1557,154.0287 F,19,102678,105501,1,0
Sprite,Background,Centre,"sb\pixel.png",0,0 C,0,102670,,86,191,237 S,0,102678,,18 R,0,102678,,8.962335 M,19,102678,103278,458,248,504.8443,341.9713 F,19,102678,105501,1,0
Sprite,Background,Centre,"sb\pixel.png",0,0 C,0,102670,,86,191,237 S,0,102678,,18 R,0,102678,,5.733544 M,19,102678,103278,458,248,381.7323,123.5041 F,19,102678,105501,1,0
Sprite,Background,Centre,"sb\pixel.png",0,0 C,0,102670,,86,191,237 S,0,102678,,15 R,0,102678,,8.875136 M,19,102678,103278,458,248,534.2677,372.4959 F,19,102678,105501,1,0
Sprite,Background,Centre,"sb\pixel.png",0,0 L,107266,4 R,0,0,1200,0,6.283185 V,0,0,1200,4,4,4,-4 C,0,107266,,119,214,244 M,0,107266,109266,431,520,431,-40 F,0,107266,109266,1 F,0,107266,114325,0.8
Sprite,Background,Centre,"sb\pixel.png",0,0 L,107310,4 R,0,0,1200,0,6.283185 V,0,0,1200,4,4,4,-4 F,0,107266,114325,0.8 C,0,107310,,119,214,244 M,0,107310,109310,342,520,342,-40 F,0,107310,109310,1
Sprite,Background,Centre,"sb\pixel.png",0,0 L,107354,4 R,0,0,1200,0,6.283185 V,0,0,1200,4,4,4,-4 F,0,107266,114325,0.8 C,0,107354,,119,214,244 M,0,107354,109354,118,520,118,-40 F,0,107354,109354,1
Sprite,Background,Centre,"sb\pixel.png",0,0 L,107398,4 R,0,0,1200,0,6.283185 V,0,0,1200,4,4,4,-4 F,0,107266,114325,0.8 C,0,107398,,119,214,244 M,0,107398,109398,566,520,566,-40 F,0,107398,109398,1
Sprite,Background,Centre,"sb\pixel.png",0,0 L,107442,4 R,0,0,1200,0,6.283185 V,0,0,1200,4,4,4,-4 F,0,107266,114325,0.8 C,0,107442,,119,214,244 M,0,107442,109442,677,520,677,-40 F,0,107442,109442,1
Sprite,Background,Centre,"sb\pixel.png",0,0 L,107486,4 R,0,0,1200,0,6.283185 V,0,0,1200,4,4,4,-4 F,0,107266,114325,0.8 C,0,107486,,86,191,237 M,0,107486,109486,236,520,236,-40 F,0,107486,109486,1
Sprite,Background,Centre,"sb\pixel.png",0,0 L,107530,4 R,0,0,1200,0,6.283185 V,0,0,1200,4,4,4,-4 F,0,107266,114325,0.8 C,0,107530,,119,214,244 M,0,107530,109530,288,520,288,-40 F,0,107530,109530,1
Sprite,Background,Centre,"sb\pixel.png",0,0 L,107574,4 R,0,0,1200,0,6.283185 V,0,0,1200,4,4,4,-4 F,0,107266,114325,0.8 C,0,107574,,119,214,244 M,0,107574,109574,255,520,255,-40 F,0,107574,109574,1
Sprite,Background,Centre,"sb\pixel.png",0,0 L,107618,4 R,0,0,1200,0,6.283185 V,0,0,1200,4,4,4,-4 F,0,107266,114325,0.8 C,0,107618,,119,214,244 M,0,107618,109618,31,520,31,-40 F,0,107618,109618,1
Sprite,Background,Centre,"sb\pixel.png",0,0 L,107663,4 R,0,0,1200,0,6.283185 V,0,0,1200,4,4,4,-4 F,0,107266,114325,0.8 C,0,107663,,86,191,237 M,0,107663,109663,442,520,442,-40 F,0,107663,109663,1
Sprite,Background,Centre,"sb\pixel.png",0,0 L,107707,4 R,0,0,1200,0,6.283185 V,0,0,1200,4,4,4,-4 F,0,107266,114325,0.8 C,0,107707,,86,191,237 M,0,107707,109707,264,520,264,-40 F,0,107707,109707,1
Sprite,Background,Centre,"sb\pixel.png",0,0 L,107751,4 R,0,0,1200,0,6.283185 V,0,0,1200,4,4,4,-4 F,0,107266,114325,0.8 C,0,107751,,86,191,237 M,0,107751,109751,497,520,497,-40 F,0,107751,109751,1
Sprite,Background,Centre,"sb\pixel.png",0,0 L,107795,4 R,0,0,1200,0,6.283185 V,0,0,1200,4,4,4,-4 F,0,107266,114325,0.8 C,0,107795,,86,191,237 M,0,107795,109795,-102,520,-102,-40 F,0,107795,109795,1
Sprite,Background,Centre,"sb\pixel.png",0,0 L,107839,4 R,0,0,1200,0,6.283185 V,0,0,1200,4,4,4,-4 F,0,107266,114325,0.8 C,0,107839,,119,214,244 M,0,107839,109839,243,520,243,-40 F,0,107839,109839,1
Sprite,Background,Centre,"sb\pixel.png",0,0 L,107883,4 R,0,0,1200,0,6.283185 V,0,0,1200,4,4,4,-4 F,0,107266,114325,0.8 C,0,107883,,86,191,237 M,0,107883,109883,643,520,643,-40 F,0,107883,109883,1
Sprite,Background,Centre,"sb\pixel.png",0,0 L,107927,4 R,0,0,1200,0,6.283185 V,0,0,1200,4,4,4,-4 F,0,107266,114325,0.8 C,0,107927,,119,214,244 M,0,107927,109927,104,520,104,-40 F,0,107927,109927,1
Sprite,Background,Centre,"sb\pixel.png",0,0 L,107971,4 R,0,0,1200,0,6.283185 V,0,0,1200,4,4,4,-4 F,0,107266,114325,0.8 C,0,107971,,86,191,237 M,0,107971,109971,191,520,191,-40 F,0,107971,109971,1
Sprite,Background,Centre,"sb\pixel.png",0,0 L,108016,4 R,0,0,1200,0,6.283185 V,0,0,1200,4,4,4,-4 F,0,107266,114325,0.8 C,0,108016,,86,191,237 M,0,108016,110016,-93,520,-93,-40 F,0,108016,110016,1
Sprite,Background,Centre,"sb\pixel.png",0,0 L,108060,4 R,0,0,1200,0,6.283185 V,0,0,1200,4,4,4,-4 F,0,107266,114325,0.8 C,0,108060,,86,191,237 M,0,108060,110060,1,520,1,-40 F,0,108060,110060,1
Sprite,Background,Centre,"sb\pixel.png",0,0 L,108104,4 R,0,0,1200,0,6.283185 V,0,0,1200,4,4,4,-4 F,0,107266,114325,0.8 C,0,108104,,86,191,237 M,0,108104,110104,568,520,568,-40 F,0,108104,110104,1
Sprite,Background,Centre,"sb\pixel.png",0,0 L,108148,4 R,0,0,1200,0,6.283185 V,0,0,1200,4,4,4,-4 F,0,107266,114325,0.8 C,0,108148,,119,214,244 M,0,108148,110148,124,520,124,-40 F,0,108148,110148,1
Sprite,Background,Centre,"sb\pixel.png",0,0 L,108192,4 R,0,0,1200,0,6.283185 V,0,0,1200,4,4,4,-4 F,0,107266,114325,0.8 C,0,108192,,86,191,237 M,0,108192,110192,651,520,651,-40 F,0,108192,110192,1
Sprite,Background,Centre,"sb\pixel.png",0,0 L,108236,4 R,0,0,1200,0,6.283185 V,0,0,1200,4,4,4,-4 F,0,107266,114325,0.8 C,0,108236,,119,214,244 M,0,108236,110236,491,520,491,-40 F,0,108236,110236,1
Sprite,Background,Centre,"sb\pixel.png",0,0 L,108280,4 R,0,0,1200,0,6.283185 V,0,0,1200,4,4,4,-4 F,0,107266,114325,0.8 C,0,108280,,86,191,237 M,0,108280,110280,718,520,718,-40 F,0,108280,110280,1
Sprite,Background,Centre,"sb\pixel.png",0,0 L,108324,4 R,0,0,1200,0,6.283185 V,0,0,1200,4,4,4,-4 F,0,107266,114325,0.8 C,0,108324,,86,191,237 M,0,108324,110324,197,520,197,-40 F,0,108324,110324,1
Sprite,Background,Centre,"sb\pixel.png",0,0 L,108368,4 R,0,0,1200,0,6.283185 V,0,0,1200,4,4,4,-4 F,0,107266,114325,0.8 C,0,108368,,119,214,244 M,0,108368,110368,553,520,553,-40 F,0,108368,110368,1
Sprite,Background,Centre,"sb\pixel.png",0,0 L,108413,4 R,0,0,1200,0,6.283185 V,0,0,1200,4,4,4,-4 F,0,107266,114325,0.8 C,0,108413,,119,214,244 M,0,108413,110413,-63,520,-63,-40 F,0,108413,110413,1
Sprite,Background,Centre,"sb\pixel.png",0,0 L,108457,4 R,0,0,1200,0,6.283185 V,0,0,1200,4,4,4,-4 F,0,107266,114325,0.8 C,0,108457,,86,191,237 M,0,108457,110457,472,520,472,-40 F,0,108457,110457,1
Sprite,Background,Centre,"sb\pixel.png",0,0 L,108501,4 R,0,0,1200,0,6.283185 V,0,0,1200,4,4,4,-4 F,0,107266,114325,0.8 C,0,108501,,86,191,237 M,0,108501,110501,485,520,485,-40 F,0,108501,110501,1
Sprite,Background,Centre,"sb\pixel.png",0,0 L,108545,4 R,0,0,1200,0,6.283185 V,0,0,1200,4,4,4,-4 F,0,107266,114325,0.8 C,0,108545,,86,191,237 M,0,108545,110545,253,520,253,-40 F,0,108545,110545,1
Sprite,Background,Centre,"sb\pixel.png",0,0 L,108589,4 R,0,0,1200,0,6.283185 V,0,0,1200,4,4,4,-4 F,0,107266,114325,0.8 C,0,108589,,119,214,244 M,0,108589,110589,543,520,543,-40 F,0,108589,110589,1
Sprite,Background,Centre,"sb\pixel.png",0,0 L,108633,4 R,0,0,1200,0,6.283185 V,0,0,1200,4,4,4,-4 F,0,107266,114325,0.8 C,0,108633,,119,214,244 M,0,108633,110633,350,520,350,-40 F,0,108633,110633,1
Sprite,Background,Centre,"sb\pixel.png",0,0 L,108677,4 R,0,0,1200,0,6.283185 V,0,0,1200,4,4,4,-4 F,0,107266,114325,0.8 C,0,108677,,86,191,237 M,0,108677,110677,-44,520,-44,-40 F,0,108677,110677,1
Sprite,Background,Centre,"sb\pixel.png",0,0 L,108721,4 R,0,0,1200,0,6.283185 V,0,0,1200,4,4,4,-4 F,0,107266,114325,0.8 C,0,108721,,86,191,237 M,0,108721,110721,72,520,72,-40 F,0,108721,110721,1
Sprite,Background,Centre,"sb\pixel.png",0,0 L,108766,4 R,0,0,1200,0,6.283185 V,0,0,1200,4,4,4,-4 F,0,107266,114325,0.8 C,0,108766,,86,191,237 M,0,108766,110766,28,520,28,-40 F,0,108766,110766,1
Sprite,Background,Centre,"sb\pixel.png",0,0 L,108810,4 R,0,0,1200,0,6.283185 V,0,0,1200,4,4,4,-4 F,0,107266,114325,0.8 C,0,108810,,119,214,244 M,0,108810,110810,658,520,658,-40 F,0,108810,110810,1
Sprite,Background,Centre,"sb\pixel.png",0,0 L,108854,4 R,0,0,1200,0,6.283185 V,0,0,1200,4,4,4,-4 F,0,107266,114325,0.8 C,0,108854,,86,191,237 M,0,108854,110854,372,520,372,-40 F,0,108854,110854,1
Sprite,Background,Centre,"sb\pixel.png",0,0 L,108898,4 R,0,0,1200,0,6.283185 V,0,0,1200,4,4,4,-4 F,0,107266,114325,0.8 C,0,108898,,119,214,244 M,0,108898,110898,311,520,311,-40 F,0,108898,110898,1
Sprite,Background,Centre,"sb\pixel.png",0,0 L,108942,4 R,0,0,1200,0,6.283185 V,0,0,1200,4,4,4,-4 F,0,107266,114325,0.8 C,0,108942,,119,214,244 M,0,108942,110942,528,520,528,-40 F,0,108942,110942,1
Sprite,Background,Centre,"sb\pixel.png",0,0 L,108986,4 R,0,0,1200,0,6.283185 V,0,0,1200,4,4,4,-4 F,0,107266,114325,0.8 C,0,108986,,86,191,237 M,0,108986,110986,58,520,58,-40 F,0,108986,110986,1
Sprite,Background,Centre,"sb\pixel.png",0,0 L,109030,4 R,0,0,1200,0,6.283185 V,0,0,1200,4,4,4,-4 F,0,107266,114325,0.8 C,0,109030,,86,191,237 M,0,109030,111030,494,520,494,-40 F,0,109030,111030,1
Sprite,Background,Centre,"sb\pixel.png",0,0 L,109074,4 R,0,0,1200,0,6.283185 V,0,0,1200,4,4,4,-4 F,0,107266,114325,0.8 C,0,109074,,119,214,244 M,0,109074,111074,689,520,689,-40 F,0,109074,111074,1
Sprite,Background,Centre,"sb\pixel.png",0,0 L,109118,4 R,0,0,1200,0,6.283185 V,0,0,1200,4,4,4,-4 F,0,107266,114325,0.8 C,0,109118,,86,191,237 M,0,109118,111118,654,520,654,-40 F,0,109118,111118,1
Sprite,Background,Centre,"sb\pixel.png",0,0 L,109163,4 R,0,0,1200,0,6.283185 V,0,0,1200,4,4,4,-4 F,0,107266,114325,0.8 C,0,109163,,119,214,244 M,0,109163,111163,278,520,278,-40 F,0,109163,111163,1
Sprite,Background,Centre,"sb\pixel.png",0,0 L,109207,4 R,0,0,1200,0,6.283185 V,0,0,1200,4,4,4,-4 F,0,107266,114325,0.8 C,0,109207,,119,214,244 M,0,109207,111207,34,520,34,-40 F,0,109207,111207,1
Sprite,Background,Centre,"sb\pixel.png",0,0 L,109251,4 R,0,0,1200,0,6.283185 V,0,0,1200,4,4,4,-4 F,0,107266,114325,0.8 C,0,109251,,119,214,244 M,0,109251,111251,619,520,619,-40 F,0,109251,111251,1
Sprite,Background,Centre,"sb\pixel.png",0,0 L,109295,4 R,0,0,1200,0,6.283185 V,0,0,1200,4,4,4,-4 F,0,107266,114325,0.8 C,0,109295,,119,214,244 M,0,109295,111295,194,520,194,-40 F,0,109295,111295,1
Sprite,Background,Centre,"sb\pixel.png",0,0 L,109339,4 R,0,0,1200,0,6.283185 V,0,0,1200,4,4,4,-4 F,0,107266,114325,0.8 C,0,109339,,86,191,237 M,0,109339,111339,66,520,66,-40 F,0,109339,111339,1
Sprite,Background,Centre,"sb\pixel.png",0,0 L,109383,4 R,0,0,1200,0,6.283185 V,0,0,1200,4,4,4,-4 F,0,107266,114325,0.8 C,0,109383,,86,191,237 M,0,109383,111383,569,520,569,-40 F,0,109383,111383,1
Sprite,Background,Centre,"sb\pixel.png",0,0 L,109427,4 R,0,0,1200,0,6.283185 V,0,0,1200,4,4,4,-4 F,0,107266,114325,0.8 C,0,109427,,86,191,237 M,0,109427,111427,283,520,283,-40 F,0,109427,111427,1
Sprite,Background,Centre,"sb\pixel.png",0,0 L,109471,4 R,0,0,1200,0,6.283185 V,0,0,1200,4,4,4,-4 F,0,107266,114325,0.8 C,0,109471,,119,214,244 M,0,109471,111471,629,520,629,-40 F,0,109471,111471,1
Sprite,Background,Centre,"sb\pixel.png",0,0 L,109516,4 R,0,0,1200,0,6.283185 V,0,0,1200,4,4,4,-4 F,0,107266,114325,0.8 C,0,109516,,119,214,244 M,0,109516,111516,424,520,424,-40 F,0,109516,111516,1
Sprite,Background,Centre,"sb\pixel.png",0,0 L,109560,4 R,0,0,1200,0,6.283185 V,0,0,1200,4,4,4,-4 F,0,107266,114325,0.8 C,0,109560,,119,214,244 M,0,109560,111560,666,520,666,-40 F,0,109560,111560,1
Sprite,Background,Centre,"sb\pixel.png",0,0 L,109604,4 R,0,0,1200,0,6.283185 V,0,0,1200,4,4,4,-4 F,0,107266,114325,0.8 C,0,109604,,119,214,244 M,0,109604,111604,690,520,690,-40 F,0,109604,111604,1
Sprite,Background,Centre,"sb\pixel.png",0,0 L,109648,4 R,0,0,1200,0,6.283185 V,0,0,1200,4,4,4,-4 F,0,107266,114325,0.8 C,0,109648,,86,191,237 M,0,109648,111648,478,520,478,-40 F,0,109648,111648,1
Sprite,Background,Centre,"sb\pixel.png",0,0 L,109692,4 R,0,0,1200,0,6.283185 V,0,0,1200,4,4,4,-4 F,0,107266,114325,0.8 C,0,109692,,86,191,237 M,0,109692,111692,108,520,108,-40 F,0,109692,111692,1
Sprite,Background,Centre,"sb\pixel.png",0,0 L,109736,4 R,0,0,1200,0,6.283185 V,0,0,1200,4,4,4,-4 F,0,107266,114325,0.8 C,0,109736,,119,214,244 M,0,109736,111736,267,520,267,-40 F,0,109736,111736,1
Sprite,Background,Centre,"sb\pixel.png",0,0 L,109780,4 R,0,0,1200,0,6.283185 V,0,0,1200,4,4,4,-4 F,0,107266,114325,0.8 C,0,109780,,119,214,244 M,0,109780,111780,653,520,653,-40 F,0,109780,111780,1
Sprite,Background,Centre,"sb\pixel.png",0,0 L,109824,4 R,0,0,1200,0,6.283185 V,0,0,1200,4,4,4,-4 F,0,107266,114325,0.8 C,0,109824,,119,214,244 M,0,109824,111824,376,520,376,-40 F,0,109824,111824,1
Sprite,Background,Centre,"sb\pixel.png",0,0 L,109868,4 R,0,0,1200,0,6.283185 V,0,0,1200,4,4,4,-4 F,0,107266,114325,0.8 C,0,109868,,119,214,244 M,0,109868,111868,201,520,201,-40 F,0,109868,111868,1
Sprite,Background,Centre,"sb\pixel.png",0,0 L,109913,4 R,0,0,1200,0,6.283185 V,0,0,1200,4,4,4,-4 F,0,107266,114325,0.8 C,0,109913,,119,214,244 M,0,109913,111913,275,520,275,-40 F,0,109913,111913,1
Sprite,Background,Centre,"sb\pixel.png",0,0 L,109957,4 R,0,0,1200,0,6.283185 V,0,0,1200,4,4,4,-4 F,0,107266,114325,0.8 C,0,109957,,119,214,244 M,0,109957,111957,279,520,279,-40 F,0,109957,111957,1
Sprite,Background,Centre,"sb\pixel.png",0,0 L,110001,4 R,0,0,1200,0,6.283185 V,0,0,1200,4,4,4,-4 F,0,107266,114325,0.8 C,0,110001,,119,214,244 M,0,110001,112001,-83,520,-83,-40 F,0,110001,112001,1
Sprite,Background,Centre,"sb\pixel.png",0,0 L,110045,4 R,0,0,1200,0,6.283185 V,0,0,1200,4,4,4,-4 F,0,107266,114325,0.8 C,0,110045,,119,214,244 M,0,110045,112045,-78,520,-78,-40 F,0,110045,112045,1
Sprite,Background,Centre,"sb\pixel.png",0,0 L,110089,4 R,0,0,1200,0,6.283185 V,0,0,1200,4,4,4,-4 F,0,107266,114325,0.8 C,0,110089,,86,191,237 M,0,110089,112089,299,520,299,-40 F,0,110089,112089,1
Sprite,Background,Centre,"sb\pixel.png",0,0 L,110133,4 R,0,0,1200,0,6.283185 V,0,0,1200,4,4,4,-4 F,0,107266,114325,0.8 C,0,110133,,119,214,244 M,0,110133,112133,162,520,162,-40 F,0,110133,112133,1
Sprite,Background,Centre,"sb\pixel.png",0,0 L,110177,4 R,0,0,1200,0,6.283185 V,0,0,1200,4,4,4,-4 F,0,107266,114325,0.8 C,0,110177,,119,214,244 M,0,110177,112177,507,520,507,-40 F,0,110177,112177,1
Sprite,Background,Centre,"sb\pixel.png",0,0 L,110221,4 R,0,0,1200,0,6.283185 V,0,0,1200,4,4,4,-4 F,0,107266,114325,0.8 C,0,110221,,119,214,244 M,0,110221,112221,-46,520,-46,-40 F,0,110221,112221,1
Sprite,Background,Centre,"sb\pixel.png",0,0 L,110266,4 R,0,0,1200,0,6.283185 V,0,0,1200,4,4,4,-4 F,0,107266,114325,0.8 C,0,110266,,119,214,244 M,0,110266,112266,-101,520,-101,-40 F,0,110266,112266,1
Sprite,Background,Centre,"sb\pixel.png",0,0 L,110310,4 R,0,0,1200,0,6.283185 V,0,0,1200,4,4,4,-4 F,0,107266,114325,0.8 C,0,110310,,119,214,244 M,0,110310,112310,39,520,39,-40 F,0,110310,112310,1
Sprite,Background,Centre,"sb\pixel.png",0,0 L,110354,4 R,0,0,1200,0,6.283185 V,0,0,1200,4,4,4,-4 F,0,107266,114325,0.8 C,0,110354,,119,214,244 M,0,110354,112354,593,520,593,-40 F,0,110354,112354,1
Sprite,Background,Centre,"sb\pixel.png",0,0 L,110398,4 R,0,0,1200,0,6.283185 V,0,0,1200,4,4,4,-4 F,0,107266,114325,0.8 C,0,110398,,86,191,237 M,0,110398,112398,310,520,310,-40 F,0,110398,112398,1
Sprite,Background,Centre,"sb\pixel.png",0,0 L,110442,4 R,0,0,1200,0,6.283185 V,0,0,1200,4,4,4,-4 F,0,107266,114325,0.8 C,0,110442,,119,214,244 M,0,110442,112442,548,520,548,-40 F,0,110442,112442,1
Sprite,Background,Centre,"sb\pixel.png",0,0 L,110486,4 R,0,0,1200,0,6.283185 V,0,0,1200,4,4,4,-4 F,0,107266,114325,0.8 C,0,110486,,86,191,237 M,0,110486,112486,-60,520,-60,-40 F,0,110486,112486,1
Sprite,Background,Centre,"sb\pixel.png",0,0 L,110530,4 R,0,0,1200,0,6.283185 V,0,0,1200,4,4,4,-4 F,0,107266,114325,0.8 C,0,110530,,119,214,244 M,0,110530,112530,155,520,155,-40 F,0,110530,112530,1
Sprite,Background,Centre,"sb\pixel.png",0,0 L,110574,4 R,0,0,1200,0,6.283185 V,0,0,1200,4,4,4,-4 F,0,107266,114325,0.8 C,0,110574,,119,214,244 M,0,110574,112574,69,520,69,-40 F,0,110574,112574,1
Sprite,Background,Centre,"sb\pixel.png",0,0 L,110618,4 R,0,0,1200,0,6.283185 V,0,0,1200,4,4,4,-4 F,0,107266,114325,0.8 C,0,110618,,119,214,244 M,0,110618,112618,126,520,126,-40 F,0,110618,112618,1
Sprite,Background,Centre,"sb\pixel.png",0,0 L,110663,4 R,0,0,1200,0,6.283185 V,0,0,1200,4,4,4,-4 F,0,107266,114325,0.8 C,0,110663,,86,191,237 M,0,110663,112663,195,520,195,-40 F,0,110663,112663,1
Sprite,Background,Centre,"sb\pixel.png",0,0 L,110707,4 R,0,0,1200,0,6.283185 V,0,0,1200,4,4,4,-4 F,0,107266,114325,0.8 C,0,110707,,119,214,244 M,0,110707,112707,656,520,656,-40 F,0,110707,112707,1
Sprite,Background,Centre,"sb\pixel.png",0,0 L,110751,4 R,0,0,1200,0,6.283185 V,0,0,1200,4,4,4,-4 F,0,107266,114325,0.8 C,0,110751,,119,214,244 M,0,110751,112751,275,520,275,-40 F,0,110751,112751,1
Sprite,Background,Centre,"sb\pixel.png",0,0 L,110795,4 R,0,0,1200,0,6.283185 V,0,0,1200,4,4,4,-4 F,0,107266,114325,0.8 C,0,110795,,86,191,237 M,0,110795,112795,192,520,192,-40 F,0,110795,112795,1
Sprite,Background,Centre,"sb\pixel.png",0,0 L,110839,4 R,0,0,1200,0,6.283185 V,0,0,1200,4,4,4,-4 F,0,107266,114325,0.8 C,0,110839,,86,191,237 M,0,110839,112839,658,520,658,-40 F,0,110839,112839,1
Sprite,Background,Centre,"sb\pixel.png",0,0 L,110883,4 R,0,0,1200,0,6.283185 V,0,0,1200,4,4,4,-4 F,0,107266,114325,0.8 C,0,110883,,119,214,244 M,0,110883,112883,112,520,112,-40 F,0,110883,112883,1
Sprite,Background,Centre,"sb\pixel.png",0,0 L,110927,4 R,0,0,1200,0,6.283185 V,0,0,1200,4,4,4,-4 F,0,107266,114325,0.8 C,0,110927,,119,214,244 M,0,110927,112927,573,520,573,-40 F,0,110927,112927,1
Sprite,Background,Centre,"sb\pixel.png",0,0 L,110971,4 R,0,0,1200,0,6.283185 V,0,0,1200,4,4,4,-4 F,0,107266,114325,0.8 C,0,110971,,86,191,237 M,0,110971,112971,247,520,247,-40 F,0,110971,112971,1
Sprite,Background,Centre,"sb\pixel.png",0,0 L,111016,4 R,0,0,1200,0,6.283185 V,0,0,1200,4,4,4,-4 F,0,107266,114325,0.8 C,0,111016,,119,214,244 M,0,111016,113016,-3,520,-3,-40 F,0,111016,113016,1
Sprite,Background,Centre,"sb\pixel.png",0,0 L,111060,4 R,0,0,1200,0,6.283185 V,0,0,1200,4,4,4,-4 F,0,107266,114325,0.8 C,0,111060,,86,191,237 M,0,111060,113060,138,520,138,-40 F,0,111060,113060,1
Sprite,Background,Centre,"sb\pixel.png",0,0 L,111104,4 R,0,0,1200,0,6.283185 V,0,0,1200,4,4,4,-4 F,0,107266,114325,0.8 C,0,111104,,119,214,244 M,0,111104,113104,320,520,320,-40 F,0,111104,113104,1
Sprite,Background,Centre,"sb\pixel.png",0,0 L,111148,4 R,0,0,1200,0,6.283185 V,0,0,1200,4,4,4,-4 F,0,107266,114325,0.8 C,0,111148,,86,191,237 M,0,111148,113148,359,520,359,-40 F,0,111148,113148,1
Sprite,Background,Centre,"sb\pixel.png",0,0 L,111192,4 R,0,0,1200,0,6.283185 V,0,0,1200,4,4,4,-4 F,0,107266,114325,0.8 C,0,111192,,86,191,237 M,0,111192,113192,210,520,210,-40 F,0,111192,113192,1
Sprite,Background,Centre,"sb\pixel.png",0,0 L,111236,4 R,0,0,1200,0,6.283185 V,0,0,1200,4,4,4,-4 F,0,107266,114325,0.8 C,0,111236,,119,214,244 M,0,111236,113236,187,520,187,-40 F,0,111236,113236,1
Sprite,Background,Centre,"sb\pixel.png",0,0 L,111280,4 R,0,0,1200,0,6.283185 V,0,0,1200,4,4,4,-4 F,0,107266,114325,0.8 C,0,111280,,119,214,244 M,0,111280,113280,-59,520,-59,-40 F,0,111280,113280,1
Sprite,Background,Centre,"sb\pixel.png",0,0 L,111324,4 R,0,0,1200,0,6.283185 V,0,0,1200,4,4,4,-4 F,0,107266,114325,0.8 C,0,111324,,86,191,237 M,0,111324,113324,329,520,329,-40 F,0,111324,113324,1
Sprite,Background,Centre,"sb\pixel.png",0,0 L,111368,4 R,0,0,1200,0,6.283185 V,0,0,1200,4,4,4,-4 F,0,107266,114325,0.8 C,0,111368,,86,191,237 M,0,111368,113368,607,520,607,-40 F,0,111368,113368,1
Sprite,Background,Centre,"sb\pixel.png",0,0 L,111413,4 R,0,0,1200,0,6.283185 V,0,0,1200,4,4,4,-4 F,0,107266,114325,0.8 C,0,111413,,119,214,244 M,0,111413,113413,-76,520,-76,-40 F,0,111413,113413,1
Sprite,Background,Centre,"sb\pixel.png",0,0 L,111457,4 R,0,0,1200,0,6.283185 V,0,0,1200,4,4,4,-4 F,0,107266,114325,0.8 C,0,111457,,86,191,237 M,0,111457,113457,287,520,287,-40 F,0,111457,113457,1
Sprite,Background,Centre,"sb\pixel.png",0,0 L,111501,4 R,0,0,1200,0,6.283185 V,0,0,1200,4,4,4,-4 F,0,107266,114325,0.8 C,0,111501,,86,191,237 M,0,111501,113501,-100,520,-100,-40 F,0,111501,113501,1
Sprite,Background,Centre,"sb\pixel.png",0,0 L,111545,4 R,0,0,1200,0,6.283185 V,0,0,1200,4,4,4,-4 F,0,107266,114325,0.8 C,0,111545,,119,214,244 M,0,111545,113545,26,520,26,-40 F,0,111545,113545,1
Sprite,Background,Centre,"sb\pixel.png",0,0 L,111589,4 R,0,0,1200,0,6.283185 V,0,0,1200,4,4,4,-4 F,0,107266,114325,0.8 C,0,111589,,86,191,237 M,0,111589,113589,49,520,49,-40 F,0,111589,113589,1
Sprite,Background,Centre,"sb\pixel.png",0,0 L,111633,4 R,0,0,1200,0,6.283185 V,0,0,1200,4,4,4,-4 F,0,107266,114325,0.8 C,0,111633,,86,191,237 M,0,111633,113633,181,520,181,-40 F,0,111633,113633,1
Sprite,Background,Centre,"sb\pixel.png",0,0 L,111677,4 R,0,0,1200,0,6.283185 V,0,0,1200,4,4,4,-4 F,0,107266,114325,0.8 C,0,111677,,119,214,244 M,0,111677,113677,351,520,351,-40 F,0,111677,113677,1
Sprite,Background,Centre,"sb\pixel.png",0,0 L,111721,4 R,0,0,1200,0,6.283185 V,0,0,1200,4,4,4,-4 F,0,107266,114325,0.8 C,0,111721,,86,191,237 M,0,111721,113721,276,520,276,-40 F,0,111721,113721,1
Sprite,Background,Centre,"sb\pixel.png",0,0 L,111766,4 R,0,0,1200,0,6.283185 V,0,0,1200,4,4,4,-4 F,0,107266,114325,0.8 C,0,111766,,119,214,244 M,0,111766,113766,703,520,703,-40 F,0,111766,113766,1
Sprite,Background,Centre,"sb\pixel.png",0,0 L,111810,4 R,0,0,1200,0,6.283185 V,0,0,1200,4,4,4,-4 F,0,107266,114325,0.8 C,0,111810,,119,214,244 M,0,111810,113810,-68,520,-68,-40 F,0,111810,113810,1
Sprite,Background,Centre,"sb\pixel.png",0,0 L,111854,4 R,0,0,1200,0,6.283185 V,0,0,1200,4,4,4,-4 F,0,107266,114325,0.8 C,0,111854,,86,191,237 M,0,111854,113854,436,520,436,-40 F,0,111854,113854,1
Sprite,Background,Centre,"sb\pixel.png",0,0 L,111898,4 R,0,0,1200,0,6.283185 V,0,0,1200,4,4,4,-4 F,0,107266,114325,0.8 C,0,111898,,119,214,244 M,0,111898,113898,132,520,132,-40 F,0,111898,113898,1
Sprite,Background,Centre,"sb\pixel.png",0,0 L,111942,4 R,0,0,1200,0,6.283185 V,0,0,1200,4,4,4,-4 F,0,107266,114325,0.8 C,0,111942,,86,191,237 M,0,111942,113942,-12,520,-12,-40 F,0,111942,113942,1
Sprite,Background,Centre,"sb\pixel.png",0,0 L,111986,4 R,0,0,1200,0,6.283185 V,0,0,1200,4,4,4,-4 F,0,107266,114325,0.8 C,0,111986,,119,214,244 M,0,111986,113986,29,520,29,-40 F,0,111986,113986,1
Sprite,Background,Centre,"sb\pixel.png",0,0 L,112030,4 R,0,0,1200,0,6.283185 V,0,0,1200,4,4,4,-4 F,0,107266,114325,0.8 C,0,112030,,119,214,244 M,0,112030,114030,330,520,330,-40 F,0,112030,114030,1
Sprite,Background,Centre,"sb\pixel.png",0,0 L,112074,4 R,0,0,1200,0,6.283185 V,0,0,1200,4,4,4,-4 F,0,107266,114325,0.8 C,0,112074,,119,214,244 M,0,112074,114074,282,520,282,-40 F,0,112074,114074,1
Sprite,Background,Centre,"sb\pixel.png",0,0 L,112118,4 R,0,0,1200,0,6.283185 V,0,0,1200,4,4,4,-4 F,0,107266,114325,0.8 C,0,112118,,119,214,244 M,0,112118,114118,154,520,154,-40 F,0,112118,114118,1
Sprite,Background,Centre,"sb\pixel.png",0,0 L,112163,4 R,0,0,1200,0,6.283185 V,0,0,1200,4,4,4,-4 F,0,107266,114325,0.8 C,0,112163,,119,214,244 M,0,112163,114163,-99,520,-99,-40 F,0,112163,114163,1
Sprite,Background,Centre,"sb\pixel.png",0,0 L,112207,4 R,0,0,1200,0,6.283185 V,0,0,1200,4,4,4,-4 F,0,107266,114325,0.8 C,0,112207,,86,191,237 M,0,112207,114207,-46,520,-46,-40 F,0,112207,114207,1
Sprite,Background,Centre,"sb\pixel.png",0,0 L,112251,4 R,0,0,1200,0,6.283185 V,0,0,1200,4,4,4,-4 F,0,107266,114325,0.8 C,0,112251,,86,191,237 M,0,112251,114251,-22,520,-22,-40 F,0,112251,114251,1
Sprite,Background,Centre,"sb\pixel.png",0,0 L,112295,4 R,0,0,1200,0,6.283185 V,0,0,1200,4,4,4,-4 F,0,107266,114325,0.8 C,0,112295,,119,214,244 M,0,112295,114295,489,520,489,-40 F,0,112295,114295,1
Sprite,Background,Centre,"sb\pixel.png",0,0 L,112339,4 R,0,0,1200,0,6.283185 V,0,0,1200,4,4,4,-4 F,0,107266,114325,0.8 C,0,112339,,119,214,244 M,0,112339,114339,51,520,51,-40 F,0,112339,114339,1
Sprite,Background,Centre,"sb\pixel.png",0,0 L,112383,4 R,0,0,1200,0,6.283185 V,0,0,1200,4,4,4,-4 F,0,107266,114325,0.8 C,0,112383,,86,191,237 M,0,112383,114383,338,520,338,-40 F,0,112383,114383,1
Sprite,Background,Centre,"sb\pixel.png",0,0 L,112427,4 R,0,0,1200,0,6.283185 V,0,0,1200,4,4,4,-4 F,0,107266,114325,0.8 C,0,112427,,119,214,244 M,0,112427,114427,27,520,27,-40 F,0,112427,114427,1
Sprite,Background,Centre,"sb\pixel.png",0,0 L,112471,4 R,0,0,1200,0,6.283185 V,0,0,1200,4,4,4,-4 F,0,107266,114325,0.8 C,0,112471,,119,214,244 M,0,112471,114471,508,520,508,-40 F,0,112471,114471,1
Sprite,Background,Centre,"sb\pixel.png",0,0 L,112516,4 R,0,0,1200,0,6.283185 V,0,0,1200,4,4,4,-4 F,0,107266,114325,0.8 C,0,112516,,119,214,244 M,0,112516,114516,282,520,282,-40 F,0,112516,114516,1
Sprite,Background,Centre,"sb\pixel.png",0,0 L,112560,4 R,0,0,1200,0,6.283185 V,0,0,1200,4,4,4,-4 F,0,107266,114325,0.8 C,0,112560,,119,214,244 M,0,112560,114560,691,520,691,-40 F,0,112560,114560,1
Sprite,Background,Centre,"sb\pixel.png",0,0 L,112604,4 R,0,0,1200,0,6.283185 V,0,0,1200,4,4,4,-4 F,0,107266,114325,0.8 C,0,112604,,119,214,244 M,0,112604,114604,701,520,701,-40 F,0,112604,114604,1
Sprite,Background,Centre,"sb\pixel.png",0,0 L,112648,4 R,0,0,1200,0,6.283185 V,0,0,1200,4,4,4,-4 F,0,107266,114325,0.8 C,0,112648,,119,214,244 M,0,112648,114648,717,520,717,-40 F,0,112648,114648,1
Sprite,Background,Centre,"sb\pixel.png",0,0 L,112692,4 R,0,0,1200,0,6.283185 V,0,0,1200,4,4,4,-4 F,0,107266,114325,0.8 C,0,112692,,119,214,244 M,0,112692,114692,245,520,245,-40 F,0,112692,114692,1
Sprite,Background,Centre,"sb\pixel.png",0,0 L,112736,4 R,0,0,1200,0,6.283185 V,0,0,1200,4,4,4,-4 F,0,107266,114325,0.8 C,0,112736,,86,191,237 M,0,112736,114736,326,520,326,-40 F,0,112736,114736,1
Sprite,Background,Centre,"sb\pixel.png",0,0 L,112780,4 R,0,0,1200,0,6.283185 V,0,0,1200,4,4,4,-4 F,0,107266,114325,0.8 C,0,112780,,86,191,237 M,0,112780,114780,523,520,523,-40 F,0,112780,114780,1
Sprite,Background,Centre,"sb\pixel.png",0,0 L,112824,4 R,0,0,1200,0,6.283185 V,0,0,1200,4,4,4,-4 F,0,107266,114325,0.8 C,0,112824,,119,214,244 M,0,112824,114824,-52,520,-52,-40 F,0,112824,114824,1
Sprite,Background,Centre,"sb\pixel.png",0,0 L,112868,4 R,0,0,1200,0,6.283185 V,0,0,1200,4,4,4,-4 F,0,107266,114325,0.8 C,0,112868,,119,214,244 M,0,112868,114868,165,520,165,-40 F,0,112868,114868,1
Sprite,Background,Centre,"sb\pixel.png",0,0 L,112913,4 R,0,0,1200,0,6.283185 V,0,0,1200,4,4,4,-4 F,0,107266,114325,0.8 C,0,112913,,119,214,244 M,0,112913,114913,745,520,745,-40 F,0,112913,114913,1
Sprite,Background,Centre,"sb\pixel.png",0,0 L,112957,4 R,0,0,1200,0,6.283185 V,0,0,1200,4,4,4,-4 F,0,107266,114325,0.8 C,0,112957,,119,214,244 M,0,112957,114957,492,520,492,-40 F,0,112957,114957,1
Sprite,Background,Centre,"sb\pixel.png",0,0 L,113001,4 R,0,0,1200,0,6.283185 V,0,0,1200,4,4,4,-4 F,0,107266,114325,0.8 C,0,113001,,119,214,244 M,0,113001,115001,744,520,744,-40 F,0,113001,115001,1
Sprite,Background,Centre,"sb\pixel.png",0,0 L,113045,4 R,0,0,1200,0,6.283185 V,0,0,1200,4,4,4,-4 F,0,107266,114325,0.8 C,0,113045,,119,214,244 M,0,113045,115045,507,520,507,-40 F,0,113045,115045,1
Sprite,Background,Centre,"sb\pixel.png",0,0 L,113089,4 R,0,0,1200,0,6.283185 V,0,0,1200,4,4,4,-4 F,0,107266,114325,0.8 C,0,113089,,119,214,244 M,0,113089,115089,575,520,575,-40 F,0,113089,115089,1
Sprite,Background,Centre,"sb\pixel.png",0,0 L,113133,4 R,0,0,1200,0,6.283185 V,0,0,1200,4,4,4,-4 F,0,107266,114325,0.8 C,0,113133,,119,214,244 M,0,113133,115133,332,520,332,-40 F,0,113133,115133,1
Sprite,Background,Centre,"sb\pixel.png",0,0 L,113177,4 R,0,0,1200,0,6.283185 V,0,0,1200,4,4,4,-4 F,0,107266,114325,0.8 C,0,113177,,86,191,237 M,0,113177,115177,401,520,401,-40 F,0,113177,115177,1
Sprite,Background,Centre,"sb\pixel.png",0,0 L,113221,4 R,0,0,1200,0,6.283185 V,0,0,1200,4,4,4,-4 F,0,107266,114325,0.8 C,0,113221,,119,214,244 M,0,113221,115221,285,520,285,-40 F,0,113221,115221,1
Sprite,Background,Centre,"sb\pixel.png",0,0 L,113266,4 R,0,0,1200,0,6.283185 V,0,0,1200,4,4,4,-4 F,0,107266,114325,0.8 C,0,113266,,119,214,244 M,0,113266,115266,-77,520,-77,-40 F,0,113266,115266,1
Sprite,Background,Centre,"sb\pixel.png",0,0 L,113310,4 R,0,0,1200,0,6.283185 V,0,0,1200,4,4,4,-4 F,0,107266,114325,0.8 C,0,113310,,86,191,237 M,0,113310,115310,182,520,182,-40 F,0,113310,115310,1
Sprite,Background,Centre,"sb\pixel.png",0,0 L,113354,4 R,0,0,1200,0,6.283185 V,0,0,1200,4,4,4,-4 F,0,107266,114325,0.8 C,0,113354,,86,191,237 M,0,113354,115354,121,520,121,-40 F,0,113354,115354,1
Sprite,Background,Centre,"sb\pixel.png",0,0 L,113398,4 R,0,0,1200,0,6.283185 V,0,0,1200,4,4,4,-4 F,0,107266,114325,0.8 C,0,113398,,86,191,237 M,0,113398,115398,66,520,66,-40 F,0,113398,115398,1
Sprite,Background,Centre,"sb\pixel.png",0,0 L,113442,4 R,0,0,1200,0,6.283185 V,0,0,1200,4,4,4,-4 F,0,107266,114325,0.8 C,0,113442,,86,191,237 M,0,113442,115442,50,520,50,-40 F,0,113442,115442,1
Sprite,Background,Centre,"sb\pixel.png",0,0 L,113486,4 R,0,0,1200,0,6.283185 V,0,0,1200,4,4,4,-4 F,0,107266,114325,0.8 C,0,113486,,86,191,237 M,0,113486,115486,-12,520,-12,-40 F,0,113486,115486,1
Sprite,Background,Centre,"sb\pixel.png",0,0 L,113530,4 R,0,0,1200,0,6.283185 V,0,0,1200,4,4,4,-4 F,0,107266,114325,0.8 C,0,113530,,119,214,244 M,0,113530,115530,330,520,330,-40 F,0,113530,115530,1
Sprite,Background,Centre,"sb\pixel.png",0,0 L,113574,4 R,0,0,1200,0,6.283185 V,0,0,1200,4,4,4,-4 F,0,107266,114325,0.8 C,0,113574,,119,214,244 M,0,113574,115574,712,520,712,-40 F,0,113574,115574,1
Sprite,Background,Centre,"sb\pixel.png",0,0 L,113618,4 R,0,0,1200,0,6.283185 V,0,0,1200,4,4,4,-4 F,0,107266,114325,0.8 C,0,113618,,86,191,237 M,0,113618,115618,258,520,258,-40 F,0,113618,115618,1
Sprite,Background,Centre,"sb\pixel.png",0,0 L,113663,4 R,0,0,1200,0,6.283185 V,0,0,1200,4,4,4,-4 F,0,107266,114325,0.8 C,0,113663,,119,214,244 M,0,113663,115663,182,520,182,-40 F,0,113663,115663,1
Sprite,Background,Centre,"sb\pixel.png",0,0 L,113707,4 R,0,0,1200,0,6.283185 V,0,0,1200,4,4,4,-4 F,0,107266,114325,0.8 C,0,113707,,119,214,244 M,0,113707,115707,390,520,390,-40 F,0,113707,115707,1
Sprite,Background,Centre,"sb\pixel.png",0,0 L,113751,4 R,0,0,1200,0,6.283185 V,0,0,1200,4,4,4,-4 F,0,107266,114325,0.8 C,0,113751,,119,214,244 M,0,113751,115751,248,520,248,-40 F,0,113751,115751,1
Sprite,Background,Centre,"sb\pixel.png",0,0 L,113795,4 R,0,0,1200,0,6.283185 V,0,0,1200,4,4,4,-4 F,0,107266,114325,0.8 C,0,113795,,86,191,237 M,0,113795,115795,489,520,489,-40 F,0,113795,115795,1
Sprite,Background,Centre,"sb\pixel.png",0,0 L,113839,4 R,0,0,1200,0,6.283185 V,0,0,1200,4,4,4,-4 F,0,107266,114325,0.8 C,0,113839,,86,191,237 M,0,113839,115839,108,520,108,-40 F,0,113839,115839,1
Sprite,Background,Centre,"sb\pixel.png",0,0 L,113883,4 R,0,0,1200,0,6.283185 V,0,0,1200,4,4,4,-4 F,0,107266,114325,0.8 C,0,113883,,119,214,244 M,0,113883,115883,671,520,671,-40 F,0,113883,115883,1
Sprite,Background,Centre,"sb\pixel.png",0,0 L,113927,4 R,0,0,1200,0,6.283185 V,0,0,1200,4,4,4,-4 F,0,107266,114325,0.8 C,0,113927,,86,191,237 M,0,113927,115927,457,520,457,-40 F,0,113927,115927,1
Sprite,Background,Centre,"sb\pixel.png",0,0 L,113971,4 R,0,0,1200,0,6.283185 V,0,0,1200,4,4,4,-4 F,0,107266,114325,0.8 C,0,113971,,86,191,237 M,0,113971,115971,332,520,332,-40 F,0,113971,115971,1
Sprite,Background,Centre,"sb\pixel.png",0,0 L,114016,4 R,0,0,1200,0,6.283185 V,0,0,1200,4,4,4,-4 F,0,107266,114325,0.8 C,0,114016,,119,214,244 M,0,114016,116016,453,520,453,-40 F,0,114016,116016,1
Sprite,Background,Centre,"sb\pixel.png",0,0 L,114060,4 R,0,0,1200,0,6.283185 V,0,0,1200,4,4,4,-4 F,0,107266,114325,0.8 C,0,114060,,119,214,244 M,0,114060,116060,511,520,511,-40 F,0,114060,116060,1
Sprite,Background,Centre,"sb\pixel.png",0,0 L,114104,4 R,0,0,1200,0,6.283185 V,0,0,1200,4,4,4,-4 F,0,107266,114325,0.8 C,0,114104,,119,214,244 M,0,114104,116104,-61,520,-61,-40 F,0,114104,116104,1
Sprite,Background,Centre,"sb\pixel.png",0,0 L,114148,4 R,0,0,1200,0,6.283185 V,0,0,1200,4,4,4,-4 F,0,107266,114325,0.8 C,0,114148,,119,214,244 M,0,114148,116148,-43,520,-43,-40 F,0,114148,116148,1
Sprite,Background,Centre,"sb\pixel.png",0,0 L,114192,4 R,0,0,1200,0,6.283185 V,0,0,1200,4,4,4,-4 F,0,107266,114325,0.8 C,0,114192,,119,214,244 M,0,114192,116192,35,520,35,-40 F,0,114192,116192,1
Sprite,Background,Centre,"sb\pixel.png",0,0 L,114236,4 R,0,0,1200,0,6.283185 V,0,0,1200,4,4,4,-4 F,0,107266,114325,0.8 C,0,114236,,86,191,237 M,0,114236,116236,161,520,161,-40 F,0,114236,116236,1
Sprite,Background,Centre,"sb\pixel.png",0,0 L,114280,4 R,0,0,1200,0,6.283185 V,0,0,1200,4,4,4,-4 F,0,107266,114325,0.8 C,0,114280,,119,214,244 M,0,114280,116280,639,520,639,-40 F,0,114280,116280,1
Sprite,Background,Centre,"sb\pixel.png",0,0 L,114324,4 R,0,0,1200,0,6.283185 V,0,0,1200,4,4,4,-4 F,0,107266,114325,0.8 C,0,114324,,119,214,244 M,0,114324,116324,145,520,145,-40 F,0,114324,116324,1
Sprite,Background,Centre,"sb\star.png",0,0 M,16,138678,141614,320,240,82.20486,263.9681 F,0,138678,141614,1,0 S,0,138678,141614,0,0.05
Sprite,Background,Centre,"sb\star.png",0,0 M,16,138728,140746,320,240,511.2784,150.9294 F,0,138728,140746,1,0 S,0,138728,140746,0,0.05
Sprite,Background,Centre,"sb\star.png",0,0 M,16,138778,141404,320,240,416.0025,478.3957 F,0,138778,141404,1,0 S,0,138778,141404,0,0.05
Sprite,Background,Centre,"sb\star.png",0,0 M,16,138828,141535,320,240,94.22885,250.1681 F,0,138828,141535,1,0 S,0,138828,141535,0,0.05
Sprite,Background,Centre,"sb\star.png",0,0 M,16,138878,141612,320,240,354.5189,316.5797 F,0,138878,141612,1,0 S,0,138878,141612,0,0.05
Sprite,Background,Centre,"sb\star.png",0,0 M,16,138928,141355,320,240,421.9939,241.1179 F,0,138928,141355,1,0 S,0,138928,141355,0,0.05
Sprite,Background,Centre,"sb\star.png",0,0 M,16,138978,141816,320,240,291.5794,-42.57436 F,0,138978,141816,1,0 S,0,138978,141816,0,0.05
Sprite,Background,Centre,"sb\star.png",0,0 M,16,139028,142025,320,240,245.6157,473.4352 F,0,139028,142025,1,0 S,0,139028,142025,0,0.05
Sprite,Background,Centre,"sb\star.png",0,0 M,16,139078,141443,320,240,487.5701,171.5803 F,0,139078,141443,1,0 S,0,139078,141443,0,0.05
Sprite,Background,Centre,"sb\star.png",0,0 M,16,139128,141391,320,240,291.4899,146.2387 F,0,139128,141391,1,0 S,0,139128,141391,0,0.05
Sprite,Background,Centre,"sb\star.png",0,0 M,16,139178,141864,320,240,73.12759,384.3953 F,0,139178,141864,1,0 S,0,139178,141864,0,0.05
Sprite,Background,Centre,"sb\star.png",0,0 M,16,139228,142082,320,240,382.7469,195.3701 F,0,139228,142082,1,0 S,0,139228,142082,0,0.05
Sprite,Background,Centre,"sb\star.png",0,0 M,16,139278,141478,320,240,434.3775,108.8749 F,0,139278,141478,1,0 S,0,139278,141478,0,0.05
Sprite,Background,Centre,"sb\star.png",0,0 M,16,139328,142053,320,240,436.3573,148.5397 F,0,139328,142053,1,0 S,0,139328,142053,0,0.05
Sprite,Background,Centre,"sb\star.png",0,0 M,16,139378,141619,320,240,251.8275,357.6797 F,0,139378,141619,1,0 S,0,139378,141619,0,0.05
Sprite,Background,Centre,"sb\star.png",0,0 M,16,139428,142011,320,240,447.6183,264.7702 F,0,139428,142011,1,0 S,0,139428,142011,0,0.05
Sprite,Background,Centre,"sb\star.png",0,0 M,16,139478,142448,320,240,382.3193,-23.73718 F,0,139478,142448,1,0 S,0,139478,142448,0,0.05
Sprite,Background,Centre,"sb\star.png",0,0 M,16,139528,142400,320,240,216.4839,369.7706 F,0,139528,142400,1,0 S,0,139528,142400,0,0.05
Sprite,Background,Centre,"sb\star.png",0,0 M,16,139578,141900,320,240,601.6058,203.201 F,0,139578,141900,1,0 S,0,139578,141900,0,0.05
Sprite,Background,Centre,"sb\star.png",0,0 M,16,139628,141812,320,240,475.8793,385.1573 F,0,139628,141812,1,0 S,0,139628,141812,0,0.05
Sprite,Background,Centre,"sb\star.png",0,0 M,16,139678,142670,320,240,227.674,134.7578 F,0,139678,142670,1,0 S,0,139678,142670,0,0.05
Sprite,Background,Centre,"sb\star.png",0,0 M,16,139728,142214,320,240,322.7973,185.0712 F,0,139728,142214,1,0 S,0,139728,142214,0,0.05
Sprite,Background,Centre,"sb\star.png",0,0 M,16,139778,141855,320,240,585.8995,280.7241 F,0,139778,141855,1,0 S,0,139778,141855,0,0.05
Sprite,Background,Centre,"sb\star.png",0,0 M,16,139828,142108,320,240,295.0334,136.9822 F,0,139828,142108,1,0 S,0,139828,142108,0,0.05
Sprite,Background,Centre,"sb\star.png",0,0 M,16,139878,142015,320,240,244.7053,219.6358 F,0,139878,142015,1,0 S,0,139878,142015,0,0.05
Sprite,Background,Centre,"sb\star.png",0,0 M,16,139928,142768,320,240,102.8718,337.4645 F,0,139928,142768,1,0 S,0,139928,142768,0,0.05
Sprite,Background,Centre,"sb\star.png",0,0 M,16,139978,142943,320,240,388.491,475.2318 F,0,139978,142943,1,0 S,0,139978,142943,0,0.05
Sprite,Background,Centre,"sb\star.png",0,0 M,16,140028,142935,320,240,276.444,355.0299 F,0,140028,142935,1,0 S,0,140028,142935,0,0.05
Sprite,Background,Centre,"sb\star.png",0,0 M,16,140078,142994,320,240,68.57391,268.1766 F,0,140078,142994,1,0 S,0,140078,142994,0,0.05
Sprite,Background,Centre,"sb\star.png",0,0 M,16,140128,142186,320,240,405.8785,401.5979 F,0,140128,142186,1,0 S,0,140128,142186,0,0.05
Sprite,Background,Centre,"sb\star.png",0,0 M,16,140178,143100,320,240,349.8484,194.9992 F,0,140178,143100,1,0 S,0,140178,143100,0,0.05
Sprite,Background,Centre,"sb\star.png",0,0 M,16,140228,142972,320,240,547.8839,288.5584 F,0,140228,142972,1,0 S,0,140228,142972,0,0.05
Sprite,Background,Centre,"sb\star.png",0,0 M,16,140278,142536,320,240,209.514,450.8005 F,0,140278,142536,1,0 S,0,140278,142536,0,0.05
Sprite,Background,Centre,"sb\star.png",0,0 M,16,140328,142903,320,240,155.5023,302.582 F,0,140328,142903,1,0 S,0,140328,142903,0,0.05
Sprite,Background,Centre,"sb\star.png",0,0 M,16,140378,142384,320,240,201.8693,52.03952 F,0,140378,142384,1,0 S,0,140378,142384,0,0.05
Sprite,Background,Centre,"sb\star.png",0,0 M,16,140428,142502,320,240,180.6182,426.7129 F,0,140428,142502,1,0 S,0,140428,142502,0,0.05
Sprite,Background,Centre,"sb\star.png",0,0 M,16,140478,143293,320,240,388.1502,395.7419 F,0,140478,143293,1,0 S,0,140478,143293,0,0.05
Sprite,Background,Centre,"sb\star.png",0,0 M,16,140528,143074,320,240,391.7196,164.6854 F,0,140528,143074,1,0 S,0,140528,143074,0,0.05
Sprite,Background,Centre,"sb\star.png",0,0 M,16,140578,143492,320,240,384.3873,269.9211 F,0,140578,143492,1,0 S,0,140578,143492,0,0.05
Sprite,Background,Centre,"sb\star.png",0,0 M,16,140628,142955,320,240,371.3257,425.0126 F,0,140628,142955,1,0 S,0,140628,142955,0,0.05
Sprite,Background,Centre,"sb\star.png",0,0 M,16,140678,142953,320,240,289.0264,284.2339 F,0,140678,142953,1,0 S,0,140678,142953,0,0.05
Sprite,Background,Centre,"sb\star.png",0,0 M,16,140728,143579,320,240,354.2689,374.7095 F,0,140728,143579,1,0 S,0,140728,143579,0,0.05
Sprite,Background,Centre,"sb\star.png",0,0 M,16,140778,143646,320,240,211.6619,340.8308 F,0,140778,143646,1,0 S,0,140778,143646,0,0.05
Sprite,Background,Centre,"sb\star.png",0,0 M,16,140828,143336,320,240,514.9983,239.1876 F,0,140828,143336,1,0 S,0,140828,143336,0,0.05
Sprite,Background,Centre,"sb\star.png",0,0 M,16,140878,142984,320,240,295.8909,385.0095 F,0,140878,142984,1,0 S,0,140878,142984,0,0.05
Sprite,Background,Centre,"sb\star.png",0,0 M,16,140928,143690,320,240,101.4481,73.08665 F,0,140928,143690,1,0 S,0,140928,143690,0,0.05
Sprite,Background,Centre,"sb\star.png",0,0 M,16,140978,143624,320,240,548.7175,363.6459 F,0,140978,143624,1,0 S,0,140978,143624,0,0.05
Sprite,Background,Centre,"sb\star.png",0,0 M,16,141028,143158,320,240,424.6645,273.843 F,0,141028,143158,1,0 S,0,141028,143158,0,0.05
Sprite,Background,Centre,"sb\star.png",0,0 M,16,141078,144065,320,240,361.2874,103.09 F,0,141078,144065,1,0 S,0,141078,144065,0,0.05
Sprite,Background,Centre,"sb\star.png",0,0 M,16,141128,144100,320,240,166.819,33.63971 F,0,141128,144100,1,0 S,0,141128,144100,0,0.05
Sprite,Background,Centre,"sb\star.png",0,0 M,16,141178,144142,320,240,430.5109,499.4443 F,0,141178,144142,1,0 S,0,141178,144142,0,0.05
Sprite,Background,Centre,"sb\star.png",0,0 M,16,141228,143347,320,240,196.3794,249.693 F,0,141228,143347,1,0 S,0,141228,143347,0,0.05
Sprite,Background,Centre,"sb\star.png",0,0 M,16,141278,143372,320,240,277.2556,316.9215 F,0,141278,143372,1,0 S,0,141278,143372,0,0.05
Sprite,Background,Centre,"sb\star.png",0,0 M,16,141328,143778,320,240,264.7091,324.5217 F,0,141328,143778,1,0 S,0,141328,143778,0,0.05
Sprite,Background,Centre,"sb\star.png",0,0 M,16,141378,144349,320,240,422.3966,166.577 F,0,141378,144349,1,0 S,0,141378,144349,0,0.05
Sprite,Background,Centre,"sb\star.png",0,0 M,16,141428,143613,320,240,396.4861,99.46577 F,0,141428,143613,1,0 S,0,141428,143613,0,0.05
Sprite,Background,Centre,"sb\star.png",0,0 M,16,141478,144072,320,240,355.5149,319.421 F,0,141478,144072,1,0 S,0,141478,144072,0,0.05
Sprite,Background,Centre,"sb\star.png",0,0 M,16,141528,143993,320,240,290.567,21.97775 F,0,141528,143993,1,0 S,0,141528,143993,0,0.05
Sprite,Background,Centre,"sb\star.png",0,0 M,16,141578,143706,320,240,333.4439,155.0573 F,0,141578,143706,1,0 S,0,141578,143706,0,0.05
Sprite,Background,Centre,"sb\star.png",0,0 M,16,141628,143925,320,240,584.4666,211.479 F,0,141628,143925,1,0 S,0,141628,143925,0,0.05
Sprite,Background,Centre,"sb\star.png",0,0 M,16,141678,144091,320,240,66.76519,135.3667 F,0,141678,144091,1,0 S,0,141678,144091,0,0.05
Sprite,Background,Centre,"sb\star.png",0,0 M,16,141728,144460,320,240,211.3138,89.05861 F,0,141728,144460,1,0 S,0,141728,144460,0,0.05
Sprite,Background,Centre,"sb\star.png",0,0 M,16,141778,144591,320,240,569.4688,399.3152 F,0,141778,144591,1,0 S,0,141778,144591,0,0.05
Sprite,Background,Centre,"sb\star.png",0,0 M,16,141828,144616,320,240,316.0302,24.03648 F,0,141828,144616,1,0 S,0,141828,144616,0,0.05
Sprite,Background,Centre,"sb\star.png",0,0 M,16,141878,144151,320,240,254.7609,165.5362 F,0,141878,144151,1,0 S,0,141878,144151,0,0.05
Sprite,Background,Centre,"sb\star.png",0,0 M,16,141928,144664,320,240,402.1141,205.674 F,0,141928,144664,1,0 S,0,141928,144664,0,0.05
Sprite,Background,Centre,"sb\star.png",0,0 M,16,141978,144126,320,240,549.6609,141.2281 F,0,141978,144126,1,0 S,0,141978,144126,0,0.05
Sprite,Background,Centre,"sb\star.png",0,0 M,16,142028,144995,320,240,257.6549,110.196 F,0,142028,144995,1,0 S,0,142028,144995,0,0.05
Sprite,Background,Centre,"sb\star.png",0,0 M,16,142078,144543,320,240,320.0714,414 F,0,142078,144543,1,0 S,0,142078,144543,0,0.05
Sprite,Background,Centre,"sb\star.png",0,0 M,16,142128,144585,320,240,488.5916,484.5115 F,0,142128,144585,1,0 S,0,142128,144585,0,0.05
Sprite,Background,Centre,"sb\star.png",0,0 M,16,142178,144890,320,240,257.52,481.0337 F,0,142178,144890,1,0 S,0,142178,144890,0,0.05
Sprite,Background,Centre,"sb\star.png",0,0 M,16,142228,144575,320,240,298.6337,294.9953 F,0,142228,144575,1,0 S,0,142228,144575,0,0.05
Sprite,Background,Centre,"sb\star.png",0,0 M,16,142278,145057,320,240,328.2459,131.3123 F,0,142278,145057,1,0 S,0,142278,145057,0,0.05
Sprite,Background,Centre,"sb\star.png",0,0 M,16,142328,144578,320,240,183.8029,280.1789 F,0,142328,144578,1,0 S,0,142328,144578,0,0.05
Sprite,Background,Centre,"sb\star.png",0,0 M,16,142378,145116,320,240,70.29662,265.4799 F,0,142378,145116,1,0 S,0,142378,145116,0,0.05
Sprite,Background,Centre,"sb\star.png",0,0 M,16,142428,144864,320,240,222.4762,249.6493 F,0,142428,144864,1,0 S,0,142428,144864,0,0.05
Sprite,Background,Centre,"sb\star.png",0,0 M,16,142478,144571,320,240,466.4987,227.8708 F,0,142478,144571,1,0 S,0,142478,144571,0,0.05
Sprite,Background,Centre,"sb\star.png",0,0 M,16,142528,145365,320,240,400.6599,272.6033 F,0,142528,145365,1,0 S,0,142528,145365,0,0.05
Sprite,Background,Centre,"sb\star.png",0,0 M,16,142578,144625,320,240,160.2236,220.1882 F,0,142578,144625,1,0 S,0,142578,144625,0,0.05
Sprite,Background,Centre,"sb\star.png",0,0 M,16,142628,145511,320,240,431.2512,272.8507 F,0,142628,145511,1,0 S,0,142628,145511,0,0.05
Sprite,Background,Centre,"sb\star.png",0,0 M,16,142678,145078,320,240,458.9097,234.9899 F,0,142678,145078,1,0 S,0,142678,145078,0,0.05
Sprite,Background,Centre,"sb\star.png",0,0 M,16,142728,145664,320,240,367.3535,189.8138 F,0,142728,145664,1,0 S,0,142728,145664,0,0.05
Sprite,Background,Centre,"sb\star.png",0,0 M,16,142778,145234,320,240,470.6264,477.2187 F,0,142778,145234,1,0 S,0,142778,145234,0,0.05
Sprite,Background,Centre,"sb\star.png",0,0 M,16,142828,145154,320,240,573.0929,100.483 F,0,142828,145154,1,0 S,0,142828,145154,0,0.05
Sprite,Background,Centre,"sb\star.png",0,0 M,16,142878,145052,320,240,71.13234,354.6337 F,0,142878,145052,1,0 S,0,142878,145052,0,0.05
Sprite,Background,Centre,"sb\star.png",0,0 M,16,142928,145409,320,240,223.4714,193.8348 F,0,142928,145409,1,0 S,0,142928,145409,0,0.05
Sprite,Background,Centre,"sb\star.png",0,0 M,16,142978,145172,320,240,300.2204,293.4581 F,0,142978,145172,1,0 S,0,142978,145172,0,0.05
Sprite,Background,Centre,"sb\star.png",0,0 M,16,143028,145793,320,240,206.1771,156.7813 F,0,143028,145793,1,0 S,0,143028,145793,0,0.05
Sprite,Background,Centre,"sb\star.png",0,0 M,16,143078,145245,320,240,160.8394,24.3802 F,0,143078,145245,1,0 S,0,143078,145245,0,0.05
Sprite,Background,Centre,"sb\star.png",0,0 M,16,143128,145357,320,240,214.5254,172.9172 F,0,143128,145357,1,0 S,0,143128,145357,0,0.05
Sprite,Background,Centre,"sb\star.png",0,0 M,16,143178,145967,320,240,589.7609,191.9892 F,0,143178,145967,1,0 S,0,143178,145967,0,0.05
Sprite,Background,Centre,"sb\star.png",0,0 M,16,143228,145944,320,240,580.7691,265.3668 F,0,143228,145944,1,0 S,0,143228,145944,0,0.05
Sprite,Background,Centre,"sb\star.png",0,0 M,16,143278,145738,320,240,288.8268,-8.048847 F,0,143278,145738,1,0 S,0,143278,145738,0,0.05
Sprite,Background,Centre,"sb\star.png",0,0 M,16,143328,145941,320,240,288.4964,532.3073 F,0,143328,145941,1,0 S,0,143328,145941,0,0.05
Sprite,Background,Centre,"sb\star.png",0,0 M,16,143378,145702,320,240,99.10403,336.3637 F,0,143378,145702,1,0 S,0,143378,145702,0,0.05
Sprite,Background,Centre,"sb\star.png",0,0 M,16,143428,145495,320,240,319.7208,454.9998 F,0,143428,145495,1,0 S,0,143428,145495,0,0.05
Sprite,Background,Centre,"sb\star.png",0,0 M,16,143478,146107,320,240,358.1063,427.1601 F,0,143478,146107,1,0 S,0,143478,146107,0,0.05
Sprite,Background,Centre,"sb\star.png",0,0 M,16,143528,146476,320,240,337.0727,461.3426 F,0,143528,146476,1,0 S,0,143528,146476,0,0.05
Sprite,Background,Centre,"sb\star.png",0,0 M,16,143578,146317,320,240,527.7397,229.5972 F,0,143578,146317,1,0 S,0,143578,146317,0,0.05
Sprite,Background,Centre,"sb\star.png",0,0 M,16,143628,146021,320,240,392.5424,470.8714 F,0,143628,146021,1,0 S,0,143628,146021,0,0.05
Sprite,Background,Centre,"sb\star.png",0,0 M,16,143678,145899,320,240,245.0395,165.0539 F,0,143678,145899,1,0 S,0,143678,145899,0,0.05
Sprite,Background,Centre,"sb\star.png",0,0 M,16,143728,146297,320,240,490.8095,308.4112 F,0,143728,146297,1,0 S,0,143728,146297,0,0.05
Sprite,Background,Centre,"sb\star.png",0,0 M,16,143778,146725,320,240,476.3226,289.5908 F,0,143778,146725,1,0 S,0,143778,146725,0,0.05
Sprite,Background,Centre,"sb\star.png",0,0 M,16,143828,146243,320,240,270.828,264.6397 F,0,143828,146243,1,0 S,0,143828,146243,0,0.05
Sprite,Background,Centre,"sb\star.png",0,0 M,16,143878,146718,320,240,505.4553,300.2607 F,0,143878,146718,1,0 S,0,143878,146718,0,0.05
Sprite,Background,Centre,"sb\star.png",0,0 M,16,143928,145967,320,240,189.0885,148.0098 F,0,143928,145967,1,0 S,0,143928,145967,0,0.05
Sprite,Background,Centre,"sb\star.png",0,0 M,16,143978,146143,320,240,337.9682,312.8158 F,0,143978,146143,1,0 S,0,143978,146143,0,0.05
Sprite,Background,Centre,"sb\star.png",0,0 M,16,144028,146426,320,240,299.7103,42.03706 F,0,144028,146426,1,0 S,0,144028,146426,0,0.05
Sprite,Background,Centre,"sb\star.png",0,0 M,16,144078,146450,320,240,388.5938,490.7885 F,0,144078,146450,1,0 S,0,144078,146450,0,0.05
Sprite,Background,Centre,"sb\star.png",0,0 M,16,144128,146862,320,240,385.1063,526.7005 F,0,144128,146862,1,0 S,0,144128,146862,0,0.05
Sprite,Background,Centre,"sb\star.png",0,0 M,16,144178,146201,320,240,384.5953,253.5441 F,0,144178,146201,1,0 S,0,144178,146201,0,0.05
Sprite,Background,Centre,"sb\star.png",0,0 M,16,144228,146756,320,240,321.6779,93.00957 F,0,144228,146756,1,0 S,0,144228,146756,0,0.05
Sprite,Background,Centre,"sb\star.png",0,0 M,16,144278,146920,320,240,350.6334,476.0203 F,0,144278,146920,1,0 S,0,144278,146920,0,0.05
Sprite,Background,Centre,"sb\star.png",0,0 M,16,144328,146701,320,240,342.2823,315.7925 F,0,144328,146701,1,0 S,0,144328,146701,0,0.05
Sprite,Background,Centre,"sb\star.png",0,0 M,16,144378,146579,320,240,221.1986,210.8918 F,0,144378,146579,1,0 S,0,144378,146579,0,0.05
Sprite,Background,Centre,"sb\star.png",0,0 M,16,144428,147219,320,240,379.396,287.4143 F,0,144428,147219,1,0 S,0,144428,147219,0,0.05
Sprite,Background,Centre,"sb\star.png",0,0 M,16,144478,146665,320,240,397.4312,450.1913 F,0,144478,146665,1,0 S,0,144478,146665,0,0.05
Sprite,Background,Centre,"sb\star.png",0,0 M,16,144528,146922,320,240,268.5925,147.3001 F,0,144528,146922,1,0 S,0,144528,146922,0,0.05
Sprite,Background,Centre,"sb\star.png",0,0 M,16,144578,147568,320,240,143.2112,56.23191 F,0,144578,147568,1,0 S,0,144578,147568,0,0.05
Sprite,Background,Centre,"sb\star.png",0,0 M,16,144628,147519,320,240,287.3253,146.5475 F,0,144628,147519,1,0 S,0,144628,147519,0,0.05
Sprite,Background,Centre,"sb\star.png",0,0 M,16,144678,147531,320,240,217.6937,251.9341 F,0,144678,147531,1,0 S,0,144678,147531,0,0.05
Sprite,Background,Centre,"sb\star.png",0,0 M,16,144728,147562,320,240,462.0289,198.3853 F,0,144728,147562,1,0 S,0,144728,147562,0,0.05
Sprite,Background,Centre,"sb\star.png",0,0 M,16,144778,147171,320,240,367.3972,358.9012 F,0,144778,147171,1,0 S,0,144778,147171,0,0.05
Sprite,Background,Centre,"sb\star.png",0,0 M,16,144828,147126,320,240,262.3292,102.6134 F,0,144828,147126,1,0 S,0,144828,147126,0,0.05
Sprite,Background,Centre,"sb\star.png",0,0 M,16,144878,147246,320,240,566.2075,210.236 F,0,144878,147246,1,0 S,0,144878,147246,0,0.05
Sprite,Background,Centre,"sb\star.png",0,0 M,16,144928,146935,320,240,245.5633,305.2701 F,0,144928,146935,1,0 S,0,144928,146935,0,0.05
Sprite,Background,Centre,"sb\star.png",0,0 M,16,144978,147166,320,240,299.1713,46.11559 F,0,144978,147166,1,0 S,0,144978,147166,0,0.05
Sprite,Background,Centre,"sb\star.png",0,0 M,16,145028,147128,320,240,288.5079,423.3146 F,0,145028,147128,1,0 S,0,145028,147128,0,0.05
Sprite,Background,Centre,"sb\star.png",0,0 M,16,145078,147098,320,240,429.2138,64.15536 F,0,145078,147098,1,0 S,0,145078,147098,0,0.05
Sprite,Background,Centre,"sb\star.png",0,0 M,16,145128,147491,320,240,152.9564,162.8481 F,0,145128,147491,1,0 S,0,145128,147491,0,0.05
Sprite,Background,Centre,"sb\star.png",0,0 M,16,145178,147301,320,240,97.96619,157.1146 F,0,145178,147301,1,0 S,0,145178,147301,0,0.05
Sprite,Background,Centre,"sb\star.png",0,0 M,16,145228,147760,320,240,469.2267,139.3452 F,0,145228,147760,1,0 S,0,145228,147760,0,0.05
Sprite,Background,Centre,"sb\star.png",0,0 M,16,145278,148000,320,240,381.2331,112.9901 F,0,145278,148000,1,0 S,0,145278,148000,0,0.05
Sprite,Background,Centre,"sb\star.png",0,0 M,16,145328,147918,320,240,361.9286,97.02102 F,0,145328,147918,1,0 S,0,145328,147918,0,0.05
Sprite,Background,Centre,"sb\star.png",0,0 M,16,145378,148295,320,240,231.4595,497.1859 F,0,145378,148295,1,0 S,0,145378,148295,0,0.05
Sprite,Background,Centre,"sb\star.png",0,0 M,16,145428,147935,320,240,268.495,261.9825 F,0,145428,147935,1,0 S,0,145428,147935,0,0.05
Sprite,Background,Centre,"sb\star.png",0,0 M,16,145478,148166,320,240,112.3452,30.46598 F,0,145478,148166,1,0 S,0,145478,148166,0,0.05
Sprite,Background,Centre,"sb\star.png",0,0 M,16,145528,147770,320,240,153.5984,88.55529 F,0,145528,147770,1,0 S,0,145528,147770,0,0.05
Sprite,Background,Centre,"sb\star.png",0,0 M,16,145578,148541,320,240,201.6354,33.5204 F,0,145578,148541,1,0 S,0,145578,148541,0,0.05
Sprite,Background,Centre,"sb\star.png",0,0 M,16,145628,147832,320,240,341.6296,-12.07372 F,0,145628,147832,1,0 S,0,145628,147832,0,0.05
Sprite,Background,Centre,"sb\star.png",0,0 M,16,145678,147794,320,240,328.5041,183.638 F,0,145678,147794,1,0 S,0,145678,147794,0,0.05
Sprite,Background,Centre,"sb\star.png",0,0 M,16,145728,148348,320,240,263.625,166.0348 F,0,145728,148348,1,0 S,0,145728,148348,0,0.05
Sprite,Background,Centre,"sb\star.png",0,0 M,16,145778,147907,320,240,285.6333,495.7009 F,0,145778,147907,1,0 S,0,145778,147907,0,0.05
Sprite,Background,Centre,"sb\star.png",0,0 M,16,145828,147903,320,240,378.5515,134.1099 F,0,145828,147903,1,0 S,0,145828,147903,0,0.05
Sprite,Background,Centre,"sb\star.png",0,0 M,16,145878,148441,320,240,403.1738,420.7848 F,0,145878,148441,1,0 S,0,145878,148441,0,0.05
Sprite,Background,Centre,"sb\star.png",0,0 M,16,145928,148865,320,240,267.55,160.7914 F,0,145928,148865,1,0 S,0,145928,148865,0,0.05
Sprite,Background,Centre,"sb\star.png",0,0 M,16,145978,148952,320,240,177.5397,133.2805 F,0,145978,148952,1,0 S,0,145978,148952,0,0.05
Sprite,Background,Centre,"sb\star.png",0,0 M,16,146028,148430,320,240,115.1017,165.5641 F,0,146028,148430,1,0 S,0,146028,148430,0,0.05
Sprite,Background,Centre,"sb\star.png",0,0 M,16,146078,149021,320,240,577.9302,319.8247 F,0,146078,149021,1,0 S,0,146078,149021,0,0.05
Sprite,Background,Centre,"sb\star.png",0,0 M,16,146128,149067,320,240,341.6042,49.21934 F,0,146128,149067,1,0 S,0,146128,149067,0,0.05
Sprite,Background,Centre,"sb\star.png",0,0 M,16,146178,148416,320,240,150.8669,181.3911 F,0,146178,148416,1,0 S,0,146178,148416,0,0.05
Sprite,Background,Centre,"sb\star.png",0,0 M,16,146228,148285,320,240,205.6947,363.119 F,0,146228,148285,1,0 S,0,146228,148285,0,0.05
Sprite,Background,Centre,"sb\star.png",0,0 M,16,146278,148299,320,240,293.0352,118.9674 F,0,146278,148299,1,0 S,0,146278,148299,0,0.05
Sprite,Background,Centre,"sb\star.png",0,0 M,16,146328,148984,320,240,371.7612,374.3755 F,0,146328,148984,1,0 S,0,146328,148984,0,0.05
Sprite,Background,Centre,"sb\star.png",0,0 M,16,146378,148542,320,240,256.0788,47.3265 F,0,146378,148542,1,0 S,0,146378,148542,0,0.05
Sprite,Background,Centre,"sb\star.png",0,0 M,16,146428,149223,320,240,492.2726,375.2151 F,0,146428,149223,1,0 S,0,146428,149223,0,0.05
Sprite,Background,Centre,"sb\star.png",0,0 M,16,146478,148914,320,240,269.3504,216.1124 F,0,146478,148914,1,0 S,0,146478,148914,0,0.05
Sprite,Background,Centre,"sb\star.png",0,0 M,16,146528,148538,320,240,286.7832,341.7136 F,0,146528,148538,1,0 S,0,146528,148538,0,0.05
Sprite,Background,Centre,"sb\star.png",0,0 M,16,146578,148739,320,240,180.5117,420.3524 F,0,146578,148739,1,0 S,0,146578,148739,0,0.05
Sprite,Background,Centre,"sb\star.png",0,0 M,16,146628,148846,320,240,261.0639,450.9207 F,0,146628,148846,1,0 S,0,146628,148846,0,0.05
Sprite,Background,Centre,"sb\star.png",0,0 M,16,146678,149276,320,240,310.5386,336.5375 F,0,146678,149276,1,0 S,0,146678,149276,0,0.05
Sprite,Background,Centre,"sb\star.png",0,0 M,16,146728,149231,320,240,345.1779,-17.7733 F,0,146728,149231,1,0 S,0,146728,149231,0,0.05
Sprite,Background,Centre,"sb\star.png",0,0 M,16,146778,149055,320,240,446.4642,362.4042 F,0,146778,149055,1,0 S,0,146778,149055,0,0.05
Sprite,Background,Centre,"sb\star.png",0,0 M,16,146828,149640,320,240,530.2866,56.6409 F,0,146828,149640,1,0 S,0,146828,149640,0,0.05
Sprite,Background,Centre,"sb\star.png",0,0 M,16,146878,149819,320,240,404.4776,337.4912 F,0,146878,149819,1,0 S,0,146878,149819,0,0.05
Sprite,Background,Centre,"sb\star.png",0,0 M,16,146928,149338,320,240,420.923,281.1771 F,0,146928,149338,1,0 S,0,146928,149338,0,0.05
Sprite,Background,Centre,"sb\star.png",0,0 M,16,146978,149834,320,240,345.3594,322.176 F,0,146978,149834,1,0 S,0,146978,149834,0,0.05
Sprite,Background,Centre,"sb\star.png",0,0 M,16,147028,149969,320,240,151.5132,192.7009 F,0,147028,149969,1,0 S,0,147028,149969,0,0.05
Sprite,Background,Centre,"sb\star.png",0,0 M,16,147078,149275,320,240,294.4329,343.9005 F,0,147078,149275,1,0 S,0,147078,149275,0,0.05
Sprite,Background,Centre,"sb\star.png",0,0 M,16,147128,149380,320,240,339.3596,-33.31522 F,0,147128,149380,1,0 S,0,147128,149380,0,0.05
Sprite,Background,Centre,"sb\star.png",0,0 M,16,147178,149192,320,240,136.9059,69.775 F,0,147178,149192,1,0 S,0,147178,149192,0,0.05
Sprite,Background,Centre,"sb\star.png",0,0 M,16,147228,149649,320,240,344.8044,298.9978 F,0,147228,149649,1,0 S,0,147228,149649,0,0.05
Sprite,Background,Centre,"sb\star.png",0,0 M,16,147278,150203,320,240,355.454,27.94337 F,0,147278,150203,1,0 S,0,147278,150203,0,0.05
Sprite,Background,Centre,"sb\star.png",0,0 M,16,147328,150261,320,240,403.5922,398.2825 F,0,147328,150261,1,0 S,0,147328,150261,0,0.05
Sprite,Background,Centre,"sb\star.png",0,0 M,16,147378,150361,320,240,478.0134,370.6016 F,0,147378,150361,1,0 S,0,147378,150361,0,0.05
Sprite,Background,Centre,"sb\star.png",0,0 M,16,147428,150112,320,240,377.0704,204.9006 F,0,147428,150112,1,0 S,0,147428,150112,0,0.05
Sprite,Background,Centre,"sb\star.png",0,0 M,16,147478,149641,320,240,85.825,276.4839 F,0,147478,149641,1,0 S,0,147478,149641,0,0.05
Sprite,Background,Centre,"sb\star.png",0,0 M,16,147528,149821,320,240,182.4472,213.9382 F,0,147528,149821,1,0 S,0,147528,149821,0,0.05
Sprite,Background,Centre,"sb\star.png",0,0 M,16,147578,149669,320,240,237.8991,42.37552 F,0,147578,149669,1,0 S,0,147578,149669,0,0.05
Sprite,Background,Centre,"sb\star.png",0,0 M,16,147628,150349,320,240,222.2849,160.4529 F,0,147628,150349,1,0 S,0,147628,150349,0,0.05
Sprite,Background,Centre,"sb\star.png",0,0 M,16,147678,150155,320,240,276.7341,204.4463 F,0,147678,150155,1,0 S,0,147678,150155,0,0.05
Sprite,Background,Centre,"sb\star.png",0,0 M,16,147728,150089,320,240,509.023,402.0842 F,0,147728,150089,1,0 S,0,147728,150089,0,0.05
Sprite,Background,Centre,"sb\star.png",0,0 M,16,147778,150044,320,240,308.6389,419.6411 F,0,147778,150044,1,0 S,0,147778,150044,0,0.05
Sprite,Background,Centre,"sb\star.png",0,0 M,16,147828,150777,320,240,168.5786,160.5483 F,0,147828,150777,1,0 S,0,147828,150777,0,0.05
Sprite,Background,Centre,"sb\star.png",0,0 M,16,147878,150163,320,240,128.0582,36.14135 F,0,147878,150163,1,0 S,0,147878,150163,0,0.05
Sprite,Background,Centre,"sb\star.png",0,0 M,16,147928,149957,320,240,529.8478,41.29189 F,0,147928,149957,1,0 S,0,147928,149957,0,0.05
Sprite,Background,Centre,"sb\star.png",0,0 M,16,147978,150411,320,240,415.6506,390.1165 F,0,147978,150411,1,0 S,0,147978,150411,0,0.05
Sprite,Background,Centre,"sb\star.png",0,0 M,16,148028,150404,320,240,363.7256,297.202 F,0,148028,150404,1,0 S,0,148028,150404,0,0.05
Sprite,Background,Centre,"sb\star.png",0,0 M,16,148078,150363,320,240,105.4897,322.978 F,0,148078,150363,1,0 S,0,148078,150363,0,0.05
Sprite,Background,Centre,"sb\star.png",0,0 M,16,148128,150217,320,240,212.6707,316.8403 F,0,148128,150217,1,0 S,0,148128,150217,0,0.05
Sprite,Background,Centre,"sb\star.png",0,0 M,16,148178,150677,320,240,258.3582,318.7419 F,0,148178,150677,1,0 S,0,148178,150677,0,0.05
Sprite,Background,Centre,"sb\star.png",0,0 M,16,148228,150395,320,240,156.1333,246.6121 F,0,148228,150395,1,0 S,0,148228,150395,0,0.05
Sprite,Background,Centre,"sb\star.png",0,0 M,16,148278,150841,320,240,414.1062,57.87635 F,0,148278,150841,1,0 S,0,148278,150841,0,0.05
Sprite,Background,Centre,"sb\star.png",0,0 M,16,148328,151325,320,240,173.0632,193.8959 F,0,148328,151325,1,0 S,0,148328,151325,0,0.05
Sprite,Background,Centre,"sb\star.png",0,0 M,16,148378,151030,320,240,309.959,342.5094 F,0,148378,151030,1,0 S,0,148378,151030,0,0.05
Sprite,Background,Centre,"sb\star.png",0,0 M,16,148428,151326,320,240,272.6987,259.0679 F,0,148428,151326,1,0 S,0,148428,151326,0,0.05
Sprite,Background,Centre,"sb\star.png",0,0 M,16,148478,151378,320,240,299.2845,178.3894 F,0,148478,151378,1,0 S,0,148478,151378,0,0.05
Sprite,Background,Centre,"sb\star.png",0,0 M,16,148528,151335,320,240,351.799,122.217 F,0,148528,151335,1,0 S,0,148528,151335,0,0.05
Sprite,Background,Centre,"sb\star.png",0,0 M,16,148578,151027,320,240,388.9191,210.4169 F,0,148578,151027,1,0 S,0,148578,151027,0,0.05
Sprite,Background,Centre,"sb\star.png",0,0 M,16,148628,151091,320,240,380.2433,271.5396 F,0,148628,151091,1,0 S,0,148628,151091,0,0.05
Sprite,Background,Centre,"sb\star.png",0,0 M,16,148678,151349,320,240,354.9807,327.2488 F,0,148678,151349,1,0 S,0,148678,151349,0,0.05
Sprite,Background,Centre,"sb\star.png",0,0 M,16,148728,151586,320,240,288.6754,398.9427 F,0,148728,151586,1,0 S,0,148728,151586,0,0.05
Sprite,Background,Centre,"sb\star.png",0,0 M,16,148778,150999,320,240,242.7441,256.5085 F,0,148778,150999,1,0 S,0,148778,150999,0,0.05
Sprite,Background,Centre,"sb\star.png",0,0 M,16,148828,150964,320,240,234.6111,382.3542 F,0,148828,150964,1,0 S,0,148828,150964,0,0.05
Sprite,Background,Centre,"sb\star.png",0,0 M,16,148878,150931,320,240,450.9773,330.1441 F,0,148878,150931,1,0 S,0,148878,150931,0,0.05
Sprite,Background,Centre,"sb\star.png",0,0 M,16,148928,151539,320,240,482.438,77.16908 F,0,148928,151539,1,0 S,0,148928,151539,0,0.05
Sprite,Background,Centre,"sb\star.png",0,0 M,16,148978,151858,320,240,286.6912,97.85035 F,0,148978,151858,1,0 S,0,148978,151858,0,0.05
Sprite,Background,Centre,"sb\star.png",0,0 M,16,149028,151030,320,240,308.188,336.2781 F,0,149028,151030,1,0 S,0,149028,151030,0,0.05
Sprite,Background,Centre,"sb\star.png",0,0 M,16,149078,151780,320,240,511.4959,127.6911 F,0,149078,151780,1,0 S,0,149078,151780,0,0.05
Sprite,Background,Centre,"sb\star.png",0,0 M,16,149128,151691,320,240,179.0906,420.5146 F,0,149128,151691,1,0 S,0,149128,151691,0,0.05
Sprite,Background,Centre,"sb\star.png",0,0 M,16,149178,151736,320,240,249.2116,218.436 F,0,149178,151736,1,0 S,0,149178,151736,0,0.05
Sprite,Background,Centre,"sb\star.png",0,0 M,16,149228,151977,320,240,327.9438,370.7589 F,0,149228,151977,1,0 S,0,149228,151977,0,0.05
Sprite,Background,Centre,"sb\star.png",0,0 M,16,149278,151637,320,240,341.459,-7.069849 F,0,149278,151637,1,0 S,0,149278,151637,0,0.05
Sprite,Background,Centre,"sb\star.png",0,0 M,16,149328,152312,320,240,488.8851,100.5768 F,0,149328,152312,1,0 S,0,149328,152312,0,0.05
Sprite,Background,Centre,"sb\star.png",0,0 M,16,149378,152350,320,240,121.341,105.3352 F,0,149378,152350,1,0 S,0,149378,152350,0,0.05
Sprite,Background,Centre,"sb\star.png",0,0 M,16,149428,151790,320,240,462.1201,49.09197 F,0,149428,151790,1,0 S,0,149428,151790,0,0.05
Sprite,Background,Centre,"sb\star.png",0,0 M,16,149478,152174,320,240,134.6041,420.8573 F,0,149478,152174,1,0 S,0,149478,152174,0,0.05
Sprite,Background,Centre,"sb\star.png",0,0 M,16,149528,151588,320,240,245.8745,59.63813 F,0,149528,151588,1,0 S,0,149528,151588,0,0.05
Sprite,Background,Centre,"sb\star.png",0,0 M,16,149578,151941,320,240,536.3698,223.4738 F,0,149578,151941,1,0 S,0,149578,151941,0,0.05
Sprite,Background,Centre,"sb\hit\r.png",514,374 F,6,149619,151024,1,0 S,7,149619,151024,0.25,0.5
Sprite,Background,Centre,"sb\hit\r.png",487,293 F,6,151031,151731,1,0 S,7,151031,151731,0.25,0.5
Sprite,Background,Centre,"sb\hit\r.png",487,225 F,6,151737,152437,1,0 S,7,151737,152437,0.25,0.5
Sprite,Background,Centre,"sb\hit\r.png",419,308 F,6,152442,153142,1,0 S,7,152442,153142,0.25,0.5
Sprite,Background,Centre,"sb\hit\r.png",289,400 F,6,153148,153848,1,0 S,7,153148,153848,0.25,0.5
Sprite,Background,Centre,"sb\hit\r.png",92,237 F,6,153854,154554,1,0 S,7,153854,154554,0.25,0.5
Sprite,Background,Centre,"sb\hit\r.png",222,333 F,6,154560,155260,1,0 S,7,154560,155260,0.25,0.5
Sprite,Background,Centre,"sb\hit\r.png",520,189 F,6,155266,156318,1,0 S,7,155266,156318,0.25,0.5
Sprite,Background,Centre,"sb\hit\r.png",240,243 F,6,155972,157024,1,0 S,7,155972,157024,0.25,0.5
Sprite,Background,Centre,"sb\hit\r.png",559,392 F,6,156678,157378,1,0 S,7,156678,157378,0.25,0.5
Sprite,Background,Centre,"sb\hit\r.png",429,438 F,6,157384,158436,1,0 S,7,157384,158436,0.25,0.5
Sprite,Background,Centre,"sb\hit\r.png",464,91 F,6,158090,158790,1,0 S,7,158090,158790,0.25,0.5
Sprite,Background,Centre,"sb\hit\r.png",474,166 F,6,158266,158966,1,0 S,7,158266,158966,0.25,0.5
Sprite,Background,Centre,"sb\hit\r.png",441,235 F,6,158442,159142,1,0 S,7,158442,159142,0.25,0.5
Sprite,Background,Centre,"sb\hit\r.png",376,272 F,6,158618,159318,1,0 S,7,158618,159318,0.25,0.5
Sprite,Background,Centre,"sb\hit\r.png",453,81 F,6,158795,159495,1,0 S,7,158795,159495,0.25,0.5
Sprite,Background,Centre,"sb\hit\r.png",463,156 F,6,158971,159671,1,0 S,7,158971,159671,0.25,0.5
Sprite,Background,Centre,"sb\hit\r.png",430,225 F,6,159147,159847,1,0 S,7,159147,159847,0.25,0.5
Sprite,Background,Centre,"sb\hit\r.png",365,262 F,6,159325,160025,1,0 S,7,159325,160025,0.25,0.5
Sprite,Background,Centre,"sb\hit\h.png",263,205 F,7,159501,160765,1,0 S,7,159501,160765,0.7,1.4
Sprite,Background,Centre,"sb\hit\h.png",202,273 F,7,159854,161118,1,0 S,7,159854,161118,0.7,1.4
Sprite,Background,Centre,"sb\hit\h.png",115,323 F,7,160207,161207,1,0 S,7,160207,161207,0.7,1.4
Sprite,Background,Centre,"sb\hit\h.png",94,341 F,7,160295,161295,1,0 S,7,160295,161295,0.7,1.4
Sprite,Background,Centre,"sb\hit\h.png",86,368 F,7,160383,161383,1,0 S,7,160383,161383,0.7,1.4
Sprite,Background,Centre,"sb\hit\h.png",95,394 F,7,160471,161471,1,0 S,7,160471,161471,0.7,1.4
Sprite,Background,Centre,"sb\hit\h.png",117,411 F,7,160560,161560,1,0 S,7,160560,161560,0.7,1.4
Sprite,Background,Centre,"sb\hit\h.png",144,414 F,7,160648,161648,1,0 S,7,160648,161648,0.7,1.4
Sprite,Background,Centre,"sb\hit\h.png",169,401 F,7,160736,161736,1,0 S,7,160736,161736,0.7,1.4
Sprite,Background,Centre,"sb\bar.png",0,0 M,0,160913,,175,345 C,0,160913,,86,191,237 V,0,160913,,35,1 M,0,160913,160935,175,345,169.5429,332.0395 M,0,160935,160957,169.5429,332.0395,174.4431,326.9882 M,0,160957,160979,174.4431,326.9882,188.1566,330.0582 M,0,160979,161001,188.1566,330.0582,201.3021,335.0119 M,0,161001,161023,201.3021,335.0119,213.4094,342.1244 M,0,161023,161045,213.4094,342.1244,223.9214,351.4282 M,0,161045,161067,223.9214,351.4282,232.3943,362.6227 M,0,161067,161089,232.3943,362.6227,238.7069,375.1694 M,0,161089,161111,238.7069,375.1694 M,0,161089,161178,238.7069,375.1694,328,416 M,0,161178,161200,328,416,319.0604,426.8553 M,0,161200,161222,319.0604,426.8553,311.6888,427.3529 M,0,161222,161244,311.6888,427.3529,307.4337,413.959 M,0,161244,161266,307.4337,413.959,305.0255,400.1185 M,0,161266,161288,305.0255,400.1185,304.9244,386.0757 M,0,161288,161310,304.9244,386.0757,307.4703,372.2689 M,0,161310,161332,307.4703,372.2689,312.6707,359.2276 M,0,161332,161354,312.6707,359.2276,320.1567,347.3444 M,0,161354,161376,320.1567,347.3444,320.1567,347.3443 M,0,161354,161442,320.1567,347.3443,373,298 M,0,161442,161619,373,298,514,325 M,0,161619,161795,514,325,384,313 M,0,161795,161817,384,313,398.0048,314.2732 M,0,161817,161839,398.0048,314.2732,412.0095,315.5463 M,0,161839,161861,412.0095,315.5463,426.0143,316.8195 M,0,161861,161883,426.0143,316.8195,439,318 M,0,161883,161905,439,318 M,0,161883,161972,439,318,538,344 M,0,161972,161994,538,344,550.2796,338.554 M,0,161994,162016,550.2796,338.554,558.3291,328.2024 M,0,162016,162038,558.3291,328.2024,559.1941,314.8093 M,0,162038,162060,559.1941,314.8093,551.1599,304.1233 M,0,162060,162082,551.1599,304.1233,539.1556,299.2025 M,0,162082,162104,539.1556,299.2025,526.2694,301.8705 M,0,162104,162126,526.2694,301.8705,516.8825,311.5659 M,0,162126,162148,516.8825,311.5659,514.9637,325.2081 M,0,162148,162170,514.9637,325.2081 M,0,162148,162678,514.9637,325.2081,514,325 M,0,162678,162700,514,325,513.3351,310.9804 M,0,162700,162722,513.3351,310.9804,514.0848,296.9788 M,0,162722,162744,514.0848,296.9788,516.5343,283.1575 M,0,162744,162766,516.5343,283.1575,520.7334,269.7495 M,0,162766,162788,520.7334,269.7495 M,0,162766,162854,520.7334,269.7495,434,356 M,0,162854,162876,434,356,421.8065,349.0387 M,0,162876,162898,421.8065,349.0387,410.307,341.0023 M,0,162898,162920,410.307,341.0023,399.75,331.7461 M,0,162920,162942,399.75,331.7461,390.2963,321.3487 M,0,162942,162964,390.2963,321.3487 M,0,162942,163031,390.2963,321.3487,406,439 M,0,163031,163207,406,439,338,264 M,0,163207,163229,338,264,336.2245,250.05 M,0,163229,163251,336.2245,250.05,334.4491,236.1001 M,0,163251,163273,334.4491,236.1001,332.6736,222.1501 M,0,163273,163295,332.6736,222.1501,331,209 M,0,163295,163317,331,209 M,0,163295,163384,331,209,327,276 M,0,163384,163406,327,276,325.4254,262.0259 M,0,163406,163428,325.4254,262.0259,323.8509,248.0518 M,0,163428,163450,323.8509,248.0518,322.2764,234.0778 M,0,163450,163472,322.2764,234.0778,320.7018,220.1037 M,0,163472,163494,320.7018,220.1037,319.1273,206.1296 M,0,163494,163516,319.1273,206.1296,317.5527,192.1556 M,0,163516,163538,317.5527,192.1556,315.9782,178.1815 M,0,163538,163560,315.9782,178.1815,314.4037,164.2074 M,0,163560,163582,314.4037,164.2074,312.8291,150.2333 M,0,163582,163604,312.8291,150.2333,311.2546,136.2593 M,0,163604,163626,311.2546,136.2593,321.9458,138.3783 M,0,163626,163648,321.9458,138.3783,335.0025,143.601 M,0,163648,163670,335.0025,143.601 M,0,163648,163737,335.0025,143.601,398,173 M,0,163737,163759,398,173,403.4571,185.9605 M,0,163759,163781,403.4571,185.9605,398.5569,191.0118 M,0,163781,163803,398.5569,191.0118,384.8434,187.9418 M,0,163803,163825,384.8434,187.9418,371.6979,182.9881 M,0,163825,163847,371.6979,182.9881,359.5905,175.8757 M,0,163847,163869,359.5905,175.8757,349.0786,166.5718 M,0,163869,163891,349.0786,166.5718,340.6057,155.3773 M,0,163891,163913,340.6057,155.3773,334.2931,142.8306 M,0,163913,163935,334.2931,142.8306 M,0,163913,164002,334.2931,142.8306,245,102 M,0,164002,164024,245,102,253.9396,91.14473 M,0,164024,164046,253.9396,91.14473,261.3112,90.64711 M,0,164046,164068,261.3112,90.64711,265.5663,104.0409 M,0,164068,164090,265.5663,104.0409,267.9745,117.8815 M,0,164090,164112,267.9745,117.8815,268.0756,131.9243 M,0,164112,164134,268.0756,131.9243,265.5297,145.7311 M,0,164134,164156,265.5297,145.7311,260.3293,158.7724 M,0,164156,164178,260.3293,158.7724,252.8433,170.6556 M,0,164178,164200,252.8433,170.6556 M,0,164178,164266,252.8433,170.6556,175,195 M,0,164266,164354,175,195,165,180 M,0,164354,164443,165,180,154,166 M,0,164443,164619,154,166,129,329 M,0,164619,164641,129,329,130.9887,315.0788 M,0,164641,164663,130.9887,315.0788,132.9775,301.1577 M,0,164663,164685,132.9775,301.1577,134.9662,287.2365 M,0,164685,164707,134.9662,287.2365,136.955,273.3153 M,0,164707,164729,136.955,273.3153 M,0,164707,164795,136.955,273.3153,132,146 M,0,164795,164817,132,146,119.4876,150.8651 M,0,164817,164839,119.4876,150.8651,110.8733,160.7791 M,0,164839,164861,110.8733,160.7791,109.2175,174.192 M,0,164861,164883,109.2175,174.192,116.7899,185.2184 M,0,164883,164905,116.7899,185.2184,128.483,190.9279 M,0,164905,164927,128.483,190.9279,141.6634,189.133 M,0,164927,164949,141.6634,189.133,150.6372,179.2632 M,0,164949,164971,150.6372,179.2632,154.1094,166.3342 M,0,164971,164993,154.1094,166.3342 M,0,164971,165325,154.1094,166.3342,155,166 M,0,165325,165347,155,166,169.0611,165.9892 M,0,165347,165369,169.0611,165.9892,183.119,166.2728 M,0,165369,165391,183.119,166.2728,197.1607,167.0068 M,0,165391,165413,197.1607,167.0068,211.1802,168.0738 M,0,165413,165435,211.1802,168.0738,225.1682,169.5055 M,0,165435,165457,225.1682,169.5055,239.1013,171.3975 M,0,165457,165479,239.1013,171.3975,252.9868,173.607 M,0,165479,165501,252.9868,173.607,266,176 M,0,165501,165523,266,176 M,0,165501,165678,266,176,129,329 M,0,165678,165700,129,329,114.9553,329.5903 M,0,165700,165722,114.9553,329.5903,100.938,330.6727 M,0,165722,165744,100.938,330.6727,87.02604,332.686 M,0,165744,165766,87.02604,332.686,74,335 M,0,165766,165788,74,335 M,0,165766,165854,74,335,203,405 M,0,165854,166031,203,405,259,256 M,0,166031,166053,259,256,247.6109,263.4925 M,0,166053,166075,247.6109,263.4925,238.9521,274.2589 M,0,166075,166097,238.9521,274.2589,237.9559,287.8472 M,0,166097,166119,237.9559,287.8472,241,301 M,0,166119,166141,241,301 M,0,166119,166207,241,301,351,350 M,0,166207,166229,351,350,359.2712,338.6271 M,0,166229,166251,359.2712,338.6271,366.9428,327.0797 M,0,166251,166273,366.9428,327.0797,365.054,313.1585 M,0,166273,166295,365.054,313.1585,361.0022,299.709 M,0,166295,166317,361.0022,299.709,354.7246,287.1464 M,0,166317,166339,354.7246,287.1464,346.2515,275.9507 M,0,166339,166361,346.2515,275.9507,335.7434,266.644 M,0,166361,166383,335.7434,266.644,323.4959,259.7948 M,0,166383,166405,323.4959,259.7948,310.0026,255.9616 M,0,166405,166427,310.0026,255.9616,295.9846,255.5734 M,0,166427,166449,295.9846,255.5734,282.3229,258.7413 M,0,166449,166471,282.3229,258.7413,270,265 M,0,166471,166493,270,265 M,0,166471,166560,270,265,201,301 M,0,166560,166582,201,301,187.2568,303.9197 M,0,166582,166604,187.2568,303.9197,173.2279,304.4021 M,0,166604,166626,173.2279,304.4021,159.5095,301.5205 M,0,166626,166648,159.5095,301.5205,147.2209,294.7951 M,0,166648,166670,147.2209,294.7951,156.0479,291.2193 M,0,166670,166692,156.0479,291.2193,169.1203,286.1257 M,0,166692,166714,169.1203,286.1257,180.7424,278.2543 M,0,166714,166736,180.7424,278.2543,190.7063,268.3538 M,0,166736,166758,190.7063,268.3538 M,0,166736,166825,190.7063,268.3538,153,166 M,0,166825,166847,153,166,143.3634,176.2248 M,0,166847,166869,143.3634,176.2248,135.654,187.9554 M,0,166869,166891,135.654,187.9554,131.0262,201.1852 M,0,166891,166913,131.0262,201.1852,130.5648,215.182 M,0,166913,166935,130.5648,215.182,138.126,209.3596 M,0,166935,166957,138.126,209.3596,148.9214,200.3949 M,0,166957,166979,148.9214,200.3949,161.5131,194.2115 M,0,166979,167001,161.5131,194.2115,175.1961,191.0917 M,0,167001,167023,175.1961,191.0917 M,0,167001,167090,175.1961,191.0917,245,217 M,0,167090,167266,245,217,250,94 M,0,167266,167442,250,94,262,227 M,0,167442,167464,262,227,261.0156,212.972 M,0,167464,167486,261.0156,212.972,260.0312,198.944 M,0,167486,167508,260.0312,198.944,259.0468,184.916 M,0,167508,167530,259.0468,184.916,258.0623,170.888 M,0,167530,167552,258.0623,170.888 M,0,167530,167619,258.0623,170.888,270,56 M,0,167619,167641,270,56,255.9687,56.81722 M,0,167641,167663,255.9687,56.81722,241.9296,56.12303 M,0,167663,167685,241.9296,56.12303,228.0232,54.06731 M,0,167685,167707,228.0232,54.06731,215.579,51.35595 M,0,167707,167729,215.579,51.35595,226.786,59.81763 M,0,167729,167751,226.786,59.81763,236.346,70.10844 M,0,167751,167773,236.346,70.10844,244.2121,81.75082 M,0,167773,167795,244.2121,81.75082,250.5263,94.30713 M,0,167795,167817,250.5263,94.30713,250.5263,94.30714 M,0,167795,168148,250.5263,94.30714,250,94 M,0,168148,168170,250,94,263.9572,95.7178 M,0,168170,168192,263.9572,95.7178,277.9144,97.43562 M,0,168192,168214,277.9144,97.43562,291.8716,99.15343 M,0,168214,168236,291.8716,99.15343,305.8287,100.8712 M,0,168236,168258,305.8287,100.8712 M,0,168236,168325,305.8287,100.8712,429,94 M,0,168325,168347,429,94,417.5736,85.97579 M,0,168347,168369,417.5736,85.97579,404.9197,80.14922 M,0,168369,168391,404.9197,80.14922,391.1594,77.88055 M,0,168391,168413,391.1594,77.88055,377.2874,78.49424 M,0,168413,168435,377.2874,78.49424 M,0,168413,168501,377.2874,78.49424,473,209 M,0,168501,168523,473,209,475.4514,195.2019 M,0,168523,168545,475.4514,195.2019,476.0358,181.2237 M,0,168545,168567,476.0358,181.2237,474.3518,167.3074 M,0,168567,168589,474.3518,167.3074,470.3083,153.8616 M,0,168589,168611,470.3083,153.8616 M,0,168589,168678,470.3083,153.8616,428,265 M,0,168678,168854,428,265,305,285 M,0,168854,168876,305,285,318.9572,286.7178 M,0,168876,168898,318.9572,286.7178,332.9144,288.4356 M,0,168898,168920,332.9144,288.4356,346.8716,290.1534 M,0,168920,168942,346.8716,290.1534,360.8287,291.8712 M,0,168942,168964,360.8287,291.8712 M,0,168942,169031,360.8287,291.8712,295,294 M,0,169031,169053,295,294,308.9708,295.6032 M,0,169053,169075,308.9708,295.6032,322.9416,297.2064 M,0,169075,169097,322.9416,297.2064,336.9124,298.8096 M,0,169097,169119,336.9124,298.8096,350.8832,300.4128 M,0,169119,169141,350.8832,300.4128,353.3497,292.491 M,0,169141,169163,353.3497,292.491,349.1677,279.0648 M,0,169163,169185,349.1677,279.0648,344.9857,265.6385 M,0,169185,169207,344.9857,265.6385,340.8038,252.2122 M,0,169207,169229,340.8038,252.2122,336.6218,238.7859 M,0,169229,169251,336.6218,238.7859,332.4399,225.3596 M,0,169251,169273,332.4399,225.3596,328.2579,211.9333 M,0,169273,169295,328.2579,211.9333,324.076,198.507 M,0,169295,169317,324.076,198.507 M,0,169295,169384,324.076,198.507,258,168 M,0,169384,169406,258,168,244.1171,165.844 M,0,169406,169428,244.1171,165.844,230.0853,166.1906 M,0,169428,169450,230.0853,166.1906,216.5765,169.9312 M,0,169450,169472,216.5765,169.9312,204.7393,177.4239 M,0,169472,169494,204.7393,177.4239,214.4636,181.3317 M,0,169494,169516,214.4636,181.3317,227.448,186.6751 M,0,169516,169538,227.448,186.6751,239.3416,194.1531 M,0,169538,169560,239.3416,194.1531,250.1489,203.1381 M,0,169560,169582,250.1489,203.1381 M,0,169560,169649,250.1489,203.1381,222,277 M,0,169649,169671,222,277,208.175,279.3331 M,0,169671,169693,208.175,279.3331,195.5105,285.3414 M,0,169693,169715,195.5105,285.3414,184.775,294.3752 M,0,169715,169737,184.775,294.3752,176.7241,302.3458 M,0,169737,169759,176.7241,302.3458,176.7485,288.3393 M,0,169759,169781,176.7485,288.3393,180.9857,274.9831 M,0,169781,169803,180.9857,274.9831,188.5083,263.1364 M,0,169803,169825,188.5083,263.1364,198,253 M,0,169825,169847,198,253 M,0,169825,169914,198,253,295,294 M,0,169914,170001,295,294,303,314 M,0,170001,170090,303,314,311,335 M,0,170090,170266,311,335,125,351 M,0,170266,170288,125,351,138.9689,349.3804 M,0,170288,170310,138.9689,349.3804,152.9379,347.7608 M,0,170310,170332,152.9379,347.7608,166.9068,346.1412 M,0,170332,170354,166.9068,346.1412,180.8757,344.5217 M,0,170354,170376,180.8757,344.5217 M,0,170354,170442,180.8757,344.5217,347,312 M,0,170442,170464,347,312,346.1884,326.0334 M,0,170464,170486,346.1884,326.0334,346.7359,340.0799 M,0,170486,170508,346.7359,340.0799,348.589,354.0148 M,0,170508,170530,348.589,354.0148,351.6566,367.7343 M,0,170530,170552,351.6566,367.7343,344.5031,358.7039 M,0,170552,170574,344.5031,358.7039,334.441,348.9044 M,0,170574,170596,334.441,348.9044,322.9622,340.8028 M,0,170596,170618,322.9622,340.8028,310.5128,334.2813 M,0,170618,170640,310.5128,334.2813 M,0,170618,171148,310.5128,334.2813,311,335 M,0,171148,171170,311,335,306.3405,348.2308 M,0,171170,171192,306.3405,348.2308,303.2637,361.8968 M,0,171192,171214,303.2637,361.8968,302.1329,375.8752 M,0,171214,171236,302.1329,375.8752,302.9893,389.8957 M,0,171236,171258,302.9893,389.8957 M,0,171236,171324,302.9893,389.8957,497,415 M,0,171324,171346,497,415,500.6775,401.4724 M,0,171346,171368,500.6775,401.4724,503.0114,387.6302 M,0,171368,171390,503.0114,387.6302,502.6519,373.617 M,0,171390,171412,502.6519,373.617,501,360 M,0,171412,171434,501,360 M,0,171412,171501,501,360,406,377 M,0,171501,171678,406,377,568,213 M,0,171678,171854,568,213,561,224 M,0,171854,171876,561,224,547.009,225.3901 M,0,171876,171898,547.009,225.3901,533.1736,227.8769 M,0,171898,171920,533.1736,227.8769,519.7349,231.9759 M,0,171920,171942,519.7349,231.9759,507.2274,238.3454 M,0,171942,171964,507.2274,238.3454,496.5118,247.3992 M,0,171964,171986,496.5118,247.3992,487.7817,258.4084 M,0,171986,172008,487.7817,258.4084,479.647,269.878 M,0,172008,172030,479.647,269.878,470.3333,280.3906 M,0,172030,172052,470.3333,280.3906,459.1881,288.926 M,0,172052,172074,459.1881,288.926,446.6547,295.2676 M,0,172074,172096,446.6547,295.2676,433.3592,299.8223 M,0,172096,172118,433.3592,299.8223,419.6758,303.0468 M,0,172118,172140,419.6758,303.0468 M,0,172118,172207,419.6758,303.0468,362,162 M,0,172207,172229,362,162,363.8924,175.9346 M,0,172229,172251,363.8924,175.9346,365.7847,189.8692 M,0,172251,172273,365.7847,189.8692,367.6771,203.8038 M,0,172273,172295,367.6771,203.8038,369.5694,217.7384 M,0,172295,172317,369.5694,217.7384,371.4618,231.673 M,0,172317,172339,371.4618,231.673,370.8864,244.5668 M,0,172339,172361,370.8864,244.5668,361.4644,254.9269 M,0,172361,172383,361.4644,254.9269,355.2025,267.4828 M,0,172383,172405,355.2025,267.4828 M,0,172383,172472,355.2025,267.4828,303,361 M,0,172472,172560,303,361 M,0,172560,172582,303,361,304.9346,347.0712 M,0,172582,172604,304.9346,347.0712,306.8691,333.1424 M,0,172604,172626,306.8691,333.1424,303.7281,321.0195 M,0,172626,172648,303.7281,321.0195,295.237,309.8479 M,0,172648,172670,295.237,309.8479 M,0,172648,172737,295.237,309.8479,255,246 M,0,172737,172913,255,246,108,293 M,0,172913,173090,108,293,187,360 M,0,173090,173112,187,360,193.7936,349.1832 M,0,173112,173134,193.7936,349.1832,192.0973,337.1341 M,0,173134,173156,192.0973,337.1341,181.2955,330.1844 M,0,173156,173178,181.2955,330.1844,168.5741,334.6062 M,0,173178,173200,168.5741,334.6062 M,0,173178,173266,168.5741,334.6062,105,369 M,0,173266,173288,105,369,94.55006,377.9024 M,0,173288,173310,94.55006,377.9024,88.05301,389.7848 M,0,173310,173332,88.05301,389.7848,87.19965,403.4388 M,0,173332,173354,87.19965,403.4388,92.31468,416.3473 M,0,173354,173376,92.31468,416.3473,103.2179,424.6805 M,0,173376,173398,103.2179,424.6805,116.2082,428.4694 M,0,173398,173420,116.2082,428.4694,129.7086,426.3737 M,0,173420,173442,129.7086,426.3737,141,419 M,0,173442,173464,141,419 M,0,173442,173972,141,419,113,140 M,0,173972,173994,113,140,114.5529,126.0235 M,0,173994,174016,114.5529,126.0235,116.1059,112.047 M,0,174016,174038,116.1059,112.047,117.6588,98.07053 M,0,174038,174060,117.6588,98.07053,119.2118,84.09404 M,0,174060,174082,119.2118,84.09404 M,0,174060,174148,119.2118,84.09404,244,194 M,0,174148,174170,244,194,242.4471,180.0235 M,0,174170,174192,242.4471,180.0235,240.8941,166.047 M,0,174192,174214,240.8941,166.047,239.3412,152.0705 M,0,174214,174236,239.3412,152.0705,237.7882,138.094 M,0,174236,174258,237.7882,138.094 M,0,174236,174325,237.7882,138.094,100,216 M,0,174325,174501,100,216 M,0,174501,174523,100,216,107.8758,227.2789 M,0,174523,174545,107.8758,227.2789,118.5329,236.1313 M,0,174545,174567,118.5329,236.1313,132.0314,238.7093 M,0,174567,174589,132.0314,238.7093,145,238 M,0,174589,174611,145,238 M,0,174589,174678,145,238,234,296 M,0,174678,174700,234,296,229.5065,282.8085 M,0,174700,174722,229.5065,282.8085,222.2906,270.9614 M,0,174722,174744,222.2906,270.9614,212.1822,261.3646 M,0,174744,174766,212.1822,261.3646,199.6,255.401 M,0,174766,174788,199.6,255.401,186.0496,252.5621 M,0,174788,174810,186.0496,252.5621,172.1847,253.3602 M,0,174810,174832,172.1847,253.3602,158.9378,257.7785 M,0,174832,174854,158.9378,257.7785,147.8143,266.1613 M,0,174854,174876,147.8143,266.1613,138.9303,276.7916 M,0,174876,174898,138.9303,276.7916,133.1071,289.4207 M,0,174898,174920,133.1071,289.4207,130.7751,303.2181 M,0,174920,174942,130.7751,303.2181,132.5801,317.1073 M,0,174942,174964,132.5801,317.1073 M,0,174942,175031,132.5801,317.1073,204,401 M,0,175031,175053,204,401,217.9346,399.1076 M,0,175053,175075,217.9346,399.1076,231.8692,397.2153 M,0,175075,175097,231.8692,397.2153,245.8038,395.3229 M,0,175097,175119,245.8038,395.3229,259.7384,393.4306 M,0,175119,175141,259.7384,393.4306,273.673,391.5382 M,0,175141,175163,273.673,391.5382,286.6581,392.043 M,0,175163,175185,286.6581,392.043,297.145,401.3473 M,0,175185,175207,297.145,401.3473,309.6155,407.7826 M,0,175207,175229,309.6155,407.7826,309.6156,407.7826 M,0,175207,175296,309.6156,407.7826,422,329 M,0,175296,175318,422,329,408.0654,330.8924 M,0,175318,175340,408.0654,330.8924,394.1308,332.7847 M,0,175340,175362,394.1308,332.7847,380.1962,334.6771 M,0,175362,175384,380.1962,334.6771,366.2616,336.5694 M,0,175384,175406,366.2616,336.5694,352.327,338.4618 M,0,175406,175428,352.327,338.4618,339.1846,338.0952 M,0,175428,175450,339.1846,338.0952,328.3591,329.1552 M,0,175450,175472,328.3591,329.1552,316.0815,322.3327 M,0,175472,175494,316.0815,322.3327 M,0,175472,175561,316.0815,322.3327,261,362 M,0,175561,175737,261,362,223,144 M,0,175737,175913,223,144,247,350 M,0,175913,175935,247,350,245.0455,336.074 M,0,175935,175957,245.0455,336.074,243.0909,322.148 M,0,175957,175979,243.0909,322.148,241.1364,308.222 M,0,175979,176001,241.1364,308.222,239.1819,294.296 M,0,176001,176023,239.1819,294.296 M,0,176001,176090,239.1819,294.296,223,144 M,0,176090,176112,223,144,218.7988,157.4195 M,0,176112,176134,218.7988,157.4195,215.0855,170.9821 M,0,176134,176156,215.0855,170.9821,211.8547,184.6676 M,0,176156,176178,211.8547,184.6676,209.0985,198.4567 M,0,176178,176200,209.0985,198.4567,206.8072,212.3306 M,0,176200,176222,206.8072,212.3306,204.8483,225.7724 M,0,176222,176244,204.8483,225.7724,197.0478,214.0717 M,0,176244,176266,197.0478,214.0717,189.2473,202.371 M,0,176266,176288,189.2473,202.371 M,0,176266,176619,189.2473,202.371,190,202 M,0,176619,176641,190,202,186.4473,188.4025 M,0,176641,176663,186.4473,188.4025,183.6749,174.6292 M,0,176663,176685,183.6749,174.6292,181.853,160.6939 M,0,176685,176707,181.853,160.6939,181.176,146.657 M,0,176707,176729,181.176,146.657,181.3653,132.6106 M,0,176729,176751,181.3653,132.6106,182.5174,118.6075 M,0,176751,176773,182.5174,118.6075,184.6279,104.7116 M,0,176773,176795,184.6279,104.7116,187.7484,91.00368 M,0,176795,176817,187.7484,91.00368,187.7484,91.00367 M,0,176795,176972,187.7484,91.00367,398,60 M,0,176972,176994,398,60,391.7428,72.54666 M,0,176994,177016,391.7428,72.54666,387.032,85.73521 M,0,177016,177038,387.032,85.73521,384.2938,99.50468 M,0,177038,177060,384.2938,99.50468,383.9321,113.5436 M,0,177060,177082,383.9321,113.5436 M,0,177060,177148,383.9321,113.5436,449,243 M,0,177148,177325,449,243,259,143 M,0,177325,177347,259,143,272.743,140.0196 M,0,177347,177369,272.743,140.0196,286.4861,137.0392 M,0,177369,177391,286.4861,137.0392,300.2291,134.0587 M,0,177391,177413,300.2291,134.0587,313.9721,131.0783 M,0,177413,177435,313.9721,131.0783 M,0,177413,177501,313.9721,131.0783,531,151 M,0,177501,177523,531,151,544.1412,145.9938 M,0,177523,177545,544.1412,145.9938,548.9727,147.7738 M,0,177545,177567,548.9727,147.7738,541.4417,159.6497 M,0,177567,177589,541.4417,159.6497,533.9106,171.5256 M,0,177589,177611,533.9106,171.5256,526.3795,183.4016 M,0,177611,177633,526.3795,183.4016,513.0818,180.6167 M,0,177633,177655,513.0818,180.6167,499.4782,177.0538 M,0,177655,177677,499.4782,177.0538,485.8745,173.4909 M,0,177677,177699,485.8745,173.4909,473.2211,175.8572 M,0,177699,177721,473.2211,175.8572,459.5442,172.5867 M,0,177721,177743,459.5442,172.5867,445.8673,169.3161 M,0,177743,177765,445.8673,169.3161,432.1904,166.0455 M,0,177765,177787,432.1904,166.0455 M,0,177765,177854,432.1904,166.0455,357,250 M,0,177854,177876,357,250,367.8553,241.0604 M,0,177876,177898,367.8553,241.0604,374.7866,242.051 M,0,177898,177920,374.7866,242.051,377.5179,255.84 M,0,177920,177942,377.5179,255.84,381.6954,269.2595 M,0,177942,177964,381.6954,269.2595,387.4906,282.0612 M,0,177964,177986,387.4906,282.0612,375.0274,282.248 M,0,177986,178008,375.0274,282.248,360.9885,281.4341 M,0,178008,178030,360.9885,281.4341,346.9496,280.6203 M,0,178030,178052,346.9496,280.6203 M,0,178030,178119,346.9496,280.6203,251,247 M,0,178119,178141,251,247,238.0745,241.4605 M,0,178141,178163,238.0745,241.4605,234.2204,234.8315 M,0,178163,178185,234.2204,234.8315,244.9326,225.7287 M,0,178185,178207,244.9326,225.7287,254.6683,215.5911 M,0,178207,178229,254.6683,215.5911,263.1214,204.3652 M,0,178229,178251,263.1214,204.3652,269.6355,214.0892 M,0,178251,178273,269.6355,214.0892,276.0065,226.6257 M,0,178273,178295,276.0065,226.6257,282.3775,239.1622 M,0,178295,178317,282.3775,239.1622 M,0,178295,178384,282.3775,239.1622,282,313 M,0,178384,178560,282,313,194,170 M,0,178560,178737,194,170,205,364 M,0,178737,178759,205,364,205.0114,350.3628 M,0,178759,178781,205.0114,350.3628,199.7565,338.0131 M,0,178781,178803,199.7565,338.0131,189.1592,329.4318 M,0,178803,178825,189.1592,329.4318,175.5023,327.0132 M,0,178825,178847,175.5023,327.0132 M,0,178825,178913,175.5023,327.0132,102,394 M,0,178913,178935,102,394,101.7119,407.8694 M,0,178935,178957,101.7119,407.8694,105.1402,421.2054 M,0,178957,178979,105.1402,421.2054,112.7244,432.8011 M,0,178979,179001,112.7244,432.8011,124.0984,440.707 M,0,179001,179023,124.0984,440.707,137.1789,444.8719 M,0,179023,179045,137.1789,444.8719,150.9492,444.6125 M,0,179045,179067,150.9492,444.6125,163.9862,439.9057 M,0,179067,179089,163.9862,439.9057,174.8658,431.1317 M,0,179089,179111,174.8658,431.1317 M,0,179089,179442,174.8658,431.1317,175,432 M,0,179442,179464,175,432,188.9796,433.5251 M,0,179464,179486,188.9796,433.5251,202.9591,435.0501 M,0,179486,179508,202.9591,435.0501,216.9387,436.5751 M,0,179508,179530,216.9387,436.5751,230,438 M,0,179530,179552,230,438 M,0,179530,179619,230,438,336,370 M,0,179619,179641,336,370,330.4633,382.8692 M,0,179641,179663,330.4633,382.8692,323.1501,394.7843 M,0,179663,179685,323.1501,394.7843,313.8805,405.2799 M,0,179685,179707,313.8805,405.2799,303,414 M,0,179707,179729,303,414 M,0,179707,179795,303,414,326,248 M,0,179795,179817,326,248,335.138,258.5544 M,0,179817,179839,335.138,258.5544,342.5821,270.407 M,0,179839,179861,342.5821,270.407,346.2997,283.8596 M,0,179861,179883,346.2997,283.8596,348,297 M,0,179883,179905,348,297 M,0,179883,179972,348,297,141,199 M,0,179972,180148,141,199,265,136 M,0,180148,180170,265,136,266.525,149.9796 M,0,180170,180192,266.525,149.9796,268.0501,163.9591 M,0,180192,180214,268.0501,163.9591,269.5751,177.9387 M,0,180214,180236,269.5751,177.9387,271,191 M,0,180236,180258,271,191 M,0,180236,180325,271,191,212,302 M,0,180325,180347,212,302,210.3376,288.0361 M,0,180347,180369,210.3376,288.0361,208.6753,274.0722 M,0,180369,180391,208.6753,274.0722,207.0129,260.1083 M,0,180391,180413,207.0129,260.1083,200.058,248.0188 M,0,180413,180435,200.058,248.0188,213.4377,252.3475 M,0,180435,180457,213.4377,252.3475,226.8174,256.6762 M,0,180457,180479,226.8174,256.6762,240.1971,261.0049 M,0,180479,180501,240.1971,261.0049,253.5768,265.3337 M,0,180501,180523,253.5768,265.3337,266.9565,269.6624 M,0,180523,180545,266.9565,269.6624,280.7684,267.7468 M,0,180545,180567,280.7684,267.7468,294.6169,265.3029 M,0,180567,180589,294.6169,265.3029,308.4655,262.859 M,0,180589,180611,308.4655,262.859 M,0,180589,180678,308.4655,262.859,416,279 M,0,180678,180700,416,279,404.1935,271.3605 M,0,180700,180722,404.1935,271.3605,392.3871,263.7211 M,0,180722,180744,392.3871,263.7211,381.9851,258.6905 M,0,180744,180766,381.9851,258.6905,380.7185,272.6835 M,0,180766,180788,380.7185,272.6835,377.5084,286.3637 M,0,180788,180810,377.5084,286.3637,372.5803,299.5253 M,0,180810,180832,372.5803,299.5253,377.9362,303.9178 M,0,180832,180854,377.9362,303.9178,391.8697,302.0178 M,0,180854,180876,391.8697,302.0178 M,0,180854,180942,391.8697,302.0178,505,352 M,0,180942,180964,505,352,506.9,338.0664 M,0,180964,180986,506.9,338.0664,502.8077,332.8444 M,0,180986,181008,502.8077,332.8444,489.8002,338.1465 M,0,181008,181030,489.8002,338.1465,476.0954,341.2242 M,0,181030,181052,476.0954,341.2242,462.0719,342.0569 M,0,181052,181074,462.0719,342.0569,466.6507,351.9761 M,0,181074,181096,466.6507,351.9761,474.4512,363.6768 M,0,181096,181118,474.4512,363.6768,482.2517,375.3775 M,0,181118,181140,482.2517,375.3775 M,0,181118,181208,482.2517,375.3775,519,440 M,0,181208,181384,519,440,540,268 M,0,181384,181560,540,268,340,389 M,0,181560,181582,340,389,353.6207,385.5028 M,0,181582,181604,353.6207,385.5028,367.2414,382.0056 M,0,181604,181626,367.2414,382.0056,380.8621,378.5084 M,0,181626,181648,380.8621,378.5084,394.4828,375.0112 M,0,181648,181670,394.4828,375.0112 M,0,181648,181737,394.4828,375.0112,540,268 M,0,181737,181759,540,268,539.837,253.9409 M,0,181759,181781,539.837,253.9409,540.6096,239.9025 M,0,181781,181803,540.6096,239.9025,542.3747,225.9544 M,0,181803,181825,542.3747,225.9544,545.1774,212.1776 M,0,181825,181847,545.1774,212.1776,549.0339,198.658 M,0,181847,181869,549.0339,198.658,553.9408,185.4833 M,0,181869,181891,553.9408,185.4833,544.6706,187.7343 M,0,181891,181913,544.6706,187.7343,531.8868,193.5935 M,0,181913,181935,531.8868,193.5935 M,0,181913,182442,531.8868,193.5935,532,193 M,0,182442,182464,532,193,518.1061,190.8291 M,0,182464,182486,518.1061,190.8291,504.2122,188.6582 M,0,182486,182508,504.2122,188.6582,490.3182,186.4872 M,0,182508,182530,490.3182,186.4872,476.4243,184.3163 M,0,182530,182552,476.4243,184.3163 M,0,182530,182619,476.4243,184.3163,459,193 M,0,182619,182641,459,193,472.9212,194.9887 M,0,182641,182663,472.9212,194.9887,486.8423,196.9775 M,0,182663,182685,486.8423,196.9775,500.7635,198.9662 M,0,182685,182707,500.7635,198.9662,514.6847,200.955 M,0,182707,182729,514.6847,200.955 M,0,182707,182795,514.6847,200.955,340,247 M,0,182795,182972,340,247,409,353 M,0,182972,182994,409,353,423.0184,353.2427 M,0,182994,183016,423.0184,353.2427,436.6137,349.8053 M,0,183016,183038,436.6137,349.8053,449.2522,344.1565 M,0,183038,183060,449.2522,344.1565,463.2061,345.9008 M,0,183060,183082,463.2061,345.9008 M,0,183060,183148,463.2061,345.9008,310,315 M,0,183148,183170,310,315,296.9845,320.3245 M,0,183170,183192,296.9845,320.3245,289.0254,319.7679 M,0,183192,183214,289.0254,319.7679,294.2436,306.7418 M,0,183214,183236,294.2436,306.7418,302.3106,295.2634 M,0,183236,183258,302.3106,295.2634,312.7933,285.9344 M,0,183258,183280,312.7933,285.9344,325.0156,279.0283 M,0,183280,183302,325.0156,279.0283,338.3152,274.5163 M,0,183302,183324,338.3152,274.5163,352.1782,272.241 M,0,183324,183346,352.1782,272.241,366.2271,271.9885 M,0,183346,183368,366.2271,271.9885,380.1906,273.5734 M,0,183368,183390,380.1906,273.5734,393.8626,276.829 M,0,183390,183412,393.8626,276.829,407.0812,281.6055 M,0,183412,183434,407.0812,281.6055 M,0,183412,183501,407.0812,281.6055,273,396 M,0,183501,183523,273,396,259.8395,391.0575 M,0,183523,183545,259.8395,391.0575,247.2818,384.7513 M,0,183545,183567,247.2818,384.7513,235.8944,376.5385 M,0,183567,183589,235.8944,376.5385,226.6451,365.9955 M,0,183589,183611,226.6451,365.9955,220.1327,353.5607 M,0,183611,183633,220.1327,353.5607,215.2858,340.3617 M,0,183633,183655,215.2858,340.3617,209.9276,327.3698 M,0,183655,183677,209.9276,327.3698,202.3821,315.5364 M,0,183677,183699,202.3821,315.5364,192.4534,305.6144 M,0,183699,183721,192.4534,305.6144,180.8985,297.6254 M,0,183721,183743,180.8985,297.6254,168.41,291.1766 M,0,183743,183765,168.41,291.1766,155.392,285.8681 M,0,183765,183787,155.392,285.8681 M,0,183765,183854,155.392,285.8681,143,381 M,0,183854,183876,143,381,143.2464,376.319 M,0,183876,183898,143.2464,376.319,143.4927,371.638 M,0,183898,183920,143.4927,371.638,143.7391,366.9569 M,0,183920,183942,143.7391,366.9569,143.9855,362.2759 M,0,183942,183964,143.9855,362.2759 M,0,183942,184031,143.9855,362.2759,155,286 M,0,184031,184207,155,286,100,440 M,0,184207,184384,100,440,64,227 M,0,184384,184406,64,227,66.02415,240.9161 M,0,184406,184428,66.02415,240.9161,68.04831,254.8321 M,0,184428,184450,68.04831,254.8321,70.07246,268.7482 M,0,184450,184472,70.07246,268.7482,72,282 M,0,184472,184494,72,282 M,0,184472,184560,72,282,274,303 M,0,184560,184582,274,303,260.0975,305.1156 M,0,184582,184604,260.0975,305.1156,246.1951,307.2312 M,0,184604,184626,246.1951,307.2312,232.2926,309.3468 M,0,184626,184648,232.2926,309.3468,223.247,318.4751 M,0,184648,184670,223.247,318.4751,215.0996,329.9266 M,0,184670,184692,215.0996,329.9266,213.6589,336.2394 M,0,184692,184714,213.6589,336.2394,227.5376,333.9734 M,0,184714,184736,227.5376,333.9734,241.4164,331.7076 M,0,184736,184758,241.4164,331.7076 M,0,184736,185266,241.4164,331.7076,241,331 M,0,185266,185288,241,331,238.8068,317.1096 M,0,185288,185310,238.8068,317.1096,236.6136,303.2192 M,0,185310,185332,236.6136,303.2192,234.4203,289.3287 M,0,185332,185354,234.4203,289.3287,232.2271,275.4383 M,0,185354,185376,232.2271,275.4383 M,0,185354,185443,232.2271,275.4383,325,163 M,0,185443,185465,325,163,314.019,171.7848 M,0,185465,185487,314.019,171.7848,303.0381,180.5695 M,0,185487,185509,303.0381,180.5695,292.0571,189.3543 M,0,185509,185531,292.0571,189.3543,281.0761,198.1391 M,0,185531,185553,281.0761,198.1391 M,0,185531,185619,281.0761,198.1391,162,314 M,0,185619,185795,162,314,138,170 M,0,185795,185817,138,170,151.1442,174.9985 M,0,185817,185839,151.1442,174.9985,164.2883,179.997 M,0,185839,185861,164.2883,179.997,177.4325,184.9955 M,0,185861,185883,177.4325,184.9955,190.5767,189.9939 M,0,185883,185905,190.5767,189.9939 M,0,185883,185972,190.5767,189.9939,206,179 M,0,185972,185994,206,179,192.7768,174.2145 M,0,185994,186016,192.7768,174.2145,179.5536,169.4289 M,0,186016,186038,179.5536,169.4289,166.3304,164.6434 M,0,186038,186060,166.3304,164.6434,153.1073,159.8579 M,0,186060,186082,153.1073,159.8579,139.8841,155.0723 M,0,186082,186104,139.8841,155.0723,126.6609,150.2868 M,0,186104,186126,126.6609,150.2868,113.4377,145.5013 M,0,186126,186148,113.4377,145.5013,101.6734,141.4943 M,0,186148,186170,101.6734,141.4943,112.9959,149.8323 M,0,186170,186192,112.9959,149.8323,123.1479,159.5241 M,0,186192,186214,123.1479,159.5241,130.4346,171.4937 M,0,186214,186236,130.4346,171.4937,134.3598,184.9652 M,0,186236,186258,134.3598,184.9652 M,0,186236,186325,134.3598,184.9652,111,256 M,0,186325,186347,111,256,102.0075,266.7819 M,0,186347,186369,102.0075,266.7819,94.00529,278.3072 M,0,186369,186391,94.00529,278.3072,87.28519,290.6447 M,0,186391,186413,87.28519,290.6447,82.34238,303.785 M,0,186413,186435,82.34238,303.785,78.60216,317.3065 M,0,186435,186457,78.60216,317.3065,76.34044,331.1693 M,0,186457,186479,76.34044,331.1693,75.9977,345.2037 M,0,186479,186501,75.9977,345.2037,76.93929,359.1998 M,0,186501,186523,76.93929,359.1998 M,0,186501,186590,76.93929,359.1998,255,413 M,0,186590,186612,255,413,263.9925,402.2181 M,0,186612,186634,263.9925,402.2181,271.9947,390.6928 M,0,186634,186656,271.9947,390.6928,278.7148,378.3553 M,0,186656,186678,278.7148,378.3553,283.6576,365.215 M,0,186678,186700,283.6576,365.215,287.3978,351.6935 M,0,186700,186722,287.3978,351.6935,289.6595,337.8307 M,0,186722,186744,289.6595,337.8307,290.0023,323.7963 M,0,186744,186766,290.0023,323.7963,289.0607,309.8002 M,0,186766,186788,289.0607,309.8002 M,0,186766,186854,289.0607,309.8002,206,264 M,0,186854,187031,206,264,305,173 M,0,187031,187207,305,173,185,279 M,0,187207,187229,185,279,171.944,273.9933 M,0,187229,187251,171.944,273.9933,177.4929,266.1856 M,0,187251,187273,177.4929,266.1856,191.3241,263.9352 M,0,187273,187295,191.3241,263.9352,205.3628,264.5164 M,0,187295,187317,205.3628,264.5164 M,0,187295,187384,205.3628,264.5164,322,178 M,0,187384,187406,322,178,334.733,183.9686 M,0,187406,187428,334.733,183.9686,347.466,189.9372 M,0,187428,187450,347.466,189.9372,348.5817,197.1761 M,0,187450,187472,348.5817,197.1761,335.9188,203.1765 M,0,187472,187494,335.9188,203.1765,322.0904,205.518 M,0,187494,187516,322.0904,205.518,308.0668,204.8035 M,0,187516,187538,308.0668,204.8035,294.3242,201.8717 M,0,187538,187560,294.3242,201.8717,281.0009,197.3901 M,0,187560,187582,281.0009,197.3901 M,0,187560,187913,281.0009,197.3901,280,197 M,0,187913,187935,280,197,289.7666,207.0974 M,0,187935,187957,289.7666,207.0974,300.2623,216.4224 M,0,187957,187979,300.2623,216.4224,311.5656,224.7611 M,0,187979,188001,311.5656,224.7611,323.6882,231.8562 M,0,188001,188023,323.6882,231.8562,336.3495,237.9157 M,0,188023,188045,336.3495,237.9157,349.5112,242.8034 M,0,188045,188067,349.5112,242.8034,363.0681,246.4792 M,0,188067,188089,363.0681,246.4792,376.9381,248.6976 M,0,188089,188111,376.9381,248.6976 M,0,188089,188266,376.9381,248.6976,546,214 M,0,188266,188288,546,214,556.0396,204.3479 M,0,188288,188310,556.0396,204.3479,563.6019,192.7373 M,0,188310,188332,563.6019,192.7373,567.7515,179.446 M,0,188332,188354,567.7515,179.446,568.0286,165.4475 M,0,188354,188376,568.0286,165.4475 M,0,188354,188442,568.0286,165.4475,526,104 M,0,188442,188619,526,104,481,275 M,0,188619,188641,481,275,480.0065,288.8776 M,0,188641,188663,480.0065,288.8776,482.3735,302.5032 M,0,188663,188685,482.3735,302.5032,488.5894,314.9263 M,0,188685,188707,488.5894,314.9263,498,325 M,0,188707,188729,498,325 M,0,188707,188795,498,325,468,280 M,0,188795,188817,468,280,467.716,294.0432 M,0,188817,188839,467.716,294.0432,470.1613,307.8613 M,0,188839,188861,470.1613,307.8613,475.9267,320.6408 M,0,188861,188883,475.9267,320.6408,484.9022,331.4127 M,0,188883,188905,484.9022,331.4127,495.6925,337.7701 M,0,188905,188927,495.6925,337.7701,503.1012,325.8227 M,0,188927,188949,503.1012,325.8227,511.8023,314.7906 M,0,188949,188971,511.8023,314.7906,522.2542,305.4175 M,0,188971,188993,522.2542,305.4175,534.427,298.4304 M,0,188993,189015,534.427,298.4304,547.7305,293.9274 M,0,189015,189037,547.7305,293.9274,561.554,291.3914 M,0,189037,189059,561.554,291.3914,575.5636,290.2155 M,0,189059,189081,575.5636,290.2155 M,0,189059,189148,575.5636,290.2155,567,401 M,0,189148,189170,567,401,560.443,388.7325 M,0,189170,189192,560.443,388.7325,561.0612,374.8661 M,0,189192,189214,561.0612,374.8661,569.8097,364.3798 M,0,189214,189236,569.8097,364.3798,581.442,369.3279 M,0,189236,189258,581.442,369.3279,583.5645,383.046 M,0,189258,189280,583.5645,383.046,580.384,396.6969 M,0,189280,189302,580.384,396.6969,574.1615,409.2823 M,0,189302,189324,574.1615,409.2823,565.8927,420.6378 M,0,189324,189346,565.8927,420.6378,565.8926,420.6378 M,0,189324,189413,565.8926,420.6378,443,410 M,0,189413,189435,443,410,431.3328,402.3962 M,0,189435,189457,431.3328,402.3962,424.9234,390.0763 M,0,189457,189479,424.9234,390.0763,427.1222,376.5957 M,0,189479,189501,427.1222,376.5957,439.6547,374.6975 M,0,189501,189523,439.6547,374.6975,448.5367,385.3495 M,0,189523,189545,448.5367,385.3495,452.6738,398.7392 M,0,189545,189567,452.6738,398.7392,453.6718,412.7428 M,0,189567,189589,453.6718,412.7428,452.279,426.7224 M,0,189589,189611,452.279,426.7224 M,0,189589,189678,452.279,426.7224,340,440 M,0,189678,189854,340,440,499,335 M,0,189854,190031,499,335,352,370 M,0,190031,190053,352,370,337.9941,368.8333 M,0,190053,190075,337.9941,368.8333,324.0774,366.8997 M,0,190075,190097,324.0774,366.8997,310.3153,364.0461 M,0,190097,190119,310.3153,364.0461,296.782,360.2378 M,0,190119,190141,296.782,360.2378 M,0,190119,190207,296.782,360.2378,479,245 M,0,190207,190229,479,245,488.21,234.3731 M,0,190229,190251,488.21,234.3731,484.9828,225.6192 M,0,190251,190273,484.9828,225.6192,472.13,219.9767 M,0,190273,190295,472.13,219.9767,458.3235,217.5517 M,0,190295,190317,458.3235,217.5517,444.4086,219.1721 M,0,190317,190339,444.4086,219.1721,431.4773,224.5966 M,0,190339,190361,431.4773,224.5966,420.0489,232.7537 M,0,190361,190383,420.0489,232.7537,410.0562,242.6329 M,0,190383,190405,410.0562,242.6329 M,0,190383,190737,410.0562,242.6329,411,242 M,0,190737,190759,411,242,397.3146,238.7653 M,0,190759,190781,397.3146,238.7653,383.6292,235.5305 M,0,190781,190803,383.6292,235.5305,369.9438,232.2958 M,0,190803,190825,369.9438,232.2958,356.2584,229.0611 M,0,190825,190847,356.2584,229.0611 M,0,190825,190913,356.2584,229.0611,226,295 M,0,190913,190935,226,295,213.2495,289.324 M,0,190935,190957,213.2495,289.324,201.8888,281.3012 M,0,190957,190979,201.8888,281.3012,192.6991,270.7741 M,0,190979,191001,192.6991,270.7741,186.4855,258.2121 M,0,191001,191023,186.4855,258.2121 M,0,191001,191090,186.4855,258.2121,215,126 M,0,191090,191112,215,126,226.419,117.97 M,0,191112,191134,226.419,117.97,239.155,112.3917 M,0,191134,191156,239.155,112.3917,252.8992,109.9992 M,0,191156,191178,252.8992,109.9992,266.8808,110.9831 M,0,191178,191200,266.8808,110.9831 M,0,191178,191266,266.8808,110.9831,171,185 M,0,191266,191442,171,185,343,225 M,0,191442,191464,343,225,329.3146,221.7653 M,0,191464,191486,329.3146,221.7653,315.6292,218.5305 M,0,191486,191508,315.6292,218.5305,301.9438,215.2958 M,0,191508,191530,301.9438,215.2958,288.2584,212.0611 M,0,191530,191552,288.2584,212.0611 M,0,191530,191619,288.2584,212.0611,171,185 M,0,191619,191641,171,185,184.6426,188.4107 M,0,191641,191663,184.6426,188.4107,198.2853,191.8213 M,0,191663,191685,198.2853,191.8213,211.9279,195.232 M,0,191685,191707,211.9279,195.232,225.5705,198.6426 M,0,191707,191729,225.5705,198.6426,239.2131,202.0533 M,0,191729,191751,239.2131,202.0533,252.8558,205.4639 M,0,191751,191773,252.8558,205.4639,244.0599,210.5427 M,0,191773,191795,244.0599,210.5427,231.9885,217.721 M,0,191795,191817,231.9885,217.721,221.5447,227.0969 M,0,191817,191839,221.5447,227.0969,213.5043,238.5936 M,0,191839,191861,213.5043,238.5936,208.332,251.6386 M,0,191861,191883,208.332,251.6386,205.9098,265.4705 M,0,191883,191905,205.9098,265.4705 M,0,191883,191972,205.9098,265.4705,254,334 M,0,191972,191994,254,334,261.3423,322.1841 M,0,191994,192016,261.3423,322.1841,273.6663,315.8234 M,0,192016,192038,273.6663,315.8234,286.9995,318.5466 M,0,192038,192060,286.9995,318.5466,287.9395,331.2415 M,0,192060,192082,287.9395,331.2415,277.0236,339.823 M,0,192082,192104,277.0236,339.823,263.5829,343.7981 M,0,192104,192126,263.5829,343.7981,249.5686,344.6434 M,0,192126,192148,249.5686,344.6434,235.6008,343.1488 M,0,192148,192170,235.6008,343.1488,235.6007,343.1488 M,0,192148,192237,235.6007,343.1488,151,348 M,0,192237,192259,151,348,140.745,338.6027 M,0,192259,192281,140.745,338.6027,136.6821,325.3268 M,0,192281,192303,136.6821,325.3268,141.3067,312.4608 M,0,192303,192325,141.3067,312.4608,153.9745,312.8071 M,0,192325,192347,153.9745,312.8071,160.8518,324.8602 M,0,192347,192369,160.8518,324.8602,162.6272,338.7609 M,0,192369,192391,162.6272,338.7609,161.1718,352.7231 M,0,192391,192413,161.1718,352.7231,157.3148,366.2308 M,0,192413,192435,157.3148,366.2308 M,0,192413,192501,157.3148,366.2308,115,428 M,0,192501,192678,115,428,331,394 M,0,192678,192854,331,394,165,223 M,0,192854,192876,165,223,165.6545,237.0358 M,0,192876,192898,165.6545,237.0358,167.0153,251.0256 M,0,192898,192920,167.0153,251.0256,169.7348,264.8107 M,0,192920,192942,169.7348,264.8107,173,278 M,0,192942,192964,173,278 M,0,192942,193031,173,278,346,385 M,0,193031,193053,346,385,355.1693,374.3651 M,0,193053,193075,355.1693,374.3651,361.8288,362.0219 M,0,193075,193097,361.8288,362.0219,364.9141,348.3531 M,0,193097,193119,364.9141,348.3531,364.0546,334.3592 M,0,193119,193141,364.0546,334.3592,359.9197,320.9448 M,0,193141,193163,359.9197,320.9448,353.502,308.447 M,0,193163,193185,353.502,308.447,344.6358,308.3641 M,0,193185,193207,344.6358,308.3641,335,318 M,0,193207,193229,335,318 M,0,193207,193737,335,318 M,0,193737,193759,335,318,348.9796,316.4749 M,0,193759,193781,348.9796,316.4749,362.9591,314.9499 M,0,193781,193803,362.9591,314.9499,376.9387,313.4249 M,0,193803,193825,376.9387,313.4249,390,312 M,0,193825,193847,390,312 M,0,193825,193913,390,312,309,241 M,0,193913,193935,309,241,322.9796,239.475 M,0,193935,193957,322.9796,239.475,336.9591,237.9499 M,0,193957,193979,336.9591,237.9499,350.9387,236.4249 M,0,193979,194001,350.9387,236.4249,364,235 M,0,194001,194023,364,235 M,0,194001,194090,364,235,546,212 M,0,194090,194266,546,212,408,119 M,0,194266,194442,408,119,422,109 M,0,194442,194464,422,109,436.028,109.3847 M,0,194464,194486,436.028,109.3847,449.5585,113.0757 M,0,194486,194508,449.5585,113.0757,461.6912,120.1037 M,0,194508,194530,461.6912,120.1037,471.5708,130.0544 M,0,194530,194552,471.5708,130.0544,478.5772,142.2027 M,0,194552,194574,478.5772,142.2027,482.3145,155.7201 M,0,194574,194596,482.3145,155.7201,482.5592,169.7424 M,0,194596,194618,482.5592,169.7424,479.2923,183.3814 M,0,194618,194640,479.2923,183.3814,472.0876,195.0406 M,0,194640,194662,472.0876,195.0406,460.743,203.2927 M,0,194662,194684,460.743,203.2927,451.9884,214.2354 M,0,194684,194706,451.9884,214.2354,447,226 M,0,194706,194728,447,226 M,0,194706,194795,447,226,495,282 M,0,194795,194817,495,282,493.9981,296.0268 M,0,194817,194839,493.9981,296.0268,492.9962,310.0535 M,0,194839,194861,492.9962,310.0535,491.9532,324.0655 M,0,194861,194883,491.9532,324.0655,483.7795,335.5086 M,0,194883,194905,483.7795,335.5086,475.6059,346.9518 M,0,194905,194927,475.6059,346.9518,473.431,359.7273 M,0,194927,194949,473.431,359.7273,475.9916,373.5547 M,0,194949,194971,475.9916,373.5547,478.5522,387.3821 M,0,194971,194993,478.5522,387.3821 M,0,194971,195060,478.5522,387.3821,562,429 M,0,195060,195148,562,429 M,0,195148,195170,562,429,559.2823,415.2026 M,0,195170,195192,559.2823,415.2026,556.5647,401.4052 M,0,195192,195214,556.5647,401.4052,553.847,387.6078 M,0,195214,195236,553.847,387.6078,551.1293,373.8104 M,0,195236,195258,551.1293,373.8104 M,0,195236,195325,551.1293,373.8104,419,297 M,0,195325,195501,419,297,388,408 M,0,195501,195678,388,408,337,223 M,0,195678,195700,337,223,345.0249,234.2832 M,0,195700,195722,345.0249,234.2832,349.418,247.2878 M,0,195722,195744,349.418,247.2878,349.0677,261.1022 M,0,195744,195766,349.0677,261.1022,344,274 M,0,195766,195788,344,274 M,0,195766,195854,344,274,254,381 M,0,195854,195876,254,381,251.4098,394.0291 M,0,195876,195898,251.4098,394.0291,243.5493,405.6788 M,0,195898,195920,243.5493,405.6788,248.4817,402.5585 M,0,195920,195942,248.4817,402.5585,260.0901,394.642 M,0,195942,195964,260.0901,394.642,272.737,388.5263 M,0,195964,195986,272.737,388.5263,286.1938,384.4978 M,0,195986,196008,286.1938,384.4978,300.1221,382.6675 M,0,196008,196030,300.1221,382.6675,314.1703,382.9267 M,0,196030,196052,314.1703,382.9267 M,0,196030,196560,314.1703,382.9267,313,383 M,0,196560,196582,313,383,310.5484,369.2199 M,0,196582,196604,310.5484,369.2199,310.3073,355.2599 M,0,196604,196626,310.3073,355.2599,312.7318,341.4766 M,0,196626,196648,312.7318,341.4766,317.8179,328.398 M,0,196648,196670,317.8179,328.398 M,0,196648,196737,317.8179,328.398,249,183 M,0,196737,196759,249,183,253.3839,196.2858 M,0,196759,196781,253.3839,196.2858,256.0281,210.0486 M,0,196781,196803,256.0281,210.0486,255.263,224.0151 M,0,196803,196825,255.263,224.0151,253,237 M,0,196825,196847,253,237 M,0,196825,196913,253,237,174,306 M,0,196913,197090,174,306,152,110 M,0,197090,197112,152,110,154.0242,123.9161 M,0,197112,197134,154.0242,123.9161,156.0483,137.8321 M,0,197134,197156,156.0483,137.8321,158.0725,151.7482 M,0,197156,197178,158.0725,151.7482,160,165 M,0,197178,197200,160,165 M,0,197178,197266,160,165,137,100 M,0,197266,197288,137,100,139.1545,113.8965 M,0,197288,197310,139.1545,113.8965,141.309,127.793 M,0,197310,197332,141.309,127.793,143.4635,141.6894 M,0,197332,197354,143.4635,141.6894,145.618,155.5859 M,0,197354,197376,145.618,155.5859,147.7725,169.4824 M,0,197376,197398,147.7725,169.4824,149.927,183.3789 M,0,197398,197420,149.927,183.3789,152.0815,197.2753 M,0,197420,197442,152.0815,197.2753,154.2359,211.1718 M,0,197442,197464,154.2359,211.1718,156.3904,225.0683 M,0,197464,197486,156.3904,225.0683,149.0265,222.827 M,0,197486,197508,149.0265,222.827,137.9069,214.2183 M,0,197508,197530,137.9069,214.2183,126.7874,205.6096 M,0,197530,197552,126.7874,205.6096 M,0,197530,197619,126.7874,205.6096,68,289 M,0,197619,197641,68,289,81.78941,286.2421 M,0,197641,197663,81.78941,286.2421,95.57883,283.4843 M,0,197663,197685,95.57883,283.4843,108.2847,285.7748 M,0,197685,197707,108.2847,285.7748,119.7278,293.9484 M,0,197707,197729,119.7278,293.9484,131.2095,302.015 M,0,197729,197751,131.2095,302.015,145.2363,303.0169 M,0,197751,197773,145.2363,303.0169,159.2631,304.0188 M,0,197773,197795,159.2631,304.0188,173,305 M,0,197795,197817,173,305 M,0,197795,197884,173,305,267,351 M,0,197884,197906,267,351,257.8483,340.323 M,0,197906,197928,257.8483,340.323,248.6965,329.6459 M,0,197928,197950,248.6965,329.6459,243.4667,317.7112 M,0,197950,197972,243.4667,317.7112,244.7027,303.7032 M,0,197972,197994,244.7027,303.7032,245.9387,289.6951 M,0,197994,198016,245.9387,289.6951,240.2787,276.9218 M,0,198016,198038,240.2787,276.9218,234.2588,264.213 M,0,198038,198060,234.2588,264.213,228.2388,251.5042 M,0,198060,198082,228.2388,251.5042 M,0,198060,198148,228.2388,251.5042,157,229 M,0,198148,198325,157,229,195,377 M,0,198325,198501,195,377,354,226 M,0,198501,198523,354,226,340.5756,222.433 M,0,198523,198545,340.5756,222.433,326.7764,222.4073 M,0,198545,198567,326.7764,222.4073,313.5514,226.625 M,0,198567,198589,313.5514,226.625,302.2141,234.8128 M,0,198589,198611,302.2141,234.8128 M,0,198589,198678,302.2141,234.8128,278,427 M,0,198678,198700,278,427,291.7262,424.0309 M,0,198700,198722,291.7262,424.0309,304.6078,418.457 M,0,198722,198744,304.6078,418.457,315.9643,410.2131 M,0,198744,198766,315.9643,410.2131,325.2981,399.7279 M,0,198766,198788,325.2981,399.7279,332.5337,387.6895 M,0,198788,198810,332.5337,387.6895,337.907,374.7054 M,0,198810,198832,337.907,374.7054,341.5266,374.8696 M,0,198832,198854,341.5266,374.8696,344.5771,388.5972 M,0,198854,198876,344.5771,388.5972 M,0,198854,199207,344.5771,388.5972,344,388 M,0,199207,199229,344,388,357.8573,390.3935 M,0,199229,199251,357.8573,390.3935,371.7146,392.7871 M,0,199251,199273,371.7146,392.7871,385.5719,395.1806 M,0,199273,199295,385.5719,395.1806,399.4292,397.5741 M,0,199295,199317,399.4292,397.5741,413.2865,399.9677 M,0,199317,199339,413.2865,399.9677,427.1438,402.3612 M,0,199339,199361,427.1438,402.3612,441.0011,404.7547 M,0,199361,199383,441.0011,404.7547,454,407 M,0,199383,199405,454,407 M,0,199383,199560,454,407,280,158 M,0,199560,199582,280,158,293.7276,154.9494 M,0,199582,199604,293.7276,154.9494,307.4553,151.8988 M,0,199604,199626,307.4553,151.8988,321.1829,148.8482 M,0,199626,199648,321.1829,148.8482,334,146 M,0,199648,199670,334,146 M,0,199648,199737,334,146,419,168 M,0,199737,199913,419,168,296,327 M,0,199913,199935,296,327,288.3611,315.3693 M,0,199935,199957,288.3611,315.3693,282.9076,302.4965 M,0,199957,199979,282.9076,302.4965,282.2504,288.5992 M,0,199979,200001,282.2504,288.5992,284,275 M,0,200001,200023,284,275 M,0,200001,200090,284,275,403,161 M,0,200090,200112,403,161,410.4223,172.9378 M,0,200112,200134,410.4223,172.9378,416.5301,185.5951 M,0,200134,200156,416.5301,185.5951,420.8905,198.9506 M,0,200156,200178,420.8905,198.9506,423.0241,212.8313 M,0,200178,200200,423.0241,212.8313,422.5301,226.8622 M,0,200200,200222,422.5301,226.8622,419.3132,240.5287 M,0,200222,200244,419.3132,240.5287,413.6528,253.3823 M,0,200244,200266,413.6528,253.3823,406.0415,265.1924 M,0,200266,200288,406.0415,265.1924,396.9809,275.9365 M,0,200288,200310,396.9809,275.9365,384.2186,281.0409 M,0,200310,200332,384.2186,281.0409,370.6842,284.8583 M,0,200332,200354,370.6842,284.8583,357.1497,288.6757 M,0,200354,200376,357.1497,288.6757 M,0,200354,200443,357.1497,288.6757,284,274 M,0,200443,200465,284,274,271.6707,280.6457 M,0,200465,200487,271.6707,280.6457,261.3503,290.1518 M,0,200487,200509,261.3503,290.1518,253.0629,301.485 M,0,200509,200531,253.0629,301.485,247.1019,314.1903 M,0,200531,200553,247.1019,314.1903,244.8922,327.9805 M,0,200553,200575,244.8922,327.9805,248.7598,329.6565 M,0,200575,200597,248.7598,329.6565,237.2731,321.8915 M,0,200597,200619,237.2731,321.8915,223.7079,318.2804 M,0,200619,200641,223.7079,318.2804 M,0,200619,200708,223.7079,318.2804,152,304 M,0,200708,200730,152,304,149.2433,317.7334 M,0,200730,200752,149.2433,317.7334,149.9774,331.7449 M,0,200752,200774,149.9774,331.7449,153.4445,345.3496 M,0,200774,200796,153.4445,345.3496,159.455,358.032 M,0,200796,200818,159.455,358.032,168.6519,368.5468 M,0,200818,200840,168.6519,368.5468,172.308,366.5787 M,0,200840,200862,172.308,366.5787,158.9974,370.4252 M,0,200862,200884,158.9974,370.4252,147.6002,378.6172 M,0,200884,200906,147.6002,378.6172 M,0,200884,200972,147.6002,378.6172,105,436 M,0,200972,201148,105,436,173,237 M,0,201148,201325,173,237,377,379 M,0,201325,201347,377,379,390.3729,374.7749 M,0,201347,201369,390.3729,374.7749,404.3787,373.9635 M,0,201369,201391,404.3787,373.9635,393.1587,367.7471 M,0,201391,201413,393.1587,367.7471,383.451,357.6612 M,0,201413,201435,383.451,357.6612 M,0,201413,201501,383.451,357.6612,223,318 M,0,201501,201523,223,318,213.0426,327.9102 M,0,201523,201545,213.0426,327.9102,201.6164,336.0785 M,0,201545,201567,201.6164,336.0785,188.9659,342.1803 M,0,201567,201589,188.9659,342.1803,176.5311,346.0366 M,0,201589,201611,176.5311,346.0366,190.4667,347.857 M,0,201611,201633,190.4667,347.857,204.0553,351.4352 M,0,201633,201655,204.0553,351.4352,217.019,356.8539 M,0,201655,201677,217.019,356.8539,229,364 M,0,201677,201699,229,364 M,0,201677,202031,229,364 M,0,202031,202053,229,364,242.143,359.3032 M,0,202053,202075,242.143,359.3032,254.4289,352.6057 M,0,202075,202097,254.4289,352.6057,264.1976,342.6432 M,0,202097,202119,264.1976,342.6432,272,332 M,0,202119,202141,272,332 M,0,202119,202207,272,332,353,239 M,0,202207,202229,353,239,355.1541,252.7631 M,0,202229,202251,355.1541,252.7631,360.3315,265.6179 M,0,202251,202273,360.3315,265.6179,368.8211,276.6436 M,0,202273,202295,368.8211,276.6436,380,285 M,0,202295,202317,380,285 M,0,202295,202384,380,285,284,214 M,0,202384,202406,284,214,273.3499,223.0879 M,0,202406,202428,273.3499,223.0879,261.4645,230.4271 M,0,202428,202450,261.4645,230.4271,248.4023,235.4674 M,0,202450,202472,248.4023,235.4674,234.5855,237.9298 M,0,202472,202494,234.5855,237.9298 M,0,202472,202560,234.5855,237.9298,337,167 M,0,202560,202737,337,167,439,388 M,0,202737,202759,439,388,442.5448,374.841 M,0,202759,202781,442.5448,374.841,441.147,361.3791 M,0,202781,202803,441.147,361.3791,432.6927,350.7762 M,0,202803,202825,432.6927,350.7762,420.9406,343.9154 M,0,202825,202847,420.9406,343.9154 M,0,202825,202913,420.9406,343.9154,345,345 M,0,202913,202935,345,345,342.0755,358.6544 M,0,202935,202957,342.0755,358.6544,341.8729,372.5631 M,0,202957,202979,341.8729,372.5631,344.9357,386.1761 M,0,202979,203001,344.9357,386.1761,351.127,398.7525 M,0,203001,203023,351.127,398.7525,360.6657,408.951 M,0,203023,203045,360.6657,408.951,371.9682,417.059 M,0,203045,203067,371.9682,417.059,384.8924,422.3176 M,0,203067,203089,384.8924,422.3176,398.7519,424.4159 M,0,203089,203111,398.7519,424.4159,412.571,422.4099 M,0,203111,203133,412.571,422.4099,425.6809,417.7608 M,0,203133,203155,425.6809,417.7608,437.3774,410.1535 M,0,203155,203177,437.3774,410.1535,447,400 M,0,203177,203199,447,400 M,0,203177,203266,447,400,418,326 M,0,203266,203288,418,326,415.2012,312.2767 M,0,203288,203310,415.2012,312.2767,416.0362,298.2674 M,0,203310,203332,416.0362,298.2674,419.6328,284.6956 M,0,203332,203354,419.6328,284.6956,425.7875,272.084 M,0,203354,203376,425.7875,272.084,435.233,261.8047 M,0,203376,203398,435.233,261.8047,438.2122,264.0383 M,0,203398,203420,438.2122,264.0383,424.8839,260.1502 M,0,203420,203442,424.8839,260.1502,413.3508,252.1469 M,0,203442,203464,413.3508,252.1469 M,0,203442,203531,413.3508,252.1469,341,236 M,0,203531,203553,341,236,328.6707,229.3543 M,0,203553,203575,328.6707,229.3543,318.3503,219.8482 M,0,203575,203597,318.3503,219.8482,310.0629,208.515 M,0,203597,203619,310.0629,208.515,304.1019,195.8097 M,0,203619,203641,304.1019,195.8097,301.8922,182.0195 M,0,203641,203663,301.8922,182.0195,305.7598,180.3436 M,0,203663,203685,305.7598,180.3436,294.2731,188.1085 M,0,203685,203707,294.2731,188.1085,280.7079,191.7196 M,0,203707,203729,280.7079,191.7196 M,0,203707,203795,280.7079,191.7196,217,226 M,0,203795,203972,217,226,354,117 M,0,203972,204148,354,117,257,330 M,0,204148,204170,257,330,264.2085,318.0614 M,0,204170,204192,264.2085,318.0614,268.9781,304.992 M,0,204192,204214,268.9781,304.992,269.8053,291.0894 M,0,204214,204236,269.8053,291.0894,267.9397,277.2759 M,0,204236,204258,267.9397,277.2759 M,0,204236,204325,267.9397,277.2759,169,175 M,0,204325,204347,169,175,182.9101,177.0648 M,0,204347,204369,182.9101,177.0648,196.8202,179.1295 M,0,204369,204391,196.8202,179.1295,210.7303,181.1943 M,0,204391,204413,210.7303,181.1943,224.6404,183.2591 M,0,204413,204435,224.6404,183.2591,238.5504,185.3239 M,0,204435,204457,238.5504,185.3239,252.4605,187.3887 M,0,204457,204479,252.4605,187.3887,266.3706,189.4535 M,0,204479,204501,266.3706,189.4535,280.2807,191.5182 M,0,204501,204523,280.2807,191.5182 M,0,204501,204678,280.2807,191.5182,449,222 M,0,204678,204700,449,222,439.7094,223.2555 M,0,204700,204722,439.7094,223.2555,430.4189,224.511 M,0,204722,204744,430.4189,224.511,421.1283,225.7664 M,0,204744,204766,421.1283,225.7664,412,227 M,0,204766,204788,412,227 M,0,204766,204854,412,227,451,293 M,0,204854,204876,451,293,460.2949,291.777 M,0,204876,204898,460.2949,291.777,469.5898,290.554 M,0,204898,204920,469.5898,290.554,478.8846,289.331 M,0,204920,204942,478.8846,289.331,488.1795,288.108 M,0,204942,204964,488.1795,288.108 M,0,204942,205031,488.1795,288.108,419,404 M,0,205031,205119,419,404,410,406 M,0,205119,205207,410,406,402,410 M,0,205207,205229,402,410,389.1592,404.4396 M,0,205229,205251,389.1592,404.4396,377.409,396.9055 M,0,205251,205273,377.409,396.9055,367.3159,387.2096 M,0,205273,205295,367.3159,387.2096,359.3819,375.6371 M,0,205295,205317,359.3819,375.6371 M,0,205295,205384,359.3819,375.6371,305,312 M,0,205384,205406,305,312,306.3655,298.004 F,0,205384,206090,1,0 M,0,205406,205428,306.3655,298.004,307.731,284.0079 M,0,205428,205450,307.731,284.0079,308.7159,270.0487 M,0,205450,205472,308.7159,270.0487,303.3622,257.0706 M,0,205472,205494,303.3622,257.0706,295.4131,245.505 M,0,205494,205516,295.4131,245.505,285.1499,235.9302 M,0,205516,205538,285.1499,235.9302,273.2068,228.5431 M,0,205538,205560,273.2068,228.5431,260.2247,223.1697 M,0,205560,205582,260.2247,223.1697 M,0,205560,205648,260.2247,223.1697,166,351 M,0,205648,205737,166,351,174,356 M,0,205737,205759,174,356,187.9672,355.9788 M,0,205759,205781,187.9672,355.9788,201.6583,353.4245 M,0,205781,205803,201.6583,353.4245,214.5055,347.8709 M,0,205803,205825,214.5055,347.8709,225.5864,339.2827 M,0,205825,205847,225.5864,339.2827 M,0,205825,205913,225.5864,339.2827,195,265 M,0,205913,205935,195,265,181.0645,264.3116 M,0,205935,205957,181.0645,264.3116,167.2868,266.2693 M,0,205957,205979,167.2868,266.2693,154.5739,271.9743 M,0,205979,206001,154.5739,271.9743,143.1656,279.9937 M,0,206001,206023,143.1656,279.9937 M,0,206001,206090,143.1656,279.9937,80,401
Sprite,Background,Centre,"sb\pixel.png",0,0 S,0,161972,,16 R,0,161972,,6.031493 C,0,161972,,86,191,237 M,19,161972,162572,538,344,511.3524,240.3713 F,19,161972,164795,1,0
Sprite,Background,Centre,"sb\pixel.png",0,0 S,0,161972,,16 R,0,161972,,9.173086 C,0,161972,,86,191,237 M,19,161972,162572,538,344,564.6476,447.6287 F,19,161972,164795,1,0
Sprite,Background,Centre,"sb\pixel.png",0,0 S,0,161972,,18 R,0,161972,,3.490331 C,0,161972,,119,214,244 M,19,161972,162572,538,344,494.2608,464.295 F,19,161972,164795,1,0
Sprite,Background,Centre,"sb\pixel.png",0,0 S,0,161972,,15 R,0,161972,,6.631924 C,0,161972,,119,214,244 M,19,161972,162572,538,344,581.7393,223.705 F,19,161972,164795,1,0
Sprite,Background,Centre,"sb\pixel.png",0,0 S,0,161972,,15 R,0,161972,,5.829521 C,0,161972,,86,191,237 M,19,161972,162572,538,344,488.9147,243.3291 F,19,161972,164795,1,0
Sprite,Background,Centre,"sb\pixel.png",0,0 S,0,161972,,18 R,0,161972,,8.971114 C,0,161972,,86,191,237 M,19,161972,162572,538,344,587.0853,444.6709 F,19,161972,164795,1,0
Sprite,Background,Centre,"sb\pixel.png",0,0 S,0,161972,,18 R,0,161972,,5.727766 C,0,161972,,119,214,244 M,19,161972,162572,538,344,484.7427,258.1824 F,19,161972,164795,1,0
Sprite,Background,Centre,"sb\pixel.png",0,0 S,0,161972,,19 R,0,161972,,8.869359 C,0,161972,,119,214,244 M,19,161972,162572,538,344,591.2573,429.8176 F,19,161972,164795,1,0
Sprite,Background,Centre,"sb\pixel.png",0,0 S,0,161972,,19 R,0,161972,,3.341813 C,0,161972,,86,191,237 M,19,161972,162572,538,344,509.5594,484.1432 F,19,161972,164795,1,0
Sprite,Background,Centre,"sb\pixel.png",0,0 S,0,161972,,17 R,0,161972,,6.483406 C,0,161972,,119,214,244 M,19,161972,162572,538,344,566.4406,203.8568 F,19,161972,164795,1,0
Sprite,Background,Centre,"sb\pixel.png",0,0 S,0,161972,,16 R,0,161972,,5.840604 C,0,161972,,86,191,237 M,19,161972,162572,538,344,487.0355,236.4657 F,19,161972,164795,1,0
Sprite,Background,Centre,"sb\pixel.png",0,0 S,0,161972,,18 R,0,161972,,8.982197 C,0,161972,,119,214,244 M,19,161972,162572,538,344,588.9645,451.5342 F,19,161972,164795,1,0
Sprite,Background,Centre,"sb\pixel.png",0,0 S,0,164795,,17 R,0,164795,,3.156472 C,0,164795,,119,214,244 M,19,164795,165395,132,146,130.0657,275.9856 F,19,164795,167618,1,0
Sprite,Background,Centre,"sb\pixel.png",0,0 S,0,164795,,15 R,0,164795,,6.298065 C,0,164795,,86,191,237 M,19,164795,165395,132,146,133.9343,16.01439 F,19,164795,167618,1,0
Sprite,Background,Centre,"sb\pixel.png",0,0 S,0,164795,,18 R,0,164795,,3.858352 C,0,164795,,119,214,244 M,19,164795,165395,132,146,47.91103,242.5041 F,19,164795,167618,1,0
Sprite,Background,Centre,"sb\pixel.png",0,0 S,0,164795,,17 R,0,164795,,6.999945 C,0,164795,,86,191,237 M,19,164795,165395,132,146,216.089,49.49588 F,19,164795,167618,1,0
Sprite,Background,Centre,"sb\pixel.png",0,0 S,0,164795,,19 R,0,164795,,4.543549 C,0,164795,,86,191,237 M,19,164795,165395,132,146,-12.90971,170.7017 F,19,164795,167618,1,0
Sprite,Background,Centre,"sb\pixel.png",0,0 S,0,164795,,18 R,0,164795,,7.685142 C,0,164795,,86,191,237 M,19,164795,165395,132,146,276.9097,121.2983 F,19,164795,167618,1,0
Sprite,Background,Centre,"sb\pixel.png",0,0 S,0,164795,,19 R,0,164795,,4.908036 C,0,164795,,86,191,237 M,19,164795,165395,132,146,22.13673,124.227 F,19,164795,167618,1,0
Sprite,Background,Centre,"sb\pixel.png",0,0 S,0,164795,,18 R,0,164795,,8.049629 C,0,164795,,119,214,244 M,19,164795,165395,132,146,241.8633,167.773 F,19,164795,167618,1,0
Sprite,Background,Centre,"sb\pixel.png",0,0 S,0,164795,,19 R,0,164795,,4.769594 C,0,164795,,119,214,244 M,19,164795,165395,132,146,26.17339,139.9396 F,19,164795,167618,1,0
Sprite,Background,Centre,"sb\pixel.png",0,0 S,0,164795,,19 R,0,164795,,7.911186 C,0,164795,,86,191,237 M,19,164795,165395,132,146,237.8266,152.0604 F,19,164795,167618,1,0
Sprite,Background,Centre,"sb\pixel.png",0,0 S,0,164795,,16 R,0,164795,,4.570094 C,0,164795,,86,191,237 M,19,164795,165395,132,146,3.313901,164.4361 F,19,164795,167618,1,0
Sprite,Background,Centre,"sb\pixel.png",0,0 S,0,164795,,16 R,0,164795,,7.711686 C,0,164795,,119,214,244 M,19,164795,165395,132,146,260.6861,127.5639 F,19,164795,167618,1,0
Sprite,Background,Centre,"sb\pixel.png",0,0 C,0,167618,,119,214,244 S,0,167619,,16 R,0,167619,,5.309979 M,19,167619,168219,270,56,174.1035,-9.267628 F,19,167619,170442,1,0
Sprite,Background,Centre,"sb\pixel.png",0,0 C,0,167618,,119,214,244 S,0,167619,,18 R,0,167619,,8.451571 M,19,167619,168219,270,56,365.8965,121.2676 F,19,167619,170442,1,0
Sprite,Background,Centre,"sb\pixel.png",0,0 C,0,167618,,119,214,244 S,0,167619,,16 R,0,167619,,4.669948 M,19,167619,168219,270,56,154.1045,60.92165 F,19,167619,170442,1,0
Sprite,Background,Centre,"sb\pixel.png",0,0 C,0,167618,,86,191,237 S,0,167619,,17 R,0,167619,,7.811541 M,19,167619,168219,270,56,385.8955,51.07835 F,19,167619,170442,1,0
Sprite,Background,Centre,"sb\pixel.png",0,0 C,0,167618,,86,191,237 S,0,167619,,15 R,0,167619,,5.750147 M,19,167619,168219,270,56,196.826,-68.02245 F,19,167619,170442,1,0
Sprite,Background,Centre,"sb\pixel.png",0,0 C,0,167618,,86,191,237 S,0,167619,,15 R,0,167619,,8.891739 M,19,167619,168219,270,56,343.174,180.0224 F,19,167619,170442,1,0
Sprite,Background,Centre,"sb\pixel.png",0,0 C,0,167618,,119,214,244 S,0,167619,,16 R,0,167619,,5.721422 M,19,167619,168219,270,56,211.938,-36.24859 F,19,167619,170442,1,0
Sprite,Background,Centre,"sb\pixel.png",0,0 C,0,167618,,86,191,237 S,0,167619,,18 R,0,167619,,8.863015 M,19,167619,168219,270,56,328.062,148.2486 F,19,167619,170442,1,0
Sprite,Background,Centre,"sb\pixel.png",0,0 C,0,167618,,86,191,237 S,0,167619,,17 R,0,167619,,3.471648 M,19,167619,168219,270,56,231.7567,167.6309 F,19,167619,170442,1,0
Sprite,Background,Centre,"sb\pixel.png",0,0 C,0,167618,,119,214,244 S,0,167619,,16 R,0,167619,,6.613241 M,19,167619,168219,270,56,308.2433,-55.63087 F,19,167619,170442,1,0
Sprite,Background,Centre,"sb\pixel.png",0,0 C,0,167618,,86,191,237 S,0,167619,,17 R,0,167619,,5.568213 M,19,167619,168219,270,56,199.8512,-24.79693 F,19,167619,170442,1,0
Sprite,Background,Centre,"sb\pixel.png",0,0 C,0,167618,,119,214,244 S,0,167619,,16 R,0,167619,,8.709805 M,19,167619,168219,270,56,340.1488,136.7969 F,19,167619,170442,1,0
Sprite,Background,Centre,"sb\pixel.png",0,0 C,0,170441,,86,191,237 S,0,170442,,15 R,0,170442,,4.622468 M,19,170442,171042,347,312,231.4687,322.4168 F,19,170442,173265,1,0
Sprite,Background,Centre,"sb\pixel.png",0,0 C,0,170441,,119,214,244 S,0,170442,,19 R,0,170442,,7.76406 M,19,170442,171042,347,312,462.5313,301.5832 F,19,170442,173265,1,0
Sprite,Background,Centre,"sb\pixel.png",0,0 C,0,170441,,86,191,237 S,0,170442,,17 R,0,170442,,5.536976 M,19,170442,171042,347,312,271.6465,230.4963 F,19,170442,173265,1,0
Sprite,Background,Centre,"sb\pixel.png",0,0 C,0,170441,,119,214,244 S,0,170442,,15 R,0,170442,,8.678569 M,19,170442,171042,347,312,422.3535,393.5037 F,19,170442,173265,1,0
Sprite,Background,Centre,"sb\pixel.png",0,0 C,0,170441,,86,191,237 S,0,170442,,18 R,0,170442,,3.370837 M,19,170442,171042,347,312,319.5038,429.8344 F,19,170442,173265,1,0
Sprite,Background,Centre,"sb\pixel.png",0,0 C,0,170441,,119,214,244 S,0,170442,,19 R,0,170442,,6.51243 M,19,170442,171042,347,312,374.4962,194.1656 F,19,170442,173265,1,0
Sprite,Background,Centre,"sb\pixel.png",0,0 C,0,170441,,119,214,244 S,0,170442,,17 R,0,170442,,6.155348 M,19,170442,171042,347,312,331.3188,190.0037 F,19,170442,173265,1,0
Sprite,Background,Centre,"sb\pixel.png",0,0 C,0,170441,,119,214,244 S,0,170442,,15 R,0,170442,,9.296941 M,19,170442,171042,347,312,362.6812,433.9963 F,19,170442,173265,1,0
Sprite,Background,Centre,"sb\pixel.png",0,0 C,0,170441,,119,214,244 S,0,170442,,18 R,0,170442,,3.528773 M,19,170442,171042,347,312,291.4958,448.1187 F,19,170442,173265,1,0
Sprite,Background,Centre,"sb\pixel.png",0,0 C,0,170441,,86,191,237 S,0,170442,,16 R,0,170442,,6.670366 M,19,170442,171042,347,312,402.5042,175.8813 F,19,170442,173265,1,0
Sprite,Background,Centre,"sb\pixel.png",0,0 C,0,170441,,86,191,237 S,0,170442,,18 R,0,170442,,5.354685 M,19,170442,171042,347,312,250.1126,239.5167 F,19,170442,173265,1,0
Sprite,Background,Centre,"sb\pixel.png",0,0 C,0,170441,,86,191,237 S,0,170442,,16 R,0,170442,,8.496278 M,19,170442,171042,347,312,443.8875,384.4833 F,19,170442,173265,1,0
Sprite,Background,Centre,"sb\pixel.png",0,0 C,0,173264,,86,191,237 S,0,173266,,16 R,0,173266,,4.382917 M,19,173266,173866,105,369,-25.57743,413.649 F,19,173266,176089,1,0
Sprite,Background,Centre,"sb\pixel.png",0,0 C,0,173264,,119,214,244 S,0,173266,,18 R,0,173266,,7.524509 M,19,173266,173866,105,369,235.5774,324.351 F,19,173266,176089,1,0
Sprite,Background,Centre,"sb\pixel.png",0,0 C,0,173264,,119,214,244 S,0,173266,,17 R,0,173266,,3.546191 M,19,173266,173866,105,369,54.61288,486.6654 F,19,173266,176089,1,0
Sprite,Background,Centre,"sb\pixel.png",0,0 C,0,173264,,119,214,244 S,0,173266,,19 R,0,173266,,6.687783 M,19,173266,173866,105,369,155.3871,251.3346 F,19,173266,176089,1,0
Sprite,Background,Centre,"sb\pixel.png",0,0 C,0,173264,,86,191,237 S,0,173266,,19 R,0,173266,,4.160719 M,19,173266,173866,105,369,13.87338,425.0797 F,19,173266,176089,1,0
Sprite,Background,Centre,"sb\pixel.png",0,0 C,0,173264,,119,214,244 S,0,173266,,19 R,0,173266,,7.302312 M,19,173266,173866,105,369,196.1266,312.9203 F,19,173266,176089,1,0
Sprite,Background,Centre,"sb\pixel.png",0,0 C,0,173264,,119,214,244 S,0,173266,,18 R,0,173266,,5.808218 M,19,173266,173866,105,369,58.81176,279.1799 F,19,173266,176089,1,0
Sprite,Background,Centre,"sb\pixel.png",0,0 C,0,173264,,86,191,237 S,0,173266,,16 R,0,173266,,8.949811 M,19,173266,173866,105,369,151.1882,458.8201 F,19,173266,176089,1,0
Sprite,Background,Centre,"sb\pixel.png",0,0 C,0,173264,,86,191,237 S,0,173266,,16 R,0,173266,,6.101523 M,19,173266,173866,105,369,78.2616,223.4354 F,19,173266,176089,1,0
Sprite,Background,Centre,"sb\pixel.png",0,0 C,0,173264,,86,191,237 S,0,173266,,17 R,0,173266,,9.243115 M,19,173266,173866,105,369,131.7384,514.5646 F,19,173266,176089,1,0
Sprite,Background,Centre,"sb\pixel.png",0,0 C,0,173264,,86,191,237 S,0,173266,,17 R,0,173266,,4.57097 M,19,173266,173866,105,369,-14.79205,386.0548 F,19,173266,176089,1,0
Sprite,Background,Centre,"sb\pixel.png",0,0 C,0,173264,,119,214,244 S,0,173266,,18 R,0,173266,,7.712562 M,19,173266,173866,105,369,224.7921,351.9452 F,19,173266,176089,1,0
Sprite,Background,Centre,"sb\pixel.png",0,0 C,0,176087,,86,191,237 S,0,176090,,18 R,0,176090,,3.384054 M,19,176090,176690,223,144,191.5478,271.1682 F,19,176090,178913,1,0
Sprite,Background,Centre,"sb\pixel.png",0,0 C,0,176087,,119,214,244 S,0,176090,,17 R,0,176090,,6.525647 M,19,176090,176690,223,144,254.4522,16.83177 F,19,176090,178913,1,0
Sprite,Background,Centre,"sb\pixel.png",0,0 C,0,176087,,119,214,244 S,0,176090,,15 R,0,176090,,5.36767 M,19,176090,176690,223,144,123.0975,67.21787 F,19,176090,178913,1,0
Sprite,Background,Centre,"sb\pixel.png",0,0 C,0,176087,,119,214,244 S,0,176090,,16 R,0,176090,,8.509262 M,19,176090,176690,223,144,322.9025,220.7821 F,19,176090,178913,1,0
Sprite,Background,Centre,"sb\pixel.png",0,0 C,0,176087,,86,191,237 S,0,176090,,18 R,0,176090,,5.339377 M,19,176090,176690,223,144,110.438,62.44757 F,19,176090,178913,1,0
Sprite,Background,Centre,"sb\pixel.png",0,0 C,0,176087,,86,191,237 S,0,176090,,17 R,0,176090,,8.480969 M,19,176090,176690,223,144,335.562,225.5524 F,19,176090,178913,1,0
Sprite,Background,Centre,"sb\pixel.png",0,0 C,0,176087,,86,191,237 S,0,176090,,17 R,0,176090,,3.707841 M,19,176090,176690,223,144,151.6496,256.2413 F,19,176090,178913,1,0
Sprite,Background,Centre,"sb\pixel.png",0,0 C,0,176087,,119,214,244 S,0,176090,,17 R,0,176090,,6.849433 M,19,176090,176690,223,144,294.3505,31.75869 F,19,176090,178913,1,0
Sprite,Background,Centre,"sb\pixel.png",0,0 C,0,176087,,86,191,237 S,0,176090,,18 R,0,176090,,3.299456 M,19,176090,176690,223,144,200.2048,287.197 F,19,176090,178913,1,0
Sprite,Background,Centre,"sb\pixel.png",0,0 C,0,176087,,119,214,244 S,0,176090,,15 R,0,176090,,6.441049 M,19,176090,176690,223,144,245.7952,0.8030055 F,19,176090,178913,1,0
Sprite,Background,Centre,"sb\pixel.png",0,0 C,0,176087,,86,191,237 S,0,176090,,19 R,0,176090,,6.142984 M,19,176090,176690,223,144,203.7155,7.354071 F,19,176090,178913,1,0
Sprite,Background,Centre,"sb\pixel.png",0,0 C,0,176087,,86,191,237 S,0,176090,,19 R,0,176090,,9.284576 M,19,176090,176690,223,144,242.2845,280.6459 F,19,176090,178913,1,0
Sprite,Background,Centre,"sb\pixel.png",0,0 C,0,178910,,86,191,237 S,0,178913,,18 R,0,178913,,5.764911 M,19,178913,179513,102,394,47.01258,297.5771 F,19,178913,181736,1,0
Sprite,Background,Centre,"sb\pixel.png",0,0 C,0,178910,,119,214,244 S,0,178913,,16 R,0,178913,,8.906504 M,19,178913,179513,102,394,156.9874,490.4229 F,19,178913,181736,1,0
Sprite,Background,Centre,"sb\pixel.png",0,0 C,0,178910,,119,214,244 S,0,178913,,16 R,0,178913,,5.922109 M,19,178913,179513,102,394,53.60049,265.8341 F,19,178913,181736,1,0
Sprite,Background,Centre,"sb\pixel.png",0,0 C,0,178910,,86,191,237 S,0,178913,,15 R,0,178913,,9.063702 M,19,178913,179513,102,394,150.3995,522.1658 F,19,178913,181736,1,0
Sprite,Background,Centre,"sb\pixel.png",0,0 C,0,178910,,86,191,237 S,0,178913,,16 R,0,178913,,5.117758 M,19,178913,179513,102,394,-21.14022,341.156 F,19,178913,181736,1,0
Sprite,Background,Centre,"sb\pixel.png",0,0 C,0,178910,,119,214,244 S,0,178913,,17 R,0,178913,,8.259351 M,19,178913,179513,102,394,225.1402,446.844 F,19,178913,181736,1,0
Sprite,Background,Centre,"sb\pixel.png",0,0 C,0,178910,,119,214,244 S,0,178913,,17 R,0,178913,,5.823793 M,19,178913,179513,102,394,44.35752,277.4781 F,19,178913,181736,1,0
Sprite,Background,Centre,"sb\pixel.png",0,0 C,0,178910,,86,191,237 S,0,178913,,17 R,0,178913,,8.965385 M,19,178913,179513,102,394,159.6425,510.5219 F,19,178913,181736,1,0
Sprite,Background,Centre,"sb\pixel.png",0,0 C,0,178910,,119,214,244 S,0,178913,,17 R,0,178913,,5.713826 M,19,178913,179513,102,394,22.75345,270.1897 F,19,178913,181736,1,0
Sprite,Background,Centre,"sb\pixel.png",0,0 C,0,178910,,119,214,244 S,0,178913,,18 R,0,178913,,8.855419 M,19,178913,179513,102,394,181.2466,517.8103 F,19,178913,181736,1,0
Sprite,Background,Centre,"sb\pixel.png",0,0 C,0,178910,,86,191,237 S,0,178913,,15 R,0,178913,,4.525159 M,19,178913,179513,102,394,-30.6407,419.1285 F,19,178913,181736,1,0
Sprite,Background,Centre,"sb\pixel.png",0,0 C,0,178910,,86,191,237 S,0,178913,,17 R,0,178913,,7.666752 M,19,178913,179513,102,394,234.6407,368.8715 F,19,178913,181736,1,0
Sprite,Background,Centre,"sb\pixel.png",0,0 C,0,181733,,86,191,237 S,0,181737,,17 R,0,181737,,5.627578 M,19,181737,182337,540,268,462.5756,167.3299 F,19,181737,184560,1,0
Sprite,Background,Centre,"sb\pixel.png",0,0 C,0,181733,,86,191,237 S,0,181737,,18 R,0,181737,,8.769171 M,19,181737,182337,540,268,617.4244,368.6701 F,19,181737,184560,1,0
Sprite,Background,Centre,"sb\pixel.png",0,0 C,0,181733,,119,214,244 S,0,181737,,18 R,0,181737,,6.24592 M,19,181737,182337,540,268,534.9331,132.0944 F,19,181737,184560,1,0
Sprite,Background,Centre,"sb\pixel.png",0,0 C,0,181733,,119,214,244 S,0,181737,,17 R,0,181737,,9.387513 M,19,181737,182337,540,268,545.0669,403.9056 F,19,181737,184560,1,0
Sprite,Background,Centre,"sb\pixel.png",0,0 C,0,181733,,119,214,244 S,0,181737,,16 R,0,181737,,4.324442 M,19,181737,182337,540,268,421.512,316.4209 F,19,181737,184560,1,0
Sprite,Background,Centre,"sb\pixel.png",0,0 C,0,181733,,119,214,244 S,0,181737,,16 R,0,181737,,7.466035 M,19,181737,182337,540,268,658.488,219.5791 F,19,181737,184560,1,0
Sprite,Background,Centre,"sb\pixel.png",0,0 C,0,181733,,86,191,237 S,0,181737,,16 R,0,181737,,5.045177 M,19,181737,182337,540,268,430.3643,230.1051 F,19,181737,184560,1,0
Sprite,Background,Centre,"sb\pixel.png",0,0 C,0,181733,,86,191,237 S,0,181737,,15 R,0,181737,,8.18677 M,19,181737,182337,540,268,649.6357,305.8949 F,19,181737,184560,1,0
Sprite,Background,Centre,"sb\pixel.png",0,0 C,0,181733,,86,191,237 S,0,181737,,19 R,0,181737,,3.17144 M,19,181737,182337,540,268,536.4188,387.9466 F,19,181737,184560,1,0
Sprite,Background,Centre,"sb\pixel.png",0,0 C,0,181733,,86,191,237 S,0,181737,,19 R,0,181737,,6.313033 M,19,181737,182337,540,268,543.5812,148.0535 F,19,181737,184560,1,0
Sprite,Background,Centre,"sb\pixel.png",0,0 C,0,181733,,86,191,237 S,0,181737,,15 R,0,181737,,3.458555 M,19,181737,182337,540,268,501.3514,385.8231 F,19,181737,184560,1,0
Sprite,Background,Centre,"sb\pixel.png",0,0 C,0,181733,,86,191,237 S,0,181737,,19 R,0,181737,,6.600148 M,19,181737,182337,540,268,578.6486,150.1769 F,19,181737,184560,1,0
Sprite,Background,Centre,"sb\pixel.png",0,0 C,0,184556,,119,214,244 S,0,184560,,17 R,0,184560,,6.025187 M,19,184560,185160,274,303,243.3825,186.9717 F,19,184560,187383,1,0
Sprite,Background,Centre,"sb\pixel.png",0,0 C,0,184556,,119,214,244 S,0,184560,,19 R,0,184560,,9.16678 M,19,184560,185160,274,303,304.6175,419.0283 F,19,184560,187383,1,0
Sprite,Background,Centre,"sb\pixel.png",0,0 C,0,184556,,86,191,237 S,0,184560,,19 R,0,184560,,3.18849 M,19,184560,185160,274,303,269.0776,407.8846 F,19,184560,187383,1,0
Sprite,Background,Centre,"sb\pixel.png",0,0 C,0,184556,,119,214,244 S,0,184560,,18 R,0,184560,,6.330083 M,19,184560,185160,274,303,278.9224,198.1154 F,19,184560,187383,1,0
Sprite,Background,Centre,"sb\pixel.png",0,0 C,0,184556,,86,191,237 S,0,184560,,18 R,0,184560,,3.995646 M,19,184560,185160,274,303,196.3432,370.6641 F,19,184560,187383,1,0
Sprite,Background,Centre,"sb\pixel.png",0,0 C,0,184556,,86,191,237 S,0,184560,,17 R,0,184560,,7.137239 M,19,184560,185160,274,303,351.6568,235.336 F,19,184560,187383,1,0
Sprite,Background,Centre,"sb\pixel.png",0,0 C,0,184556,,86,191,237 S,0,184560,,17 R,0,184560,,5.869635 M,19,184560,185160,274,303,224.5708,190.3689 F,19,184560,187383,1,0
Sprite,Background,Centre,"sb\pixel.png",0,0 C,0,184556,,119,214,244 S,0,184560,,15 R,0,184560,,9.011228 M,19,184560,185160,274,303,323.4292,415.6311 F,19,184560,187383,1,0
Sprite,Background,Centre,"sb\pixel.png",0,0 C,0,184556,,86,191,237 S,0,184560,,17 R,0,184560,,3.52587 M,19,184560,185160,274,303,233.512,403.1235 F,19,184560,187383,1,0
Sprite,Background,Centre,"sb\pixel.png",0,0 C,0,184556,,86,191,237 S,0,184560,,18 R,0,184560,,6.667462 M,19,184560,185160,274,303,314.488,202.8765 F,19,184560,187383,1,0
Sprite,Background,Centre,"sb\pixel.png",0,0 C,0,184556,,86,191,237 S,0,184560,,18 R,0,184560,,5.319462 M,19,184560,185160,274,303,181.1907,238.5374 F,19,184560,187383,1,0
Sprite,Background,Centre,"sb\pixel.png",0,0 C,0,184556,,119,214,244 S,0,184560,,18 R,0,184560,,8.461055 M,19,184560,185160,274,303,366.8093,367.4626 F,19,184560,187383,1,0
Sprite,Background,Centre,"sb\pixel.png",0,0 C,0,187379,,86,191,237 S,0,187384,,19 R,0,187384,,3.769138 M,19,187384,187984,322,178,262.6969,259.7566 F,19,187384,190207,1,0
Sprite,Background,Centre,"sb\pixel.png",0,0 C,0,187379,,119,214,244 S,0,187384,,18 R,0,187384,,6.910731 M,19,187384,187984,322,178,381.3031,96.24342 F,19,187384,190207,1,0
Sprite,Background,Centre,"sb\pixel.png",0,0 C,0,187379,,119,214,244 S,0,187384,,19 R,0,187384,,3.950697 M,19,187384,187984,322,178,247.4621,249.0851 F,19,187384,190207,1,0
Sprite,Background,Centre,"sb\pixel.png",0,0 C,0,187379,,86,191,237 S,0,187384,,19 R,0,187384,,7.092289 M,19,187384,187984,322,178,396.5379,106.9149 F,19,187384,190207,1,0
Sprite,Background,Centre,"sb\pixel.png",0,0 C,0,187379,,86,191,237 S,0,187384,,15 R,0,187384,,3.79363 M,19,187384,187984,322,178,249.79,272.5871 F,19,187384,190207,1,0
Sprite,Background,Centre,"sb\pixel.png",0,0 C,0,187379,,119,214,244 S,0,187384,,15 R,0,187384,,6.935222 M,19,187384,187984,322,178,394.21,83.41292 F,19,187384,190207,1,0
Sprite,Background,Centre,"sb\pixel.png",0,0 C,0,187379,,86,191,237 S,0,187384,,19 R,0,187384,,3.331679 M,19,187384,187984,322,178,299.8936,292.8926 F,19,187384,190207,1,0
Sprite,Background,Centre,"sb\pixel.png",0,0 C,0,187379,,119,214,244 S,0,187384,,16 R,0,187384,,6.473272 M,19,187384,187984,322,178,344.1064,63.10741 F,19,187384,190207,1,0
Sprite,Background,Centre,"sb\pixel.png",0,0 C,0,187379,,86,191,237 S,0,187384,,15 R,0,187384,,3.167988 M,19,187384,187984,322,178,318.8065,298.9579 F,19,187384,190207,1,0
Sprite,Background,Centre,"sb\pixel.png",0,0 C,0,187379,,119,214,244 S,0,187384,,19 R,0,187384,,6.309581 M,19,187384,187984,322,178,325.1935,57.04215 F,19,187384,190207,1,0
Sprite,Background,Centre,"sb\pixel.png",0,0 C,0,187379,,86,191,237 S,0,187384,,19 R,0,187384,,5.24676 M,19,187384,187984,322,178,207.5417,110.2631 F,19,187384,190207,1,0
Sprite,Background,Centre,"sb\pixel.png",0,0 C,0,187379,,86,191,237 S,0,187384,,17 R,0,187384,,8.388353 M,19,187384,187984,322,178,436.4583,245.7369 F,19,187384,190207,1,0
Sprite,Background,Centre,"sb\pixel.png",0,0 C,0,190202,,119,214,244 S,0,190207,,15 R,0,190207,,5.545055 M,19,190207,190807,479,245,411.0365,170.2875 F,19,190207,193030,1,0
Sprite,Background,Centre,"sb\pixel.png",0,0 C,0,190202,,119,214,244 S,0,190207,,16 R,0,190207,,8.686647 M,19,190207,190807,479,245,546.9635,319.7125 F,19,190207,193030,1,0
Sprite,Background,Centre,"sb\pixel.png",0,0 C,0,190202,,86,191,237 S,0,190207,,15 R,0,190207,,5.818048 M,19,190207,190807,479,245,428.7628,144.8989 F,19,190207,193030,1,0
Sprite,Background,Centre,"sb\pixel.png",0,0 C,0,190202,,119,214,244 S,0,190207,,16 R,0,190207,,8.959641 M,19,190207,190807,479,245,529.2372,345.1011 F,19,190207,193030,1,0
Sprite,Background,Centre,"sb\pixel.png",0,0 C,0,190202,,119,214,244 S,0,190207,,19 R,0,190207,,5.29942 M,19,190207,190807,479,245,374.0938,175.2097 F,19,190207,193030,1,0
Sprite,Background,Centre,"sb\pixel.png",0,0 C,0,190202,,86,191,237 S,0,190207,,15 R,0,190207,,8.441012 M,19,190207,190807,479,245,583.9062,314.7903 F,19,190207,193030,1,0
Sprite,Background,Centre,"sb\pixel.png",0,0 C,0,190202,,86,191,237 S,0,190207,,17 R,0,190207,,5.516071 M,19,190207,190807,479,245,398.489,161.4897 F,19,190207,193030,1,0
Sprite,Background,Centre,"sb\pixel.png",0,0 C,0,190202,,86,191,237 S,0,190207,,19 R,0,190207,,8.657663 M,19,190207,190807,479,245,559.511,328.5103 F,19,190207,193030,1,0
Sprite,Background,Centre,"sb\pixel.png",0,0 C,0,190202,,86,191,237 S,0,190207,,17 R,0,190207,,3.672134 M,19,190207,190807,479,245,426.376,334.7035 F,19,190207,193030,1,0
Sprite,Background,Centre,"sb\pixel.png",0,0 C,0,190202,,119,214,244 S,0,190207,,19 R,0,190207,,6.813726 M,19,190207,190807,479,245,531.624,155.2965 F,19,190207,193030,1,0
Sprite,Background,Centre,"sb\pixel.png",0,0 C,0,190202,,86,191,237 S,0,190207,,17 R,0,190207,,3.768594 M,19,190207,190807,479,245,410.9406,338.9357 F,19,190207,193030,1,0
Sprite,Background,Centre,"sb\pixel.png",0,0 C,0,190202,,119,214,244 S,0,190207,,16 R,0,190207,,6.910187 M,19,190207,190807,479,245,547.0594,151.0643 F,19,190207,193030,1,0
Sprite,Background,Centre,"sb\pixel.png",0,0 C,0,193025,,119,214,244 S,0,193031,,17 R,0,193031,,6.12492 M,19,193031,193631,346,385,322.5168,237.8622 F,19,193031,195854,1,0
Sprite,Background,Centre,"sb\pixel.png",0,0 C,0,193025,,119,214,244 S,0,193031,,15 R,0,193031,,9.266513 M,19,193031,193631,346,385,369.4832,532.1378 F,19,193031,195854,1,0
Sprite,Background,Centre,"sb\pixel.png",0,0 C,0,193025,,119,214,244 S,0,193031,,16 R,0,193031,,5.41363 M,19,193031,193631,346,385,232.1577,288.8702 F,19,193031,195854,1,0
Sprite,Background,Centre,"sb\pixel.png",0,0 C,0,193025,,119,214,244 S,0,193031,,18 R,0,193031,,8.555223 M,19,193031,193631,346,385,459.8423,481.1298 F,19,193031,195854,1,0
Sprite,Background,Centre,"sb\pixel.png",0,0 C,0,193025,,119,214,244 S,0,193031,,17 R,0,193031,,5.554231 M,19,193031,193631,346,385,253.4135,281.3239 F,19,193031,195854,1,0
Sprite,Background,Centre,"sb\pixel.png",0,0 C,0,193025,,119,214,244 S,0,193031,,15 R,0,193031,,8.695824 M,19,193031,193631,346,385,438.5865,488.6761 F,19,193031,195854,1,0
Sprite,Background,Centre,"sb\pixel.png",0,0 C,0,193025,,119,214,244 S,0,193031,,16 R,0,193031,,6.105179 M,19,193031,193631,346,385,325.9914,273.7856 F,19,193031,195854,1,0
Sprite,Background,Centre,"sb\pixel.png",0,0 C,0,193025,,86,191,237 S,0,193031,,16 R,0,193031,,9.246772 M,19,193031,193631,346,385,366.0086,496.2144 F,19,193031,195854,1,0
Sprite,Background,Centre,"sb\pixel.png",0,0 C,0,193025,,119,214,244 S,0,193031,,18 R,0,193031,,4.831463 M,19,193031,193631,346,385,229.8285,371.1013 F,19,193031,195854,1,0
Sprite,Background,Centre,"sb\pixel.png",0,0 C,0,193025,,86,191,237 S,0,193031,,15 R,0,193031,,7.973055 M,19,193031,193631,346,385,462.1715,398.8987 F,19,193031,195854,1,0
Sprite,Background,Centre,"sb\pixel.png",0,0 C,0,193025,,119,214,244 S,0,193031,,19 R,0,193031,,4.188744 M,19,193031,193631,346,385,249.0078,441.0045 F,19,193031,195854,1,0
Sprite,Background,Centre,"sb\pixel.png",0,0 C,0,193025,,86,191,237 S,0,193031,,17 R,0,193031,,7.330337 M,19,193031,193631,346,385,442.9922,328.9955 F,19,193031,195854,1,0
Sprite,Background,Centre,"sb\pixel.png",0,0 C,0,195848,,119,214,244 S,0,195854,,16 R,0,195854,,3.334498 M,19,195854,196454,254,381,233.4869,486.0153 F,19,195854,198677,1,0
Sprite,Background,Centre,"sb\pixel.png",0,0 C,0,195848,,86,191,237 S,0,195854,,19 R,0,195854,,6.476091 M,19,195854,196454,254,381,274.5131,275.9847 F,19,195854,198677,1,0
Sprite,Background,Centre,"sb\pixel.png",0,0 C,0,195848,,86,191,237 S,0,195854,,15 R,0,195854,,5.734367 M,19,195854,196454,254,381,179.3999,259.0007 F,19,195854,198677,1,0
Sprite,Background,Centre,"sb\pixel.png",0,0 C,0,195848,,86,191,237 S,0,195854,,16 R,0,195854,,8.87596 M,19,195854,196454,254,381,328.6001,502.9993 F,19,195854,198677,1,0
Sprite,Background,Centre,"sb\pixel.png",0,0 C,0,195848,,119,214,244 S,0,195854,,18 R,0,195854,,5.526392 M,19,195854,196454,254,381,161.9965,283.5764 F,19,195854,198677,1,0
Sprite,Background,Centre,"sb\pixel.png",0,0 C,0,195848,,119,214,244 S,0,195854,,15 R,0,195854,,8.667985 M,19,195854,196454,254,381,346.0035,478.4236 F,19,195854,198677,1,0
Sprite,Background,Centre,"sb\pixel.png",0,0 C,0,195848,,119,214,244 S,0,195854,,19 R,0,195854,,3.172682 M,19,195854,196454,254,381,249.8968,512.9362 F,19,195854,198677,1,0
Sprite,Background,Centre,"sb\pixel.png",0,0 C,0,195848,,119,214,244 S,0,195854,,18 R,0,195854,,6.314275 M,19,195854,196454,254,381,258.1031,249.0638 F,19,195854,198677,1,0
Sprite,Background,Centre,"sb\pixel.png",0,0 C,0,195848,,119,214,244 S,0,195854,,15 R,0,195854,,3.560934 M,19,195854,196454,254,381,193.3333,517.0902 F,19,195854,198677,1,0
Sprite,Background,Centre,"sb\pixel.png",0,0 C,0,195848,,86,191,237 S,0,195854,,16 R,0,195854,,6.702527 M,19,195854,196454,254,381,314.6667,244.9098 F,19,195854,198677,1,0
Sprite,Background,Centre,"sb\pixel.png",0,0 C,0,195848,,86,191,237 S,0,195854,,17 R,0,195854,,4.981685 M,19,195854,196454,254,381,113.2621,342.1563 F,19,195854,198677,1,0
Sprite,Background,Centre,"sb\pixel.png",0,0 C,0,195848,,119,214,244 S,0,195854,,19 R,0,195854,,8.123278 M,19,195854,196454,254,381,394.7379,419.8437 F,19,195854,198677,1,0
Sprite,Background,Centre,"sb\pixel.png",0,0 C,0,198671,,86,191,237 S,0,198678,,16 R,0,198678,,5.80941 M,19,198678,199278,278,427,219.6001,313.099 F,19,198678,201501,1,0
Sprite,Background,Centre,"sb\pixel.png",0,0 C,0,198671,,119,214,244 S,0,198678,,15 R,0,198678,,8.951002 M,19,198678,199278,278,427,336.3999,540.9011 F,19,198678,201501,1,0
Sprite,Background,Centre,"sb\pixel.png",0,0 C,0,198671,,86,191,237 S,0,198678,,18 R,0,198678,,5.125687 M,19,198678,199278,278,427,167.188,378.4026 F,19,198678,201501,1,0
Sprite,Background,Centre,"sb\pixel.png",0,0 C,0,198671,,86,191,237 S,0,198678,,15 R,0,198678,,8.26728 M,19,198678,199278,278,427,388.812,475.5974 F,19,198678,201501,1,0
Sprite,Background,Centre,"sb\pixel.png",0,0 C,0,198671,,86,191,237 S,0,198678,,15 R,0,198678,,5.733191 M,19,198678,199278,278,427,209.5287,315.3189 F,19,198678,201501,1,0
Sprite,Background,Centre,"sb\pixel.png",0,0 C,0,198671,,86,191,237 S,0,198678,,16 R,0,198678,,8.874784 M,19,198678,199278,278,427,346.4713,538.6812 F,19,198678,201501,1,0
Sprite,Background,Centre,"sb\pixel.png",0,0 C,0,198671,,119,214,244 S,0,198678,,18 R,0,198678,,4.51852 M,19,198678,199278,278,427,168.0982,448.5776 F,19,198678,201501,1,0
Sprite,Background,Centre,"sb\pixel.png",0,0 C,0,198671,,119,214,244 S,0,198678,,18 R,0,198678,,7.660113 M,19,198678,199278,278,427,387.9018,405.4224 F,19,198678,201501,1,0
Sprite,Background,Centre,"sb\pixel.png",0,0 C,0,198671,,86,191,237 S,0,198678,,16 R,0,198678,,5.18936 M,19,198678,199278,278,427,153.6255,362.7273 F,19,198678,201501,1,0
Sprite,Background,Centre,"sb\pixel.png",0,0 C,0,198671,,86,191,237 S,0,198678,,19 R,0,198678,,8.330953 M,19,198678,199278,278,427,402.3745,491.2727 F,19,198678,201501,1,0
Sprite,Background,Centre,"sb\pixel.png",0,0 C,0,198671,,119,214,244 S,0,198678,,16 R,0,198678,,4.760301 M,19,198678,199278,278,427,169.1251,421.7796 F,19,198678,201501,1,0
Sprite,Background,Centre,"sb\pixel.png",0,0 C,0,198671,,86,191,237 S,0,198678,,19 R,0,198678,,7.901893 M,19,198678,199278,278,427,386.8749,432.2204 F,19,198678,201501,1,0
Sprite,Background,Centre,"sb\pixel.png",0,0 C,0,201494,,119,214,244 S,0,201501,,15 R,0,201501,,5.044652 M,19,201501,202101,223,318,98.21954,274.9438 F,19,201501,204324,1,0
Sprite,Background,Centre,"sb\pixel.png",0,0 C,0,201494,,119,214,244 S,0,201501,,18 R,0,201501,,8.186245 M,19,201501,202101,223,318,347.7805,361.0562 F,19,201501,204324,1,0
Sprite,Background,Centre,"sb\pixel.png",0,0 C,0,201494,,119,214,244 S,0,201501,,15 R,0,201501,,3.253341 M,19,201501,202101,223,318,209.2835,440.2328 F,19,201501,204324,1,0
Sprite,Background,Centre,"sb\pixel.png",0,0 C,0,201494,,119,214,244 S,0,201501,,16 R,0,201501,,6.394934 M,19,201501,202101,223,318,236.7165,195.7672 F,19,201501,204324,1,0
Sprite,Background,Centre,"sb\pixel.png",0,0 C,0,201494,,119,214,244 S,0,201501,,18 R,0,201501,,4.74107 M,19,201501,202101,223,318,95.05264,314.3293 F,19,201501,204324,1,0
Sprite,Background,Centre,"sb\pixel.png",0,0 C,0,201494,,119,214,244 S,0,201501,,16 R,0,201501,,7.882663 M,19,201501,202101,223,318,350.9474,321.6707 F,19,201501,204324,1,0
Sprite,Background,Centre,"sb\pixel.png",0,0 C,0,201494,,119,214,244 S,0,201501,,18 R,0,201501,,5.852174 M,19,201501,202101,223,318,177.4609,218.9687 F,19,201501,204324,1,0
Sprite,Background,Centre,"sb\pixel.png",0,0 C,0,201494,,86,191,237 S,0,201501,,18 R,0,201501,,8.993767 M,19,201501,202101,223,318,268.5391,417.0313 F,19,201501,204324,1,0
Sprite,Background,Centre,"sb\pixel.png",0,0 C,0,201494,,86,191,237 S,0,201501,,19 R,0,201501,,3.603304 M,19,201501,202101,223,318,172.2152,420.0632 F,19,201501,204324,1,0
Sprite,Background,Centre,"sb\pixel.png",0,0 C,0,201494,,119,214,244 S,0,201501,,18 R,0,201501,,6.744896 M,19,201501,202101,223,318,273.7848,215.9368 F,19,201501,204324,1,0
Sprite,Background,Centre,"sb\pixel.png",0,0 C,0,201494,,86,191,237 S,0,201501,,19 R,0,201501,,5.984205 M,19,201501,202101,223,318,185.2981,195.6784 F,19,201501,204324,1,0
Sprite,Background,Centre,"sb\pixel.png",0,0 C,0,201494,,119,214,244 S,0,201501,,15 R,0,201501,,9.125797 M,19,201501,202101,223,318,260.7019,440.3216 F,19,201501,204324,1,0
Sprite,Background,Centre,"sb\pixel.png",0,0 C,0,204317,,119,214,244 S,0,204325,,17 R,0,204325,,3.362502 M,19,204325,204925,169,175,143.1442,290.1324 F,19,204325,207148,1,0
Sprite,Background,Centre,"sb\pixel.png",0,0 C,0,204317,,86,191,237 S,0,204325,,18 R,0,204325,,6.504095 M,19,204325,204925,169,175,194.8558,59.86757 F,19,204325,207148,1,0
Sprite,Background,Centre,"sb\pixel.png",0,0 C,0,204317,,86,191,237 S,0,204325,,17 R,0,204325,,5.55492 M,19,204325,204925,169,175,83.14065,78.72346 F,19,204325,207148,1,0
Sprite,Background,Centre,"sb\pixel.png",0,0 C,0,204317,,86,191,237 S,0,204325,,19 R,0,204325,,8.696512 M,19,204325,204925,169,175,254.8593,271.2766 F,19,204325,207148,1,0
Sprite,Background,Centre,"sb\pixel.png",0,0 C,0,204317,,119,214,244 S,0,204325,,15 R,0,204325,,5.41806 M,19,204325,204925,169,175,59.39056,81.60957 F,19,204325,207148,1,0
Sprite,Background,Centre,"sb\pixel.png",0,0 C,0,204317,,119,214,244 S,0,204325,,18 R,0,204325,,8.559652 M,19,204325,204925,169,175,278.6094,268.3904 F,19,204325,207148,1,0
Sprite,Background,Centre,"sb\pixel.png",0,0 C,0,204317,,86,191,237 S,0,204325,,17 R,0,204325,,4.967205 M,19,204325,204925,169,175,30.61751,138.9544 F,19,204325,207148,1,0
Sprite,Background,Centre,"sb\pixel.png",0,0 C,0,204317,,86,191,237 S,0,204325,,19 R,0,204325,,8.108797 M,19,204325,204925,169,175,307.3825,211.0456 F,19,204325,207148,1,0
Sprite,Background,Centre,"sb\pixel.png",0,0 C,0,204317,,119,214,244 S,0,204325,,16 R,0,204325,,5.469771 M,19,204325,204925,169,175,88.34326,98.74063 F,19,204325,207148,1,0
Sprite,Background,Centre,"sb\pixel.png",0,0 C,0,204317,,119,214,244 S,0,204325,,18 R,0,204325,,8.611363 M,19,204325,204925,169,175,249.6567,251.2594 F,19,204325,207148,1,0
Sprite,Background,Centre,"sb\pixel.png",0,0 C,0,204317,,119,214,244 S,0,204325,,19 R,0,204325,,4.91695 M,19,204325,204925,169,175,37.79387,147.7796 F,19,204325,207148,1,0
Sprite,Background,Centre,"sb\pixel.png",0,0 C,0,204317,,86,191,237 S,0,204325,,18 R,0,204325,,8.058542 M,19,204325,204925,169,175,300.2061,202.2204 F,19,204325,207148,1,0
Sprite,Background,Centre,"sb\pixel.png",0,0 L,208913,4 R,0,0,1200,0,6.283185 V,0,0,1200,4,4,4,-4 F,0,107266,114325,0.8 C,0,208913,,119,214,244 M,0,208913,210913,13,520,13,-40 F,0,208913,210913,1
Sprite,Background,Centre,"sb\pixel.png",0,0 L,208957,4 R,0,0,1200,0,6.283185 V,0,0,1200,4,4,4,-4 F,0,107266,114325,0.8 C,0,208957,,86,191,237 M,0,208957,210957,361,520,361,-40 F,0,208957,210957,1
Sprite,Background,Centre,"sb\pixel.png",0,0 L,209001,4 R,0,0,1200,0,6.283185 V,0,0,1200,4,4,4,-4 F,0,107266,114325,0.8 C,0,209001,,119,214,244 M,0,209001,211001,721,520,721,-40 F,0,209001,211001,1
Sprite,Background,Centre,"sb\pixel.png",0,0 L,209045,4 R,0,0,1200,0,6.283185 V,0,0,1200,4,4,4,-4 F,0,107266,114325,0.8 C,0,209045,,86,191,237 M,0,209045,211045,-98,520,-98,-40 F,0,209045,211045,1
Sprite,Background,Centre,"sb\pixel.png",0,0 L,209089,4 R,0,0,1200,0,6.283185 V,0,0,1200,4,4,4,-4 F,0,107266,114325,0.8 C,0,209089,,86,191,237 M,0,209089,211089,271,520,271,-40 F,0,209089,211089,1
Sprite,Background,Centre,"sb\pixel.png",0,0 L,209133,4 R,0,0,1200,0,6.283185 V,0,0,1200,4,4,4,-4 F,0,107266,114325,0.8 C,0,209133,,119,214,244 M,0,209133,211133,-32,520,-32,-40 F,0,209133,211133,1
Sprite,Background,Centre,"sb\pixel.png",0,0 L,209177,4 R,0,0,1200,0,6.283185 V,0,0,1200,4,4,4,-4 F,0,107266,114325,0.8 C,0,209177,,86,191,237 M,0,209177,211177,536,520,536,-40 F,0,209177,211177,1
Sprite,Background,Centre,"sb\pixel.png",0,0 L,209221,4 R,0,0,1200,0,6.283185 V,0,0,1200,4,4,4,-4 F,0,107266,114325,0.8 C,0,209221,,119,214,244 M,0,209221,211221,37,520,37,-40 F,0,209221,211221,1
Sprite,Background,Centre,"sb\pixel.png",0,0 L,209265,4 R,0,0,1200,0,6.283185 V,0,0,1200,4,4,4,-4 F,0,107266,114325,0.8 C,0,209265,,86,191,237 M,0,209265,211265,90,520,90,-40 F,0,209265,211265,1
Sprite,Background,Centre,"sb\pixel.png",0,0 L,209310,4 R,0,0,1200,0,6.283185 V,0,0,1200,4,4,4,-4 F,0,107266,114325,0.8 C,0,209310,,86,191,237 M,0,209310,211310,92,520,92,-40 F,0,209310,211310,1
Sprite,Background,Centre,"sb\pixel.png",0,0 L,209354,4 R,0,0,1200,0,6.283185 V,0,0,1200,4,4,4,-4 F,0,107266,114325,0.8 C,0,209354,,119,214,244 M,0,209354,211354,265,520,265,-40 F,0,209354,211354,1
Sprite,Background,Centre,"sb\pixel.png",0,0 L,209398,4 R,0,0,1200,0,6.283185 V,0,0,1200,4,4,4,-4 F,0,107266,114325,0.8 C,0,209398,,119,214,244 M,0,209398,211398,506,520,506,-40 F,0,209398,211398,1
Sprite,Background,Centre,"sb\pixel.png",0,0 L,209442,4 R,0,0,1200,0,6.283185 V,0,0,1200,4,4,4,-4 F,0,107266,114325,0.8 C,0,209442,,86,191,237 M,0,209442,211442,292,520,292,-40 F,0,209442,211442,1
Sprite,Background,Centre,"sb\pixel.png",0,0 L,209486,4 R,0,0,1200,0,6.283185 V,0,0,1200,4,4,4,-4 F,0,107266,114325,0.8 C,0,209486,,119,214,244 M,0,209486,211486,275,520,275,-40 F,0,209486,211486,1
Sprite,Background,Centre,"sb\pixel.png",0,0 L,209530,4 R,0,0,1200,0,6.283185 V,0,0,1200,4,4,4,-4 F,0,107266,114325,0.8 C,0,209530,,119,214,244 M,0,209530,211530,726,520,726,-40 F,0,209530,211530,1
Sprite,Background,Centre,"sb\pixel.png",0,0 L,209574,4 R,0,0,1200,0,6.283185 V,0,0,1200,4,4,4,-4 F,0,107266,114325,0.8 C,0,209574,,86,191,237 M,0,209574,211574,555,520,555,-40 F,0,209574,211574,1
Sprite,Background,Centre,"sb\pixel.png",0,0 L,209618,4 R,0,0,1200,0,6.283185 V,0,0,1200,4,4,4,-4 F,0,107266,114325,0.8 C,0,209618,,119,214,244 M,0,209618,211618,195,520,195,-40 F,0,209618,211618,1
Sprite,Background,Centre,"sb\pixel.png",0,0 L,209663,4 R,0,0,1200,0,6.283185 V,0,0,1200,4,4,4,-4 F,0,107266,114325,0.8 C,0,209663,,86,191,237 M,0,209663,211663,641,520,641,-40 F,0,209663,211663,1
Sprite,Background,Centre,"sb\pixel.png",0,0 L,209707,4 R,0,0,1200,0,6.283185 V,0,0,1200,4,4,4,-4 F,0,107266,114325,0.8 C,0,209707,,119,214,244 M,0,209707,211707,-2,520,-2,-40 F,0,209707,211707,1
Sprite,Background,Centre,"sb\pixel.png",0,0 L,209751,4 R,0,0,1200,0,6.283185 V,0,0,1200,4,4,4,-4 F,0,107266,114325,0.8 C,0,209751,,86,191,237 M,0,209751,211751,659,520,659,-40 F,0,209751,211751,1
Sprite,Background,Centre,"sb\pixel.png",0,0 L,209795,4 R,0,0,1200,0,6.283185 V,0,0,1200,4,4,4,-4 F,0,107266,114325,0.8 C,0,209795,,119,214,244 M,0,209795,211795,348,520,348,-40 F,0,209795,211795,1
Sprite,Background,Centre,"sb\pixel.png",0,0 L,209839,4 R,0,0,1200,0,6.283185 V,0,0,1200,4,4,4,-4 F,0,107266,114325,0.8 C,0,209839,,86,191,237 M,0,209839,211839,281,520,281,-40 F,0,209839,211839,1
Sprite,Background,Centre,"sb\pixel.png",0,0 L,209883,4 R,0,0,1200,0,6.283185 V,0,0,1200,4,4,4,-4 F,0,107266,114325,0.8 C,0,209883,,119,214,244 M,0,209883,211883,7,520,7,-40 F,0,209883,211883,1
Sprite,Background,Centre,"sb\pixel.png",0,0 L,209927,4 R,0,0,1200,0,6.283185 V,0,0,1200,4,4,4,-4 F,0,107266,114325,0.8 C,0,209927,,119,214,244 M,0,209927,211927,284,520,284,-40 F,0,209927,211927,1
Sprite,Background,Centre,"sb\pixel.png",0,0 L,209971,4 R,0,0,1200,0,6.283185 V,0,0,1200,4,4,4,-4 F,0,107266,114325,0.8 C,0,209971,,119,214,244 M,0,209971,211971,274,520,274,-40 F,0,209971,211971,1
Sprite,Background,Centre,"sb\pixel.png",0,0 L,210015,4 R,0,0,1200,0,6.283185 V,0,0,1200,4,4,4,-4 F,0,107266,114325,0.8 C,0,210015,,86,191,237 M,0,210015,212015,290,520,290,-40 F,0,210015,212015,1
Sprite,Background,Centre,"sb\pixel.png",0,0 L,210060,4 R,0,0,1200,0,6.283185 V,0,0,1200,4,4,4,-4 F,0,107266,114325,0.8 C,0,210060,,119,214,244 M,0,210060,212060,463,520,463,-40 F,0,210060,212060,1
Sprite,Background,Centre,"sb\pixel.png",0,0 L,210104,4 R,0,0,1200,0,6.283185 V,0,0,1200,4,4,4,-4 F,0,107266,114325,0.8 C,0,210104,,86,191,237 M,0,210104,212104,183,520,183,-40 F,0,210104,212104,1
Sprite,Background,Centre,"sb\pixel.png",0,0 L,210148,4 R,0,0,1200,0,6.283185 V,0,0,1200,4,4,4,-4 F,0,107266,114325,0.8 C,0,210148,,119,214,244 M,0,210148,212148,477,520,477,-40 F,0,210148,212148,1
Sprite,Background,Centre,"sb\pixel.png",0,0 L,210192,4 R,0,0,1200,0,6.283185 V,0,0,1200,4,4,4,-4 F,0,107266,114325,0.8 C,0,210192,,119,214,244 M,0,210192,212192,-18,520,-18,-40 F,0,210192,212192,1
Sprite,Background,Centre,"sb\pixel.png",0,0 L,210236,4 R,0,0,1200,0,6.283185 V,0,0,1200,4,4,4,-4 F,0,107266,114325,0.8 C,0,210236,,86,191,237 M,0,210236,212236,456,520,456,-40 F,0,210236,212236,1
Sprite,Background,Centre,"sb\pixel.png",0,0 L,210280,4 R,0,0,1200,0,6.283185 V,0,0,1200,4,4,4,-4 F,0,107266,114325,0.8 C,0,210280,,119,214,244 M,0,210280,212280,430,520,430,-40 F,0,210280,212280,1
Sprite,Background,Centre,"sb\pixel.png",0,0 L,210324,4 R,0,0,1200,0,6.283185 V,0,0,1200,4,4,4,-4 F,0,107266,114325,0.8 C,0,210324,,119,214,244 M,0,210324,212324,37,520,37,-40 F,0,210324,212324,1
Sprite,Background,Centre,"sb\pixel.png",0,0 L,210368,4 R,0,0,1200,0,6.283185 V,0,0,1200,4,4,4,-4 F,0,107266,114325,0.8 C,0,210368,,119,214,244 M,0,210368,212368,664,520,664,-40 F,0,210368,212368,1
Sprite,Background,Centre,"sb\pixel.png",0,0 L,210413,4 R,0,0,1200,0,6.283185 V,0,0,1200,4,4,4,-4 F,0,107266,114325,0.8 C,0,210413,,119,214,244 M,0,210413,212413,-98,520,-98,-40 F,0,210413,212413,1
Sprite,Background,Centre,"sb\pixel.png",0,0 L,210457,4 R,0,0,1200,0,6.283185 V,0,0,1200,4,4,4,-4 F,0,107266,114325,0.8 C,0,210457,,119,214,244 M,0,210457,212457,733,520,733,-40 F,0,210457,212457,1
Sprite,Background,Centre,"sb\pixel.png",0,0 L,210501,4 R,0,0,1200,0,6.283185 V,0,0,1200,4,4,4,-4 F,0,107266,114325,0.8 C,0,210501,,119,214,244 M,0,210501,212501,437,520,437,-40 F,0,210501,212501,1
Sprite,Background,Centre,"sb\pixel.png",0,0 L,210545,4 R,0,0,1200,0,6.283185 V,0,0,1200,4,4,4,-4 F,0,107266,114325,0.8 C,0,210545,,119,214,244 M,0,210545,212545,740,520,740,-40 F,0,210545,212545,1
Sprite,Background,Centre,"sb\pixel.png",0,0 L,210589,4 R,0,0,1200,0,6.283185 V,0,0,1200,4,4,4,-4 F,0,107266,114325,0.8 C,0,210589,,86,191,237 M,0,210589,212589,502,520,502,-40 F,0,210589,212589,1
Sprite,Background,Centre,"sb\pixel.png",0,0 L,210633,4 R,0,0,1200,0,6.283185 V,0,0,1200,4,4,4,-4 F,0,107266,114325,0.8 C,0,210633,,119,214,244 M,0,210633,212633,128,520,128,-40 F,0,210633,212633,1
Sprite,Background,Centre,"sb\pixel.png",0,0 L,210677,4 R,0,0,1200,0,6.283185 V,0,0,1200,4,4,4,-4 F,0,107266,114325,0.8 C,0,210677,,119,214,244 M,0,210677,212677,-25,520,-25,-40 F,0,210677,212677,1
Sprite,Background,Centre,"sb\pixel.png",0,0 L,210721,4 R,0,0,1200,0,6.283185 V,0,0,1200,4,4,4,-4 F,0,107266,114325,0.8 C,0,210721,,86,191,237 M,0,210721,212721,382,520,382,-40 F,0,210721,212721,1
Sprite,Background,Centre,"sb\pixel.png",0,0 L,210765,4 R,0,0,1200,0,6.283185 V,0,0,1200,4,4,4,-4 F,0,107266,114325,0.8 C,0,210765,,119,214,244 M,0,210765,212765,470,520,470,-40 F,0,210765,212765,1
Sprite,Background,Centre,"sb\pixel.png",0,0 L,210810,4 R,0,0,1200,0,6.283185 V,0,0,1200,4,4,4,-4 F,0,107266,114325,0.8 C,0,210810,,119,214,244 M,0,210810,212810,25,520,25,-40 F,0,210810,212810,1
Sprite,Background,Centre,"sb\pixel.png",0,0 L,210854,4 R,0,0,1200,0,6.283185 V,0,0,1200,4,4,4,-4 F,0,107266,114325,0.8 C,0,210854,,86,191,237 M,0,210854,212854,684,520,684,-40 F,0,210854,212854,1
Sprite,Background,Centre,"sb\pixel.png",0,0 L,210898,4 R,0,0,1200,0,6.283185 V,0,0,1200,4,4,4,-4 F,0,107266,114325,0.8 C,0,210898,,86,191,237 M,0,210898,212898,156,520,156,-40 F,0,210898,212898,1
Sprite,Background,Centre,"sb\pixel.png",0,0 L,210942,4 R,0,0,1200,0,6.283185 V,0,0,1200,4,4,4,-4 F,0,107266,114325,0.8 C,0,210942,,119,214,244 M,0,210942,212942,664,520,664,-40 F,0,210942,212942,1
Sprite,Background,Centre,"sb\pixel.png",0,0 L,210986,4 R,0,0,1200,0,6.283185 V,0,0,1200,4,4,4,-4 F,0,107266,114325,0.8 C,0,210986,,86,191,237 M,0,210986,212986,48,520,48,-40 F,0,210986,212986,1
Sprite,Background,Centre,"sb\pixel.png",0,0 L,211030,4 R,0,0,1200,0,6.283185 V,0,0,1200,4,4,4,-4 F,0,107266,114325,0.8 C,0,211030,,119,214,244 M,0,211030,213030,484,520,484,-40 F,0,211030,213030,1
Sprite,Background,Centre,"sb\pixel.png",0,0 L,211074,4 R,0,0,1200,0,6.283185 V,0,0,1200,4,4,4,-4 F,0,107266,114325,0.8 C,0,211074,,86,191,237 M,0,211074,213074,428,520,428,-40 F,0,211074,213074,1
Sprite,Background,Centre,"sb\pixel.png",0,0 L,211118,4 R,0,0,1200,0,6.283185 V,0,0,1200,4,4,4,-4 F,0,107266,114325,0.8 C,0,211118,,86,191,237 M,0,211118,213118,14,520,14,-40 F,0,211118,213118,1
Sprite,Background,Centre,"sb\pixel.png",0,0 L,211163,4 R,0,0,1200,0,6.283185 V,0,0,1200,4,4,4,-4 F,0,107266,114325,0.8 C,0,211163,,119,214,244 M,0,211163,213163,107,520,107,-40 F,0,211163,213163,1
Sprite,Background,Centre,"sb\pixel.png",0,0 L,211207,4 R,0,0,1200,0,6.283185 V,0,0,1200,4,4,4,-4 F,0,107266,114325,0.8 C,0,211207,,119,214,244 M,0,211207,213207,298,520,298,-40 F,0,211207,213207,1
Sprite,Background,Centre,"sb\pixel.png",0,0 L,211251,4 R,0,0,1200,0,6.283185 V,0,0,1200,4,4,4,-4 F,0,107266,114325,0.8 C,0,211251,,119,214,244 M,0,211251,213251,-106,520,-106,-40 F,0,211251,213251,1
Sprite,Background,Centre,"sb\pixel.png",0,0 L,211295,4 R,0,0,1200,0,6.283185 V,0,0,1200,4,4,4,-4 F,0,107266,114325,0.8 C,0,211295,,119,214,244 M,0,211295,213295,-84,520,-84,-40 F,0,211295,213295,1
Sprite,Background,Centre,"sb\pixel.png",0,0 L,211339,4 R,0,0,1200,0,6.283185 V,0,0,1200,4,4,4,-4 F,0,107266,114325,0.8 C,0,211339,,86,191,237 M,0,211339,213339,114,520,114,-40 F,0,211339,213339,1
Sprite,Background,Centre,"sb\pixel.png",0,0 L,211383,4 R,0,0,1200,0,6.283185 V,0,0,1200,4,4,4,-4 F,0,107266,114325,0.8 C,0,211383,,86,191,237 M,0,211383,213383,630,520,630,-40 F,0,211383,213383,1
Sprite,Background,Centre,"sb\pixel.png",0,0 L,211427,4 R,0,0,1200,0,6.283185 V,0,0,1200,4,4,4,-4 F,0,107266,114325,0.8 C,0,211427,,119,214,244 M,0,211427,213427,163,520,163,-40 F,0,211427,213427,1
Sprite,Background,Centre,"sb\pixel.png",0,0 L,211471,4 R,0,0,1200,0,6.283185 V,0,0,1200,4,4,4,-4 F,0,107266,114325,0.8 C,0,211471,,119,214,244 M,0,211471,213471,250,520,250,-40 F,0,211471,213471,1
Sprite,Background,Centre,"sb\pixel.png",0,0 L,211515,4 R,0,0,1200,0,6.283185 V,0,0,1200,4,4,4,-4 F,0,107266,114325,0.8 C,0,211515,,119,214,244 M,0,211515,213515,426,520,426,-40 F,0,211515,213515,1
Sprite,Background,Centre,"sb\pixel.png",0,0 L,211560,4 R,0,0,1200,0,6.283185 V,0,0,1200,4,4,4,-4 F,0,107266,114325,0.8 C,0,211560,,86,191,237 M,0,211560,213560,-13,520,-13,-40 F,0,211560,213560,1
Sprite,Background,Centre,"sb\pixel.png",0,0 L,211604,4 R,0,0,1200,0,6.283185 V,0,0,1200,4,4,4,-4 F,0,107266,114325,0.8 C,0,211604,,119,214,244 M,0,211604,213604,372,520,372,-40 F,0,211604,213604,1
Sprite,Background,Centre,"sb\pixel.png",0,0 L,211648,4 R,0,0,1200,0,6.283185 V,0,0,1200,4,4,4,-4 F,0,107266,114325,0.8 C,0,211648,,86,191,237 M,0,211648,213648,633,520,633,-40 F,0,211648,213648,1
Sprite,Background,Centre,"sb\pixel.png",0,0 L,211692,4 R,0,0,1200,0,6.283185 V,0,0,1200,4,4,4,-4 F,0,107266,114325,0.8 C,0,211692,,119,214,244 M,0,211692,213692,165,520,165,-40 F,0,211692,213692,1
Sprite,Background,Centre,"sb\pixel.png",0,0 L,211736,4 R,0,0,1200,0,6.283185 V,0,0,1200,4,4,4,-4 F,0,107266,114325,0.8 C,0,211736,,119,214,244 M,0,211736,213736,72,520,72,-40 F,0,211736,213736,1
Sprite,Background,Centre,"sb\pixel.png",0,0 L,211780,4 R,0,0,1200,0,6.283185 V,0,0,1200,4,4,4,-4 F,0,107266,114325,0.8 C,0,211780,,86,191,237 M,0,211780,213780,252,520,252,-40 F,0,211780,213780,1
Sprite,Background,Centre,"sb\pixel.png",0,0 L,211824,4 R,0,0,1200,0,6.283185 V,0,0,1200,4,4,4,-4 F,0,107266,114325,0.8 C,0,211824,,119,214,244 M,0,211824,213824,145,520,145,-40 F,0,211824,213824,1
Sprite,Background,Centre,"sb\pixel.png",0,0 L,211868,4 R,0,0,1200,0,6.283185 V,0,0,1200,4,4,4,-4 F,0,107266,114325,0.8 C,0,211868,,119,214,244 M,0,211868,213868,132,520,132,-40 F,0,211868,213868,1
Sprite,Background,Centre,"sb\pixel.png",0,0 L,211913,4 R,0,0,1200,0,6.283185 V,0,0,1200,4,4,4,-4 F,0,107266,114325,0.8 C,0,211913,,119,214,244 M,0,211913,213913,690,520,690,-40 F,0,211913,213913,1
Sprite,Background,Centre,"sb\pixel.png",0,0 L,211957,4 R,0,0,1200,0,6.283185 V,0,0,1200,4,4,4,-4 F,0,107266,114325,0.8 C,0,211957,,119,214,244 M,0,211957,213957,-70,520,-70,-40 F,0,211957,213957,1
Sprite,Background,Centre,"sb\pixel.png",0,0 L,212001,4 R,0,0,1200,0,6.283185 V,0,0,1200,4,4,4,-4 F,0,107266,114325,0.8 C,0,212001,,86,191,237 M,0,212001,214001,7,520,7,-40 F,0,212001,214001,1
Sprite,Background,Centre,"sb\pixel.png",0,0 L,212045,4 R,0,0,1200,0,6.283185 V,0,0,1200,4,4,4,-4 F,0,107266,114325,0.8 C,0,212045,,86,191,237 M,0,212045,214045,155,520,155,-40 F,0,212045,214045,1
Sprite,Background,Centre,"sb\pixel.png",0,0 L,212089,4 R,0,0,1200,0,6.283185 V,0,0,1200,4,4,4,-4 F,0,107266,114325,0.8 C,0,212089,,86,191,237 M,0,212089,214089,443,520,443,-40 F,0,212089,214089,1
Sprite,Background,Centre,"sb\pixel.png",0,0 L,212133,4 R,0,0,1200,0,6.283185 V,0,0,1200,4,4,4,-4 F,0,107266,114325,0.8 C,0,212133,,119,214,244 M,0,212133,214133,-4,520,-4,-40 F,0,212133,214133,1
Sprite,Background,Centre,"sb\pixel.png",0,0 L,212177,4 R,0,0,1200,0,6.283185 V,0,0,1200,4,4,4,-4 F,0,107266,114325,0.8 C,0,212177,,86,191,237 M,0,212177,214177,34,520,34,-40 F,0,212177,214177,1
Sprite,Background,Centre,"sb\pixel.png",0,0 L,212221,4 R,0,0,1200,0,6.283185 V,0,0,1200,4,4,4,-4 F,0,107266,114325,0.8 C,0,212221,,86,191,237 M,0,212221,214221,-3,520,-3,-40 F,0,212221,214221,1
Sprite,Background,Centre,"sb\pixel.png",0,0 L,212265,4 R,0,0,1200,0,6.283185 V,0,0,1200,4,4,4,-4 F,0,107266,114325,0.8 C,0,212265,,86,191,237 M,0,212265,214265,344,520,344,-40 F,0,212265,214265,1
Sprite,Background,Centre,"sb\pixel.png",0,0 L,212310,4 R,0,0,1200,0,6.283185 V,0,0,1200,4,4,4,-4 F,0,107266,114325,0.8 C,0,212310,,86,191,237 M,0,212310,214310,541,520,541,-40 F,0,212310,214310,1
Sprite,Background,Centre,"sb\pixel.png",0,0 L,212354,4 R,0,0,1200,0,6.283185 V,0,0,1200,4,4,4,-4 F,0,107266,114325,0.8 C,0,212354,,119,214,244 M,0,212354,214354,242,520,242,-40 F,0,212354,214354,1
Sprite,Background,Centre,"sb\pixel.png",0,0 L,212398,4 R,0,0,1200,0,6.283185 V,0,0,1200,4,4,4,-4 F,0,107266,114325,0.8 C,0,212398,,119,214,244 M,0,212398,214398,237,520,237,-40 F,0,212398,214398,1
Sprite,Background,Centre,"sb\pixel.png",0,0 L,212442,4 R,0,0,1200,0,6.283185 V,0,0,1200,4,4,4,-4 F,0,107266,114325,0.8 C,0,212442,,86,191,237 M,0,212442,214442,682,520,682,-40 F,0,212442,214442,1
Sprite,Background,Centre,"sb\pixel.png",0,0 L,212486,4 R,0,0,1200,0,6.283185 V,0,0,1200,4,4,4,-4 F,0,107266,114325,0.8 C,0,212486,,86,191,237 M,0,212486,214486,-52,520,-52,-40 F,0,212486,214486,1
Sprite,Background,Centre,"sb\pixel.png",0,0 L,212530,4 R,0,0,1200,0,6.283185 V,0,0,1200,4,4,4,-4 F,0,107266,114325,0.8 C,0,212530,,86,191,237 M,0,212530,214530,580,520,580,-40 F,0,212530,214530,1
Sprite,Background,Centre,"sb\pixel.png",0,0 L,212574,4 R,0,0,1200,0,6.283185 V,0,0,1200,4,4,4,-4 F,0,107266,114325,0.8 C,0,212574,,119,214,244 M,0,212574,214574,291,520,291,-40 F,0,212574,214574,1
Sprite,Background,Centre,"sb\pixel.png",0,0 L,212618,4 R,0,0,1200,0,6.283185 V,0,0,1200,4,4,4,-4 F,0,107266,114325,0.8 C,0,212618,,119,214,244 M,0,212618,214618,236,520,236,-40 F,0,212618,214618,1
Sprite,Background,Centre,"sb\pixel.png",0,0 L,212663,4 R,0,0,1200,0,6.283185 V,0,0,1200,4,4,4,-4 F,0,107266,114325,0.8 C,0,212663,,119,214,244 M,0,212663,214663,355,520,355,-40 F,0,212663,214663,1
Sprite,Background,Centre,"sb\pixel.png",0,0 L,212707,4 R,0,0,1200,0,6.283185 V,0,0,1200,4,4,4,-4 F,0,107266,114325,0.8 C,0,212707,,119,214,244 M,0,212707,214707,-50,520,-50,-40 F,0,212707,214707,1
Sprite,Background,Centre,"sb\pixel.png",0,0 L,212751,4 R,0,0,1200,0,6.283185 V,0,0,1200,4,4,4,-4 F,0,107266,114325,0.8 C,0,212751,,119,214,244 M,0,212751,214751,660,520,660,-40 F,0,212751,214751,1
Sprite,Background,Centre,"sb\pixel.png",0,0 L,212795,4 R,0,0,1200,0,6.283185 V,0,0,1200,4,4,4,-4 F,0,107266,114325,0.8 C,0,212795,,86,191,237 M,0,212795,214795,116,520,116,-40 F,0,212795,214795,1
Sprite,Background,Centre,"sb\pixel.png",0,0 L,212839,4 R,0,0,1200,0,6.283185 V,0,0,1200,4,4,4,-4 F,0,107266,114325,0.8 C,0,212839,,119,214,244 M,0,212839,214839,287,520,287,-40 F,0,212839,214839,1
Sprite,Background,Centre,"sb\pixel.png",0,0 L,212883,4 R,0,0,1200,0,6.283185 V,0,0,1200,4,4,4,-4 F,0,107266,114325,0.8 C,0,212883,,119,214,244 M,0,212883,214883,642,520,642,-40 F,0,212883,214883,1
Sprite,Background,Centre,"sb\pixel.png",0,0 L,212927,4 R,0,0,1200,0,6.283185 V,0,0,1200,4,4,4,-4 F,0,107266,114325,0.8 C,0,212927,,119,214,244 M,0,212927,214927,737,520,737,-40 F,0,212927,214927,1
Sprite,Background,Centre,"sb\pixel.png",0,0 L,212971,4 R,0,0,1200,0,6.283185 V,0,0,1200,4,4,4,-4 F,0,107266,114325,0.8 C,0,212971,,86,191,237 M,0,212971,214971,174,520,174,-40 F,0,212971,214971,1
Sprite,Background,Centre,"sb\pixel.png",0,0 L,213015,4 R,0,0,1200,0,6.283185 V,0,0,1200,4,4,4,-4 F,0,107266,114325,0.8 C,0,213015,,86,191,237 M,0,213015,215015,-81,520,-81,-40 F,0,213015,215015,1
Sprite,Background,Centre,"sb\pixel.png",0,0 L,213060,4 R,0,0,1200,0,6.283185 V,0,0,1200,4,4,4,-4 F,0,107266,114325,0.8 C,0,213060,,86,191,237 M,0,213060,215060,445,520,445,-40 F,0,213060,215060,1
Sprite,Background,Centre,"sb\pixel.png",0,0 L,213104,4 R,0,0,1200,0,6.283185 V,0,0,1200,4,4,4,-4 F,0,107266,114325,0.8 C,0,213104,,86,191,237 M,0,213104,215104,504,520,504,-40 F,0,213104,215104,1
Sprite,Background,Centre,"sb\pixel.png",0,0 L,213148,4 R,0,0,1200,0,6.283185 V,0,0,1200,4,4,4,-4 F,0,107266,114325,0.8 C,0,213148,,86,191,237 M,0,213148,215148,661,520,661,-40 F,0,213148,215148,1
Sprite,Background,Centre,"sb\pixel.png",0,0 L,213192,4 R,0,0,1200,0,6.283185 V,0,0,1200,4,4,4,-4 F,0,107266,114325,0.8 C,0,213192,,119,214,244 M,0,213192,215192,327,520,327,-40 F,0,213192,215192,1
Sprite,Background,Centre,"sb\pixel.png",0,0 L,213236,4 R,0,0,1200,0,6.283185 V,0,0,1200,4,4,4,-4 F,0,107266,114325,0.8 C,0,213236,,86,191,237 M,0,213236,215236,588,520,588,-40 F,0,213236,215236,1
Sprite,Background,Centre,"sb\pixel.png",0,0 L,213280,4 R,0,0,1200,0,6.283185 V,0,0,1200,4,4,4,-4 F,0,107266,114325,0.8 C,0,213280,,86,191,237 M,0,213280,215280,657,520,657,-40 F,0,213280,215280,1
Sprite,Background,Centre,"sb\pixel.png",0,0 L,213324,4 R,0,0,1200,0,6.283185 V,0,0,1200,4,4,4,-4 F,0,107266,114325,0.8 C,0,213324,,86,191,237 M,0,213324,215324,-38,520,-38,-40 F,0,213324,215324,1
Sprite,Background,Centre,"sb\pixel.png",0,0 L,213368,4 R,0,0,1200,0,6.283185 V,0,0,1200,4,4,4,-4 F,0,107266,114325,0.8 C,0,213368,,86,191,237 M,0,213368,215368,593,520,593,-40 F,0,213368,215368,1
Sprite,Background,Centre,"sb\pixel.png",0,0 L,213413,4 R,0,0,1200,0,6.283185 V,0,0,1200,4,4,4,-4 F,0,107266,114325,0.8 C,0,213413,,119,214,244 M,0,213413,215413,34,520,34,-40 F,0,213413,215413,1
Sprite,Background,Centre,"sb\pixel.png",0,0 L,213457,4 R,0,0,1200,0,6.283185 V,0,0,1200,4,4,4,-4 F,0,107266,114325,0.8 C,0,213457,,119,214,244 M,0,213457,215457,331,520,331,-40 F,0,213457,215457,1
Sprite,Background,Centre,"sb\pixel.png",0,0 L,213501,4 R,0,0,1200,0,6.283185 V,0,0,1200,4,4,4,-4 F,0,107266,114325,0.8 C,0,213501,,86,191,237 M,0,213501,215501,486,520,486,-40 F,0,213501,215501,1
Sprite,Background,Centre,"sb\pixel.png",0,0 L,213545,4 R,0,0,1200,0,6.283185 V,0,0,1200,4,4,4,-4 F,0,107266,114325,0.8 C,0,213545,,86,191,237 M,0,213545,215545,159,520,159,-40 F,0,213545,215545,1
Sprite,Background,Centre,"sb\pixel.png",0,0 L,213589,4 R,0,0,1200,0,6.283185 V,0,0,1200,4,4,4,-4 F,0,107266,114325,0.8 C,0,213589,,119,214,244 M,0,213589,215589,475,520,475,-40 F,0,213589,215589,1
Sprite,Background,Centre,"sb\pixel.png",0,0 L,213633,4 R,0,0,1200,0,6.283185 V,0,0,1200,4,4,4,-4 F,0,107266,114325,0.8 C,0,213633,,86,191,237 M,0,213633,215633,402,520,402,-40 F,0,213633,215633,1
Sprite,Background,Centre,"sb\pixel.png",0,0 L,213677,4 R,0,0,1200,0,6.283185 V,0,0,1200,4,4,4,-4 F,0,107266,114325,0.8 C,0,213677,,86,191,237 M,0,213677,215677,625,520,625,-40 F,0,213677,215677,1
Sprite,Background,Centre,"sb\pixel.png",0,0 L,213721,4 R,0,0,1200,0,6.283185 V,0,0,1200,4,4,4,-4 F,0,107266,114325,0.8 C,0,213721,,86,191,237 M,0,213721,215721,103,520,103,-40 F,0,213721,215721,1
Sprite,Background,Centre,"sb\pixel.png",0,0 L,213765,4 R,0,0,1200,0,6.283185 V,0,0,1200,4,4,4,-4 F,0,107266,114325,0.8 C,0,213765,,86,191,237 M,0,213765,215765,463,520,463,-40 F,0,213765,215765,1
Sprite,Background,Centre,"sb\pixel.png",0,0 L,213810,4 R,0,0,1200,0,6.283185 V,0,0,1200,4,4,4,-4 F,0,107266,114325,0.8 C,0,213810,,86,191,237 M,0,213810,215810,585,520,585,-40 F,0,213810,215810,1
Sprite,Background,Centre,"sb\pixel.png",0,0 L,213854,4 R,0,0,1200,0,6.283185 V,0,0,1200,4,4,4,-4 F,0,107266,114325,0.8 C,0,213854,,86,191,237 M,0,213854,215854,298,520,298,-40 F,0,213854,215854,1
Sprite,Background,Centre,"sb\pixel.png",0,0 L,213898,4 R,0,0,1200,0,6.283185 V,0,0,1200,4,4,4,-4 F,0,107266,114325,0.8 C,0,213898,,119,214,244 M,0,213898,215898,77,520,77,-40 F,0,213898,215898,1
Sprite,Background,Centre,"sb\pixel.png",0,0 L,213942,4 R,0,0,1200,0,6.283185 V,0,0,1200,4,4,4,-4 F,0,107266,114325,0.8 C,0,213942,,86,191,237 M,0,213942,215942,475,520,475,-40 F,0,213942,215942,1
Sprite,Background,Centre,"sb\pixel.png",0,0 L,213986,4 R,0,0,1200,0,6.283185 V,0,0,1200,4,4,4,-4 F,0,107266,114325,0.8 C,0,213986,,86,191,237 M,0,213986,215986,247,520,247,-40 F,0,213986,215986,1
Sprite,Background,Centre,"sb\pixel.png",0,0 L,214030,4 R,0,0,1200,0,6.283185 V,0,0,1200,4,4,4,-4 F,0,107266,114325,0.8 C,0,214030,,86,191,237 M,0,214030,216030,717,520,717,-40 F,0,214030,216030,1
Sprite,Background,Centre,"sb\pixel.png",0,0 L,214074,4 R,0,0,1200,0,6.283185 V,0,0,1200,4,4,4,-4 F,0,107266,114325,0.8 C,0,214074,,119,214,244 M,0,214074,216074,96,520,96,-40 F,0,214074,216074,1
Sprite,Background,Centre,"sb\pixel.png",0,0 L,214118,4 R,0,0,1200,0,6.283185 V,0,0,1200,4,4,4,-4 F,0,107266,114325,0.8 C,0,214118,,119,214,244 M,0,214118,216118,129,520,129,-40 F,0,214118,216118,1
Sprite,Background,Centre,"sb\pixel.png",0,0 L,214163,4 R,0,0,1200,0,6.283185 V,0,0,1200,4,4,4,-4 F,0,107266,114325,0.8 C,0,214163,,119,214,244 M,0,214163,216163,181,520,181,-40 F,0,214163,216163,1
Sprite,Background,Centre,"sb\pixel.png",0,0 L,214207,4 R,0,0,1200,0,6.283185 V,0,0,1200,4,4,4,-4 F,0,107266,114325,0.8 C,0,214207,,86,191,237 M,0,214207,216207,171,520,171,-40 F,0,214207,216207,1
Sprite,Background,Centre,"sb\pixel.png",0,0 L,214251,4 R,0,0,1200,0,6.283185 V,0,0,1200,4,4,4,-4 F,0,107266,114325,0.8 C,0,214251,,119,214,244 M,0,214251,216251,-102,520,-102,-40 F,0,214251,216251,1
Sprite,Background,Centre,"sb\pixel.png",0,0 L,214295,4 R,0,0,1200,0,6.283185 V,0,0,1200,4,4,4,-4 F,0,107266,114325,0.8 C,0,214295,,119,214,244 M,0,214295,216295,229,520,229,-40 F,0,214295,216295,1
Sprite,Background,Centre,"sb\pixel.png",0,0 L,214339,4 R,0,0,1200,0,6.283185 V,0,0,1200,4,4,4,-4 F,0,107266,114325,0.8 C,0,214339,,86,191,237 M,0,214339,216339,-16,520,-16,-40 F,0,214339,216339,1
Sprite,Background,Centre,"sb\pixel.png",0,0 L,214383,4 R,0,0,1200,0,6.283185 V,0,0,1200,4,4,4,-4 F,0,107266,114325,0.8 C,0,214383,,86,191,237 M,0,214383,216383,723,520,723,-40 F,0,214383,216383,1
Sprite,Background,Centre,"sb\pixel.png",0,0 L,214427,4 R,0,0,1200,0,6.283185 V,0,0,1200,4,4,4,-4 F,0,107266,114325,0.8 C,0,214427,,119,214,244 M,0,214427,216427,258,520,258,-40 F,0,214427,216427,1
Sprite,Background,Centre,"sb\pixel.png",0,0 L,214471,4 R,0,0,1200,0,6.283185 V,0,0,1200,4,4,4,-4 F,0,107266,114325,0.8 C,0,214471,,86,191,237 M,0,214471,216471,307,520,307,-40 F,0,214471,216471,1
Sprite,Background,Centre,"sb\pixel.png",0,0 L,214515,4 R,0,0,1200,0,6.283185 V,0,0,1200,4,4,4,-4 F,0,107266,114325,0.8 C,0,214515,,119,214,244 M,0,214515,216515,130,520,130,-40 F,0,214515,216515,1
Sprite,Background,Centre,"sb\pixel.png",0,0 L,221619,4 R,0,0,1200,0,6.283185 V,0,0,1200,4,4,4,-4 F,0,107266,114325,0.8 C,0,221619,,119,214,244 M,0,221619,223619,621,520,621,-40 F,0,221619,223619,1
Sprite,Background,Centre,"sb\pixel.png",0,0 L,221663,4 R,0,0,1200,0,6.283185 V,0,0,1200,4,4,4,-4 F,0,107266,114325,0.8 C,0,221663,,119,214,244 M,0,221663,223663,319,520,319,-40 F,0,221663,223663,1
Sprite,Background,Centre,"sb\pixel.png",0,0 L,221707,4 R,0,0,1200,0,6.283185 V,0,0,1200,4,4,4,-4 F,0,107266,114325,0.8 C,0,221707,,119,214,244 M,0,221707,223707,568,520,568,-40 F,0,221707,223707,1
Sprite,Background,Centre,"sb\pixel.png",0,0 L,221751,4 R,0,0,1200,0,6.283185 V,0,0,1200,4,4,4,-4 F,0,107266,114325,0.8 C,0,221751,,119,214,244 M,0,221751,223751,452,520,452,-40 F,0,221751,223751,1
Sprite,Background,Centre,"sb\pixel.png",0,0 L,221795,4 R,0,0,1200,0,6.283185 V,0,0,1200,4,4,4,-4 F,0,107266,114325,0.8 C,0,221795,,86,191,237 M,0,221795,223795,-11,520,-11,-40 F,0,221795,223795,1
Sprite,Background,Centre,"sb\pixel.png",0,0 L,221839,4 R,0,0,1200,0,6.283185 V,0,0,1200,4,4,4,-4 F,0,107266,114325,0.8 C,0,221839,,119,214,244 M,0,221839,223839,390,520,390,-40 F,0,221839,223839,1
Sprite,Background,Centre,"sb\pixel.png",0,0 L,221883,4 R,0,0,1200,0,6.283185 V,0,0,1200,4,4,4,-4 F,0,107266,114325,0.8 C,0,221883,,119,214,244 M,0,221883,223883,614,520,614,-40 F,0,221883,223883,1
Sprite,Background,Centre,"sb\pixel.png",0,0 L,221927,4 R,0,0,1200,0,6.283185 V,0,0,1200,4,4,4,-4 F,0,107266,114325,0.8 C,0,221927,,86,191,237 M,0,221927,223927,362,520,362,-40 F,0,221927,223927,1
Sprite,Background,Centre,"sb\pixel.png",0,0 L,221971,4 R,0,0,1200,0,6.283185 V,0,0,1200,4,4,4,-4 F,0,107266,114325,0.8 C,0,221971,,86,191,237 M,0,221971,223971,84,520,84,-40 F,0,221971,223971,1
Sprite,Background,Centre,"sb\pixel.png",0,0 L,222016,4 R,0,0,1200,0,6.283185 V,0,0,1200,4,4,4,-4 F,0,107266,114325,0.8 C,0,222016,,86,191,237 M,0,222016,224016,438,520,438,-40 F,0,222016,224016,1
Sprite,Background,Centre,"sb\pixel.png",0,0 L,222060,4 R,0,0,1200,0,6.283185 V,0,0,1200,4,4,4,-4 F,0,107266,114325,0.8 C,0,222060,,86,191,237 M,0,222060,224060,541,520,541,-40 F,0,222060,224060,1
Sprite,Background,Centre,"sb\pixel.png",0,0 L,222104,4 R,0,0,1200,0,6.283185 V,0,0,1200,4,4,4,-4 F,0,107266,114325,0.8 C,0,222104,,119,214,244 M,0,222104,224104,150,520,150,-40 F,0,222104,224104,1
Sprite,Background,Centre,"sb\pixel.png",0,0 L,222148,4 R,0,0,1200,0,6.283185 V,0,0,1200,4,4,4,-4 F,0,107266,114325,0.8 C,0,222148,,119,214,244 M,0,222148,224148,442,520,442,-40 F,0,222148,224148,1
Sprite,Background,Centre,"sb\pixel.png",0,0 L,222192,4 R,0,0,1200,0,6.283185 V,0,0,1200,4,4,4,-4 F,0,107266,114325,0.8 C,0,222192,,119,214,244 M,0,222192,224192,342,520,342,-40 F,0,222192,224192,1
Sprite,Background,Centre,"sb\pixel.png",0,0 L,222236,4 R,0,0,1200,0,6.283185 V,0,0,1200,4,4,4,-4 F,0,107266,114325,0.8 C,0,222236,,119,214,244 M,0,222236,224236,50,520,50,-40 F,0,222236,224236,1
Sprite,Background,Centre,"sb\pixel.png",0,0 L,222280,4 R,0,0,1200,0,6.283185 V,0,0,1200,4,4,4,-4 F,0,107266,114325,0.8 C,0,222280,,119,214,244 M,0,222280,224280,-71,520,-71,-40 F,0,222280,224280,1
Sprite,Background,Centre,"sb\pixel.png",0,0 L,222324,4 R,0,0,1200,0,6.283185 V,0,0,1200,4,4,4,-4 F,0,107266,114325,0.8 C,0,222324,,86,191,237 M,0,222324,224324,96,520,96,-40 F,0,222324,224324,1
Sprite,Background,Centre,"sb\pixel.png",0,0 L,222369,4 R,0,0,1200,0,6.283185 V,0,0,1200,4,4,4,-4 F,0,107266,114325,0.8 C,0,222369,,119,214,244 M,0,222369,224369,201,520,201,-40 F,0,222369,224369,1
Sprite,Background,Centre,"sb\pixel.png",0,0 L,222413,4 R,0,0,1200,0,6.283185 V,0,0,1200,4,4,4,-4 F,0,107266,114325,0.8 C,0,222413,,86,191,237 M,0,222413,224413,332,520,332,-40 F,0,222413,224413,1
Sprite,Background,Centre,"sb\pixel.png",0,0 L,222457,4 R,0,0,1200,0,6.283185 V,0,0,1200,4,4,4,-4 F,0,107266,114325,0.8 C,0,222457,,119,214,244 M,0,222457,224457,347,520,347,-40 F,0,222457,224457,1
Sprite,Background,Centre,"sb\pixel.png",0,0 L,222501,4 R,0,0,1200,0,6.283185 V,0,0,1200,4,4,4,-4 F,0,107266,114325,0.8 C,0,222501,,86,191,237 M,0,222501,224501,-75,520,-75,-40 F,0,222501,224501,1
Sprite,Background,Centre,"sb\pixel.png",0,0 L,222545,4 R,0,0,1200,0,6.283185 V,0,0,1200,4,4,4,-4 F,0,107266,114325,0.8 C,0,222545,,86,191,237 M,0,222545,224545,-103,520,-103,-40 F,0,222545,224545,1
Sprite,Background,Centre,"sb\pixel.png",0,0 L,222589,4 R,0,0,1200,0,6.283185 V,0,0,1200,4,4,4,-4 F,0,107266,114325,0.8 C,0,222589,,86,191,237 M,0,222589,224589,392,520,392,-40 F,0,222589,224589,1
Sprite,Background,Centre,"sb\pixel.png",0,0 L,222633,4 R,0,0,1200,0,6.283185 V,0,0,1200,4,4,4,-4 F,0,107266,114325,0.8 C,0,222633,,86,191,237 M,0,222633,224633,723,520,723,-40 F,0,222633,224633,1
Sprite,Background,Centre,"sb\pixel.png",0,0 L,222677,4 R,0,0,1200,0,6.283185 V,0,0,1200,4,4,4,-4 F,0,107266,114325,0.8 C,0,222677,,86,191,237 M,0,222677,224677,5,520,5,-40 F,0,222677,224677,1
Sprite,Background,Centre,"sb\pixel.png",0,0 L,222721,4 R,0,0,1200,0,6.283185 V,0,0,1200,4,4,4,-4 F,0,107266,114325,0.8 C,0,222721,,86,191,237 M,0,222721,224721,-83,520,-83,-40 F,0,222721,224721,1
Sprite,Background,Centre,"sb\pixel.png",0,0 L,222766,4 R,0,0,1200,0,6.283185 V,0,0,1200,4,4,4,-4 F,0,107266,114325,0.8 C,0,222766,,119,214,244 M,0,222766,224766,141,520,141,-40 F,0,222766,224766,1
Sprite,Background,Centre,"sb\pixel.png",0,0 L,222810,4 R,0,0,1200,0,6.283185 V,0,0,1200,4,4,4,-4 F,0,107266,114325,0.8 C,0,222810,,119,214,244 M,0,222810,224810,368,520,368,-40 F,0,222810,224810,1
Sprite,Background,Centre,"sb\pixel.png",0,0 L,222854,4 R,0,0,1200,0,6.283185 V,0,0,1200,4,4,4,-4 F,0,107266,114325,0.8 C,0,222854,,119,214,244 M,0,222854,224854,596,520,596,-40 F,0,222854,224854,1
Sprite,Background,Centre,"sb\pixel.png",0,0 L,222898,4 R,0,0,1200,0,6.283185 V,0,0,1200,4,4,4,-4 F,0,107266,114325,0.8 C,0,222898,,119,214,244 M,0,222898,224898,551,520,551,-40 F,0,222898,224898,1
Sprite,Background,Centre,"sb\pixel.png",0,0 L,222942,4 R,0,0,1200,0,6.283185 V,0,0,1200,4,4,4,-4 F,0,107266,114325,0.8 C,0,222942,,86,191,237 M,0,222942,224942,310,520,310,-40 F,0,222942,224942,1
Sprite,Background,Centre,"sb\pixel.png",0,0 L,222986,4 R,0,0,1200,0,6.283185 V,0,0,1200,4,4,4,-4 F,0,107266,114325,0.8 C,0,222986,,86,191,237 M,0,222986,224986,659,520,659,-40 F,0,222986,224986,1
Sprite,Background,Centre,"sb\pixel.png",0,0 L,223030,4 R,0,0,1200,0,6.283185 V,0,0,1200,4,4,4,-4 F,0,107266,114325,0.8 C,0,223030,,86,191,237 M,0,223030,225030,525,520,525,-40 F,0,223030,225030,1
Sprite,Background,Centre,"sb\pixel.png",0,0 L,223074,4 R,0,0,1200,0,6.283185 V,0,0,1200,4,4,4,-4 F,0,107266,114325,0.8 C,0,223074,,86,191,237 M,0,223074,225074,685,520,685,-40 F,0,223074,225074,1
Sprite,Background,Centre,"sb\pixel.png",0,0 L,223119,4 R,0,0,1200,0,6.283185 V,0,0,1200,4,4,4,-4 F,0,107266,114325,0.8 C,0,223119,,119,214,244 M,0,223119,225119,-89,520,-89,-40 F,0,223119,225119,1
Sprite,Background,Centre,"sb\pixel.png",0,0 L,223163,4 R,0,0,1200,0,6.283185 V,0,0,1200,4,4,4,-4 F,0,107266,114325,0.8 C,0,223163,,119,214,244 M,0,223163,225163,173,520,173,-40 F,0,223163,225163,1
Sprite,Background,Centre,"sb\pixel.png",0,0 L,223207,4 R,0,0,1200,0,6.283185 V,0,0,1200,4,4,4,-4 F,0,107266,114325,0.8 C,0,223207,,119,214,244 M,0,223207,225207,227,520,227,-40 F,0,223207,225207,1
Sprite,Background,Centre,"sb\pixel.png",0,0 L,223251,4 R,0,0,1200,0,6.283185 V,0,0,1200,4,4,4,-4 F,0,107266,114325,0.8 C,0,223251,,86,191,237 M,0,223251,225251,693,520,693,-40 F,0,223251,225251,1
Sprite,Background,Centre,"sb\pixel.png",0,0 L,223295,4 R,0,0,1200,0,6.283185 V,0,0,1200,4,4,4,-4 F,0,107266,114325,0.8 C,0,223295,,86,191,237 M,0,223295,225295,479,520,479,-40 F,0,223295,225295,1
Sprite,Background,Centre,"sb\pixel.png",0,0 L,223339,4 R,0,0,1200,0,6.283185 V,0,0,1200,4,4,4,-4 F,0,107266,114325,0.8 C,0,223339,,86,191,237 M,0,223339,225339,509,520,509,-40 F,0,223339,225339,1
Sprite,Background,Centre,"sb\pixel.png",0,0 L,223383,4 R,0,0,1200,0,6.283185 V,0,0,1200,4,4,4,-4 F,0,107266,114325,0.8 C,0,223383,,86,191,237 M,0,223383,225383,257,520,257,-40 F,0,223383,225383,1
Sprite,Background,Centre,"sb\pixel.png",0,0 L,223427,4 R,0,0,1200,0,6.283185 V,0,0,1200,4,4,4,-4 F,0,107266,114325,0.8 C,0,223427,,86,191,237 M,0,223427,225427,635,520,635,-40 F,0,223427,225427,1
Sprite,Background,Centre,"sb\pixel.png",0,0 L,223471,4 R,0,0,1200,0,6.283185 V,0,0,1200,4,4,4,-4 F,0,107266,114325,0.8 C,0,223471,,119,214,244 M,0,223471,225471,7,520,7,-40 F,0,223471,225471,1
Sprite,Background,Centre,"sb\pixel.png",0,0 L,223516,4 R,0,0,1200,0,6.283185 V,0,0,1200,4,4,4,-4 F,0,107266,114325,0.8 C,0,223516,,86,191,237 M,0,223516,225516,530,520,530,-40 F,0,223516,225516,1
Sprite,Background,Centre,"sb\pixel.png",0,0 L,223560,4 R,0,0,1200,0,6.283185 V,0,0,1200,4,4,4,-4 F,0,107266,114325,0.8 C,0,223560,,119,214,244 M,0,223560,225560,206,520,206,-40 F,0,223560,225560,1
Sprite,Background,Centre,"sb\pixel.png",0,0 L,223604,4 R,0,0,1200,0,6.283185 V,0,0,1200,4,4,4,-4 F,0,107266,114325,0.8 C,0,223604,,119,214,244 M,0,223604,225604,173,520,173,-40 F,0,223604,225604,1
Sprite,Background,Centre,"sb\pixel.png",0,0 L,223648,4 R,0,0,1200,0,6.283185 V,0,0,1200,4,4,4,-4 F,0,107266,114325,0.8 C,0,223648,,119,214,244 M,0,223648,225648,22,520,22,-40 F,0,223648,225648,1
Sprite,Background,Centre,"sb\pixel.png",0,0 L,223692,4 R,0,0,1200,0,6.283185 V,0,0,1200,4,4,4,-4 F,0,107266,114325,0.8 C,0,223692,,119,214,244 M,0,223692,225692,595,520,595,-40 F,0,223692,225692,1
Sprite,Background,Centre,"sb\pixel.png",0,0 L,223736,4 R,0,0,1200,0,6.283185 V,0,0,1200,4,4,4,-4 F,0,107266,114325,0.8 C,0,223736,,119,214,244 M,0,223736,225736,-85,520,-85,-40 F,0,223736,225736,1
Sprite,Background,Centre,"sb\pixel.png",0,0 L,223780,4 R,0,0,1200,0,6.283185 V,0,0,1200,4,4,4,-4 F,0,107266,114325,0.8 C,0,223780,,119,214,244 M,0,223780,225780,636,520,636,-40 F,0,223780,225780,1
Sprite,Background,Centre,"sb\pixel.png",0,0 L,223824,4 R,0,0,1200,0,6.283185 V,0,0,1200,4,4,4,-4 F,0,107266,114325,0.8 C,0,223824,,119,214,244 M,0,223824,225824,-96,520,-96,-40 F,0,223824,225824,1
Sprite,Background,Centre,"sb\pixel.png",0,0 L,223869,4 R,0,0,1200,0,6.283185 V,0,0,1200,4,4,4,-4 F,0,107266,114325,0.8 C,0,223869,,86,191,237 M,0,223869,225869,378,520,378,-40 F,0,223869,225869,1
Sprite,Background,Centre,"sb\pixel.png",0,0 L,223913,4 R,0,0,1200,0,6.283185 V,0,0,1200,4,4,4,-4 F,0,107266,114325,0.8 C,0,223913,,86,191,237 M,0,223913,225913,111,520,111,-40 F,0,223913,225913,1
Sprite,Background,Centre,"sb\pixel.png",0,0 L,223957,4 R,0,0,1200,0,6.283185 V,0,0,1200,4,4,4,-4 F,0,107266,114325,0.8 C,0,223957,,86,191,237 M,0,223957,225957,37,520,37,-40 F,0,223957,225957,1
Sprite,Background,Centre,"sb\pixel.png",0,0 L,224001,4 R,0,0,1200,0,6.283185 V,0,0,1200,4,4,4,-4 F,0,107266,114325,0.8 C,0,224001,,86,191,237 M,0,224001,226001,204,520,204,-40 F,0,224001,226001,1
Sprite,Background,Centre,"sb\pixel.png",0,0 L,224045,4 R,0,0,1200,0,6.283185 V,0,0,1200,4,4,4,-4 F,0,107266,114325,0.8 C,0,224045,,119,214,244 M,0,224045,226045,297,520,297,-40 F,0,224045,226045,1
Sprite,Background,Centre,"sb\pixel.png",0,0 L,224089,4 R,0,0,1200,0,6.283185 V,0,0,1200,4,4,4,-4 F,0,107266,114325,0.8 C,0,224089,,119,214,244 M,0,224089,226089,294,520,294,-40 F,0,224089,226089,1
Sprite,Background,Centre,"sb\pixel.png",0,0 L,224133,4 R,0,0,1200,0,6.283185 V,0,0,1200,4,4,4,-4 F,0,107266,114325,0.8 C,0,224133,,86,191,237 M,0,224133,226133,716,520,716,-40 F,0,224133,226133,1
Sprite,Background,Centre,"sb\pixel.png",0,0 L,224177,4 R,0,0,1200,0,6.283185 V,0,0,1200,4,4,4,-4 F,0,107266,114325,0.8 C,0,224177,,119,214,244 M,0,224177,226177,563,520,563,-40 F,0,224177,226177,1
Sprite,Background,Centre,"sb\pixel.png",0,0 L,224221,4 R,0,0,1200,0,6.283185 V,0,0,1200,4,4,4,-4 F,0,107266,114325,0.8 C,0,224221,,119,214,244 M,0,224221,226221,590,520,590,-40 F,0,224221,226221,1
Sprite,Background,Centre,"sb\pixel.png",0,0 L,224266,4 R,0,0,1200,0,6.283185 V,0,0,1200,4,4,4,-4 F,0,107266,114325,0.8 C,0,224266,,86,191,237 M,0,224266,226266,576,520,576,-40 F,0,224266,226266,1
Sprite,Background,Centre,"sb\pixel.png",0,0 L,224310,4 R,0,0,1200,0,6.283185 V,0,0,1200,4,4,4,-4 F,0,107266,114325,0.8 C,0,224310,,86,191,237 M,0,224310,226310,366,520,366,-40 F,0,224310,226310,1
Sprite,Background,Centre,"sb\pixel.png",0,0 L,224354,4 R,0,0,1200,0,6.283185 V,0,0,1200,4,4,4,-4 F,0,107266,114325,0.8 C,0,224354,,119,214,244 M,0,224354,226354,-49,520,-49,-40 F,0,224354,226354,1
Sprite,Background,Centre,"sb\pixel.png",0,0 L,224398,4 R,0,0,1200,0,6.283185 V,0,0,1200,4,4,4,-4 F,0,107266,114325,0.8 C,0,224398,,119,214,244 M,0,224398,226398,20,520,20,-40 F,0,224398,226398,1
Sprite,Background,Centre,"sb\pixel.png",0,0 L,224442,4 R,0,0,1200,0,6.283185 V,0,0,1200,4,4,4,-4 F,0,107266,114325,0.8 C,0,224442,,86,191,237 M,0,224442,226442,324,520,324,-40 F,0,224442,226442,1
Sprite,Background,Centre,"sb\pixel.png",0,0 L,224486,4 R,0,0,1200,0,6.283185 V,0,0,1200,4,4,4,-4 F,0,107266,114325,0.8 C,0,224486,,86,191,237 M,0,224486,226486,583,520,583,-40 F,0,224486,226486,1
Sprite,Background,Centre,"sb\pixel.png",0,0 L,224530,4 R,0,0,1200,0,6.283185 V,0,0,1200,4,4,4,-4 F,0,107266,114325,0.8 C,0,224530,,86,191,237 M,0,224530,226530,592,520,592,-40 F,0,224530,226530,1
Sprite,Background,Centre,"sb\pixel.png",0,0 L,224574,4 R,0,0,1200,0,6.283185 V,0,0,1200,4,4,4,-4 F,0,107266,114325,0.8 C,0,224574,,119,214,244 M,0,224574,226574,480,520,480,-40 F,0,224574,226574,1
Sprite,Background,Centre,"sb\pixel.png",0,0 L,224619,4 R,0,0,1200,0,6.283185 V,0,0,1200,4,4,4,-4 F,0,107266,114325,0.8 C,0,224619,,119,214,244 M,0,224619,226619,207,520,207,-40 F,0,224619,226619,1
Sprite,Background,Centre,"sb\pixel.png",0,0 L,224663,4 R,0,0,1200,0,6.283185 V,0,0,1200,4,4,4,-4 F,0,107266,114325,0.8 C,0,224663,,119,214,244 M,0,224663,226663,187,520,187,-40 F,0,224663,226663,1
Sprite,Background,Centre,"sb\pixel.png",0,0 L,224707,4 R,0,0,1200,0,6.283185 V,0,0,1200,4,4,4,-4 F,0,107266,114325,0.8 C,0,224707,,86,191,237 M,0,224707,226707,159,520,159,-40 F,0,224707,226707,1
Sprite,Background,Centre,"sb\pixel.png",0,0 L,224751,4 R,0,0,1200,0,6.283185 V,0,0,1200,4,4,4,-4 F,0,107266,114325,0.8 C,0,224751,,86,191,237 M,0,224751,226751,380,520,380,-40 F,0,224751,226751,1
Sprite,Background,Centre,"sb\pixel.png",0,0 L,224795,4 R,0,0,1200,0,6.283185 V,0,0,1200,4,4,4,-4 F,0,107266,114325,0.8 C,0,224795,,119,214,244 M,0,224795,226795,513,520,513,-40 F,0,224795,226795,1
Sprite,Background,Centre,"sb\pixel.png",0,0 L,224839,4 R,0,0,1200,0,6.283185 V,0,0,1200,4,4,4,-4 F,0,107266,114325,0.8 C,0,224839,,119,214,244 M,0,224839,226839,620,520,620,-40 F,0,224839,226839,1
Sprite,Background,Centre,"sb\pixel.png",0,0 L,224883,4 R,0,0,1200,0,6.283185 V,0,0,1200,4,4,4,-4 F,0,107266,114325,0.8 C,0,224883,,119,214,244 M,0,224883,226883,43,520,43,-40 F,0,224883,226883,1
Sprite,Background,Centre,"sb\pixel.png",0,0 L,224927,4 R,0,0,1200,0,6.283185 V,0,0,1200,4,4,4,-4 F,0,107266,114325,0.8 C,0,224927,,86,191,237 M,0,224927,226927,403,520,403,-40 F,0,224927,226927,1
Sprite,Background,Centre,"sb\pixel.png",0,0 L,224971,4 R,0,0,1200,0,6.283185 V,0,0,1200,4,4,4,-4 F,0,107266,114325,0.8 C,0,224971,,86,191,237 M,0,224971,226971,95,520,95,-40 F,0,224971,226971,1
Sprite,Background,Centre,"sb\pixel.png",0,0 L,225016,4 R,0,0,1200,0,6.283185 V,0,0,1200,4,4,4,-4 F,0,107266,114325,0.8 C,0,225016,,119,214,244 M,0,225016,227016,96,520,96,-40 F,0,225016,227016,1
Sprite,Background,Centre,"sb\pixel.png",0,0 L,225060,4 R,0,0,1200,0,6.283185 V,0,0,1200,4,4,4,-4 F,0,107266,114325,0.8 C,0,225060,,86,191,237 M,0,225060,227060,317,520,317,-40 F,0,225060,227060,1
Sprite,Background,Centre,"sb\pixel.png",0,0 L,225104,4 R,0,0,1200,0,6.283185 V,0,0,1200,4,4,4,-4 F,0,107266,114325,0.8 C,0,225104,,119,214,244 M,0,225104,227104,461,520,461,-40 F,0,225104,227104,1
Sprite,Background,Centre,"sb\pixel.png",0,0 L,225148,4 R,0,0,1200,0,6.283185 V,0,0,1200,4,4,4,-4 F,0,107266,114325,0.8 C,0,225148,,86,191,237 M,0,225148,227148,386,520,386,-40 F,0,225148,227148,1
Sprite,Background,Centre,"sb\pixel.png",0,0 L,225192,4 R,0,0,1200,0,6.283185 V,0,0,1200,4,4,4,-4 F,0,107266,114325,0.8 C,0,225192,,86,191,237 M,0,225192,227192,283,520,283,-40 F,0,225192,227192,1
Sprite,Background,Centre,"sb\pixel.png",0,0 L,225236,4 R,0,0,1200,0,6.283185 V,0,0,1200,4,4,4,-4 F,0,107266,114325,0.8 C,0,225236,,86,191,237 M,0,225236,227236,672,520,672,-40 F,0,225236,227236,1
Sprite,Background,Centre,"sb\pixel.png",0,0 L,225280,4 R,0,0,1200,0,6.283185 V,0,0,1200,4,4,4,-4 F,0,107266,114325,0.8 C,0,225280,,86,191,237 M,0,225280,227280,161,520,161,-40 F,0,225280,227280,1
Sprite,Background,Centre,"sb\pixel.png",0,0 L,225324,4 R,0,0,1200,0,6.283185 V,0,0,1200,4,4,4,-4 F,0,107266,114325,0.8 C,0,225324,,86,191,237 M,0,225324,227324,217,520,217,-40 F,0,225324,227324,1
Sprite,Background,Centre,"sb\pixel.png",0,0 L,225369,4 R,0,0,1200,0,6.283185 V,0,0,1200,4,4,4,-4 F,0,107266,114325,0.8 C,0,225369,,86,191,237 M,0,225369,227369,49,520,49,-40 F,0,225369,227369,1
Sprite,Background,Centre,"sb\pixel.png",0,0 L,225413,4 R,0,0,1200,0,6.283185 V,0,0,1200,4,4,4,-4 F,0,107266,114325,0.8 C,0,225413,,119,214,244 M,0,225413,227413,705,520,705,-40 F,0,225413,227413,1
Sprite,Background,Centre,"sb\pixel.png",0,0 L,225457,4 R,0,0,1200,0,6.283185 V,0,0,1200,4,4,4,-4 F,0,107266,114325,0.8 C,0,225457,,119,214,244 M,0,225457,227457,702,520,702,-40 F,0,225457,227457,1
Sprite,Background,Centre,"sb\pixel.png",0,0 L,225501,4 R,0,0,1200,0,6.283185 V,0,0,1200,4,4,4,-4 F,0,107266,114325,0.8 C,0,225501,,86,191,237 M,0,225501,227501,253,520,253,-40 F,0,225501,227501,1
Sprite,Background,Centre,"sb\pixel.png",0,0 L,225545,4 R,0,0,1200,0,6.283185 V,0,0,1200,4,4,4,-4 F,0,107266,114325,0.8 C,0,225545,,86,191,237 M,0,225545,227545,-27,520,-27,-40 F,0,225545,227545,1
Sprite,Background,Centre,"sb\pixel.png",0,0 L,225589,4 R,0,0,1200,0,6.283185 V,0,0,1200,4,4,4,-4 F,0,107266,114325,0.8 C,0,225589,,119,214,244 M,0,225589,227589,25,520,25,-40 F,0,225589,227589,1
Sprite,Background,Centre,"sb\pixel.png",0,0 L,225633,4 R,0,0,1200,0,6.283185 V,0,0,1200,4,4,4,-4 F,0,107266,114325,0.8 C,0,225633,,119,214,244 M,0,225633,227633,-42,520,-42,-40 F,0,225633,227633,1
Sprite,Background,Centre,"sb\pixel.png",0,0 L,225677,4 R,0,0,1200,0,6.283185 V,0,0,1200,4,4,4,-4 F,0,107266,114325,0.8 C,0,225677,,119,214,244 M,0,225677,227677,710,520,710,-40 F,0,225677,227677,1
Sprite,Background,Centre,"sb\pixel.png",0,0 L,225721,4 R,0,0,1200,0,6.283185 V,0,0,1200,4,4,4,-4 F,0,107266,114325,0.8 C,0,225721,,119,214,244 M,0,225721,227721,230,520,230,-40 F,0,225721,227721,1
Sprite,Background,Centre,"sb\pixel.png",0,0 L,225766,4 R,0,0,1200,0,6.283185 V,0,0,1200,4,4,4,-4 F,0,107266,114325,0.8 C,0,225766,,86,191,237 M,0,225766,227766,274,520,274,-40 F,0,225766,227766,1
Sprite,Background,Centre,"sb\pixel.png",0,0 L,225810,4 R,0,0,1200,0,6.283185 V,0,0,1200,4,4,4,-4 F,0,107266,114325,0.8 C,0,225810,,86,191,237 M,0,225810,227810,643,520,643,-40 F,0,225810,227810,1
Sprite,Background,Centre,"sb\pixel.png",0,0 L,225854,4 R,0,0,1200,0,6.283185 V,0,0,1200,4,4,4,-4 F,0,107266,114325,0.8 C,0,225854,,119,214,244 M,0,225854,227854,294,520,294,-40 F,0,225854,227854,1
Sprite,Background,Centre,"sb\pixel.png",0,0 L,225898,4 R,0,0,1200,0,6.283185 V,0,0,1200,4,4,4,-4 F,0,107266,114325,0.8 C,0,225898,,119,214,244 M,0,225898,227898,600,520,600,-40 F,0,225898,227898,1
Sprite,Background,Centre,"sb\pixel.png",0,0 L,225942,4 R,0,0,1200,0,6.283185 V,0,0,1200,4,4,4,-4 F,0,107266,114325,0.8 C,0,225942,,86,191,237 M,0,225942,227942,172,520,172,-40 F,0,225942,227942,1
Sprite,Background,Centre,"sb\pixel.png",0,0 L,225986,4 R,0,0,1200,0,6.283185 V,0,0,1200,4,4,4,-4 F,0,107266,114325,0.8 C,0,225986,,86,191,237 M,0,225986,227986,519,520,519,-40 F,0,225986,227986,1
Sprite,Background,Centre,"sb\pixel.png",0,0 L,226030,4 R,0,0,1200,0,6.283185 V,0,0,1200,4,4,4,-4 F,0,107266,114325,0.8 C,0,226030,,119,214,244 M,0,226030,228030,645,520,645,-40 F,0,226030,228030,1
Sprite,Background,Centre,"sb\pixel.png",0,0 L,226074,4 R,0,0,1200,0,6.283185 V,0,0,1200,4,4,4,-4 F,0,107266,114325,0.8 C,0,226074,,86,191,237 M,0,226074,228074,492,520,492,-40 F,0,226074,228074,1
Sprite,Background,Centre,"sb\pixel.png",0,0 L,226119,4 R,0,0,1200,0,6.283185 V,0,0,1200,4,4,4,-4 F,0,107266,114325,0.8 C,0,226119,,86,191,237 M,0,226119,228119,-33,520,-33,-40 F,0,226119,228119,1
Sprite,Background,Centre,"sb\pixel.png",0,0 L,226163,4 R,0,0,1200,0,6.283185 V,0,0,1200,4,4,4,-4 F,0,107266,114325,0.8 C,0,226163,,86,191,237 M,0,226163,228163,557,520,557,-40 F,0,226163,228163,1
Sprite,Background,Centre,"sb\pixel.png",0,0 L,226207,4 R,0,0,1200,0,6.283185 V,0,0,1200,4,4,4,-4 F,0,107266,114325,0.8 C,0,226207,,119,214,244 M,0,226207,228207,460,520,460,-40 F,0,226207,228207,1
Sprite,Background,Centre,"sb\pixel.png",0,0 L,226251,4 R,0,0,1200,0,6.283185 V,0,0,1200,4,4,4,-4 F,0,107266,114325,0.8 C,0,226251,,86,191,237 M,0,226251,228251,404,520,404,-40 F,0,226251,228251,1
Sprite,Background,Centre,"sb\pixel.png",0,0 L,226295,4 R,0,0,1200,0,6.283185 V,0,0,1200,4,4,4,-4 F,0,107266,114325,0.8 C,0,226295,,86,191,237 M,0,226295,228295,450,520,450,-40 F,0,226295,228295,1
Sprite,Background,Centre,"sb\pixel.png",0,0 L,226339,4 R,0,0,1200,0,6.283185 V,0,0,1200,4,4,4,-4 F,0,107266,114325,0.8 C,0,226339,,86,191,237 M,0,226339,228339,-28,520,-28,-40 F,0,226339,228339,1
Sprite,Background,Centre,"sb\pixel.png",0,0 L,226383,4 R,0,0,1200,0,6.283185 V,0,0,1200,4,4,4,-4 F,0,107266,114325,0.8 C,0,226383,,119,214,244 M,0,226383,228383,611,520,611,-40 F,0,226383,228383,1
Sprite,Background,Centre,"sb\pixel.png",0,0 L,226427,4 R,0,0,1200,0,6.283185 V,0,0,1200,4,4,4,-4 F,0,107266,114325,0.8 C,0,226427,,86,191,237 M,0,226427,228427,621,520,621,-40 F,0,226427,228427,1
Sprite,Background,Centre,"sb\pixel.png",0,0 L,226471,4 R,0,0,1200,0,6.283185 V,0,0,1200,4,4,4,-4 F,0,107266,114325,0.8 C,0,226471,,119,214,244 M,0,226471,228471,273,520,273,-40 F,0,226471,228471,1
Sprite,Background,Centre,"sb\pixel.png",0,0 L,226516,4 R,0,0,1200,0,6.283185 V,0,0,1200,4,4,4,-4 F,0,107266,114325,0.8 C,0,226516,,86,191,237 M,0,226516,228516,183,520,183,-40 F,0,226516,228516,1
Sprite,Background,Centre,"sb\pixel.png",0,0 L,226560,4 R,0,0,1200,0,6.283185 V,0,0,1200,4,4,4,-4 F,0,107266,114325,0.8 C,0,226560,,86,191,237 M,0,226560,228560,499,520,499,-40 F,0,226560,228560,1
Sprite,Background,Centre,"sb\pixel.png",0,0 L,226604,4 R,0,0,1200,0,6.283185 V,0,0,1200,4,4,4,-4 F,0,107266,114325,0.8 C,0,226604,,86,191,237 M,0,226604,228604,46,520,46,-40 F,0,226604,228604,1
Sprite,Background,Centre,"sb\pixel.png",0,0 L,226648,4 R,0,0,1200,0,6.283185 V,0,0,1200,4,4,4,-4 F,0,107266,114325,0.8 C,0,226648,,86,191,237 M,0,226648,228648,389,520,389,-40 F,0,226648,228648,1
Sprite,Background,Centre,"sb\pixel.png",0,0 L,226692,4 R,0,0,1200,0,6.283185 V,0,0,1200,4,4,4,-4 F,0,107266,114325,0.8 C,0,226692,,86,191,237 M,0,226692,228692,482,520,482,-40 F,0,226692,228692,1
Sprite,Background,Centre,"sb\pixel.png",0,0 L,226736,4 R,0,0,1200,0,6.283185 V,0,0,1200,4,4,4,-4 F,0,107266,114325,0.8 C,0,226736,,119,214,244 M,0,226736,228736,41,520,41,-40 F,0,226736,228736,1
Sprite,Background,Centre,"sb\pixel.png",0,0 L,226780,4 R,0,0,1200,0,6.283185 V,0,0,1200,4,4,4,-4 F,0,107266,114325,0.8 C,0,226780,,119,214,244 M,0,226780,228780,740,520,740,-40 F,0,226780,228780,1
Sprite,Background,Centre,"sb\pixel.png",0,0 L,226824,4 R,0,0,1200,0,6.283185 V,0,0,1200,4,4,4,-4 F,0,107266,114325,0.8 C,0,226824,,119,214,244 M,0,226824,228824,204,520,204,-40 F,0,226824,228824,1
Sprite,Background,Centre,"sb\pixel.png",0,0 L,226869,4 R,0,0,1200,0,6.283185 V,0,0,1200,4,4,4,-4 F,0,107266,114325,0.8 C,0,226869,,119,214,244 M,0,226869,228869,18,520,18,-40 F,0,226869,228869,1
Sprite,Background,Centre,"sb\pixel.png",0,0 L,226913,4 R,0,0,1200,0,6.283185 V,0,0,1200,4,4,4,-4 F,0,107266,114325,0.8 C,0,226913,,86,191,237 M,0,226913,228913,149,520,149,-40 F,0,226913,228913,1
Sprite,Background,Centre,"sb\pixel.png",0,0 L,226957,4 R,0,0,1200,0,6.283185 V,0,0,1200,4,4,4,-4 F,0,107266,114325,0.8 C,0,226957,,119,214,244 M,0,226957,228957,356,520,356,-40 F,0,226957,228957,1
Sprite,Background,Centre,"sb\pixel.png",0,0 L,227001,4 R,0,0,1200,0,6.283185 V,0,0,1200,4,4,4,-4 F,0,107266,114325,0.8 C,0,227001,,119,214,244 M,0,227001,229001,-49,520,-49,-40 F,0,227001,229001,1
Sprite,Background,Centre,"sb\pixel.png",0,0 L,227045,4 R,0,0,1200,0,6.283185 V,0,0,1200,4,4,4,-4 F,0,107266,114325,0.8 C,0,227045,,86,191,237 M,0,227045,229045,720,520,720,-40 F,0,227045,229045,1
Sprite,Background,Centre,"sb\pixel.png",0,0 L,227089,4 R,0,0,1200,0,6.283185 V,0,0,1200,4,4,4,-4 F,0,107266,114325,0.8 C,0,227089,,119,214,244 M,0,227089,229089,-105,520,-105,-40 F,0,227089,229089,1
Sprite,Background,Centre,"sb\pixel.png",0,0 L,227133,4 R,0,0,1200,0,6.283185 V,0,0,1200,4,4,4,-4 F,0,107266,114325,0.8 C,0,227133,,119,214,244 M,0,227133,229133,364,520,364,-40 F,0,227133,229133,1
Sprite,Background,Centre,"sb\pixel.png",0,0 L,227177,4 R,0,0,1200,0,6.283185 V,0,0,1200,4,4,4,-4 F,0,107266,114325,0.8 C,0,227177,,86,191,237 M,0,227177,229177,667,520,667,-40 F,0,227177,229177,1
Sprite,Background,Centre,"sb\pixel.png",0,0 L,227221,4 R,0,0,1200,0,6.283185 V,0,0,1200,4,4,4,-4 F,0,107266,114325,0.8 C,0,227221,,86,191,237 M,0,227221,229221,269,520,269,-40 F,0,227221,229221,1
Sprite,Background,Centre,"sb\pixel.png",0,0 L,227266,4 R,0,0,1200,0,6.283185 V,0,0,1200,4,4,4,-4 F,0,107266,114325,0.8 C,0,227266,,86,191,237 M,0,227266,229266,512,520,512,-40 F,0,227266,229266,1
Sprite,Background,Centre,"sb\pixel.png",0,0 L,227310,4 R,0,0,1200,0,6.283185 V,0,0,1200,4,4,4,-4 F,0,107266,114325,0.8 C,0,227310,,86,191,237 M,0,227310,229310,641,520,641,-40 F,0,227310,229310,1
Sprite,Background,Centre,"sb\pixel.png",0,0 L,227354,4 R,0,0,1200,0,6.283185 V,0,0,1200,4,4,4,-4 F,0,107266,114325,0.8 C,0,227354,,86,191,237 M,0,227354,229354,548,520,548,-40 F,0,227354,229354,1
Sprite,Background,Centre,"sb\pixel.png",0,0 L,227398,4 R,0,0,1200,0,6.283185 V,0,0,1200,4,4,4,-4 F,0,107266,114325,0.8 C,0,227398,,119,214,244 M,0,227398,229398,102,520,102,-40 F,0,227398,229398,1
Sprite,Background,Centre,"sb\pixel.png",0,0 L,227442,4 R,0,0,1200,0,6.283185 V,0,0,1200,4,4,4,-4 F,0,107266,114325,0.8 C,0,227442,,86,191,237 M,0,227442,229442,346,520,346,-40 F,0,227442,229442,1
Sprite,Background,Centre,"sb\pixel.png",0,0 L,227486,4 R,0,0,1200,0,6.283185 V,0,0,1200,4,4,4,-4 F,0,107266,114325,0.8 C,0,227486,,119,214,244 M,0,227486,229486,247,520,247,-40 F,0,227486,229486,1
Sprite,Background,Centre,"sb\pixel.png",0,0 L,227530,4 R,0,0,1200,0,6.283185 V,0,0,1200,4,4,4,-4 F,0,107266,114325,0.8 C,0,227530,,119,214,244 M,0,227530,229530,576,520,576,-40 F,0,227530,229530,1
Sprite,Background,Centre,"sb\pixel.png",0,0 L,227574,4 R,0,0,1200,0,6.283185 V,0,0,1200,4,4,4,-4 F,0,107266,114325,0.8 C,0,227574,,119,214,244 M,0,227574,229574,17,520,17,-40 F,0,227574,229574,1
Sprite,Background,Centre,"sb\pixel.png",0,0 L,227619,4 R,0,0,1200,0,6.283185 V,0,0,1200,4,4,4,-4 F,0,107266,114325,0.8 C,0,227619,,86,191,237 M,0,227619,229619,-43,520,-43,-40 F,0,227619,229619,1
Sprite,Background,Centre,"sb\pixel.png",0,0 L,227663,4 R,0,0,1200,0,6.283185 V,0,0,1200,4,4,4,-4 F,0,107266,114325,0.8 C,0,227663,,86,191,237 M,0,227663,229663,348,520,348,-40 F,0,227663,229663,1
Sprite,Background,Centre,"sb\pixel.png",0,0 L,227707,4 R,0,0,1200,0,6.283185 V,0,0,1200,4,4,4,-4 F,0,107266,114325,0.8 C,0,227707,,119,214,244 M,0,227707,229707,374,520,374,-40 F,0,227707,229707,1
Sprite,Background,Centre,"sb\pixel.png",0,0 L,227751,4 R,0,0,1200,0,6.283185 V,0,0,1200,4,4,4,-4 F,0,107266,114325,0.8 C,0,227751,,119,214,244 M,0,227751,229751,443,520,443,-40 F,0,227751,229751,1
Sprite,Background,Centre,"sb\pixel.png",0,0 L,227795,4 R,0,0,1200,0,6.283185 V,0,0,1200,4,4,4,-4 F,0,107266,114325,0.8 C,0,227795,,119,214,244 M,0,227795,229795,398,520,398,-40 F,0,227795,229795,1
Sprite,Background,Centre,"sb\pixel.png",0,0 L,227839,4 R,0,0,1200,0,6.283185 V,0,0,1200,4,4,4,-4 F,0,107266,114325,0.8 C,0,227839,,119,214,244 M,0,227839,229839,621,520,621,-40 F,0,227839,229839,1
Sprite,Background,Centre,"sb\pixel.png",0,0 L,227883,4 R,0,0,1200,0,6.283185 V,0,0,1200,4,4,4,-4 F,0,107266,114325,0.8 C,0,227883,,86,191,237 M,0,227883,229883,-106,520,-106,-40 F,0,227883,229883,1
Sprite,Background,Centre,"sb\pixel.png",0,0 L,227927,4 R,0,0,1200,0,6.283185 V,0,0,1200,4,4,4,-4 F,0,107266,114325,0.8 C,0,227927,,119,214,244 M,0,227927,229927,538,520,538,-40 F,0,227927,229927,1
Sprite,Background,Centre,"sb\pixel.png",0,0 L,227971,4 R,0,0,1200,0,6.283185 V,0,0,1200,4,4,4,-4 F,0,107266,114325,0.8 C,0,227971,,119,214,244 M,0,227971,229971,549,520,549,-40 F,0,227971,229971,1
Sprite,Background,Centre,"sb\pixel.png",0,0 L,228016,4 R,0,0,1200,0,6.283185 V,0,0,1200,4,4,4,-4 F,0,107266,114325,0.8 C,0,228016,,119,214,244 M,0,228016,230016,204,520,204,-40 F,0,228016,230016,1
Sprite,Background,Centre,"sb\pixel.png",0,0 L,228060,4 R,0,0,1200,0,6.283185 V,0,0,1200,4,4,4,-4 F,0,107266,114325,0.8 C,0,228060,,86,191,237 M,0,228060,230060,416,520,416,-40 F,0,228060,230060,1
Sprite,Background,Centre,"sb\pixel.png",0,0 L,228104,4 R,0,0,1200,0,6.283185 V,0,0,1200,4,4,4,-4 F,0,107266,114325,0.8 C,0,228104,,119,214,244 M,0,228104,230104,98,520,98,-40 F,0,228104,230104,1
Sprite,Background,Centre,"sb\pixel.png",0,0 L,228148,4 R,0,0,1200,0,6.283185 V,0,0,1200,4,4,4,-4 F,0,107266,114325,0.8 C,0,228148,,119,214,244 M,0,228148,230148,168,520,168,-40 F,0,228148,230148,1
Sprite,Background,Centre,"sb\pixel.png",0,0 L,228192,4 R,0,0,1200,0,6.283185 V,0,0,1200,4,4,4,-4 F,0,107266,114325,0.8 C,0,228192,,119,214,244 M,0,228192,230192,486,520,486,-40 F,0,228192,230192,1
Sprite,Background,Centre,"sb\pixel.png",0,0 L,228236,4 R,0,0,1200,0,6.283185 V,0,0,1200,4,4,4,-4 F,0,107266,114325,0.8 C,0,228236,,86,191,237 M,0,228236,230236,640,520,640,-40 F,0,228236,230236,1
Sprite,Background,Centre,"sb\pixel.png",0,0 L,228280,4 R,0,0,1200,0,6.283185 V,0,0,1200,4,4,4,-4 F,0,107266,114325,0.8 C,0,228280,,86,191,237 M,0,228280,230280,641,520,641,-40 F,0,228280,230280,1
Sprite,Background,Centre,"sb\pixel.png",0,0 L,228324,4 R,0,0,1200,0,6.283185 V,0,0,1200,4,4,4,-4 F,0,107266,114325,0.8 C,0,228324,,119,214,244 M,0,228324,230324,39,520,39,-40 F,0,228324,230324,1
Sprite,Background,Centre,"sb\pixel.png",0,0 L,228369,4 R,0,0,1200,0,6.283185 V,0,0,1200,4,4,4,-4 F,0,107266,114325,0.8 C,0,228369,,119,214,244 M,0,228369,230369,-83,520,-83,-40 F,0,228369,230369,1
Sprite,Background,Centre,"sb\pixel.png",0,0 L,228413,4 R,0,0,1200,0,6.283185 V,0,0,1200,4,4,4,-4 F,0,107266,114325,0.8 C,0,228413,,86,191,237 M,0,228413,230413,206,520,206,-40 F,0,228413,230413,1
Sprite,Background,Centre,"sb\pixel.png",0,0 L,228457,4 R,0,0,1200,0,6.283185 V,0,0,1200,4,4,4,-4 F,0,107266,114325,0.8 C,0,228457,,86,191,237 M,0,228457,230457,72,520,72,-40 F,0,228457,230457,1
Sprite,Background,Centre,"sb\pixel.png",0,0 L,228501,4 R,0,0,1200,0,6.283185 V,0,0,1200,4,4,4,-4 F,0,107266,114325,0.8 C,0,228501,,119,214,244 M,0,228501,230501,187,520,187,-40 F,0,228501,230501,1
Sprite,Background,Centre,"sb\pixel.png",0,0 L,228545,4 R,0,0,1200,0,6.283185 V,0,0,1200,4,4,4,-4 F,0,107266,114325,0.8 C,0,228545,,119,214,244 M,0,228545,230545,690,520,690,-40 F,0,228545,230545,1
Sprite,Background,Centre,"sb\pixel.png",0,0 L,228589,4 R,0,0,1200,0,6.283185 V,0,0,1200,4,4,4,-4 F,0,107266,114325,0.8 C,0,228589,,86,191,237 M,0,228589,230589,-48,520,-48,-40 F,0,228589,230589,1
Sprite,Background,Centre,"sb\pixel.png",0,0 L,228633,4 R,0,0,1200,0,6.283185 V,0,0,1200,4,4,4,-4 F,0,107266,114325,0.8 C,0,228633,,86,191,237 M,0,228633,230633,-14,520,-14,-40 F,0,228633,230633,1
Sprite,Background,Centre,"sb\pixel.png",0,0 L,228677,4 R,0,0,1200,0,6.283185 V,0,0,1200,4,4,4,-4 F,0,107266,114325,0.8 C,0,228677,,119,214,244 M,0,228677,230677,47,520,47,-40 F,0,228677,230677,1
//Storyboard Layer 1 (Fail)
//Storyboard Layer 2 (Pass)
//Storyboard Layer 3 (Foreground)
//Storyboard Sound Samples

[TimingPoints]
2796,352.941176470588,4,2,1,70,1,0
25384,-100,4,2,1,40,0,0
28207,-400,4,2,1,40,0,0
28560,-100,4,2,1,40,0,0
33854,-400,4,2,1,40,0,0
34207,-100,4,2,1,40,0,0
35619,-100,4,2,1,30,0,0
36325,-75.000001875,4,2,1,30,0,0
36678,-100,4,2,1,30,0,0
47972,-133.333333333333,4,2,1,30,0,0
53619,-133.333333333333,4,2,1,35,0,0
55031,-133.333333333333,4,2,1,40,0,0
56443,-133.333333333333,4,2,1,45,0,0
57148,-133.333333333333,4,2,1,50,0,0
57854,-133.333333333333,4,2,1,55,0,0
58207,-133.333333333333,4,2,1,60,0,0
58560,-133.333333333333,4,2,1,65,0,0
58913,-133.333333333333,4,2,1,70,0,0
59266,-66.6666666666667,4,2,1,80,0,0
60590,-66.6666666666667,4,2,1,5,0,0
60854,-66.6666666666667,4,2,1,50,0,0
61031,-66.6666666666667,4,2,1,80,0,0
63413,-66.6666666666667,4,2,1,5,0,0
63678,-66.6666666666667,4,2,1,60,0,0
63854,-66.6666666666667,4,2,1,70,0,0
64207,-66.6666666666667,4,2,1,80,0,0
66237,-66.6666666666667,4,2,1,5,0,0
66501,-66.6666666666667,4,2,1,80,0,0
69060,-66.6666666666667,4,2,1,5,0,0
69384,-66.6666666666667,4,2,1,65,0,0
69501,-66.6666666666667,4,2,1,80,0,0
71884,-66.6666666666667,4,2,1,5,0,0
72148,-66.6666666666667,4,2,1,50,0,0
72325,-66.6666666666667,4,2,1,80,0,0
74707,-66.6666666666667,4,2,1,5,0,0
74972,-66.6666666666667,4,2,1,80,0,0
75148,-66.6666666666667,4,2,1,60,0,0
75325,-66.6666666666667,4,2,1,70,0,0
75501,-66.6666666666667,4,2,1,80,0,0
77531,-66.6666666666667,4,2,1,5,0,0
77795,-66.6666666666667,4,2,1,80,0,0
80354,-66.6666666666667,4,2,1,5,0,0
80795,-66.6666666666667,4,2,1,80,0,0
82207,-200,4,2,1,80,0,0
82384,-66.6666666666667,4,2,1,80,0,0
83178,-66.6666666666667,4,2,1,5,0,0
83442,-66.6666666666667,4,2,1,50,0,0
83619,-66.6666666666667,4,2,1,80,0,0
86001,-66.6666666666667,4,2,1,5,0,0
86266,-66.6666666666667,4,2,1,80,0,0
88825,-66.6666666666667,4,2,1,5,0,0
89090,-66.6666666666667,4,2,1,80,0,0
91648,-66.6666666666667,4,2,1,5,0,0
91972,-66.6666666666667,4,2,1,65,0,0
92089,-66.6666666666667,4,2,1,80,0,0
94472,-66.6666666666667,4,2,1,5,0,0
94736,-66.6666666666667,4,2,1,50,0,0
94913,-66.6666666666667,4,2,1,80,0,0
97295,-66.6666666666667,4,2,1,5,0,0
97560,-66.6666666666667,4,2,1,80,0,0
97736,-66.6666666666667,4,2,1,60,0,0
97913,-66.6666666666667,4,2,1,70,0,0
98089,-66.6666666666667,4,2,1,80,0,0
100119,-66.6666666666667,4,2,1,5,0,0
100384,-66.6666666666667,4,2,1,80,0,0
102942,-66.6666666666667,4,2,1,5,0,0
103031,-100,4,2,1,60,0,0
103207,-100,4,2,1,60,0,0
103384,-66.6666666666667,4,2,1,60,0,0
115737,-100,4,2,1,40,0,0
118295,-80,4,2,1,40,0,0
118560,-400,4,2,1,40,0,0
118913,-100,4,2,1,40,0,0
120854,-90.9090909090909,4,2,1,40,0,0
121031,-80,4,2,1,40,0,0
121384,-100,4,2,1,40,0,0
121737,-100,4,2,1,40,0,0
124207,-400,4,2,1,40,0,0
124560,-100,4,2,1,40,0,0
126060,-80,4,2,1,40,0,0
127031,-100,4,2,1,40,0,0
129854,-400,4,2,1,40,0,0
130207,-100,4,2,1,40,0,0
135501,-400,4,2,1,40,0,0
135854,-100,4,2,1,40,0,0
136913,-100,4,2,1,30,0,0
137619,-100,4,2,1,35,0,0
137972,-75.187969924812,4,2,1,35,0,0
138325,-75.187969924812,4,2,1,40,0,0
149619,-133.333333333333,4,2,1,30,0,0
155266,-133.333333333333,4,2,1,35,0,0
156678,-133.333333333333,4,2,1,40,0,0
158090,-133.333333333333,4,2,1,45,0,0
158795,-133.333333333333,4,2,1,50,0,0
159501,-133.333333333333,4,2,1,55,0,0
159854,-133.333333333333,4,2,1,60,0,0
160207,-133.333333333333,4,2,1,65,0,0
160560,-133.333333333333,4,2,1,70,0,0
160913,-66.6666666666667,4,2,1,80,0,0
162237,-66.6666666666667,4,2,1,5,0,0
162501,-66.6666666666667,4,2,1,50,0,0
162678,-66.6666666666667,4,2,1,80,0,0
165060,-66.6666666666667,4,2,1,5,0,0
165325,-66.6666666666667,4,2,1,80,0,0
165501,-66.6666666666667,4,2,1,60,0,0
165678,-66.6666666666667,4,2,1,70,0,0
165854,-66.6666666666667,4,2,1,80,0,0
167884,-66.6666666666667,4,2,1,5,0,0
168148,-66.6666666666667,4,2,1,80,0,0
170707,-66.6666666666667,4,2,1,5,0,0
171031,-66.6666666666667,4,2,1,65,0,0
171148,-66.6666666666667,4,2,1,80,0,0
173531,-66.6666666666667,4,2,1,5,0,0
173795,-66.6666666666667,4,2,1,50,0,0
173972,-66.6666666666667,4,2,1,80,0,0
176354,-66.6666666666667,4,2,1,5,0,0
176619,-66.6666666666667,4,2,1,80,0,0
176795,-66.6666666666667,4,2,1,60,0,0
176972,-66.6666666666667,4,2,1,70,0,0
177148,-66.6666666666667,4,2,1,80,0,0
179178,-66.6666666666667,4,2,1,5,0,0
179442,-66.6666666666667,4,2,1,80,0,0
182001,-66.6666666666667,4,2,1,5,0,0
182442,-66.6666666666667,4,2,1,80,0,0
183854,-200,4,2,1,80,0,0
184031,-66.6666666666667,4,2,1,80,0,0
184825,-66.6666666666667,4,2,1,5,0,0
185089,-66.6666666666667,4,2,1,50,0,0
185266,-66.6666666666667,4,2,1,80,0,0
187648,-66.6666666666667,4,2,1,5,0,0
187913,-66.6666666666667,4,2,1,80,0,0
190472,-66.6666666666667,4,2,1,5,0,0
190737,-66.6666666666667,4,2,1,80,0,0
193295,-66.6666666666667,4,2,1,5,0,0
193619,-66.6666666666667,4,2,1,65,0,0
193736,-66.6666666666667,4,2,1,80,0,0
196119,-66.6666666666667,4,2,1,5,0,0
196383,-66.6666666666667,4,2,1,50,0,0
196560,-66.6666666666667,4,2,1,80,0,0
198942,-66.6666666666667,4,2,1,5,0,0
199207,-66.6666666666667,4,2,1,80,0,0
201766,-66.6666666666667,4,2,1,5,0,0
202031,-66.6666666666667,4,2,1,80,0,0
204589,-66.6666666666667,4,2,1,5,0,0
204678,-100,4,2,1,60,0,0
204854,-100,4,2,1,60,0,0
205031,-66.6666666666667,4,2,1,60,0,0

[Colours]
Combo1 : 118,120,192
Combo2 : 143,216,224
Combo3 : 174,179,221
Combo4 : 145,188,191

[HitObjects]
470,214,25384,5,0,1:0:0:0:
308,166,25648,1,0,0:0:0:0:
339,177,25737,1,0,0:0:0:0:
340,187,25825,1,0,0:0:0:0:
342,197,25913,1,8,0:0:0:0:
403,247,26090,1,0,0:0:0:0:
401,257,26178,1,0,0:0:0:0:
399,267,26266,1,0,0:0:0:0:
397,277,26355,1,0,0:0:0:0:
395,287,26443,2,0,L|400:327,1,37.5,8|0,0:0|0:0,0:0:0:0:
327,307,26619,2,0,L|332:347,1,37.5,0|0,0:0|0:0,0:0:0:0:
257,323,26795,5,0,1:0:0:0:
88,286,26972,1,0,1:0:0:0:
248,251,27148,1,0,3:0:0:0:
128,226,27325,1,0,0:0:0:0:
258,178,27501,2,0,L|268:136,3,37.5,0|0|0|0,0:0|0:0|0:0|0:0,0:0:0:0:
146,159,27854,2,0,L|151:116,3,37.5,0|0|0|0,3:0|1:0|1:0|1:0,0:0:0:0:
216,95,28207,6,0,L|223:56,1,37.5,0|0,1:0|1:0,0:0:0:0:
195,210,28737,1,8,0:0:0:0:
236,69,28913,1,0,0:0:0:0:
229,63,29001,1,0,0:0:0:0:
222,58,29089,1,0,0:0:0:0:
213,60,29178,1,0,0:0:0:0:
204,63,29266,2,0,L|163:56,1,37.5,8|0,0:0|0:0,0:0:0:0:
171,131,29443,2,0,L|130:124,1,37.5,0|0,0:0|0:0,0:0:0:0:
145,203,29619,5,0,1:0:0:0:
336,180,29795,1,0,1:0:0:0:
181,269,29972,1,0,3:0:0:0:
321,253,30148,1,0,1:0:0:0:
198,342,30325,6,0,L|197:389,1,37.5,0|0,0:0|0:0,0:0:0:0:
321,330,30501,2,0,L|330:372,1,37.5,0|0,0:0|0:0,0:0:0:0:
187,336,30678,6,0,L|186:383,1,37.5,0|0,0:0|0:0,0:0:0:0:
327,321,30854,2,0,L|336:363,1,37.5,0|0,0:0|0:0,0:0:0:0:
259,357,31031,5,0,1:0:0:0:
381,250,31295,1,0,0:0:0:0:
417,265,31384,1,0,0:0:0:0:
418,257,31472,1,0,0:0:0:0:
419,249,31560,1,8,0:0:0:0:
335,193,31737,1,0,0:0:0:0:
333,185,31825,1,0,0:0:0:0:
331,177,31913,1,0,0:0:0:0:
329,169,32001,1,0,0:0:0:0:
327,161,32090,2,0,L|282:156,1,37.5,8|0,0:0|0:0,0:0:0:0:
400,144,32266,2,0,L|355:139,1,37.5,0|0,0:0|0:0,0:0:0:0:
473,125,32443,5,0,1:0:0:0:
292,51,32619,1,0,1:0:0:0:
239,238,32795,1,0,3:0:0:0:
362,139,32972,1,0,0:0:0:0:
271,22,33148,2,0,L|224:15,3,37.5,0|0|0|0,0:0|0:0|0:0|0:0,0:0:0:0:
379,38,33501,2,0,L|332:31,3,37.5,0|0|0|0,3:0|0:0|1:0|1:0,0:0:0:0:
490,55,33854,6,0,L|443:48,1,37.5,0|0,1:0|1:0,0:0:0:0:
512,137,34384,1,8,0:0:0:0:
447,220,34560,1,0,0:0:0:0:
456,218,34648,1,0,0:0:0:0:
465,217,34736,1,0,0:0:0:0:
474,215,34824,1,0,0:0:0:0:
484,214,34913,2,0,L|474:275,1,37.5,8|0,0:0|0:0,0:0:0:0:
412,151,35090,2,0,L|405:113,1,37.5,0|0,0:0|0:0,0:0:0:0:
374,235,35266,5,0,1:0:0:0:
148,192,35443,1,0,1:0:0:0:
300,240,35619,5,0,3:0:0:0:
172,260,35795,1,0,0:0:0:0:
248,292,35972,5,0,0:0:0:0:
232,304,36060,1,0,0:0:0:0:
232,304,36325,6,0,B|238:241|238:241|229:219|229:219|237:130,1,150,0|0,0:0|0:0,0:0:0:0:
230,145,36678,1,4,0:1:0:0:
399,103,47266,6,0,L|402:55,1,37.5,0|0,0:0|0:0,0:0:0:0:
389,113,47443,2,0,L|386:150,1,37.5,0|0,0:0|0:0,0:0:0:0:
319,85,47619,6,0,L|321:47,1,37.5,0|0,0:0|0:0,0:0:0:0:
302,108,47796,2,0,L|299:145,1,37.5,0|0,0:0|0:0,0:0:0:0:
233,63,47972,6,0,B|138:48|138:48|86:80|86:80|174:96,1,225.000008583069,0|0,1:0|1:0,0:0:0:0:
256,312,49384,5,0,1:0:0:0:
388,283,49560,2,0,B|403:263|403:263|306:279,1,112.500004291535,0|0,0:0|0:0,0:0:0:0:
256,312,50090,1,0,1:0:0:0:
326,91,50795,5,0,1:0:0:0:
378,137,50972,2,0,B|374:183|374:183|351:197|351:197|355:156,1,112.500004291535,0|0,0:0|0:0,0:0:0:0:
326,91,51501,1,0,1:0:0:0:
178,224,52207,5,0,1:0:0:0:
126,270,52384,2,0,B|130:316|130:316|153:330|153:330|149:289,1,112.500004291535,0|0,0:0|0:0,0:0:0:0:
178,224,52913,1,0,1:0:0:0:
12,75,53619,6,0,L|133:92,1,112.500004291535,0|0,1:0|1:0,0:0:0:0:
19,154,54325,2,0,L|140:171,1,112.500004291535,0|0,1:0|1:0,0:0:0:0:
276,60,55031,1,0,1:0:0:0:
261,53,55207,2,0,L|268:120,1,56.2500021457673,0|0,0:0|1:0,0:0:0:0:
313,173,55560,1,0,0:0:0:0:
391,161,55737,2,0,L|375:274,1,112.500004291535,0|0,1:0|1:0,0:0:0:0:
112,349,56443,5,0,1:0:0:0:
102,274,56619,1,0,1:0:0:0:
187,339,56795,1,0,1:0:0:0:
177,264,56971,1,0,1:0:0:0:
103,360,57148,5,0,1:0:0:0:
93,285,57324,1,0,1:0:0:0:
178,350,57501,1,0,1:0:0:0:
168,275,57678,1,0,1:0:0:0:
26,239,57854,6,0,L|32:192,3,28.1250010728836,0|0|0|0,1:0|1:0|1:0|1:0,0:0:0:0:
94,178,58207,2,0,L|100:131,3,28.1250010728836,0|0|0|0,1:0|1:0|1:0|1:0,0:0:0:0:
48,91,58560,5,0,1:0:0:0:
72,77,58648,1,0,1:0:0:0:
100,73,58736,1,0,1:0:0:0:
127,80,58824,1,0,1:0:0:0:
150,95,58912,1,0,1:0:0:0:
173,110,59002,1,0,1:0:0:0:
200,117,59090,1,0,1:0:0:0:
228,113,59178,1,0,1:0:0:0:
252,99,59266,6,0,B|288:73|339:90|339:90|315:104,1,112.5,4|0,1:0|0:0,0:0:0:0:
425,81,59531,2,0,B|389:107|338:90|338:90|362:76,1,112.5,0|0,1:0|0:0,0:0:0:0:
322,18,59795,1,0,1:0:0:0:
351,165,59972,5,8,0:1:0:0:
333,6,60148,2,0,L|326:74,1,56.2500021457673,2|0,0:0|0:0,0:0:0:0:
374,183,60325,6,0,P|388:142|351:165,1,112.500004291535,0|0,1:0|0:0,0:0:0:0:
350,164,61031,6,0,P|377:171|405:172,1,56.2500021457673,2|0,1:2|0:0,0:0:0:0:
346,276,61207,2,0,P|373:270|401:272,1,56.2500021457673,2|0,1:2|0:0,0:0:0:0:
464,224,61384,1,8,0:1:0:0:
286,221,61560,6,0,L|217:217,1,56.2500021457673,2|0,1:2|0:0,0:0:0:0:
293,211,61737,2,0,B|152:204|152:204|167:233,1,168.750006437302,0|0,1:0|0:0,0:0:0:0:
166,297,62090,6,0,B|192:261|175:210|175:210|161:234,1,112.5,0|0,1:0|0:0,0:0:0:0:
184,124,62355,2,0,B|158:160|175:211|175:211|189:187,1,112.5,0|0,1:0|0:0,0:0:0:0:
247,162,62619,1,0,1:0:0:0:
100,206,62795,5,8,0:1:0:0:
256,175,62972,2,0,L|186:165,1,56.2500021457673,2|0,0:0|0:0,0:0:0:0:
77,225,63148,6,0,P|63:183|99:207,1,112.500004291535,0|0,1:0|0:0,0:0:0:0:
99,205,63678,6,0,P|97:151|82:64,1,112.500004291535,0|0,1:0|0:0,0:0:0:0:
231,69,64031,2,0,P|233:100|237:124,1,56.2500021457673,0|0,1:0|0:0,0:0:0:0:
168,138,64207,5,8,0:1:0:0:
304,89,64384,2,0,P|331:87|350:107,1,56.2500021457673,2|0,1:2|0:0,0:0:0:0:
311,75,64560,2,0,B|360:72|390:127|364:178|364:178|312:200,1,168.750006437302,0|0,1:0|0:0,0:0:0:0:
261,250,64913,6,0,B|250:215|268:194|268:194|272:232|304:247,1,112.500004291535,0|0,1:0|0:0,0:0:0:0:
311,309,65178,2,0,B|321:343|303:364|303:364|299:326|267:311,1,112.500004291535,0|0,1:0|0:0,0:0:0:0:
211,306,65443,1,0,1:0:0:0:
363,255,65619,5,8,0:1:0:0:
194,293,65795,2,0,L|287:287,1,56.2500021457673,2|0,0:0|0:0,0:0:0:0:
401,274,65972,6,0,B|398:248|406:219|406:219|389:247|348:260,1,112.500004291535,0|0,1:0|0:0,0:0:0:0:
363,255,66501,6,0,L|371:190,1,56.2500021457673,0|0,1:0|0:0,0:0:0:0:
329,90,66678,2,0,P|314:117|317:153,1,56.2500021457673,2|0,0:0|0:0,0:0:0:0:
442,159,66854,2,0,P|445:127|439:103,1,56.2500021457673,2|0,1:2|0:0,0:0:0:0:
380,134,67031,5,8,0:1:0:0:
372,264,67207,2,0,L|380:199,1,56.2500021457673,2|0,1:2|0:0,0:0:0:0:
381,274,67384,2,0,B|388:213|388:213|266:251,1,168.750006437302,0|0,1:0|0:0,0:0:0:0:
235,188,67737,6,0,B|245:153|227:132|227:132|223:170|191:185,1,112.500004291535,0|0,1:0|0:0,0:0:0:0:
185,247,68002,2,0,B|174:281|192:302|192:302|196:264|228:249,1,112.500004291535,0|0,1:0|0:0,0:0:0:0:
285,244,68267,1,0,1:0:0:0:
133,191,68443,5,8,0:1:0:0:
299,253,68619,2,0,L|230:261,1,56.2500021457673,2|0,0:0|0:0,0:0:0:0:
116,201,68795,6,0,B|119:229|111:258|111:258|128:230|169:217,1,112.500004291535,0|0,1:0|0:0,0:0:0:0:
152,223,69501,6,0,P|145:196|144:168,1,56.2500021457673,0|0,1:0|0:0,0:0:0:0:
40,227,69677,2,0,P|46:200|44:172,1,56.2500021457673,0|0,1:0|0:0,0:0:0:0:
92,109,69854,1,8,0:1:0:0:
98,288,70031,5,2,1:2:0:0:
89,275,70207,2,0,P|147:254|140:338,1,168.750006437302,0|0,1:2|0:0,0:0:0:0:
128,349,70560,6,0,B|209:338|209:338|237:357,1,112.500004291535,4|0,1:0|0:0,0:0:0:0:
270,293,70825,2,0,B|351:304|351:304|379:285,1,112.500004291535,0|0,1:0|0:0,0:0:0:0:
410,351,71090,1,0,1:0:0:0:
412,226,71266,5,8,0:1:0:0:
425,360,71443,2,0,P|449:359|443:335,1,56.2500021457673,2|0,0:0|0:0,0:0:0:0:
449,176,71619,6,0,P|400:178|412:226,1,112.500004291535,0|0,1:0|0:0,0:0:0:0:
411,225,72325,6,0,L|331:221,1,56.2500021457673,0|0,1:0|0:0,0:0:0:0:
352,103,72501,2,0,L|408:100,1,56.2500021457673,0|0,1:0|0:0,0:0:0:0:
456,156,72678,1,8,0:1:0:0:
297,153,72854,6,0,P|269:151|251:130,1,56.2500021457673,2|0,1:2|0:0,0:0:0:0:
281,65,73031,2,0,P|238:127|304:166,1,168.750006437302,0|0,1:0|0:0,0:0:0:0:
356,209,73384,6,0,B|275:198|275:198|247:217,1,112.500004291535,0|0,1:0|0:0,0:0:0:0:
214,153,73649,2,0,B|133:164|133:164|105:145,1,112.500004291535,0|0,1:0|0:0,0:0:0:0:
74,211,73914,1,0,1:0:0:0:
154,92,74090,5,8,0:1:0:0:
60,220,74266,2,0,L|3:228,1,56.2500021457673,2|0,0:0|0:0,0:0:0:0:
154,92,74443,6,0,B|237:80|237:80|218:106,1,112.500004291535,0|0,1:0|0:0,0:0:0:0:
220,103,74972,6,0,P|213:166|228:233,1,112.500004291535,0|0,1:0|0:0,0:0:0:0:
349,130,75325,2,0,P|352:157|347:185,1,56.2500021457673,0|0,1:0|0:0,0:0:0:0:
282,157,75501,1,8,0:1:0:0:
316,277,75678,6,0,L|399:259,1,56.2500021457673,2|0,1:2|0:0,0:0:0:0:
414,212,75854,2,0,B|430:196|430:196|424:244|424:244|322:266,1,168.750006437302,0|0,1:0|0:0,0:0:0:0:
218,237,76207,6,0,B|215:215|215:215|263:227|263:227|225:284,1,112.500004291535,0|0,1:0|0:0,0:0:0:0:
162,326,76472,2,0,B|159:348|159:348|207:336|207:336|185:303,1,112.500004291535,0|0,1:0|0:0,0:0:0:0:
144,243,76737,1,0,1:0:0:0:
276,324,76913,5,8,0:1:0:0:
144,225,77090,2,0,P|117:230|108:255,1,56.2500021457673,2|0,0:0|0:0,0:0:0:0:
218,237,77266,2,0,P|227:184|170:168,1,112.500004291535,0|0,1:0|0:0,0:0:0:0:
180,164,77795,6,0,L|172:99,1,56.2500021457673,0|0,1:0|0:0,0:0:0:0:
223,61,77972,2,0,P|238:88|237:124,1,56.2500021457673,2|0,1:2|0:0,0:0:0:0:
108,127,78148,2,0,P|105:100|113:73,1,56.2500021457673,2|0,1:2|0:0,0:0:0:0:
164,26,78325,5,8,0:1:0:0:
186,219,78501,2,0,L|180:164,1,56.2500021457673,2|0,1:2|0:0,0:0:0:0:
179,233,78678,2,0,B|171:177|171:177|239:199|239:199|290:190,1,168.750006437302,0|0,1:0|0:0,0:0:0:0:
364,191,79031,6,0,B|367:213|367:213|319:201|319:201|341:167,1,112.500004291535,0|0,1:0|0:0,0:0:0:0:
309,102,79295,2,0,B|312:80|312:80|264:92|264:92|302:149,1,112.500004291535,0|0,1:0|0:0,0:0:0:0:
383,108,79561,1,0,1:0:0:0:
273,20,79737,5,8,0:1:0:0:
398,116,79913,2,0,L|472:97,1,56.2500021457673,2|0,0:0|0:0,0:0:0:0:
273,20,80090,2,0,B|188:5|188:5|208:47,1,112.500004291535,0|0,1:0|0:0,0:0:0:0:
199,28,80795,6,0,L|189:92,1,56.2500021457673,0|0,1:0|0:0,0:0:0:0:
199,101,80972,2,0,L|207:45,1,56.2500021457673,0|0,1:0|0:0,0:0:0:0:
125,56,81148,1,8,0:0:0:0:
271,88,81325,6,0,B|290:84|290:84|309:87|309:87|331:81,1,56.2500021457673,2|0,1:0|0:0,0:0:0:0:
199,101,81501,2,2,B|178:119|178:119|336:100,1,168.750006437302,0|0,1:0|0:0,0:1:0:0:
390,50,81854,6,0,P|450:57|416:143,1,168.750006437302,4|0,1:0|0:0,0:0:0:0:
358,160,82207,6,0,L|361:192,1,18.75,2|0,0:0|0:0,0:0:0:0:
405,232,82384,1,0,1:0:0:0:
318,102,82560,5,8,0:1:0:0:
419,242,82737,2,0,L|431:166,1,56.2500021457673,2|0,0:0|0:0,0:0:0:0:
318,102,82913,6,0,B|272:109|272:109|253:136|253:136|302:128,1,112.500004291535,0|0,1:0|0:0,0:0:0:0:
285,130,83619,6,0,L|273:54,1,56.2500021457673,2|0,1:2|0:0,0:0:0:0:
298,205,83795,2,0,L|306:260,1,56.2500021457673,2|0,1:2|0:0,0:0:0:0:
356,156,83972,1,8,0:1:0:0:
227,178,84148,6,0,L|160:167,1,56.2500021457673,2|0,1:2|0:0,0:0:0:0:
230,192,84325,2,0,B|121:173|121:173|142:184|163:190|167:243,1,168.750006437302,0|0,1:0|0:0,0:0:0:0:
96,237,84678,6,0,P|108:179|92:104,1,112.500004291535,0|0,1:0|0:0,0:0:0:0:
259,117,84943,2,0,P|214:83|159:74,1,112.500004291535,0|0,1:0|0:0,0:0:0:0:
86,54,85207,1,0,1:0:0:0:
177,153,85384,5,8,0:1:0:0:
71,33,85560,2,0,B|74:20|79:17|79:17|90:29|84:64,1,56.2500021457673,2|0,0:0|0:0,0:0:0:0:
172,170,85737,6,0,B|157:202|157:202|134:176|153:128,1,112.500004291535,0|0,1:0|0:0,0:0:0:0:
153,129,86266,6,0,P|206:156|234:264,1,168.750006437302,0|0,1:0|0:0,0:0:0:0:
282,306,86619,2,0,P|299:288|302:246,1,56.2500021457673,0|0,1:0|0:0,0:0:0:0:
165,216,86795,1,8,0:1:0:0:
363,223,86972,6,0,P|345:201|319:192,1,56.2500021457673,2|0,1:2|0:0,0:0:0:0:
295,121,87148,2,0,B|267:155|279:189|279:189|315:175|338:177|387:214,1,168.750006437302,0|0,1:0|0:0,0:0:0:0:
443,203,87501,6,0,B|420:185|434:151|457:150|472:184|443:228,1,112.500004291535,0|0,1:0|0:0,0:0:0:0:
376,284,87766,2,0,B|371:312|335:317|323:298|345:268|397:271,1,112.500004291535,0|0,1:0|0:0,0:0:0:0:
459,288,88031,1,0,1:0:0:0:
368,201,88207,5,8,0:1:0:0:
469,301,88384,2,0,P|463:328|460:356,1,56.2500021457673,2|0,0:0|0:0,0:0:0:0:
373,184,88560,6,0,L|356:60,1,112.500004291535,0|0,1:0|0:0,0:0:0:0:
357,72,89090,6,0,L|423:87,1,56.2500021457673,0|0,1:0|0:0,0:0:0:0:
503,10,89266,2,0,P|475:11|450:25,1,56.2500021457673,2|0,0:0|0:0,0:0:0:0:
422,156,89443,2,0,P|437:179|461:193,1,56.2500021457673,2|0,1:2|0:0,0:0:0:0:
489,104,89619,5,8,0:0:0:0:
347,60,89795,2,0,L|413:75,1,56.2500021457673,2|0,1:2|0:0,0:0:0:0:
493,32,89972,2,0,B|453:31|425:70|425:70|341:49,1,168.750006437302,0|0,1:0|0:0,0:0:0:0:
254,34,90325,6,0,B|226:24|227:-11|249:-20|274:6|262:57,1,112.500004291535,0|0,1:0|0:0,0:0:0:0:
336,129,90590,2,0,B|345:156|381:155|390:133|363:108|312:120,1,112.500004291535,0|0,1:0|0:0,0:0:0:0:
340,48,90854,1,0,1:0:0:0:
244,130,91031,5,8,0:1:0:0:
350,35,91207,2,0,P|378:33|405:27,1,56.2500021457673,2|0,0:0|0:0,0:0:0:0:
230,142,91384,6,0,L|92:130,1,112.500004291535,0|0,1:0|0:0,0:0:0:0:
117,132,92090,6,0,L|123:187,1,56.2500021457673,0|0,1:0|0:0,0:0:0:0:
34,145,92266,2,0,L|40:200,1,56.2500021457673,0|0,1:0|0:0,0:0:0:0:
91,259,92443,1,8,0:1:0:0:
76,63,92619,5,2,0:0:0:0:
66,78,92795,2,0,P|79:18|162:47,1,168.750006437302,0|0,0:0|0:0,0:0:0:0:
211,89,93148,6,0,B|253:86|253:86|281:66|281:66|335:76,1,112.500004291535,4|0,1:0|0:0,0:0:0:0:
356,231,93413,2,0,B|337:193|337:193|308:174|308:174|297:120,1,112.500004291535,0|0,1:0|0:0,0:0:0:0:
369,121,93678,1,0,1:0:0:0:
232,163,93854,5,8,0:1:0:0:
383,128,94031,2,0,P|396:104|391:77,1,56.2500021457673,2|0,0:0|0:0,0:0:0:0:
225,180,94207,6,0,B|221:222|251:254|251:254|228:236|184:239,1,112.500004291535,0|0,1:0|0:0,0:0:0:0:
222,241,94913,6,0,P|194:244|167:236,1,56.2500021457673,2|0,1:2|0:0,0:0:0:0:
311,142,95090,2,0,P|311:170|298:194,1,56.2500021457673,2|0,1:2|0:0,0:0:0:0:
290,268,95266,1,8,0:1:0:0:
225,166,95443,6,0,L|213:90,1,56.2500021457673,2|0,1:2|0:0,0:0:0:0:
244,49,95619,2,0,B|213:25|213:25|233:154,1,168.750006437302,0|0,1:0|0:0,0:0:0:0:
296,102,95972,6,0,B|254:99|254:99|226:79|226:79|172:89,1,112.500004291535,0|0,1:0|0:0,0:0:0:0:
247,265,96237,2,0,B|265:227|265:227|294:208|294:208|305:154,1,112.500004291535,0|0,1:0|0:0,0:0:0:0:
363,135,96501,1,0,1:0:0:0:
225,166,96678,5,8,0:1:0:0:
374,146,96854,2,0,P|387:170|384:197,1,56.2500021457673,2|0,0:0|0:0,0:0:0:0:
219,151,97031,6,0,B|232:102|278:89|278:89|234:81,1,112.500004291535,0|0,1:0|0:0,0:0:0:0:
256,85,97560,6,0,L|112:64,1,112.500004291535,0|0,1:0|0:0,0:0:0:0:
113,210,97913,2,0,L|196:192,1,56.2500021457673,0|0,1:0|0:0,0:0:0:0:
219,151,98090,5,8,0:1:0:0:
55,168,98266,2,0,P|42:192|43:220,1,56.2500021457673,2|0,1:2|0:0,0:0:0:0:
94,279,98443,2,0,B|55:268|55:268|3:215|53:142,1,168.750006437302,0|0,1:0|0:0,0:0:0:0:
111,127,98795,6,0,B|143:138|163:183|156:199|136:195|134:177|173:171,1,112.500004291535,0|0,1:0|0:0,0:0:0:0:
301,127,99060,2,0,B|279:153|230:156|217:144|228:127|246:131|238:170,1,112.500004291535,0|0,1:0|0:0,0:0:0:0:
184,94,99325,1,0,1:0:0:0:
212,233,99501,5,8,0:1:0:0:
196,84,99678,2,0,B|202:71|201:56|201:56|206:70|218:78,1,56.2500021457673,2|0,0:0|0:0,0:0:0:0:
257,238,99854,6,0,B|235:257|229:285|229:285|227:255|211:232,1,112.500004291535,0|0,1:0|0:0,0:0:0:0:
212,233,100384,6,0,P|237:244|255:265,1,56.2500021457673,0|0,1:0|0:0,0:0:0:0:
334,276,100560,2,0,P|314:296|307:323,1,56.2500021457673,2|0,0:0|0:0,0:0:0:0:
321,204,100737,2,0,P|295:193|275:173,1,56.2500021457673,2|0,1:2|0:0,0:0:0:0:
338,138,100913,5,8,0:1:0:0:
373,333,101090,2,0,P|399:336|418:311,1,56.2500021457673,2|0,1:2|0:0,0:0:0:0:
368,347,101266,2,0,P|437:311|409:238,1,168.750006437302,0|0,1:0|0:0,0:0:0:0:
274,259,101619,6,0,B|305:271|349:249|354:232|336:222|323:235|349:265,1,112.500004291535,0|0,1:0|0:0,0:0:0:0:
331,133,101884,2,0,B|299:144|279:189|286:205|306:201|308:183|269:177,1,112.500004291535,0|0,1:0|0:0,0:0:0:0:
213,219,102148,1,0,1:0:0:0:
384,176,102325,5,8,0:1:0:0:
197,207,102501,2,0,L|128:195,1,56.2500021457673,2|0,0:0|0:0,0:0:0:0:
394,192,102678,2,0,B|485:208|485:208|448:223,1,112.500004291535,0|0,1:0|0:0,0:0:0:0:
466,215,103031,6,0,L|472:270,1,37.5,0|0,0:0|0:0,0:0:0:0:
398,221,103207,2,0,L|403:275,1,37.5,0|0,0:0|0:0,0:0:0:0:
319,345,103384,1,2,0:0:0:0:
328,349,103472,1,0,0:0:0:0:
336,353,103560,6,0,L|342:292,1,56.2500021457673,8|0,0:1|0:0,0:0:0:0:
250,208,103737,2,0,B|209:212|209:212|187:231|187:231|127:237,1,112.500004291535,2|0,0:0|0:1,0:0:0:0:
69,115,104001,1,0,0:0:0:0:
76,119,104090,6,0,L|84:174,1,56.2500021457673,8|0,1:0|0:0,0:0:0:0:
144,108,104266,2,0,L|152:163,1,56.2500021457673,2|0,0:0|0:0,0:0:0:0:
239,277,104443,1,4,1:0:0:0:
95,62,115737,6,0,P|161:78|201:121,1,112.5,0|0,1:0|0:0,0:0:0:0:
166,138,116090,1,0,0:0:0:0:
167,148,116178,1,0,0:0:0:0:
168,158,116266,1,8,0:0:0:0:
271,89,116443,6,0,L|276:36,3,37.5,0|0|0|0,0:0|0:0|0:0|0:0,0:0:0:0:
345,100,116795,1,8,0:0:0:0:
345,100,116884,2,0,L|350:59,1,37.5,0|0,0:0|0:0,0:0:0:0:
416,29,117060,1,0,0:0:0:0:
416,29,117148,5,0,1:0:0:0:
426,150,117325,1,0,1:0:0:0:
317,202,117501,1,0,3:0:0:0:
426,150,117678,1,0,1:0:0:0:
448,270,117854,2,0,L|454:308,3,37.5,0|0|0|0,0:0|0:0|0:0|0:0,0:0:0:0:
381,299,118207,5,0,3:0:0:0:
381,299,118295,2,0,P|335:338|317:338,1,46.875,0|0,0:0|1:0,0:0:0:0:
278,347,118472,1,0,1:0:0:0:
278,347,118560,6,0,L|272:385,1,37.5,0|0,1:0|1:0,0:0:0:0:
295,238,119090,1,8,0:0:0:0:
168,292,119266,1,0,0:0:0:0:
176,295,119354,1,0,0:0:0:0:
184,299,119442,1,0,0:0:0:0:
192,294,119531,1,0,0:0:0:0:
200,289,119619,2,0,L|241:285,1,37.5,8|0,0:0|0:0,0:0:0:0:
331,244,119796,2,0,L|290:237,1,37.5,0|0,0:0|0:0,0:0:0:0:
376,303,119972,5,0,1:0:0:0:
396,170,120148,1,0,1:0:0:0:
447,281,120325,1,0,3:0:0:0:
326,150,120501,1,0,1:0:0:0:
497,118,120678,5,0,0:0:0:0:
497,118,120766,1,0,0:0:0:0:
497,118,120854,2,0,L|507:50,1,41.2500012588501,0|0,0:0|0:0,0:0:0:0:
320,57,121031,5,0,0:0:0:0:
320,57,121119,2,0,P|340:77|371:84,1,46.875,0|0,0:0|0:0,0:0:0:0:
421,6,121295,1,0,0:0:0:0:
421,6,121384,6,0,L|433:111,1,75,0|0,1:0|1:0,0:0:0:0:
275,184,121737,1,0,0:0:0:0:
267,183,121825,1,0,0:0:0:0:
259,182,121913,1,8,0:0:0:0:
289,288,122090,1,0,0:0:0:0:
297,286,122178,1,0,0:0:0:0:
305,284,122266,1,0,0:0:0:0:
313,282,122354,1,0,0:0:0:0:
321,280,122443,2,0,L|326:235,1,37.5,8|0,0:0|0:0,0:0:0:0:
401,235,122619,2,0,L|396:272,1,37.5,0|0,0:0|0:0,0:0:0:0:
249,348,122796,5,0,1:0:0:0:
101,303,122972,1,0,1:0:0:0:
76,154,123148,1,0,3:0:0:0:
101,303,123325,1,0,1:0:0:0:
214,209,123501,2,0,L|219:171,3,37.5,0|0|0|0,0:0|0:0|0:0|0:0,0:0:0:0:
262,109,123854,2,0,L|269:61,3,37.5,0|0|0|0,3:0|0:0|1:0|1:0,0:0:0:0:
342,3,124207,6,0,L|336:40,1,37.5,0|0,1:0|1:0,0:0:0:0:
312,227,124737,1,8,0:0:0:0:
409,162,124913,1,0,0:0:0:0:
411,171,125001,1,0,0:0:0:0:
412,180,125089,1,0,0:0:0:0:
414,189,125177,1,0,0:0:0:0:
415,199,125266,2,0,L|354:189,1,37.5,8|0,0:0|0:0,0:0:0:0:
261,171,125443,2,0,L|254:133,1,37.5,0|0,0:0|0:0,0:0:0:0:
239,64,125619,5,0,1:0:0:0:
312,227,125796,1,0,1:0:0:0:
140,138,125972,5,0,3:0:0:0:
140,138,126060,2,0,P|123:192|134:215,1,46.875,0|0,0:0|1:0,0:0:0:0:
162,272,126237,1,0,0:0:0:0:
136,253,126325,1,0,0:0:0:0:
126,254,126413,1,0,0:0:0:0:
116,255,126501,1,0,0:0:0:0:
13,384,126678,2,0,P|31:372|75:368,1,46.875,0|0,0:0|0:0,0:0:0:0:
118,327,126854,2,0,P|137:339|160:344,1,46.875,0|0,0:0|0:0,0:0:0:0:
222,310,127031,5,0,1:0:0:0:
55,151,127295,1,0,0:0:0:0:
66,182,127384,1,0,0:0:0:0:
76,183,127472,1,0,0:0:0:0:
86,185,127560,1,8,0:0:0:0:
141,79,127737,1,0,0:0:0:0:
131,77,127825,1,0,0:0:0:0:
121,75,127913,1,0,0:0:0:0:
111,73,128002,1,0,0:0:0:0:
101,71,128090,2,0,L|61:76,1,37.5,8|0,0:0|0:0,0:0:0:0:
144,11,128266,2,0,L|181:6,1,37.5,0|0,0:0|0:0,0:0:0:0:
287,63,128442,5,0,1:0:0:0:
250,232,128619,1,0,1:0:0:0:
215,72,128795,1,0,3:0:0:0:
190,192,128972,1,0,1:0:0:0:
302,157,129148,2,0,L|348:166,3,37.5,0|0|0|0,0:0|0:0|0:0|0:0,0:0:0:0:
436,111,129501,2,0,L|405:146,3,37.5,0|0|0|0,3:0|0:0|1:0|1:0,0:0:0:0:
408,247,129854,6,0,L|395:211,1,37.5,0|0,1:0|1:0,0:0:0:0:
454,384,130384,1,8,0:0:0:0:
492,311,130560,2,0,L|454:306,3,37.5,0|0|0|0,0:0|0:0|0:0|0:0,0:0:0:0:
389,331,130913,1,8,0:0:0:0:
389,331,131001,2,0,L|348:324,1,37.5,0|0,0:0|0:0,0:0:0:0:
283,348,131178,1,0,0:0:0:0:
283,348,131266,5,0,1:0:0:0:
299,192,131442,1,0,1:0:0:0:
143,213,131619,1,0,3:0:0:0:
159,321,131795,1,0,1:0:0:0:
214,240,131972,6,0,L|215:193,1,37.5,0|0,0:0|0:0,0:0:0:0:
75,259,132148,2,0,L|66:217,1,37.5,0|0,0:0|0:0,0:0:0:0:
225,246,132325,6,0,L|226:199,1,37.5,0|0,3:0|0:0,0:0:0:0:
69,268,132501,2,0,L|60:226,1,37.5,0|0,0:0|0:0,0:0:0:0:
143,213,132678,6,0,L|130:106,1,75,0|0,1:0|1:0,0:0:0:0:
251,29,133031,1,0,0:0:0:0:
250,37,133119,1,0,0:0:0:0:
249,45,133207,1,8,0:0:0:0:
298,171,133384,1,0,0:0:0:0:
300,163,133472,1,0,0:0:0:0:
302,155,133560,1,0,0:0:0:0:
304,147,133648,1,0,0:0:0:0:
306,139,133737,2,0,L|351:134,1,37.5,8|0,0:0|0:0,0:0:0:0:
404,202,133913,2,0,L|366:206,1,37.5,0|0,0:0|0:0,0:0:0:0:
303,245,134090,5,0,1:0:0:0:
156,190,134266,1,0,1:0:0:0:
64,309,134442,1,0,3:0:0:0:
154,377,134619,1,0,1:0:0:0:
80,236,134795,2,0,L|87:189,3,37.5,0|0|0|0,0:0|0:0|0:0|0:0,0:0:0:0:
44,139,135148,2,0,L|82:110,3,37.5,0|0|0|0,3:0|3:0|1:0|1:0,0:0:0:0:
108,53,135501,6,0,L|151:60,1,37.5,0|0,1:0|1:0,0:0:0:0:
381,108,136031,1,8,0:0:0:0:
210,102,136207,1,0,0:0:0:0:
219,100,136295,1,0,0:0:0:0:
228,99,136383,1,0,0:0:0:0:
237,97,136471,1,0,0:0:0:0:
247,96,136560,2,0,L|237:157,1,37.5,8|0,0:0|0:0,0:0:0:0:
316,74,136737,2,0,L|309:36,1,37.5,0|0,0:0|0:0,0:0:0:0:
381,108,136913,5,0,1:0:0:0:
226,204,137090,1,0,1:0:0:0:
417,228,137266,5,0,3:0:0:0:
338,348,137442,1,0,1:0:0:0:
481,341,137619,5,0,0:0:0:0:
471,363,137707,1,0,0:0:0:0:
486,350,137795,5,0,0:0:0:0:
484,362,137884,1,0,0:0:0:0:
493,357,137972,6,0,B|430:351|430:351|408:360|408:360|319:352,1,150,8|0,0:0|0:0,0:0:0:0:
338,348,138325,1,4,0:1:0:0:
450,318,149619,6,0,B|451:266|465:223|465:223|444:198|433:171|433:171|432:213|417:259,1,225.000008583069,4|0,1:0|1:0,0:0:0:0:
423,237,151031,5,0,1:0:0:0:
291,208,151207,2,0,B|286:199|276:188|276:188|316:202|373:204,1,112.500004291535,0|0,0:0|0:0,0:0:0:0:
423,169,151737,1,0,1:0:0:0:
355,252,152442,5,0,1:0:0:0:
320,313,152619,2,0,B|316:335|316:359|316:359|305:363|293:373|293:373|299:353|297:332,1,112.500004291535,0|0,0:0|0:0,0:0:0:0:
225,344,153148,1,0,1:0:0:0:
28,181,153854,5,0,1:0:0:0:
64,243,154031,2,0,B|69:271|68:289|68:289|79:293|91:303|91:303|86:283|87:262,1,112.500004291535,0|0,0:0|0:0,0:0:0:0:
158,277,154560,1,0,1:0:0:0:
456,133,155266,6,0,P|399:144|335:150,1,112.500004291535,0|0,1:0|1:0,0:0:0:0:
176,187,155972,2,0,P|231:192|287:203,1,112.500004291535,0|0,1:0|1:0,0:0:0:0:
495,336,156678,1,0,1:0:0:0:
484,324,156854,2,0,P|447:330|417:331,1,56.2500021457673,0|0,0:0|1:0,0:0:0:0:
353,304,157207,1,0,0:0:0:0:
365,382,157384,2,0,P|316:372|252:366,1,112.500004291535,0|0,1:0|1:0,0:0:0:0:
400,35,158090,5,0,1:0:0:0:
410,110,158266,1,0,1:0:0:0:
377,179,158442,1,0,1:0:0:0:
312,216,158618,1,0,1:0:0:0:
389,25,158795,5,0,1:0:0:0:
399,100,158971,1,0,1:0:0:0:
366,169,159147,1,0,1:0:0:0:
301,206,159325,1,0,1:0:0:0:
199,149,159501,6,0,L|152:155,3,28.1250010728836,0|0|0|0,1:0|1:0|1:0|1:0,0:0:0:0:
138,217,159854,2,0,L|91:223,3,28.1250010728836,0|0|0|0,1:0|1:0|1:0|1:0,0:0:0:0:
51,267,160207,1,0,1:0:0:0:
30,285,160295,1,0,1:0:0:0:
22,312,160383,1,0,1:0:0:0:
31,338,160471,1,0,1:0:0:0:
53,355,160560,1,0,1:0:0:0:
80,358,160648,1,0,1:0:0:0:
105,345,160736,1,0,1:0:0:0:
117,320,160824,1,0,1:0:0:0:
111,289,160913,6,0,B|103:270|103:270|170:277|181:342,1,112.500004291535,6|0,1:0|0:0,0:0:0:0:
264,360,161178,2,0,B|250:377|250:377|223:315|274:273,1,112.500004291535,0|0,1:0|0:0,0:0:0:0:
309,242,161442,1,0,1:0:0:0:
450,269,161619,5,8,0:1:0:0:
320,257,161795,2,0,L|375:262,1,56.2500021457673,2|0,0:0|0:0,0:0:0:0:
474,288,161972,6,0,P|488:247|451:270,1,112.500004291535,0|0,1:0|0:0,0:0:0:0:
450,269,162678,6,0,P|450:240|457:213,1,56.2500021457673,0|0,1:0|0:0,0:0:0:0:
370,300,162854,2,0,P|346:285|326:265,1,56.2500021457673,0|0,1:0|0:0,0:0:0:0:
342,383,163031,1,8,0:1:0:0:
274,208,163207,6,0,L|267:153,1,56.2500021457673,2|0,1:2|0:0,0:0:0:0:
263,220,163384,2,0,B|247:78|247:78|272:88,1,168.750006437302,0|0,1:0|0:0,0:0:0:0:
334,117,163737,6,0,B|342:136|342:136|275:129|264:64,1,112.500004291535,0|0,1:0|0:0,0:0:0:0:
181,46,164002,2,0,B|195:29|195:29|222:91|171:133,1,112.500004291535,0|0,1:0|0:0,0:0:0:0:
111,139,164266,1,0,1:0:0:0:
101,124,164354,1,0,1:0:0:0:
90,110,164443,5,8,0:1:0:0:
65,273,164619,2,0,L|75:203,1,56.2500021457673,2|0,0:0|0:0,0:0:0:0:
68,90,164795,6,0,P|54:132|90:108,1,112.500004291535,0|0,1:0|0:0,0:0:0:0:
91,110,165325,6,0,P|147:112|202:120,1,112.500004291535,0|0,1:0|0:0,0:0:0:0:
65,273,165678,2,0,P|34:275|10:279,1,56.2500021457673,0|0,1:0|0:0,0:0:0:0:
139,349,165854,5,8,0:1:0:0:
195,200,166031,2,0,P|175:218|177:245,1,56.2500021457673,2|0,1:2|0:0,0:0:0:0:
287,294,166207,2,0,B|303:272|303:272|300:214|247:182|206:209,1,168.750006437302,0|0,1:0|0:0,0:0:0:0:
137,245,166560,6,0,B|102:255|81:237|81:237|110:235|131:207,1,112.500004291535,0|0,1:0|0:0,0:0:0:0:
89,110,166825,2,0,B|62:135|67:162|67:162|84:138|112:135,1,112.500004291535,0|0,1:0|0:0,0:0:0:0:
181,161,167090,1,0,1:0:0:0:
186,38,167266,5,8,0:1:0:0:
198,171,167442,2,0,L|194:114,1,56.2500021457673,2|0,0:0|0:0,0:0:0:0:
206,0,167619,6,0,B|180:3|151:-5|151:-5|179:12|192:53,1,112.500004291535,0|0,1:0|0:0,0:0:0:0:
186,38,168148,6,0,L|251:46,1,56.2500021457673,0|0,1:0|0:0,0:0:0:0:
365,38,168325,2,0,P|338:23|302:25,1,56.2500021457673,2|0,0:0|0:0,0:0:0:0:
409,153,168501,2,0,P|412:121|406:97,1,56.2500021457673,2|0,1:2|0:0,0:0:0:0:
364,209,168678,5,8,0:1:0:0:
241,229,168854,2,0,L|306:237,1,56.2500021457673,2|0,1:2|0:0,0:0:0:0:
231,238,169031,2,0,B|292:245|292:245|254:123,1,168.750006437302,0|0,1:0|0:0,0:0:0:0:
194,112,169384,6,0,B|159:104|139:123|139:123|167:126|194:155,1,112.500004291535,0|0,1:0|0:0,0:0:0:0:
158,221,169649,2,0,B|131:222|113:248|113:248|108:221|134:197,1,112.500004291535,0|0,1:0|0:0,0:0:0:0:
231,238,169914,1,0,1:0:0:0:
239,258,170001,1,0,0:0:0:0:
247,279,170090,5,8,0:1:0:0:
61,295,170266,2,0,L|130:287,1,56.2500021457673,2|0,0:0|0:0,0:0:0:0:
283,256,170442,6,0,B|280:284|288:313|288:313|271:285|230:272,1,112.500004291535,0|0,1:0|0:0,0:0:0:0:
247,279,171148,6,0,P|239:306|239:334,1,56.2500021457673,0|0,1:2|0:0,0:0:0:0:
433,359,171324,2,0,P|439:332|437:304,1,56.2500021457673,0|0,1:2|0:0,0:0:0:0:
342,321,171501,1,8,0:1:0:0:
504,157,171678,5,0,1:0:0:0:
497,168,171854,2,0,B|394:175|450:234|344:249,1,168.750006437302,0|0,0:0|0:0,0:0:0:0:
298,106,172207,6,0,B|309:187|309:187|296:196|290:215,1,112.500004291535,4|0,1:0|0:0,0:0:0:0:
239,305,172472,1,0,1:0:0:0:
239,305,172560,2,0,B|244:269|244:269|232:259|225:241,1,56.2500021457673,0|0,0:0|0:0,0:0:0:0:
191,190,172737,1,0,1:0:0:0:
44,237,172913,5,8,0:1:0:0:
123,304,173090,2,0,P|129:280|104:279,1,56.2500021457673,2|0,0:0|0:0,0:0:0:0:
41,313,173266,6,0,P|28:360|77:363,1,112.500004291535,0|0,1:0|0:0,0:0:0:0:
49,84,173972,6,0,L|58:3,1,56.2500021457673,0|0,1:0|0:0,0:0:0:0:
180,138,174148,2,0,L|171:57,1,56.2500021457673,0|0,1:0|0:0,0:0:0:0:
36,160,174325,1,8,0:1:0:0:
36,160,174501,6,0,P|54:180|81:182,1,56.2500021457673,2|0,1:2|0:0,0:0:0:0:
170,240,174678,2,0,P|108:197|69:263,1,168.750006437302,0|0,1:0|0:0,0:0:0:0:
140,345,175031,6,0,B|221:334|221:334|231:347|249:353,1,112.500004291535,0|0,1:0|0:0,0:0:0:0:
358,273,175296,2,0,B|277:284|277:284|266:272|249:265,1,112.500004291535,0|0,1:0|0:0,0:0:0:0:
197,306,175561,1,0,1:0:0:0:
159,88,175737,5,8,0:1:0:0:
183,294,175913,2,0,L|175:237,1,56.2500021457673,2|0,0:0|0:0,0:0:0:0:
159,88,176090,6,0,B|146:127|141:170|141:170|123:143,1,112.500004291535,0|0,1:0|0:0,0:0:0:0:
126,146,176619,6,0,P|117:90|124:34,1,112.500004291535,0|0,1:0|0:0,0:0:0:0:
334,4,176972,2,0,P|323:29|320:60,1,56.2500021457673,0|0,1:0|0:0,0:0:0:0:
385,187,177148,1,8,0:1:0:0:
195,87,177325,6,0,L|278:69,1,56.2500021457673,2|0,1:2|0:0,0:0:0:0:
467,95,177501,2,0,B|488:87|488:87|462:128|462:128|420:117|420:117|414:121|414:121|368:110,1,168.750006437302,0|0,1:0|0:0,0:0:0:0:
293,194,177854,6,0,B|310:180|310:180|313:207|324:227|324:227|255:223,1,112.500004291535,0|0,1:0|0:0,0:0:0:0:
187,191,178119,2,0,B|166:182|166:182|188:166|200:147|200:147|231:208,1,112.500004291535,0|0,1:0|0:0,0:0:0:0:
218,257,178384,1,0,1:0:0:0:
130,114,178560,5,8,0:1:0:0:
141,308,178737,2,0,P|136:281|111:271,1,56.2500021457673,2|0,0:0|0:0,0:0:0:0:
38,338,178913,6,0,P|59:385|111:375,1,112.500004291535,0|0,1:0|0:0,0:0:0:0:
111,376,179442,6,0,L|166:382,1,56.2500021457673,0|0,1:0|0:0,0:0:0:0:
272,314,179619,2,0,P|257:342|239:358,1,56.2500021457673,2|0,0:0|0:0,0:0:0:0:
262,192,179795,2,0,P|278:213|284:241,1,56.2500021457673,2|0,1:2|0:0,0:0:0:0:
77,143,179972,5,8,0:1:0:0:
201,80,180148,2,0,L|207:135,1,56.2500021457673,2|0,1:2|0:0,0:0:0:0:
148,246,180325,2,0,B|143:204|143:204|136:192|136:192|204:214|204:214|255:205,1,168.750006437302,0|0,1:0|0:0,0:0:0:0:
352,223,180678,6,0,B|318:201|318:201|318:225|306:249|306:249|328:246,1,112.500004291535,0|0,1:0|0:0,0:0:0:0:
441,296,180942,2,0,B|444:274|444:274|422:287|396:286|396:286|434:343,1,112.500004291535,0|0,1:0|0:0,0:0:0:0:
455,384,181208,1,0,1:0:0:0:
476,212,181384,5,8,0:1:0:0:
276,333,181560,2,0,L|350:314,1,56.2500021457673,2|0,0:0|0:0,0:0:0:0:
476,212,181737,6,0,B|474:166|491:127|491:127|467:138,1,112.500004291535,0|0,1:0|0:0,0:0:0:0:
468,137,182442,6,0,L|404:127,1,56.2500021457673,0|0,1:0|0:0,0:0:0:0:
395,137,182619,2,0,L|451:145,1,56.2500021457673,0|0,1:0|0:0,0:0:0:0:
276,191,182795,1,8,0:1:0:0:
345,297,182972,6,0,B|365:300|384:288|384:288|400:290,1,56.2500021457673,2|0,1:0|0:0,0:0:0:0:
246,259,183148,2,2,B|224:268|224:268|234:220|291:203|344:226,1,168.750006437302,0|0,1:0|0:0,0:1:0:0:
209,340,183501,6,0,B|121:311|185:263|89:229,1,168.750006437302,4|0,1:0|0:0,0:0:0:0:
79,325,183854,6,0,L|80:306,1,18.75,2|0,0:0|0:0,0:0:0:0:
91,230,184031,1,0,1:0:0:0:
36,384,184207,5,8,0:1:0:0:
0,171,184384,2,0,L|8:226,1,56.2500021457673,2|0,0:0|0:0,0:0:0:0:
210,247,184560,6,0,B|164:254|164:254|157:268|145:281|145:281|194:273,1,112.500004291535,0|0,1:0|0:0,0:0:0:0:
177,275,185266,6,0,L|165:199,1,56.2500021457673,2|0,1:2|0:0,0:0:0:0:
261,107,185443,2,0,L|201:155,1,56.2500021457673,2|0,1:2|0:0,0:0:0:0:
98,258,185619,1,8,0:1:0:0:
74,114,185795,6,0,L|145:141,1,56.2500021457673,2|0,1:2|0:0,0:0:0:0:
142,123,185972,2,0,B|37:85|37:85|56:99|76:109|71:162,1,168.750006437302,0|0,1:0|0:0,0:0:0:0:
47,200,186325,6,0,P|18:248|20:332,1,112.500004291535,0|0,1:0|0:0,0:0:0:0:
191,357,186590,2,0,P|220:309|218:225,1,112.500004291535,0|0,1:0|0:0,0:0:0:0:
142,208,186854,1,0,1:0:0:0:
241,117,187031,5,8,0:1:0:0:
121,223,187207,2,0,B|108:220|105:215|105:215|117:204|152:210,1,56.2500021457673,2|0,0:0|0:0,0:0:0:0:
258,122,187384,6,0,B|290:137|290:137|264:160|216:141,1,112.500004291535,0|0,1:0|0:0,0:0:0:0:
216,141,187913,6,0,P|277:184|329:194,1,112.500004291535,0|2,1:0|0:0,0:0:0:0:
482,158,188266,2,0,P|500:137|504:109,1,56.2500021457673,0|0,1:0|0:0,0:0:0:0:
462,48,188442,1,8,0:1:0:0:
417,219,188619,6,0,P|418:247|434:269,1,56.2500021457673,2|0,1:2|0:0,0:0:0:0:
404,224,188795,2,0,B|400:264|431:283|431:283|450:249|469:235|518:234,1,168.750006437302,0|0,1:0|0:0,0:0:0:0:
503,345,189148,6,0,B|483:323|503:292|525:295|534:331|498:369,1,112.500004291535,0|0,1:0|0:0,0:0:0:0:
379,354,189413,2,0,B|351:344|352:308|374:299|399:326|387:377,1,112.500004291535,0|0,1:0|0:0,0:0:0:0:
276,384,189678,1,0,1:0:0:0:
435,279,189854,5,8,0:1:0:0:
288,314,190031,2,0,P|260:311|232:304,1,56.2500021457673,2|0,0:0|0:0,0:0:0:0:
415,189,190207,6,0,B|428:174|428:174|383:143|344:189,1,112.500004291535,0|0,1:0|0:0,0:0:0:0:
347,186,190737,6,0,L|292:173,1,56.2500021457673,0|0,1:0|0:0,0:0:0:0:
162,239,190913,2,0,P|137:225|122:201,1,56.2500021457673,2|0,0:0|0:0,0:0:0:0:
151,70,191090,2,0,P|175:56|203:55,1,56.2500021457673,2|0,1:2|0:0,0:0:0:0:
107,129,191266,5,8,0:1:0:0:
279,169,191442,2,0,L|224:156,1,56.2500021457673,2|0,1:2|0:0,0:0:0:0:
107,129,191619,2,0,B|191:150|191:150|137:169|142:227,1,168.750006437302,0|0,1:0|0:0,0:0:0:0:
190,278,191972,6,0,B|199:250|235:251|244:273|217:298|166:286,1,112.500004291535,0|0,1:0|0:0,0:0:0:0:
87,292,192237,2,0,B|61:278|69:242|91:237|112:268|91:316,1,112.500004291535,0|0,1:0|0:0,0:0:0:0:
51,372,192501,1,0,1:0:0:0:
267,338,192678,5,8,0:1:0:0:
101,167,192854,2,0,P|103:195|109:222,1,56.2500021457673,2|0,0:0|0:0,0:0:0:0:
282,329,193031,6,0,B|318:294|286:247|286:247|271:262,1,112.500004291535,0|0,1:0|0:0,0:0:0:0:
271,262,193737,6,0,L|326:256,1,56.2500021457673,0|0,1:0|0:0,0:0:0:0:
245,185,193913,2,0,L|300:179,1,56.2500021457673,0|0,1:0|0:0,0:0:0:0:
482,156,194090,1,8,0:1:0:0:
344,63,194266,5,2,1:2:0:0:
358,53,194442,2,0,B|407:49|434:100|410:138|410:138|389:149|383:170,1,168.750006437302,0|0,1:0|0:0,0:0:0:0:
431,226,194795,6,0,B|428:268|428:268|408:296|408:296|418:350,1,112.500004291535,4|0,1:0|0:0,0:0:0:0:
498,373,195060,1,0,1:0:0:0:
498,373,195148,2,0,L|485:307,1,56.2500021457673,0|0,0:0|0:0,0:0:0:0:
355,241,195325,1,0,1:0:0:0:
324,352,195501,5,8,0:1:0:0:
273,167,195678,2,0,P|286:191|280:218,1,56.2500021457673,2|0,0:0|0:0,0:0:0:0:
190,325,195854,6,0,B|195:330|177:353|177:353|209:323|251:327,1,112.500004291535,0|0,1:0|0:0,0:0:0:0:
249,327,196560,6,0,P|246:299|254:272,1,56.2500021457673,0|0,1:0|0:0,0:0:0:0:
185,127,196737,2,0,P|192:153|189:181,1,56.2500021457673,0|0,1:0|0:0,0:0:0:0:
110,250,196913,1,8,0:1:0:0:
88,54,197090,6,0,L|96:109,1,56.2500021457673,2|0,1:2|0:0,0:0:0:0:
73,44,197266,2,0,B|93:173|93:173|62:149,1,168.750006437302,0|0,1:0|0:0,0:0:0:0:
4,233,197619,6,0,B|39:226|39:226|67:246|67:246|109:249,1,112.500004291535,0|0,1:0|0:0,0:0:0:0:
203,295,197884,2,0,B|179:267|179:267|182:233|182:233|164:195,1,112.500004291535,0|0,1:0|0:0,0:0:0:0:
93,173,198148,1,0,1:0:0:0:
131,321,198325,5,8,0:1:0:0:
290,170,198501,2,0,P|262:166|238:179,1,56.2500021457673,2|0,0:0|0:0,0:0:0:0:
214,371,198678,6,0,B|261:365|276:312|276:312|286:357,1,112.500004291535,0|0,1:0|0:0,0:0:0:0:
280,332,199207,6,0,L|390:351,1,112.500004291535,0|0,1:0|0:0,0:0:0:0:
216,102,199560,2,0,L|270:90,1,56.2500021457673,0|0,1:0|0:0,0:0:0:0:
355,112,199737,5,8,0:1:0:0:
232,271,199913,2,0,P|219:247|220:219,1,56.2500021457673,2|0,0:0|0:0,0:0:0:0:
339,105,200090,2,0,B|383:169|331:222|331:222|292:233,1,168.750006437302,0|0,1:0|0:0,0:0:0:0:
220,218,200443,6,0,B|188:229|168:274|175:290|195:286|197:268|158:262,1,112.500004291535,0|0,1:0|0:0,0:0:0:0:
88,248,200708,2,0,B|76:280|98:323|115:329|124:311|112:297|82:324,1,112.500004291535,0|0,1:0|0:0,0:0:0:0:
41,380,200972,1,0,1:0:0:0:
109,181,201148,5,8,0:1:0:0:
313,323,201325,2,0,B|326:317|341:318|341:318|327:313|319:301,1,56.2500021457673,2|0,0:0|0:0,0:0:0:0:
159,262,201501,6,0,B|140:284|112:290|112:290|142:292|165:308,1,112.500004291535,0|0,1:0|0:0,0:0:0:0:
165,308,202031,6,0,P|190:297|208:276,1,56.2500021457673,0|0,1:0|0:0,0:0:0:0:
289,183,202207,2,0,P|296:210|316:229,1,56.2500021457673,2|0,0:0|0:0,0:0:0:0:
220,158,202384,2,0,P|197:175|170:182,1,56.2500021457673,2|0,1:2|0:0,0:0:0:0:
273,111,202560,5,8,0:1:0:0:
375,332,202737,2,0,P|378:306|353:287,1,56.2500021457673,2|0,1:2|0:0,0:0:0:0:
281,289,202913,2,0,P|307:361|383:344,1,168.750006437302,0|0,1:0|0:0,0:0:0:0:
354,270,203266,6,0,B|342:239|364:195|381:190|391:208|378:221|348:195,1,112.500004291535,0|0,1:0|0:0,0:0:0:0:
277,180,203531,2,0,B|245:169|225:124|232:108|252:112|254:130|215:136,1,112.500004291535,0|0,1:0|0:0,0:0:0:0:
153,170,203795,1,0,1:0:0:0:
290,61,203972,5,8,0:1:0:0:
193,274,204148,2,0,P|206:245|203:218,1,56.2500021457673,2|0,0:0|0:0,0:0:0:0:
105,119,204325,6,0,B|233:138,1,112.500004291535,0|0,1:0|0:0,0:0:0:0:
385,166,204678,6,0,L|348:171,1,37.5
387,237,204854,2,0,L|425:232,1,37.5,0|0,1:0|0:0,0:0:0:0:
355,348,205031,1,2,0:0:0:0:
346,350,205119,1,0,0:0:0:0:
338,354,205207,6,0,P|313:341|295:319,1,56.2500021457673,8|0,0:1|0:0,0:0:0:0:
241,256,205384,2,0,B|245:215|245:215|234:177|189:165,1,112.500004291535,2|2,0:0|0:0,0:0:0:0:
102,295,205648,1,0,0:0:0:0:
110,300,205737,6,0,P|137:298|163:282,1,56.2500021457673,8|0,0:1|0:0,0:0:0:0:
131,209,205913,2,0,P|103:210|77:226,1,56.2500021457673,2|0,0:0|0:0,0:0:0:0:
16,345,206090,1,4,1:0:0:0:
