osu file format v14

[General]
AudioFilename: audio.mp3
AudioLeadIn: 0
PreviewTime: 59178
Countdown: 0
SampleSet: Soft
StackLeniency: 0.4
Mode: 0
LetterboxInBreaks: 0
EpilepsyWarning: 1
WidescreenStoryboard: 1

[Editor]
Bookmarks: 25384,36678,47972,59266,70560,81854,93148,104443,115737,138325,149619,160913,172207,183501,194795,206090
DistanceSpacing: 1.4
BeatDivisor: 4
GridSize: 32
TimelineZoom: 1.7

[Metadata]
Title:Treason
TitleUnicode:Treason
Artist:Dictate
ArtistUnicode:Dictate
Creator:Realazy
Version:Collab Hard
Source:
Tags:enkrypton lowcombofc lcfc kalibe toybot pishifat neurofunk neuro featured artist fa mappers guild
BeatmapID:1775312
BeatmapSetID:848976

[Difficulty]
HPDrainRate:5
CircleSize:3.8
OverallDifficulty:6
ApproachRate:7
SliderMultiplier:1.3
SliderTickRate:1

[Events]
//Background and Video events
0,0,"treason.png",0,0
//Break Periods
2,37384,47072
2,104643,114837
2,139031,148719
//Storyboard Layer 0 (Background)
Sprite,Background,Centre,"treason.png",320,240 F,0,0,,0
Sprite,Background,Centre,"sb/desat.png",320,240 S,0,0,,0.4444444 F,0,0,59266,1
Sprite,Background,Centre,"sb/pixel.png",320,240 V,0,0,,1920,1080 C,0,0,,0,0,0 F,0,0,25384,1
Sprite,Background,Centre,"sb/pixel.png",320,240 V,0,0,,1920,1080 C,0,0,,0,0,0 F,0,25384,25737,1,0.5 F,0,25384,25736,0.2,0.5 F,0,26795,27148,0.2,0.5 F,0,28207,28560,0.2,0.5 F,0,29619,29972,0.2,0.5 F,0,31031,31384,0.2,0.5 F,0,32442,32795,0.2,0.5 F,0,33854,34207,0.2,0.5 F,0,35266,35619,0.2,0.5 F,0,35619,36678,0.5,1 F,0,36678,37031,1,0.5 F,0,37031,47972,0.5
Sprite,Background,Centre,"sb/pixel.png",320,240 V,0,0,,1920,1080 C,0,0,,0,0,0 F,0,47972,48678,0.5,0.3 F,0,48678,56443,0.3,0
Sprite,Background,Centre,"sb/normal.png",320,240 S,0,0,,0.4444444 F,0,0,,0 F,0,59266,103737,1 F,0,103737,104443,1,0
Sprite,Background,Centre,"sb/light.png",320,240 S,0,0,,0.4444444 F,0,0,,0 F,0,59266,59596,1,0 F,0,61737,62067,1,0 F,0,64560,64890,1,0 F,0,67384,67714,1,0 F,0,73031,73361,1,0 F,0,75854,76184,1,0 F,0,78678,79008,1,0 F,0,84325,84655,1,0 F,0,87148,87478,1,0 F,0,89972,90302,1,0 F,0,95619,95949,1,0 F,0,98443,98773,1,0 F,0,101266,101596,1,0 F,0,62090,62420,1,0 F,0,64913,65243,1,0 F,0,67736,68066,1,0 F,0,70559,70889,1,0 F,0,73382,73712,1,0 F,0,76205,76535,1,0 F,0,79028,79358,1,0 F,0,81851,82181,1,0 F,0,84674,85004,1,0 F,0,87497,87827,1,0 F,0,90320,90650,1,0 F,0,93143,93473,1,0 F,0,95966,96296,1,0 F,0,98789,99119,1,0 F,0,101612,101942,1,0
Sprite,Background,Centre,"sb/zoomlight.png",320,240 S,0,0,,0.4444444 F,0,0,,0 F,0,60325,60655,1,0 F,0,63148,63478,1,0 F,0,65971,66301,1,0 F,0,68794,69124,1,0 F,0,71617,71947,1,0 F,0,74440,74770,1,0 F,0,77263,77593,1,0 F,0,80086,80416,1,0 F,0,82909,83239,1,0 F,0,85732,86062,1,0 F,0,88555,88885,1,0 F,0,91378,91708,1,0 F,0,94201,94531,1,0 F,0,97024,97354,1,0 F,0,99847,100177,1,0 F,0,102670,103000,1,0
Sprite,Background,Centre,"sb/desat.png",320,240 S,0,0,,0.4444444 F,0,115736,,0 F,0,115737,160913,1
Sprite,Background,Centre,"sb/pixel.png",320,240 V,0,0,,1920,1080 C,0,0,,0,0,0 F,0,115736,,0 F,0,115737,116443,1,0.5 F,0,117148,117500,0.2,0.5 F,0,118559,118912,0.2,0.5 F,0,119971,120324,0.2,0.5 F,0,121383,121736,0.2,0.5 F,0,122795,123147,0.2,0.5 F,0,124206,124559,0.2,0.5 F,0,125618,125971,0.2,0.5 F,0,127030,127383,0.2,0.5 F,0,128442,128795,0.2,0.5 F,0,129853,130206,0.2,0.5 F,0,131265,131618,0.2,0.5 F,0,132677,133030,0.2,0.5 F,0,134089,134442,0.2,0.5 F,0,135500,135853,0.2,0.5 F,0,136912,137265,0.2,0.5 F,0,138325,138501,0.5,0.8 F,0,138501,149619,0.8
Sprite,Background,Centre,"sb/pixel.png",320,240 V,0,0,,1920,1080 C,0,0,,0,0,0 F,0,149619,,0 F,0,149619,149795,0.8,0.5 F,0,149795,158090,0.5 F,0,158090,160913,0.5,0.3
Sprite,Background,Centre,"sb/normal.png",320,240 S,0,0,,0.4444444 F,0,0,,0 F,0,160913,205384,1 F,0,205384,206090,1,0
Sprite,Background,Centre,"sb/light.png",320,240 S,0,0,,0.4444444 F,0,0,,0 F,0,160913,161266,1,0 F,0,163384,163737,1,0 F,0,166207,166560,1,0 F,0,169031,169384,1,0 F,0,174678,175031,1,0 F,0,177501,177854,1,0 F,0,180325,180678,1,0 F,0,185972,186325,1,0 F,0,188795,189148,1,0 F,0,191619,191972,1,0 F,0,197266,197619,1,0 F,0,200090,200443,1,0 F,0,202913,203266,1,0 F,0,163737,164090,1,0 F,0,166560,166913,1,0 F,0,169383,169736,1,0 F,0,172206,172559,1,0 F,0,175029,175382,1,0 F,0,177852,178205,1,0 F,0,180675,181028,1,0 F,0,183498,183851,1,0 F,0,186321,186674,1,0 F,0,189144,189497,1,0 F,0,191967,192320,1,0 F,0,194790,195143,1,0 F,0,197613,197966,1,0 F,0,200436,200789,1,0 F,0,203259,203612,1,0
Sprite,Background,Centre,"sb/zoomlight.png",320,240 S,0,0,,0.4444444 F,0,0,,0 F,0,161972,162325,1,0 F,0,164795,165148,1,0 F,0,167618,167971,1,0 F,0,170441,170794,1,0 F,0,173264,173617,1,0 F,0,176087,176440,1,0 F,0,178910,179263,1,0 F,0,181733,182086,1,0 F,0,184556,184909,1,0 F,0,187379,187732,1,0 F,0,190202,190555,1,0 F,0,193025,193378,1,0 F,0,195848,196201,1,0 F,0,198671,199024,1,0 F,0,201494,201847,1,0 F,0,204317,204670,1,0
Sprite,Background,Centre,"sb/w/2795\0054.png",66.75,131.5 S,0,2795,,0.5 F,19,2796,3096,0,1 F,0,5619,22560,1 F,0,22560,25384,1,0
Sprite,Background,Centre,"sb/w/2795\0072.png",88.25,131.5 S,0,2795,,0.5 F,19,2798,3098,0,1 F,0,5619,22560,1 F,0,22560,25384,1,0
Sprite,Background,Centre,"sb/w/2795\0065.png",109.75,131.5 S,0,2795,,0.5 F,19,2805,3105,0,1 F,0,5619,22560,1 F,0,22560,25384,1,0
Sprite,Background,Centre,"sb/w/2795\0061.png",129.25,131.5 S,0,2795,,0.5 F,19,2817,3117,0,1 F,0,5619,22560,1 F,0,22560,25384,1,0
Sprite,Background,Centre,"sb/w/2795\0073.png",148.75,131.5 S,0,2795,,0.5 F,19,2834,3134,0,1 F,0,5619,22560,1 F,0,22560,25384,1,0
Sprite,Background,Centre,"sb/w/2795\006f.png",170.25,131.5 S,0,2795,,0.5 F,19,2856,3156,0,1 F,0,5619,22560,1 F,0,22560,25384,1,0
Sprite,Background,Centre,"sb/w/2795\006e.png",192.5,131.5 S,0,2795,,0.5 F,19,2883,3183,0,1 F,0,5619,22560,1 F,0,22560,25384,1,0
Sprite,Background,Centre,"sb/pixel.png",0,0 F,0,2795,,1 V,0,2795,,12,21 MY,0,2795,,129 MX,19,2795,3215,56,210 F,0,3215,3568,0 F,0,3568,3921,1 F,0,3921,4274,0 F,0,4274,4627,1 F,0,4627,4980,0 F,0,4980,5333,1
Sprite,Background,Centre,"sb/w/5619\0044.png",64.5,158 S,0,5619,,0.5 F,19,5620,5920,0,1 F,0,8162,22560,1 F,0,22560,25384,1,0
Sprite,Background,Centre,"sb/w/5619\0069.png",74,158 S,0,5619,,0.5 F,19,5622,5922,0,1 F,0,8162,22560,1 F,0,22560,25384,1,0
Sprite,Background,Centre,"sb/w/5619\0063.png",83.5,158 S,0,5619,,0.5 F,19,5629,5929,0,1 F,0,8162,22560,1 F,0,22560,25384,1,0
Sprite,Background,Centre,"sb/w/5619\0074.png",98.5,158 S,0,5619,,0.5 F,19,5641,5941,0,1 F,0,8162,22560,1 F,0,22560,25384,1,0
Sprite,Background,Centre,"sb/w/5619\0061.png",112,158 S,0,5619,,0.5 F,19,5658,5958,0,1 F,0,8162,22560,1 F,0,22560,25384,1,0
Sprite,Background,Centre,"sb/w/5619\0074.png",125.5,158 S,0,5619,,0.5 F,19,5680,5980,0,1 F,0,8162,22560,1 F,0,22560,25384,1,0
Sprite,Background,Centre,"sb/w/5619\0065.png",140.5,158 S,0,5619,,0.5 F,19,5707,6007,0,1 F,0,8162,22560,1 F,0,22560,25384,1,0
Sprite,Background,Centre,"sb/pixel.png",0,0 F,0,5619,,1 V,0,5619,,12,15 MY,0,5619,,156 MX,19,5619,6099,50,154 F,0,6099,6452,0 F,0,6452,6805,1 F,0,6805,7158,0 F,0,7158,7511,1 F,0,7511,7864,0 F,0,7864,8217,1
Sprite,Background,Centre,"sb/w/8443\004d.png",65.75,183 S,0,8443,,0.5 F,19,8444,8744,0,1 F,0,11266,22560,1 F,0,22560,25384,1,0
Sprite,Background,Centre,"sb/w/8443\0061.png",80.5,183 S,0,8443,,0.5 F,19,8446,8746,0,1 F,0,11266,22560,1 F,0,22560,25384,1,0
Sprite,Background,Centre,"sb/w/8443\0070.png",94,183 S,0,8443,,0.5 F,19,8453,8753,0,1 F,0,11266,22560,1 F,0,22560,25384,1,0
Sprite,Background,Centre,"sb/w/8443\0070.png",109,183 S,0,8443,,0.5 F,19,8465,8765,0,1 F,0,11266,22560,1 F,0,22560,25384,1,0
Sprite,Background,Centre,"sb/w/8443\0065.png",124,183 S,0,8443,,0.5 F,19,8482,8782,0,1 F,0,11266,22560,1 F,0,22560,25384,1,0
Sprite,Background,Centre,"sb/w/8443\0072.png",139,183 S,0,8443,,0.5 F,19,8504,8804,0,1 F,0,11266,22560,1 F,0,22560,25384,1,0
Sprite,Background,Centre,"sb/w/8443\003a.png",149.5,183 S,0,8443,,0.5 F,19,8531,8831,0,1 F,0,11266,22560,1 F,0,22560,25384,1,0
Sprite,Background,Centre,"sb/w/8443\0052.png",167,183 S,0,8443,,0.5 F,19,8563,8863,0,1 F,0,11266,22560,1 F,0,22560,25384,1,0
Sprite,Background,Centre,"sb/w/8443\0065.png",182,183 S,0,8443,,0.5 F,19,8600,8900,0,1 F,0,11266,22560,1 F,0,22560,25384,1,0
Sprite,Background,Centre,"sb/w/8443\0061.png",195.5,183 S,0,8443,,0.5 F,19,8642,8942,0,1 F,0,11266,22560,1 F,0,22560,25384,1,0
Sprite,Background,Centre,"sb/w/8443\006c.png",209,183 S,0,8443,,0.5 F,19,8689,8989,0,1 F,0,11266,22560,1 F,0,22560,25384,1,0
Sprite,Background,Centre,"sb/w/8443\0061.png",222.5,183 S,0,8443,,0.5 F,19,8741,9041,0,1 F,0,11266,22560,1 F,0,22560,25384,1,0
Sprite,Background,Centre,"sb/w/8443\007a.png",235.25,183 S,0,8443,,0.5 F,19,8798,9098,0,1 F,0,11266,22560,1 F,0,22560,25384,1,0
Sprite,Background,Centre,"sb/w/8443\0079.png",249.5,183 S,0,8443,,0.5 F,19,8860,9160,0,1 F,0,11266,22560,1 F,0,22560,25384,1,0
Sprite,Background,Centre,"sb/pixel.png",0,0 F,0,8443,,1 V,0,8443,,12,15 MY,0,8443,,181 MX,19,8443,9343,57,263 F,0,9343,9696,0 F,0,9696,10049,1 F,0,10049,10402,0 F,0,10402,10755,1 F,0,10755,11108,0 F,0,11108,11461,1
Sprite,Background,Centre,"sb/w/11266\0044.png",64.5,233 S,0,11266,,0.5 F,19,11267,11567,0,1 F,0,14090,22560,1 F,0,22560,25384,1,0
Sprite,Background,Centre,"sb/w/11266\0069.png",74,233 S,0,11266,,0.5 F,19,11269,11569,0,1 F,0,14090,22560,1 F,0,22560,25384,1,0
Sprite,Background,Centre,"sb/w/11266\0066.png",83.5,233 S,0,11266,,0.5 F,19,11276,11576,0,1 F,0,14090,22560,1 F,0,22560,25384,1,0
Sprite,Background,Centre,"sb/w/11266\0066.png",98.5,233 S,0,11266,,0.5 F,19,11288,11588,0,1 F,0,14090,22560,1 F,0,22560,25384,1,0
Sprite,Background,Centre,"sb/w/11266\0069.png",108,233 S,0,11266,,0.5 F,19,11305,11605,0,1 F,0,14090,22560,1 F,0,22560,25384,1,0
Sprite,Background,Centre,"sb/w/11266\0063.png",117.5,233 S,0,11266,,0.5 F,19,11327,11627,0,1 F,0,14090,22560,1 F,0,22560,25384,1,0
Sprite,Background,Centre,"sb/w/11266\0075.png",132.5,233 S,0,11266,,0.5 F,19,11354,11654,0,1 F,0,14090,22560,1 F,0,22560,25384,1,0
Sprite,Background,Centre,"sb/w/11266\006c.png",147.5,233 S,0,11266,,0.5 F,19,11386,11686,0,1 F,0,14090,22560,1 F,0,22560,25384,1,0
Sprite,Background,Centre,"sb/w/11266\0074.png",162.5,233 S,0,11266,,0.5 F,19,11423,11723,0,1 F,0,14090,22560,1 F,0,22560,25384,1,0
Sprite,Background,Centre,"sb/w/11266\0079.png",177.5,233 S,0,11266,,0.5 F,19,11465,11765,0,1 F,0,14090,22560,1 F,0,22560,25384,1,0
Sprite,Background,Centre,"sb/w/11266\003a.png",188,233 S,0,11266,,0.5 F,19,11512,11812,0,1 F,0,14090,22560,1 F,0,22560,25384,1,0
Sprite,Background,Centre,"sb/pixel.png",0,0 F,0,11266,,1 V,0,11266,,12,15 MY,0,11266,,231 MX,19,11266,11926,57,197 F,0,11926,12279,0 F,0,12279,12632,1 F,0,12632,12985,0 F,0,12985,13338,1 F,0,13338,13691,0 F,0,13691,14044,1
Sprite,Background,Centre,"sb/w/14090\0043.png",64.5,258 S,0,14090,,0.5 F,19,14091,14391,0,1 F,0,16913,22560,1 F,0,22560,25384,1,0
Sprite,Background,Centre,"sb/w/14090\006f.png",79.5,258 S,0,14090,,0.5 F,19,14093,14393,0,1 F,0,16913,22560,1 F,0,22560,25384,1,0
Sprite,Background,Centre,"sb/w/14090\006c.png",94.5,258 S,0,14090,,0.5 F,19,14100,14400,0,1 F,0,16913,22560,1 F,0,22560,25384,1,0
Sprite,Background,Centre,"sb/w/14090\006c.png",109.5,258 S,0,14090,,0.5 F,19,14112,14412,0,1 F,0,16913,22560,1 F,0,22560,25384,1,0
Sprite,Background,Centre,"sb/w/14090\0061.png",123,258 S,0,14090,,0.5 F,19,14129,14429,0,1 F,0,16913,22560,1 F,0,22560,25384,1,0
Sprite,Background,Centre,"sb/w/14090\0062.png",136.5,258 S,0,14090,,0.5 F,19,14151,14451,0,1 F,0,16913,22560,1 F,0,22560,25384,1,0
Sprite,Background,Centre,"sb/w/14090\0048.png",158.5,258 S,0,14090,,0.5 F,19,14178,14478,0,1 F,0,16913,22560,1 F,0,22560,25384,1,0
Sprite,Background,Centre,"sb/w/14090\0061.png",172,258 S,0,14090,,0.5 F,19,14210,14510,0,1 F,0,16913,22560,1 F,0,22560,25384,1,0
Sprite,Background,Centre,"sb/w/14090\0072.png",185.5,258 S,0,14090,,0.5 F,19,14247,14547,0,1 F,0,16913,22560,1 F,0,22560,25384,1,0
Sprite,Background,Centre,"sb/w/14090\0064.png",200.5,258 S,0,14090,,0.5 F,19,14289,14589,0,1 F,0,16913,22560,1 F,0,22560,25384,1,0
Sprite,Background,Centre,"sb/pixel.png",0,0 F,0,14090,,1 V,0,14090,,12,15 MY,0,14090,,256 MX,19,14090,14750,57,214 F,0,14750,15103,0 F,0,15103,15456,1 F,0,15456,15809,0 F,0,15809,16162,1 F,0,16162,16515,0 F,0,16515,16868,1
Sprite,Background,Centre,"sb/w/16913\0053.png",64.5,308 S,0,16913,,0.5 F,19,16914,17214,0,1 F,0,19737,22560,1 F,0,22560,25384,1,0
Sprite,Background,Centre,"sb/w/16913\0074.png",79.5,308 S,0,16913,,0.5 F,19,16916,17216,0,1 F,0,19737,22560,1 F,0,22560,25384,1,0
Sprite,Background,Centre,"sb/w/16913\006f.png",94.5,308 S,0,16913,,0.5 F,19,16923,17223,0,1 F,0,19737,22560,1 F,0,22560,25384,1,0
Sprite,Background,Centre,"sb/w/16913\0072.png",109.5,308 S,0,16913,,0.5 F,19,16935,17235,0,1 F,0,19737,22560,1 F,0,22560,25384,1,0
Sprite,Background,Centre,"sb/w/16913\0079.png",124.5,308 S,0,16913,,0.5 F,19,16952,17252,0,1 F,0,19737,22560,1 F,0,22560,25384,1,0
Sprite,Background,Centre,"sb/w/16913\0062.png",139.5,308 S,0,16913,,0.5 F,19,16974,17274,0,1 F,0,19737,22560,1 F,0,22560,25384,1,0
Sprite,Background,Centre,"sb/w/16913\006f.png",154.5,308 S,0,16913,,0.5 F,19,17001,17301,0,1 F,0,19737,22560,1 F,0,22560,25384,1,0
Sprite,Background,Centre,"sb/w/16913\0061.png",168,308 S,0,16913,,0.5 F,19,17033,17333,0,1 F,0,19737,22560,1 F,0,22560,25384,1,0
Sprite,Background,Centre,"sb/w/16913\0072.png",181.5,308 S,0,16913,,0.5 F,19,17070,17370,0,1 F,0,19737,22560,1 F,0,22560,25384,1,0
Sprite,Background,Centre,"sb/w/16913\0064.png",196.5,308 S,0,16913,,0.5 F,19,17112,17412,0,1 F,0,19737,22560,1 F,0,22560,25384,1,0
Sprite,Background,Centre,"sb/w/16913\003a.png",207,308 S,0,16913,,0.5 F,19,17159,17459,0,1 F,0,19737,22560,1 F,0,22560,25384,1,0
Sprite,Background,Centre,"sb/pixel.png",0,0 F,0,16913,,1 V,0,16913,,12,15 MY,0,16913,,306 MX,19,16913,17573,57,216 F,0,17573,17926,0 F,0,17926,18279,1 F,0,18279,18632,0 F,0,18632,18985,1 F,0,18985,19338,0 F,0,19338,19691,1
Sprite,Background,Centre,"sb/w/19737\0045.png",64.5,333 S,0,19737,,0.5 F,19,19738,20038,0,1 F,0,22560,,1 F,0,22560,25384,1,0
Sprite,Background,Centre,"sb/w/19737\006e.png",80,333 S,0,19737,,0.5 F,19,19740,20040,0,1 F,0,22560,,1 F,0,22560,25384,1,0
Sprite,Background,Centre,"sb/w/19737\006b.png",94.75,333 S,0,19737,,0.5 F,19,19747,20047,0,1 F,0,22560,,1 F,0,22560,25384,1,0
Sprite,Background,Centre,"sb/w/19737\0072.png",109,333 S,0,19737,,0.5 F,19,19759,20059,0,1 F,0,22560,,1 F,0,22560,25384,1,0
Sprite,Background,Centre,"sb/w/19737\0079.png",124,333 S,0,19737,,0.5 F,19,19776,20076,0,1 F,0,22560,,1 F,0,22560,25384,1,0
Sprite,Background,Centre,"sb/w/19737\0070.png",139,333 S,0,19737,,0.5 F,19,19798,20098,0,1 F,0,22560,,1 F,0,22560,25384,1,0
Sprite,Background,Centre,"sb/w/19737\0074.png",154,333 S,0,19737,,0.5 F,19,19825,20125,0,1 F,0,22560,,1 F,0,22560,25384,1,0
Sprite,Background,Centre,"sb/w/19737\006f.png",169,333 S,0,19737,,0.5 F,19,19857,20157,0,1 F,0,22560,,1 F,0,22560,25384,1,0
Sprite,Background,Centre,"sb/w/19737\006e.png",184.5,333 S,0,19737,,0.5 F,19,19894,20194,0,1 F,0,22560,,1 F,0,22560,25384,1,0
Sprite,Background,Centre,"sb/pixel.png",0,0 F,0,19737,,1 V,0,19737,,12,15 MY,0,19737,,331 MX,19,19737,20277,57,198.5 F,0,20277,20630,0 F,0,20630,20983,1 F,0,20983,21336,0 F,0,21336,21689,1 F,0,21689,22042,0 F,0,22042,22395,1
Sprite,Background,Centre,"sb/w/208913\0054.png",160,251.5 S,0,208913,,0.5 F,19,208914,209214,0,1 F,0,211737,212089,1,0
Sprite,Background,Centre,"sb/w/208913\0068.png",181.5,251.5 S,0,208913,,0.5 F,19,208916,209216,0,1 F,0,211737,212089,1,0
Sprite,Background,Centre,"sb/w/208913\0061.png",201,251.5 S,0,208913,,0.5 F,19,208923,209223,0,1 F,0,211737,212089,1,0
Sprite,Background,Centre,"sb/w/208913\006e.png",221.25,251.5 S,0,208913,,0.5 F,19,208935,209235,0,1 F,0,211737,212089,1,0
Sprite,Background,Centre,"sb/w/208913\006b.png",242.5,251.5 S,0,208913,,0.5 F,19,208952,209252,0,1 F,0,211737,212089,1,0
Sprite,Background,Centre,"sb/w/208913\0073.png",263,251.5 S,0,208913,,0.5 F,19,208974,209274,0,1 F,0,211737,212089,1,0
Sprite,Background,Centre,"sb/w/208913\0066.png",294.5,251.5 S,0,208913,,0.5 F,19,209001,209301,0,1 F,0,211737,212089,1,0
Sprite,Background,Centre,"sb/w/208913\006f.png",316,251.5 S,0,208913,,0.5 F,19,209033,209333,0,1 F,0,211737,212089,1,0
Sprite,Background,Centre,"sb/w/208913\0072.png",337.5,251.5 S,0,208913,,0.5 F,19,209070,209370,0,1 F,0,211737,212089,1,0
Sprite,Background,Centre,"sb/w/208913\0050.png",369,251.5 S,0,208913,,0.5 F,19,209112,209412,0,1 F,0,211737,212089,1,0
Sprite,Background,Centre,"sb/w/208913\006c.png",390.5,251.5 S,0,208913,,0.5 F,19,209159,209459,0,1 F,0,211737,212089,1,0
Sprite,Background,Centre,"sb/w/208913\0061.png",410,251.5 S,0,208913,,0.5 F,19,209211,209511,0,1 F,0,211737,212089,1,0
Sprite,Background,Centre,"sb/w/208913\0079.png",429.5,251.5 S,0,208913,,0.5 F,19,209268,209568,0,1 F,0,211737,212089,1,0
Sprite,Background,Centre,"sb/w/208913\0069.png",443.25,251.5 S,0,208913,,0.5 F,19,209330,209630,0,1 F,0,211737,212089,1,0
Sprite,Background,Centre,"sb/w/208913\006e.png",457.75,251.5 S,0,208913,,0.5 F,19,209397,209697,0,1 F,0,211737,212089,1,0
Sprite,Background,Centre,"sb/w/208913\0067.png",480,251.5 S,0,208913,,0.5 F,19,209469,209769,0,1 F,0,211737,212089,1,0
Sprite,Background,Centre,"sb/pixel.png",0,0 F,0,208913,,1 V,0,208913,,12,21 MY,0,208913,,249 MX,19,208913,209993,149.25,496.75 F,0,209993,210346,0 F,0,210346,210699,1 F,0,210699,211052,0 F,0,211052,211405,1
Sprite,Background,Centre,"sb/star.png",0,0 M,16,36678,39404,320,240,348.7015,-12.37318 F,0,36678,39404,1,0 S,0,36678,39404,0,0.05
Sprite,Background,Centre,"sb/star.png",0,0 M,16,36728,39286,320,240,225.8344,203.4783 F,0,36728,39286,1,0 S,0,36728,39286,0,0.05
Sprite,Background,Centre,"sb/star.png",0,0 M,16,36778,39684,320,240,478.4108,217.5053 F,0,36778,39684,1,0 S,0,36778,39684,0,0.05
Sprite,Background,Centre,"sb/star.png",0,0 M,16,36828,39101,320,240,200.5637,264.8791 F,0,36828,39101,1,0 S,0,36828,39101,0,0.05
Sprite,Background,Centre,"sb/star.png",0,0 M,16,36878,39510,320,240,485.9509,221.3107 F,0,36878,39510,1,0 S,0,36878,39510,0,0.05
Sprite,Background,Centre,"sb/star.png",0,0 M,16,36928,38958,320,240,584.8868,232.2538 F,0,36928,38958,1,0 S,0,36928,38958,0,0.05
Sprite,Background,Centre,"sb/star.png",0,0 M,16,36978,39655,320,240,372.2395,123.1452 F,0,36978,39655,1,0 S,0,36978,39655,0,0.05
Sprite,Background,Centre,"sb/star.png",0,0 M,16,37028,39876,320,240,610.7817,300.4566 F,0,37028,39876,1,0 S,0,37028,39876,0,0.05
Sprite,Background,Centre,"sb/star.png",0,0 M,16,37078,39777,320,240,485.6672,167.0934 F,0,37078,39777,1,0 S,0,37078,39777,0,0.05
Sprite,Background,Centre,"sb/star.png",0,0 M,16,37128,39815,320,240,482.3642,330.7407 F,0,37128,39815,1,0 S,0,37128,39815,0,0.05
Sprite,Background,Centre,"sb/star.png",0,0 M,16,37178,39365,320,240,272.3927,395.8927 F,0,37178,39365,1,0 S,0,37178,39365,0,0.05
Sprite,Background,Centre,"sb/star.png",0,0 M,16,37228,40216,320,240,337.0862,30.69624 F,0,37228,40216,1,0 S,0,37228,40216,0,0.05
Sprite,Background,Centre,"sb/star.png",0,0 M,16,37278,39308,320,240,239.9036,360.87 F,0,37278,39308,1,0 S,0,37278,39308,0,0.05
Sprite,Background,Centre,"sb/star.png",0,0 M,16,37328,40285,320,240,282.657,68.00726 F,0,37328,40285,1,0 S,0,37328,40285,0,0.05
Sprite,Background,Centre,"sb/star.png",0,0 M,16,37378,39496,320,240,418.4613,174.9664 F,0,37378,39496,1,0 S,0,37378,39496,0,0.05
Sprite,Background,Centre,"sb/star.png",0,0 M,16,37428,40222,320,240,190.8142,275.5954 F,0,37428,40222,1,0 S,0,37428,40222,0,0.05
Sprite,Background,Centre,"sb/star.png",0,0 M,16,37478,39624,320,240,231.3197,296.221 F,0,37478,39624,1,0 S,0,37478,39624,0,0.05
Sprite,Background,Centre,"sb/star.png",0,0 M,16,37528,40246,320,240,116.5827,255.4075 F,0,37528,40246,1,0 S,0,37528,40246,0,0.05
Sprite,Background,Centre,"sb/star.png",0,0 M,16,37578,39772,320,240,442.7603,0.6448114 F,0,37578,39772,1,0 S,0,37578,39772,0,0.05
Sprite,Background,Centre,"sb/star.png",0,0 M,16,37628,40363,320,240,207.2177,1.30322 F,0,37628,40363,1,0 S,0,37628,40363,0,0.05
Sprite,Background,Centre,"sb/star.png",0,0 M,16,37678,40302,320,240,402.3211,176.445 F,0,37678,40302,1,0 S,0,37678,40302,0,0.05
Sprite,Background,Centre,"sb/star.png",0,0 M,16,37728,40624,320,240,357.507,179.7155 F,0,37728,40624,1,0 S,0,37728,40624,0,0.05
Sprite,Background,Centre,"sb/star.png",0,0 M,16,37778,39948,320,240,417.929,53.10187 F,0,37778,39948,1,0 S,0,37778,39948,0,0.05
Sprite,Background,Centre,"sb/star.png",0,0 M,16,37828,40047,320,240,23.04707,274.9279 F,0,37828,40047,1,0 S,0,37828,40047,0,0.05
Sprite,Background,Centre,"sb/star.png",0,0 M,16,37878,40530,320,240,403.5811,26.79774 F,0,37878,40530,1,0 S,0,37878,40530,0,0.05
Sprite,Background,Centre,"sb/star.png",0,0 M,16,37928,40028,320,240,274.3112,12.54333 F,0,37928,40028,1,0 S,0,37928,40028,0,0.05
Sprite,Background,Centre,"sb/star.png",0,0 M,16,37978,40103,320,240,423.0136,496.0551 F,0,37978,40103,1,0 S,0,37978,40103,0,0.05
Sprite,Background,Centre,"sb/star.png",0,0 M,16,38028,40504,320,240,235.4936,404.5712 F,0,38028,40504,1,0 S,0,38028,40504,0,0.05
Sprite,Background,Centre,"sb/star.png",0,0 M,16,38078,40749,320,240,403.6486,95.45965 F,0,38078,40749,1,0 S,0,38078,40749,0,0.05
Sprite,Background,Centre,"sb/star.png",0,0 M,16,38128,40937,320,240,342.5724,-6.970621 F,0,38128,40937,1,0 S,0,38128,40937,0,0.05
Sprite,Background,Centre,"sb/star.png",0,0 M,16,38178,41115,320,240,198.2583,222.4509 F,0,38178,41115,1,0 S,0,38178,41115,0,0.05
Sprite,Background,Centre,"sb/star.png",0,0 M,16,38228,40891,320,240,289.584,369.4753 F,0,38228,40891,1,0 S,0,38228,40891,0,0.05
Sprite,Background,Centre,"sb/star.png",0,0 M,16,38278,41098,320,240,360.5645,336.8479 F,0,38278,41098,1,0 S,0,38278,41098,0,0.05
Sprite,Background,Centre,"sb/star.png",0,0 M,16,38328,40396,320,240,247.8445,47.05029 F,0,38328,40396,1,0 S,0,38328,40396,0,0.05
Sprite,Background,Centre,"sb/star.png",0,0 M,16,38378,41008,320,240,370.3248,516.4569 F,0,38378,41008,1,0 S,0,38378,41008,0,0.05
Sprite,Background,Centre,"sb/star.png",0,0 M,16,38428,41356,320,240,373.4205,201.2412 F,0,38428,41356,1,0 S,0,38428,41356,0,0.05
Sprite,Background,Centre,"sb/star.png",0,0 M,16,38478,41156,320,240,363.2426,298.814 F,0,38478,41156,1,0 S,0,38478,41156,0,0.05
Sprite,Background,Centre,"sb/star.png",0,0 M,16,38528,40634,320,240,513.2717,181.2627 F,0,38528,40634,1,0 S,0,38528,40634,0,0.05
Sprite,Background,Centre,"sb/star.png",0,0 M,16,38578,41068,320,240,281.7801,161.8448 F,0,38578,41068,1,0 S,0,38578,41068,0,0.05
Sprite,Background,Centre,"sb/star.png",0,0 M,16,38628,41197,320,240,241.9056,168.3253 F,0,38628,41197,1,0 S,0,38628,41197,0,0.05
Sprite,Background,Centre,"sb/star.png",0,0 M,16,38678,40683,320,240,402.6347,126.9889 F,0,38678,40683,1,0 S,0,38678,40683,0,0.05
Sprite,Background,Centre,"sb/star.png",0,0 M,16,38728,40790,320,240,286.5036,124.7698 F,0,38728,40790,1,0 S,0,38728,40790,0,0.05
Sprite,Background,Centre,"sb/star.png",0,0 M,16,38778,41736,320,240,94.60001,433.4007 F,0,38778,41736,1,0 S,0,38778,41736,0,0.05
Sprite,Background,Centre,"sb/star.png",0,0 M,16,38828,41350,320,240,200.1024,235.0431 F,0,38828,41350,1,0 S,0,38828,41350,0,0.05
Sprite,Background,Centre,"sb/star.png",0,0 M,16,38878,41409,320,240,307.789,302.8243 F,0,38878,41409,1,0 S,0,38878,41409,0,0.05
Sprite,Background,Centre,"sb/star.png",0,0 M,16,38928,41424,320,240,122.2364,69.67515 F,0,38928,41424,1,0 S,0,38928,41424,0,0.05
Sprite,Background,Centre,"sb/star.png",0,0 M,16,38978,41082,320,240,128.266,375.8788 F,0,38978,41082,1,0 S,0,38978,41082,0,0.05
Sprite,Background,Centre,"sb/star.png",0,0 M,16,39028,41961,320,240,294.4903,162.0689 F,0,39028,41961,1,0 S,0,39028,41961,0,0.05
Sprite,Background,Centre,"sb/star.png",0,0 M,16,39078,41693,320,240,218.1206,4.055973 F,0,39078,41693,1,0 S,0,39078,41693,0,0.05
Sprite,Background,Centre,"sb/star.png",0,0 M,16,39128,41697,320,240,357.1852,325.2424 F,0,39128,41697,1,0 S,0,39128,41697,0,0.05
Sprite,Background,Centre,"sb/star.png",0,0 M,16,39178,41787,320,240,431.9816,237.9697 F,0,39178,41787,1,0 S,0,39178,41787,0,0.05
Sprite,Background,Centre,"sb/star.png",0,0 M,16,39228,41796,320,240,314.4183,304.7599 F,0,39228,41796,1,0 S,0,39228,41796,0,0.05
Sprite,Background,Centre,"sb/star.png",0,0 M,16,39278,42120,320,240,203.2679,87.5611 F,0,39278,42120,1,0 S,0,39278,42120,0,0.05
Sprite,Background,Centre,"sb/star.png",0,0 M,16,39328,41844,320,240,577.8798,376.9746 F,0,39328,41844,1,0 S,0,39328,41844,0,0.05
Sprite,Background,Centre,"sb/star.png",0,0 M,16,39378,41890,320,240,354.2641,158.9446 F,0,39378,41890,1,0 S,0,39378,41890,0,0.05
Sprite,Background,Centre,"sb/star.png",0,0 M,16,39428,42070,320,240,137.5481,177.069 F,0,39428,42070,1,0 S,0,39428,42070,0,0.05
Sprite,Background,Centre,"sb/star.png",0,0 M,16,39478,42150,320,240,224.9961,522.4504 F,0,39478,42150,1,0 S,0,39478,42150,0,0.05
Sprite,Background,Centre,"sb/star.png",0,0 M,16,39528,41592,320,240,154.9379,257.6206 F,0,39528,41592,1,0 S,0,39528,41592,0,0.05
Sprite,Background,Centre,"sb/star.png",0,0 M,16,39578,41794,320,240,328.2968,306.4843 F,0,39578,41794,1,0 S,0,39578,41794,0,0.05
Sprite,Background,Centre,"sb/star.png",0,0 M,16,39628,41778,320,240,166.546,288.7122 F,0,39628,41778,1,0 S,0,39628,41778,0,0.05
Sprite,Background,Centre,"sb/star.png",0,0 M,16,39678,41697,320,240,379.2651,105.4762 F,0,39678,41697,1,0 S,0,39678,41697,0,0.05
Sprite,Background,Centre,"sb/star.png",0,0 M,16,39728,41930,320,240,593.2133,291.366 F,0,39728,41930,1,0 S,0,39728,41930,0,0.05
Sprite,Background,Centre,"sb/star.png",0,0 M,16,39778,42287,320,240,609.7635,228.2901 F,0,39778,42287,1,0 S,0,39778,42287,0,0.05
Sprite,Background,Centre,"sb/star.png",0,0 M,16,39828,41844,320,240,282.2859,449.6346 F,0,39828,41844,1,0 S,0,39828,41844,0,0.05
Sprite,Background,Centre,"sb/star.png",0,0 M,16,39878,42845,320,240,347.253,45.90395 F,0,39878,42845,1,0 S,0,39878,42845,0,0.05
Sprite,Background,Centre,"sb/star.png",0,0 M,16,39928,42252,320,240,473.0815,215.6882 F,0,39928,42252,1,0 S,0,39928,42252,0,0.05
Sprite,Background,Centre,"sb/star.png",0,0 M,16,39978,42863,320,240,310.4756,532.8452 F,0,39978,42863,1,0 S,0,39978,42863,0,0.05
Sprite,Background,Centre,"sb/star.png",0,0 M,16,40028,42160,320,240,439.4271,486.6032 F,0,40028,42160,1,0 S,0,40028,42160,0,0.05
Sprite,Background,Centre,"sb/star.png",0,0 M,16,40078,42960,320,240,360.6263,58.49102 F,0,40078,42960,1,0 S,0,40078,42960,0,0.05
Sprite,Background,Centre,"sb/star.png",0,0 M,16,40128,42642,320,240,457.8145,232.8472 F,0,40128,42642,1,0 S,0,40128,42642,0,0.05
Sprite,Background,Centre,"sb/star.png",0,0 M,16,40178,42211,320,240,480.694,393.1713 F,0,40178,42211,1,0 S,0,40178,42211,0,0.05
Sprite,Background,Centre,"sb/star.png",0,0 M,16,40228,42422,320,240,168.2068,154.9423 F,0,40228,42422,1,0 S,0,40228,42422,0,0.05
Sprite,Background,Centre,"sb/star.png",0,0 M,16,40278,42539,320,240,326.2726,366.845 F,0,40278,42539,1,0 S,0,40278,42539,0,0.05
Sprite,Background,Centre,"sb/star.png",0,0 M,16,40328,43112,320,240,256.8876,186.0943 F,0,40328,43112,1,0 S,0,40328,43112,0,0.05
Sprite,Background,Centre,"sb/star.png",0,0 M,16,40378,42937,320,240,204.7099,419.1011 F,0,40378,42937,1,0 S,0,40378,42937,0,0.05
Sprite,Background,Centre,"sb/star.png",0,0 M,16,40428,42451,320,240,373.274,188.6397 F,0,40428,42451,1,0 S,0,40428,42451,0,0.05
Sprite,Background,Centre,"sb/star.png",0,0 M,16,40478,43188,320,240,161.2942,17.87059 F,0,40478,43188,1,0 S,0,40478,43188,0,0.05
Sprite,Background,Centre,"sb/star.png",0,0 M,16,40528,42783,320,240,205.5429,258.8568 F,0,40528,42783,1,0 S,0,40528,42783,0,0.05
Sprite,Background,Centre,"sb/star.png",0,0 M,16,40578,42773,320,240,49.37875,254.3226 F,0,40578,42773,1,0 S,0,40578,42773,0,0.05
Sprite,Background,Centre,"sb/star.png",0,0 M,16,40628,43265,320,240,232.3026,334.6053 F,0,40628,43265,1,0 S,0,40628,43265,0,0.05
Sprite,Background,Centre,"sb/star.png",0,0 M,16,40678,42922,320,240,90.99233,49.31836 F,0,40678,42922,1,0 S,0,40678,42922,0,0.05
Sprite,Background,Centre,"sb/star.png",0,0 M,16,40728,42729,320,240,606.5396,169.8569 F,0,40728,42729,1,0 S,0,40728,42729,0,0.05
Sprite,Background,Centre,"sb/star.png",0,0 M,16,40778,42935,320,240,524.1215,371.8463 F,0,40778,42935,1,0 S,0,40778,42935,0,0.05
Sprite,Background,Centre,"sb/star.png",0,0 M,16,40828,43018,320,240,370.0672,281.4521 F,0,40828,43018,1,0 S,0,40828,43018,0,0.05
Sprite,Background,Centre,"sb/star.png",0,0 M,16,40878,43610,320,240,360.1183,176.6318 F,0,40878,43610,1,0 S,0,40878,43610,0,0.05
Sprite,Background,Centre,"sb/star.png",0,0 M,16,40928,43570,320,240,330.1404,432.7334 F,0,40928,43570,1,0 S,0,40928,43570,0,0.05
Sprite,Background,Centre,"sb/star.png",0,0 M,16,40978,43815,320,240,70.3027,325.7162 F,0,40978,43815,1,0 S,0,40978,43815,0,0.05
Sprite,Background,Centre,"sb/star.png",0,0 M,16,41028,43935,320,240,77.75902,301.8005 F,0,41028,43935,1,0 S,0,41028,43935,0,0.05
Sprite,Background,Centre,"sb/star.png",0,0 M,16,41078,43418,320,240,101.2913,348.1782 F,0,41078,43418,1,0 S,0,41078,43418,0,0.05
Sprite,Background,Centre,"sb/star.png",0,0 M,16,41128,43775,320,240,88.34302,50.96021 F,0,41128,43775,1,0 S,0,41128,43775,0,0.05
Sprite,Background,Centre,"sb/star.png",0,0 M,16,41178,43267,320,240,524.6464,227.9649 F,0,41178,43267,1,0 S,0,41178,43267,0,0.05
Sprite,Background,Centre,"sb/star.png",0,0 M,16,41228,44101,320,240,439.3759,380.0193 F,0,41228,44101,1,0 S,0,41228,44101,0,0.05
Sprite,Background,Centre,"sb/star.png",0,0 M,16,41278,43279,320,240,231.2387,73.1395 F,0,41278,43279,1,0 S,0,41278,43279,0,0.05
Sprite,Background,Centre,"sb/star.png",0,0 M,16,41328,43707,320,240,199.1954,476.9858 F,0,41328,43707,1,0 S,0,41328,43707,0,0.05
Sprite,Background,Centre,"sb/star.png",0,0 M,16,41378,44164,320,240,405.8754,82.94456 F,0,41378,44164,1,0 S,0,41378,44164,0,0.05
Sprite,Background,Centre,"sb/star.png",0,0 M,16,41428,43969,320,240,413.6548,393.7165 F,0,41428,43969,1,0 S,0,41428,43969,0,0.05
Sprite,Background,Centre,"sb/star.png",0,0 M,16,41478,44112,320,240,245.7592,412.7203 F,0,41478,44112,1,0 S,0,41478,44112,0,0.05
Sprite,Background,Centre,"sb/star.png",0,0 M,16,41528,43777,320,240,77.80294,301.9724 F,0,41528,43777,1,0 S,0,41528,43777,0,0.05
Sprite,Background,Centre,"sb/star.png",0,0 M,16,41578,44499,320,240,367.5607,365.2756 F,0,41578,44499,1,0 S,0,41578,44499,0,0.05
Sprite,Background,Centre,"sb/star.png",0,0 M,16,41628,43778,320,240,379.6049,446.5726 F,0,41628,43778,1,0 S,0,41628,43778,0,0.05
Sprite,Background,Centre,"sb/star.png",0,0 M,16,41678,44212,320,240,345.7662,64.88545 F,0,41678,44212,1,0 S,0,41678,44212,0,0.05
Sprite,Background,Centre,"sb/star.png",0,0 M,16,41728,44210,320,240,250.5014,268.1947 F,0,41728,44210,1,0 S,0,41728,44210,0,0.05
Sprite,Background,Centre,"sb/star.png",0,0 M,16,41778,43897,320,240,76.01963,139.1557 F,0,41778,43897,1,0 S,0,41778,43897,0,0.05
Sprite,Background,Centre,"sb/star.png",0,0 M,16,41828,44530,320,240,529.0037,260.4315 F,0,41828,44530,1,0 S,0,41828,44530,0,0.05
Sprite,Background,Centre,"sb/star.png",0,0 M,16,41878,44447,320,240,483.8596,233.2143 F,0,41878,44447,1,0 S,0,41878,44447,0,0.05
Sprite,Background,Centre,"sb/star.png",0,0 M,16,41928,44050,320,240,303.4285,318.2648 F,0,41928,44050,1,0 S,0,41928,44050,0,0.05
Sprite,Background,Centre,"sb/star.png",0,0 M,16,41978,44608,320,240,311.2019,488.8445 F,0,41978,44608,1,0 S,0,41978,44608,0,0.05
Sprite,Background,Centre,"sb/star.png",0,0 M,16,42028,44291,320,240,270.0468,257.7111 F,0,42028,44291,1,0 S,0,42028,44291,0,0.05
Sprite,Background,Centre,"sb/star.png",0,0 M,16,42078,44372,320,240,434.9816,7.921915 F,0,42078,44372,1,0 S,0,42078,44372,0,0.05
Sprite,Background,Centre,"sb/star.png",0,0 M,16,42128,44658,320,240,404.998,514.1247 F,0,42128,44658,1,0 S,0,42128,44658,0,0.05
Sprite,Background,Centre,"sb/star.png",0,0 M,16,42178,45123,320,240,528.1489,80.88365 F,0,42178,45123,1,0 S,0,42178,45123,0,0.05
Sprite,Background,Centre,"sb/star.png",0,0 M,16,42228,44694,320,240,158.4836,445.0206 F,0,42228,44694,1,0 S,0,42228,44694,0,0.05
Sprite,Background,Centre,"sb/star.png",0,0 M,16,42278,44829,320,240,210.0645,301.5645 F,0,42278,44829,1,0 S,0,42278,44829,0,0.05
Sprite,Background,Centre,"sb/star.png",0,0 M,16,42328,44718,320,240,239.3266,107.6489 F,0,42328,44718,1,0 S,0,42328,44718,0,0.05
Sprite,Background,Centre,"sb/star.png",0,0 M,16,42378,44978,320,240,560.5009,92.74748 F,0,42378,44978,1,0 S,0,42378,44978,0,0.05
Sprite,Background,Centre,"sb/star.png",0,0 M,16,42428,44727,320,240,199.0147,423.7459 F,0,42428,44727,1,0 S,0,42428,44727,0,0.05
Sprite,Background,Centre,"sb/star.png",0,0 M,16,42478,44944,320,240,371.417,483.6335 F,0,42478,44944,1,0 S,0,42478,44944,0,0.05
Sprite,Background,Centre,"sb/star.png",0,0 M,16,42528,45437,320,240,435.8758,103.5676 F,0,42528,45437,1,0 S,0,42528,45437,0,0.05
Sprite,Background,Centre,"sb/star.png",0,0 M,16,42578,45527,320,240,203.021,242.2186 F,0,42578,45527,1,0 S,0,42578,45527,0,0.05
Sprite,Background,Centre,"sb/star.png",0,0 M,16,42628,44955,320,240,313.0256,336.7489 F,0,42628,44955,1,0 S,0,42628,44955,0,0.05
Sprite,Background,Centre,"sb/star.png",0,0 M,16,42678,45293,320,240,485.0402,132.4326 F,0,42678,45293,1,0 S,0,42678,45293,0,0.05
Sprite,Background,Centre,"sb/star.png",0,0 M,16,42728,45088,320,240,377.8899,8.116925 F,0,42728,45088,1,0 S,0,42728,45088,0,0.05
Sprite,Background,Centre,"sb/star.png",0,0 M,16,42778,44897,320,240,263.3128,190.8923 F,0,42778,44897,1,0 S,0,42778,44897,0,0.05
Sprite,Background,Centre,"sb/star.png",0,0 M,16,42828,45465,320,240,397.5881,64.37514 F,0,42828,45465,1,0 S,0,42828,45465,0,0.05
Sprite,Background,Centre,"sb/star.png",0,0 M,16,42878,45742,320,240,241.7293,315.8597 F,0,42878,45742,1,0 S,0,42878,45742,0,0.05
Sprite,Background,Centre,"sb/star.png",0,0 M,16,42928,45520,320,240,507.7575,344.7479 F,0,42928,45520,1,0 S,0,42928,45520,0,0.05
Sprite,Background,Centre,"sb/star.png",0,0 M,16,42978,45511,320,240,480.8678,490.8497 F,0,42978,45511,1,0 S,0,42978,45511,0,0.05
Sprite,Background,Centre,"sb/star.png",0,0 M,16,43028,45508,320,240,357.4405,293.1339 F,0,43028,45508,1,0 S,0,43028,45508,0,0.05
Sprite,Background,Centre,"sb/star.png",0,0 M,16,43078,46063,320,240,290.9026,291.3259 F,0,43078,46063,1,0 S,0,43078,46063,0,0.05
Sprite,Background,Centre,"sb/star.png",0,0 M,16,43128,45162,320,240,159.715,160.3149 F,0,43128,45162,1,0 S,0,43128,45162,0,0.05
Sprite,Background,Centre,"sb/star.png",0,0 M,16,43178,46037,320,240,398.9499,310.7313 F,0,43178,46037,1,0 S,0,43178,46037,0,0.05
Sprite,Background,Centre,"sb/star.png",0,0 M,16,43228,45385,320,240,440.9259,29.2254 F,0,43228,45385,1,0 S,0,43228,45385,0,0.05
Sprite,Background,Centre,"sb/star.png",0,0 M,16,43278,46032,320,240,369.8179,338.0723 F,0,43278,46032,1,0 S,0,43278,46032,0,0.05
Sprite,Background,Centre,"sb/star.png",0,0 M,16,43328,45451,320,240,237.0559,195.7702 F,0,43328,45451,1,0 S,0,43328,45451,0,0.05
Sprite,Background,Centre,"sb/star.png",0,0 M,16,43378,46107,320,240,354.3019,494.7006 F,0,43378,46107,1,0 S,0,43378,46107,0,0.05
Sprite,Background,Centre,"sb/star.png",0,0 M,16,43428,45828,320,240,308.562,299.918 F,0,43428,45828,1,0 S,0,43428,45828,0,0.05
Sprite,Background,Centre,"sb/star.png",0,0 M,16,43478,45962,320,240,211.496,153.1214 F,0,43478,45962,1,0 S,0,43478,45962,0,0.05
Sprite,Background,Centre,"sb/star.png",0,0 M,16,43528,45943,320,240,407.2244,472.1549 F,0,43528,45943,1,0 S,0,43528,45943,0,0.05
Sprite,Background,Centre,"sb/star.png",0,0 M,16,43578,45680,320,240,238.0293,226.9692 F,0,43578,45680,1,0 S,0,43578,45680,0,0.05
Sprite,Background,Centre,"sb/star.png",0,0 M,16,43628,46383,320,240,293.6086,99.45643 F,0,43628,46383,1,0 S,0,43628,46383,0,0.05
Sprite,Background,Centre,"sb/star.png",0,0 M,16,43678,46134,320,240,258.957,203.7405 F,0,43678,46134,1,0 S,0,43678,46134,0,0.05
Sprite,Background,Centre,"sb/star.png",0,0 M,16,43728,45768,320,240,181.2509,440.7105 F,0,43728,45768,1,0 S,0,43728,45768,0,0.05
Sprite,Background,Centre,"sb/star.png",0,0 M,16,43778,46477,320,240,99.72211,290.5337 F,0,43778,46477,1,0 S,0,43778,46477,0,0.05
Sprite,Background,Centre,"sb/star.png",0,0 M,16,43828,46372,320,240,90.60441,360.2442 F,0,43828,46372,1,0 S,0,43828,46372,0,0.05
Sprite,Background,Centre,"sb/star.png",0,0 M,16,43878,46783,320,240,380.81,100.6941 F,0,43878,46783,1,0 S,0,43878,46783,0,0.05
Sprite,Background,Centre,"sb/star.png",0,0 M,16,43928,46509,320,240,343.3449,475.8474 F,0,43928,46509,1,0 S,0,43928,46509,0,0.05
Sprite,Background,Centre,"sb/star.png",0,0 M,16,43978,46901,320,240,515.7371,229.8508 F,0,43978,46901,1,0 S,0,43978,46901,0,0.05
Sprite,Background,Centre,"sb/star.png",0,0 M,16,44028,46080,320,240,419.8874,398.087 F,0,44028,46080,1,0 S,0,44028,46080,0,0.05
Sprite,Background,Centre,"sb/star.png",0,0 M,16,44078,47043,320,240,175.2147,308.0971 F,0,44078,47043,1,0 S,0,44078,47043,0,0.05
Sprite,Background,Centre,"sb/star.png",0,0 M,16,44128,47051,320,240,280.0286,191.3042 F,0,44128,47051,1,0 S,0,44128,47051,0,0.05
Sprite,Background,Centre,"sb/star.png",0,0 M,16,44178,46485,320,240,518.1726,16.10582 F,0,44178,46485,1,0 S,0,44178,46485,0,0.05
Sprite,Background,Centre,"sb/star.png",0,0 M,16,44228,46682,320,240,499.1125,360.7257 F,0,44228,46682,1,0 S,0,44228,46682,0,0.05
Sprite,Background,Centre,"sb/star.png",0,0 M,16,44278,47270,320,240,530.4766,310.5945 F,0,44278,47270,1,0 S,0,44278,47270,0,0.05
Sprite,Background,Centre,"sb/star.png",0,0 M,16,44328,47210,320,240,202.5203,431.8945 F,0,44328,47210,1,0 S,0,44328,47210,0,0.05
Sprite,Background,Centre,"sb/star.png",0,0 M,16,44378,47193,320,240,38.01728,206.2103 F,0,44378,47193,1,0 S,0,44378,47193,0,0.05
Sprite,Background,Centre,"sb/star.png",0,0 M,16,44428,46612,320,240,187.4652,357.318 F,0,44428,46612,1,0 S,0,44428,46612,0,0.05
Sprite,Background,Centre,"sb/star.png",0,0 M,16,44478,46855,320,240,186.1585,360.3597 F,0,44478,46855,1,0 S,0,44478,46855,0,0.05
Sprite,Background,Centre,"sb/star.png",0,0 M,16,44528,46818,320,240,384.8258,-9.723079 F,0,44528,46818,1,0 S,0,44528,46818,0,0.05
Sprite,Background,Centre,"sb/star.png",0,0 M,16,44578,47306,320,240,172.8112,206.2886 F,0,44578,47306,1,0 S,0,44578,47306,0,0.05
Sprite,Background,Centre,"sb/star.png",0,0 M,16,44628,47052,320,240,285.4683,298.5796 F,0,44628,47052,1,0 S,0,44628,47052,0,0.05
Sprite,Background,Centre,"sb/star.png",0,0 M,16,44678,47594,320,240,179.1538,40.75554 F,0,44678,47594,1,0 S,0,44678,47594,0,0.05
Sprite,Background,Centre,"sb/star.png",0,0 M,16,44728,47551,320,240,377.7652,147.5652 F,0,44728,47551,1,0 S,0,44728,47551,0,0.05
Sprite,Background,Centre,"sb/star.png",0,0 M,16,44778,47335,320,240,312.6931,78.16487 F,0,44778,47335,1,0 S,0,44778,47335,0,0.05
Sprite,Background,Centre,"sb/star.png",0,0 M,16,44828,47549,320,240,501.9504,315.5186 F,0,44828,47549,1,0 S,0,44828,47549,0,0.05
Sprite,Background,Centre,"sb/star.png",0,0 M,16,44878,47060,320,240,364.7087,199.9859 F,0,44878,47060,1,0 S,0,44878,47060,0,0.05
Sprite,Background,Centre,"sb/star.png",0,0 M,16,44928,47582,320,240,235.7995,170.781 F,0,44928,47582,1,0 S,0,44928,47582,0,0.05
Sprite,Background,Centre,"sb/star.png",0,0 M,16,44978,47619,320,240,543.6271,139.9205 F,0,44978,47619,1,0 S,0,44978,47619,0,0.05
Sprite,Background,Centre,"sb/star.png",0,0 M,16,45028,47073,320,240,138.2679,200.3838 F,0,45028,47073,1,0 S,0,45028,47073,0,0.05
Sprite,Background,Centre,"sb/star.png",0,0 M,16,45078,47335,320,240,346.9346,286.8031 F,0,45078,47335,1,0 S,0,45078,47335,0,0.05
Sprite,Background,Centre,"sb/star.png",0,0 M,16,45128,47202,320,240,302.6368,470.3465 F,0,45128,47202,1,0 S,0,45128,47202,0,0.05
Sprite,Background,Centre,"sb/star.png",0,0 M,16,45178,47736,320,240,176.4518,114.0043 F,0,45178,47736,1,0 S,0,45178,47736,0,0.05
Sprite,Background,Centre,"sb/star.png",0,0 M,16,45228,47944,320,240,578.6845,106.7209 F,0,45228,47944,1,0 S,0,45228,47944,0,0.05
Sprite,Background,Centre,"sb/star.png",0,0 M,16,45278,47963,320,240,233.6316,-45.20958 F,0,45278,47963,1,0 S,0,45278,47963,0,0.05
Sprite,Background,Centre,"sb/star.png",0,0 M,16,45328,48008,320,240,511.9403,314.7991 F,0,45328,48008,1,0 S,0,45328,48008,0,0.05
Sprite,Background,Centre,"sb/star.png",0,0 M,16,45378,48019,320,240,514.9388,151.7114 F,0,45378,48019,1,0 S,0,45378,48019,0,0.05
Sprite,Background,Centre,"sb/star.png",0,0 M,16,45428,47748,320,240,339.6038,165.5373 F,0,45428,47748,1,0 S,0,45428,47748,0,0.05
Sprite,Background,Centre,"sb/star.png",0,0 M,16,45478,48384,320,240,353.2657,299.3076 F,0,45478,48384,1,0 S,0,45478,48384,0,0.05
Sprite,Background,Centre,"sb/star.png",0,0 M,16,45528,48454,320,240,255.2907,476.3 F,0,45528,48454,1,0 S,0,45528,48454,0,0.05
Sprite,Background,Centre,"sb/star.png",0,0 M,16,45578,47979,320,240,352.9782,504.9555 F,0,45578,47979,1,0 S,0,45578,47979,0,0.05
Sprite,Background,Centre,"sb/star.png",0,0 M,16,45628,47745,320,240,356.0663,427.5639 F,0,45628,47745,1,0 S,0,45628,47745,0,0.05
Sprite,Background,Centre,"sb/star.png",0,0 M,16,45678,48350,320,240,293.4268,72.08971 F,0,45678,48350,1,0 S,0,45678,48350,0,0.05
Sprite,Background,Centre,"sb/star.png",0,0 M,16,45728,48208,320,240,409.2219,251.8094 F,0,45728,48208,1,0 S,0,45728,48208,0,0.05
Sprite,Background,Centre,"sb/star.png",0,0 M,16,45778,48225,320,240,467.9117,315.3534 F,0,45778,48225,1,0 S,0,45778,48225,0,0.05
Sprite,Background,Centre,"sb/star.png",0,0 M,16,45828,48787,320,240,331.4849,531.774 F,0,45828,48787,1,0 S,0,45828,48787,0,0.05
Sprite,Background,Centre,"sb/star.png",0,0 M,16,45878,48784,320,240,482.6624,480.0853 F,0,45878,48784,1,0 S,0,45878,48784,0,0.05
Sprite,Background,Centre,"sb/star.png",0,0 M,16,45928,48801,320,240,435.5758,144.3849 F,0,45928,48801,1,0 S,0,45928,48801,0,0.05
Sprite,Background,Centre,"sb/star.png",0,0 M,16,45978,48579,320,240,558.8431,86.34469 F,0,45978,48579,1,0 S,0,45978,48579,0,0.05
Sprite,Background,Centre,"sb/star.png",0,0 M,16,46028,48403,320,240,266.7014,165.0116 F,0,46028,48403,1,0 S,0,46028,48403,0,0.05
Sprite,Background,Centre,"sb/star.png",0,0 M,16,46078,48171,320,240,364.1133,36.73166 F,0,46078,48171,1,0 S,0,46078,48171,0,0.05
Sprite,Background,Centre,"sb/star.png",0,0 M,16,46128,48450,320,240,425.7277,312.1503 F,0,46128,48450,1,0 S,0,46128,48450,0,0.05
Sprite,Background,Centre,"sb/star.png",0,0 M,16,46178,48871,320,240,149.2287,325.5463 F,0,46178,48871,1,0 S,0,46178,48871,0,0.05
Sprite,Background,Centre,"sb/star.png",0,0 M,16,46228,48711,320,240,352.2589,280.7843 F,0,46228,48711,1,0 S,0,46228,48711,0,0.05
Sprite,Background,Centre,"sb/star.png",0,0 M,16,46278,48612,320,240,230.0723,243.6066 F,0,46278,48612,1,0 S,0,46278,48612,0,0.05
Sprite,Background,Centre,"sb/star.png",0,0 M,16,46328,49239,320,240,151.697,31.43799 F,0,46328,49239,1,0 S,0,46328,49239,0,0.05
Sprite,Background,Centre,"sb/star.png",0,0 M,16,46378,49093,320,240,545.5183,415.8906 F,0,46378,49093,1,0 S,0,46378,49093,0,0.05
Sprite,Background,Centre,"sb/star.png",0,0 M,16,46428,49352,320,240,344.1686,190.5948 F,0,46428,49352,1,0 S,0,46428,49352,0,0.05
Sprite,Background,Centre,"sb/star.png",0,0 M,16,46478,48615,320,240,142.784,276.8168 F,0,46478,48615,1,0 S,0,46478,48615,0,0.05
Sprite,Background,Centre,"sb/star.png",0,0 M,16,46528,48868,320,240,197.438,109.541 F,0,46528,48868,1,0 S,0,46528,48868,0,0.05
Sprite,Background,Centre,"sb/hit/r.png",343,334 S,7,47972,49024,0.25,0.5 F,6,47972,49024,1,0
Sprite,Background,Centre,"sb/hit/r.png",461,106 S,7,48678,49378,0.25,0.5 F,6,48678,49378,1,0
Sprite,Background,Centre,"sb/hit/r.png",461,106 S,7,49384,50084,0.25,0.5 F,6,49384,50084,1,0
Sprite,Background,Centre,"sb/hit/r.png",376,137 S,7,50089,50965,0.25,0.5 F,6,50089,50965,1,0
Sprite,Background,Centre,"sb/hit/r.png",540,285 S,7,50795,51847,0.25,0.5 F,6,50795,51847,1,0
Sprite,Background,Centre,"sb/hit/r.png",374,228 S,7,51501,52201,0.25,0.5 F,6,51501,52201,1,0
Sprite,Background,Centre,"sb/hit/r.png",100,285 S,7,52207,53259,0.25,0.5 F,6,52207,53259,1,0
Sprite,Background,Centre,"sb/hit/r.png",266,228 S,7,52913,53613,0.25,0.5 F,6,52913,53613,1,0
Sprite,Background,Centre,"sb/hit/r.png",320,429 S,7,53619,54671,0.25,0.5 F,6,53619,54671,1,0
Sprite,Background,Centre,"sb/hit/r.png",492,277 S,7,54325,55377,0.25,0.5 F,6,54325,55377,1,0
Sprite,Background,Centre,"sb/hit/r.png",385,253 S,7,55031,56083,0.25,0.5 F,6,55031,56083,1,0
Sprite,Background,Centre,"sb/hit/r.png",385,253 S,7,55031,56083,0.25,0.5 F,6,55031,56083,1,0
Sprite,Background,Centre,"sb/hit/r.png",471,149 S,7,55737,56789,0.25,0.5 F,6,55737,56789,1,0
Sprite,Background,Centre,"sb/hit/r.png",318,354 S,7,56443,57319,0.25,0.5 F,6,56443,57319,1,0
Sprite,Background,Centre,"sb/hit/r.png",318,354 S,7,56443,57319,0.25,0.5 F,6,56443,57319,1,0
Sprite,Background,Centre,"sb/hit/r.png",175,338 S,7,56795,57671,0.25,0.5 F,6,56795,57671,1,0
Sprite,Background,Centre,"sb/hit/r.png",191,195 S,7,57148,58024,0.25,0.5 F,6,57148,58024,1,0
Sprite,Background,Centre,"sb/hit/r.png",334,211 S,7,57501,58377,0.25,0.5 F,6,57501,58377,1,0
Sprite,Background,Centre,"sb/hit/h.png",320,248 S,7,57854,59913,0.7,1.4 F,7,57854,59913,1,0
Sprite,Background,Centre,"sb/bar.png",0,0 F,0,103737,104443,1,0 V,0,59266,,35,1 C,0,59266,,86,191,237 M,0,59266,,316,265 M,0,59266,59288,316,265,317.3358,273.0145 M,0,59288,59310,317.3358,273.0145,318.6715,281.0289 M,0,59310,59332,318.6715,281.0289,320.0072,289.0433 M,0,59332,59354,320.0072,289.0433,321.343,297.0578 M,0,59354,59376,321.343,297.0578,322.6787,305.0723 M,0,59376,59398,322.6787,305.0723,323.9658,313.081 M,0,59398,59420,323.9658,313.081,320.8054,320.5661 M,0,59420,59442,320.8054,320.5661,317.645,328.0513 M,0,59442,59464,317.645,328.0513,314.4846,335.5364 M,0,59464,59486,314.4846,335.5364,311.3242,343.0216 M,0,59486,59508,311.3242,343.0216,308.1638,350.5067 M,0,59508,59530,308.1638,350.5067,305.0034,357.9919 M,0,59530,59552,305.0034,357.9919,308.1638,350.5067 M,0,59552,59574,308.1638,350.5067,311.3242,343.0216 M,0,59574,59596,311.3242,343.0216,314.4846,335.5364 M,0,59596,59618,314.4846,335.5364,317.645,328.0513 M,0,59618,59641,317.645,328.0513,320.8054,320.5661 M,0,59641,59663,320.8054,320.5661,323.9658,313.081 M,0,59663,59685,323.9658,313.081,322.6787,305.0723 M,0,59685,59707,322.6787,305.0723,321.343,297.0578 M,0,59707,59729,321.343,297.0578,320.0072,289.0433 M,0,59729,59751,320.0072,289.0433,318.6715,281.0289 M,0,59751,59773,318.6715,281.0289,317.3358,273.0145 M,0,59773,59795,317.3358,273.0145,316,265 M,0,59795,59972,316,265,239,215 M,0,59972,59994,239,215,230.9996,216.4178 M,0,59994,60016,230.9996,216.4178,222.9993,217.8356 M,0,60016,60038,222.9993,217.8356,214.999,219.2533 M,0,60038,60060,214.999,219.2533,206.9986,220.6711 M,0,60060,60082,206.9986,220.6711,198.9983,222.0889 M,0,60082,60104,198.9983,222.0889,190.9979,223.5067 M,0,60104,60126,190.9979,223.5067,182.9976,224.9245 M,0,60126,60148,182.9976,224.9245,174.9973,226.3423 M,0,60148,60325,174.9973,226.3423,90,192 M,0,60325,61031,90,192 M,0,61031,61207,90,192 M,0,61207,61384,90,192,163,137 M,0,61384,61406,163,137,170.9858,135.5027 M,0,61406,61428,170.9858,135.5027,178.9717,134.0053 M,0,61428,61450,178.9717,134.0053,186.9575,132.508 M,0,61450,61472,186.9575,132.508,194.9433,131.0106 M,0,61472,61494,194.9433,131.0106,202.9292,129.5133 M,0,61494,61516,202.9292,129.5133,210.915,128.0159 M,0,61516,61538,210.915,128.0159,218.9008,126.5186 M,0,61538,61560,218.9008,126.5186,226.8867,125.0212 M,0,61560,61737,226.8867,125.0212,301,72 M,0,61737,61759,301,72,305.2696,78.91273 M,0,61759,61781,305.2696,78.91273,309.5392,85.82547 M,0,61781,61803,309.5392,85.82547,313.8089,92.7382 M,0,61803,61825,313.8089,92.7382,318.0785,99.65094 M,0,61825,61847,318.0785,99.65094,321.9079,106.6561 M,0,61847,61869,321.9079,106.6561,320.7786,114.7022 M,0,61869,61891,320.7786,114.7022,319.6494,122.7484 M,0,61891,61913,319.6494,122.7484,318.5201,130.7945 M,0,61913,61935,318.5201,130.7945,317.3908,138.8406 M,0,61935,61957,317.3908,138.8406,316.2615,146.8868 M,0,61957,61979,316.2615,146.8868,315.1322,154.9329 M,0,61979,62001,315.1322,154.9329,314.0029,162.9791 M,0,62001,62090,314.0029,162.9791,311,208 M,0,62090,62112,311,208,319.0145,209.3357 M,0,62112,62134,319.0145,209.3357,327.0289,210.6715 M,0,62134,62156,327.0289,210.6715,335.0434,212.0072 M,0,62156,62178,335.0434,212.0072,343.0578,213.343 M,0,62178,62200,343.0578,213.343,351.0723,214.6787 M,0,62200,62222,351.0723,214.6787,359.0867,216.0145 M,0,62222,62244,359.0867,216.0145,367.1012,217.3502 M,0,62244,62266,367.1012,217.3502,375.1156,218.6859 M,0,62266,62288,375.1156,218.6859,383.1301,220.0217 M,0,62288,62310,383.1301,220.0217,391.1445,221.3574 M,0,62310,62332,391.1445,221.3574,399.159,222.6932 M,0,62332,62354,399.159,222.6932,407.1734,224.0289 M,0,62354,62376,407.1734,224.0289,399.159,222.6932 M,0,62376,62398,399.159,222.6932,391.1445,221.3574 M,0,62398,62420,391.1445,221.3574,383.1301,220.0217 M,0,62420,62442,383.1301,220.0217,375.1156,218.6859 M,0,62442,62465,375.1156,218.6859,367.1012,217.3502 M,0,62465,62487,367.1012,217.3502,359.0867,216.0145 M,0,62487,62509,359.0867,216.0145,351.0723,214.6787 M,0,62509,62531,351.0723,214.6787,343.0578,213.343 M,0,62531,62553,343.0578,213.343,335.0434,212.0072 M,0,62553,62575,335.0434,212.0072,327.0289,210.6715 M,0,62575,62597,327.0289,210.6715,319.0145,209.3357 M,0,62597,62619,319.0145,209.3357,311,208 M,0,62619,62795,311,208,242,267 M,0,62795,62817,242,267,243.3763,275.0076 M,0,62817,62839,243.3763,275.0076,244.7526,283.0152 M,0,62839,62861,244.7526,283.0152,246.1289,291.0228 M,0,62861,62883,246.1289,291.0228,247.5052,299.0303 M,0,62883,62905,247.5052,299.0303,248.8815,307.0379 M,0,62905,62927,248.8815,307.0379,250.2578,315.0455 M,0,62927,62949,250.2578,315.0455,251.6341,323.0531 M,0,62949,62971,251.6341,323.0531,253,331 M,0,62971,63148,253,331,268,420 M,0,63148,63678,268,420,491,262 M,0,63678,63700,491,262,492.3557,253.9889 M,0,63700,63722,492.3557,253.9889,493.7115,245.9778 M,0,63722,63744,493.7115,245.9778,495.0672,237.9667 M,0,63744,63766,495.0672,237.9667,496.4229,229.9556 M,0,63766,63788,496.4229,229.9556,497.7786,221.9445 M,0,63788,63810,497.7786,221.9445,499.1343,213.9334 M,0,63810,63832,499.1343,213.9334,500.4901,205.9223 M,0,63832,63854,500.4901,205.9223,501.8458,197.9113 M,0,63854,63876,501.8458,197.9113,500.4901,205.9223 M,0,63876,63898,500.4901,205.9223,499.1343,213.9334 M,0,63898,63920,499.1343,213.9334,497.7786,221.9445 M,0,63920,63942,497.7786,221.9445,496.4229,229.9556 M,0,63942,63964,496.4229,229.9556,495.0672,237.9667 M,0,63964,63986,495.0672,237.9667,493.7115,245.9778 M,0,63986,64008,493.7115,245.9778,492.3557,253.9889 M,0,64008,64030,492.3557,253.9889,491,262 M,0,64030,64207,491,262,524,347 M,0,64207,64384,524,347,434,364 M,0,64384,64560,434,364,345,382 M,0,64560,64582,345,382,340.7304,375.0873 M,0,64582,64604,340.7304,375.0873,336.4608,368.1745 M,0,64604,64626,336.4608,368.1745,332.1911,361.2618 M,0,64626,64648,332.1911,361.2618,327.9215,354.3491 M,0,64648,64670,327.9215,354.3491,324.0794,347.3423 M,0,64670,64692,324.0794,347.3423,325.0529,339.2758 M,0,64692,64714,325.0529,339.2758,326.0265,331.2093 M,0,64714,64736,326.0265,331.2093,327,323.1429 M,0,64736,64758,327,323.1429,327.9735,315.0764 M,0,64758,64780,327.9735,315.0764,328.9471,307.0099 M,0,64780,64802,328.9471,307.0099,329.9206,298.9435 M,0,64802,64824,329.9206,298.9435,330.8942,290.877 M,0,64824,64913,330.8942,290.877,339,245 M,0,64913,64935,339,245,331.4904,241.8982 M,0,64935,64957,331.4904,241.8982,323.9807,238.7964 M,0,64957,64979,323.9807,238.7964,316.4711,235.6946 M,0,64979,65001,316.4711,235.6946,308.9615,232.5928 M,0,65001,65023,308.9615,232.5928,301.4519,229.491 M,0,65023,65045,301.4519,229.491,293.9423,226.3892 M,0,65045,65067,293.9423,226.3892,285.9911,227.1681 M,0,65067,65089,285.9911,227.1681,277.9767,228.5039 M,0,65089,65111,277.9767,228.5039,269.9622,229.8396 M,0,65111,65133,269.9622,229.8396,261.9478,231.1754 M,0,65133,65155,261.9478,231.1754,253.9333,232.5111 M,0,65155,65177,253.9333,232.5111,245.9189,233.8468 M,0,65177,65199,245.9189,233.8468,253.9333,232.5111 M,0,65199,65221,253.9333,232.5111,261.9478,231.1754 M,0,65221,65243,261.9478,231.1754,269.9622,229.8396 M,0,65243,65265,269.9622,229.8396,277.9767,228.5039 M,0,65265,65288,277.9767,228.5039,285.9911,227.1681 M,0,65288,65310,285.9911,227.1681,293.9423,226.3892 M,0,65310,65332,293.9423,226.3892,301.4519,229.491 M,0,65332,65354,301.4519,229.491,308.9615,232.5928 M,0,65354,65376,308.9615,232.5928,316.4711,235.6946 M,0,65376,65398,316.4711,235.6946,323.9807,238.7964 M,0,65398,65420,323.9807,238.7964,331.4904,241.8982 M,0,65420,65442,331.4904,241.8982,339,245 M,0,65442,65619,339,245,411,190 M,0,65619,65641,411,190,409.5249,182.01 M,0,65641,65663,409.5249,182.01,408.0499,174.0201 M,0,65663,65685,408.0499,174.0201,406.5748,166.0301 M,0,65685,65707,406.5748,166.0301,405.0997,158.0401 M,0,65707,65729,405.0997,158.0401,403.6246,150.0501 M,0,65729,65751,403.6246,150.0501,402.1496,142.0601 M,0,65751,65773,402.1496,142.0601,400.6745,134.0701 M,0,65773,65795,400.6745,134.0701,399.1994,126.0802 M,0,65795,65972,399.1994,126.0802,332,64 M,0,65972,66501,332,64,163,278 M,0,66501,66678,163,278,123,195 M,0,66678,66854,123,195 M,0,66854,67031,123,195,190,133 M,0,67031,67053,190,133,198.0076,134.3763 M,0,67053,67075,198.0076,134.3763,206.0152,135.7526 M,0,67075,67097,206.0152,135.7526,214.0228,137.1289 M,0,67097,67119,214.0228,137.1289,222.0303,138.5052 M,0,67119,67141,222.0303,138.5052,230.0379,139.8815 M,0,67141,67163,230.0379,139.8815,238.0455,141.2578 M,0,67163,67185,238.0455,141.2578,246.0531,142.6341 M,0,67185,67207,246.0531,142.6341,254,144 M,0,67207,67384,254,144,344,158 M,0,67384,67406,344,158,348.2696,164.9127 M,0,67406,67428,348.2696,164.9127,352.5392,171.8255 M,0,67428,67450,352.5392,171.8255,356.8089,178.7382 M,0,67450,67472,356.8089,178.7382,361.0785,185.6509 M,0,67472,67494,361.0785,185.6509,364.9079,192.6561 M,0,67494,67516,364.9079,192.6561,363.7786,200.7022 M,0,67516,67538,363.7786,200.7022,362.6494,208.7484 M,0,67538,67560,362.6494,208.7484,361.5201,216.7945 M,0,67560,67582,361.5201,216.7945,360.3908,224.8406 M,0,67582,67604,360.3908,224.8406,359.2615,232.8868 M,0,67604,67626,359.2615,232.8868,358.1322,240.9329 M,0,67626,67648,358.1322,240.9329,357.0029,248.9791 M,0,67648,67737,357.0029,248.9791,318,274 M,0,67737,67759,318,274,319.3358,282.0145 M,0,67759,67781,319.3358,282.0145,320.6715,290.0289 M,0,67781,67803,320.6715,290.0289,322.0072,298.0433 M,0,67803,67825,322.0072,298.0433,323.343,306.0578 M,0,67825,67847,323.343,306.0578,324.6787,314.0723 M,0,67847,67869,324.6787,314.0723,326.0145,322.0867 M,0,67869,67891,326.0145,322.0867,327.3502,330.1012 M,0,67891,67913,327.3502,330.1012,328.6859,338.1156 M,0,67913,67935,328.6859,338.1156,330.0217,346.1301 M,0,67935,67957,330.0217,346.1301,331.3574,354.1445 M,0,67957,67979,331.3574,354.1445,332.6931,362.159 M,0,67979,68001,332.6931,362.159,334.0289,370.1734 M,0,68001,68023,334.0289,370.1734,332.6931,362.159 M,0,68023,68045,332.6931,362.159,331.3574,354.1445 M,0,68045,68067,331.3574,354.1445,330.0217,346.1301 M,0,68067,68089,330.0217,346.1301,328.6859,338.1156 M,0,68089,68112,328.6859,338.1156,327.3502,330.1012 M,0,68112,68134,327.3502,330.1012,326.0145,322.0867 M,0,68134,68156,326.0145,322.0867,324.6787,314.0723 M,0,68156,68178,324.6787,314.0723,323.343,306.0578 M,0,68178,68200,323.343,306.0578,322.0072,298.0433 M,0,68200,68222,322.0072,298.0433,320.6715,290.0289 M,0,68222,68244,320.6715,290.0289,319.3358,282.0145 M,0,68244,68266,319.3358,282.0145,318,274 M,0,68266,68443,318,274,237,230 M,0,68443,68465,237,230,235.6237,238.0076 M,0,68465,68487,235.6237,238.0076,234.2474,246.0152 M,0,68487,68509,234.2474,246.0152,232.8711,254.0228 M,0,68509,68531,232.8711,254.0228,231.4948,262.0303 M,0,68531,68553,231.4948,262.0303,230.1185,270.0379 M,0,68553,68575,230.1185,270.0379,228.7422,278.0455 M,0,68575,68597,228.7422,278.0455,227.3659,286.0531 M,0,68597,68619,227.3659,286.0531,226,294 M,0,68619,68795,226,294,208,383 M,0,68795,69325,208,383,400,189 M,0,69325,69347,400,189,398.6237,180.9924 M,0,69347,69369,398.6237,180.9924,397.2474,172.9848 M,0,69369,69391,397.2474,172.9848,395.8711,164.9772 M,0,69391,69413,395.8711,164.9772,394.4948,156.9697 M,0,69413,69435,394.4948,156.9697,393.1185,148.9621 M,0,69435,69457,393.1185,148.9621,391.7422,140.9545 M,0,69457,69479,391.7422,140.9545,390.3659,132.9469 M,0,69479,69501,390.3659,132.9469,389,125 M,0,69501,69523,389,125,390.3659,132.9469 M,0,69523,69545,390.3659,132.9469,391.7422,140.9545 M,0,69545,69567,391.7422,140.9545,393.1185,148.9621 M,0,69567,69589,393.1185,148.9621,394.4948,156.9697 M,0,69589,69611,394.4948,156.9697,395.8711,164.9772 M,0,69611,69633,395.8711,164.9772,397.2474,172.9848 M,0,69633,69655,397.2474,172.9848,398.6237,180.9924 M,0,69655,69677,398.6237,180.9924,400,189 M,0,69677,69854,400,189,315,222 M,0,69854,70031,315,222,224,209 M,0,70031,70207,224,209,133,196 M,0,70207,70229,133,196,128.7304,202.9127 M,0,70229,70251,128.7304,202.9127,124.4607,209.8255 M,0,70251,70273,124.4607,209.8255,120.1911,216.7382 M,0,70273,70295,120.1911,216.7382,115.9215,223.6509 M,0,70295,70317,115.9215,223.6509,112.0921,230.6561 M,0,70317,70339,112.0921,230.6561,113.2214,238.7022 M,0,70339,70361,113.2214,238.7022,114.3506,246.7484 M,0,70361,70383,114.3506,246.7484,115.4799,254.7945 M,0,70383,70405,115.4799,254.7945,116.6092,262.8406 M,0,70405,70427,116.6092,262.8406,117.7385,270.8868 M,0,70427,70449,117.7385,270.8868,118.8678,278.9329 M,0,70449,70471,118.8678,278.9329,119.9971,286.9791 M,0,70471,70560,119.9971,286.9791,154,317 M,0,70560,70582,154,317,161.4852,313.8396 M,0,70582,70604,161.4852,313.8396,168.9703,310.6792 M,0,70604,70626,168.9703,310.6792,176.4555,307.5188 M,0,70626,70648,176.4555,307.5188,183.9406,304.3584 M,0,70648,70670,183.9406,304.3584,191.4258,301.198 M,0,70670,70692,191.4258,301.198,198.9109,298.0376 M,0,70692,70714,198.9109,298.0376,206.9191,299.3198 M,0,70714,70736,206.9191,299.3198,214.9335,300.6556 M,0,70736,70758,214.9335,300.6556,222.948,301.9913 M,0,70758,70780,222.948,301.9913,230.9624,303.3271 M,0,70780,70802,230.9624,303.3271,238.9769,304.6628 M,0,70802,70824,238.9769,304.6628,246.9913,305.9985 M,0,70824,70846,246.9913,305.9985,238.9769,304.6628 M,0,70846,70868,238.9769,304.6628,230.9624,303.3271 M,0,70868,70890,230.9624,303.3271,222.948,301.9913 M,0,70890,70912,222.948,301.9913,214.9335,300.6556 M,0,70912,70935,214.9335,300.6556,206.9191,299.3198 M,0,70935,70957,206.9191,299.3198,198.9109,298.0376 M,0,70957,70979,198.9109,298.0376,191.4258,301.198 M,0,70979,71001,191.4258,301.198,183.9406,304.3584 M,0,71001,71023,183.9406,304.3584,176.4555,307.5188 M,0,71023,71045,176.4555,307.5188,168.9703,310.6792 M,0,71045,71067,168.9703,310.6792,161.4852,313.8396 M,0,71067,71089,161.4852,313.8396,154,317 M,0,71089,71266,154,317,210,388 M,0,71266,71288,210,388,218.0076,389.3763 M,0,71288,71310,218.0076,389.3763,226.0152,390.7526 M,0,71310,71332,226.0152,390.7526,234.0228,392.1289 M,0,71332,71354,234.0228,392.1289,242.0303,393.5052 M,0,71354,71376,242.0303,393.5052,250.0379,394.8815 M,0,71376,71398,250.0379,394.8815,258.0455,396.2578 M,0,71398,71420,258.0455,396.2578,266.0531,397.6341 M,0,71420,71442,266.0531,397.6341,274,399 M,0,71442,71619,274,399,354,355 M,0,71619,72325,354,355 M,0,72325,72501,354,355 M,0,72501,72678,354,355,422,294 M,0,72678,72700,422,294,423.3763,285.9924 M,0,72700,72722,423.3763,285.9924,424.7526,277.9848 M,0,72722,72744,424.7526,277.9848,426.1289,269.9772 M,0,72744,72766,426.1289,269.9772,427.5052,261.9697 M,0,72766,72788,427.5052,261.9697,428.8815,253.9621 M,0,72788,72810,428.8815,253.9621,430.2578,245.9545 M,0,72810,72832,430.2578,245.9545,431.6341,237.9469 M,0,72832,72854,431.6341,237.9469,433,230 M,0,72854,73031,433,230,452,140 M,0,73031,73053,452,140,445.0873,135.7304 M,0,73053,73075,445.0873,135.7304,438.1745,131.4607 M,0,73075,73097,438.1745,131.4607,431.2618,127.1911 M,0,73097,73119,431.2618,127.1911,424.3491,122.9215 M,0,73119,73141,424.3491,122.9215,417.3439,119.0921 M,0,73141,73163,417.3439,119.0921,409.2978,120.2214 M,0,73163,73185,409.2978,120.2214,401.2516,121.3506 M,0,73185,73207,401.2516,121.3506,393.2055,122.4799 M,0,73207,73229,393.2055,122.4799,385.1594,123.6092 M,0,73229,73251,385.1594,123.6092,377.1132,124.7385 M,0,73251,73273,377.1132,124.7385,369.0671,125.8678 M,0,73273,73295,369.0671,125.8678,361.0209,126.9971 M,0,73295,73384,361.0209,126.9971,334,164 M,0,73384,73406,334,164,325.9855,162.6643 M,0,73406,73428,325.9855,162.6643,317.9711,161.3285 M,0,73428,73450,317.9711,161.3285,309.9567,159.9928 M,0,73450,73472,309.9567,159.9928,301.9422,158.657 M,0,73472,73494,301.9422,158.657,293.9277,157.3213 M,0,73494,73516,293.9277,157.3213,285.9133,155.9855 M,0,73516,73538,285.9133,155.9855,277.8988,154.6498 M,0,73538,73560,277.8988,154.6498,269.8844,153.3141 M,0,73560,73582,269.8844,153.3141,261.8699,151.9783 M,0,73582,73604,261.8699,151.9783,253.8555,150.6426 M,0,73604,73626,253.8555,150.6426,245.841,149.3068 M,0,73626,73648,245.841,149.3068,237.8266,147.9711 M,0,73648,73670,237.8266,147.9711,245.841,149.3068 M,0,73670,73692,245.841,149.3068,253.8555,150.6426 M,0,73692,73714,253.8555,150.6426,261.8699,151.9783 M,0,73714,73736,261.8699,151.9783,269.8844,153.3141 M,0,73736,73759,269.8844,153.3141,277.8988,154.6498 M,0,73759,73781,277.8988,154.6498,285.9133,155.9855 M,0,73781,73803,285.9133,155.9855,293.9277,157.3213 M,0,73803,73825,293.9277,157.3213,301.9422,158.657 M,0,73825,73847,301.9422,158.657,309.9567,159.9928 M,0,73847,73869,309.9567,159.9928,317.9711,161.3285 M,0,73869,73891,317.9711,161.3285,325.9855,162.6643 M,0,73891,73913,325.9855,162.6643,334,164 M,0,73913,74090,334,164,299,248 M,0,74090,74112,299,248,290.9924,246.6237 M,0,74112,74134,290.9924,246.6237,282.9848,245.2474 M,0,74134,74156,282.9848,245.2474,274.9772,243.8711 M,0,74156,74178,274.9772,243.8711,266.9697,242.4948 M,0,74178,74200,266.9697,242.4948,258.9621,241.1185 M,0,74200,74222,258.9621,241.1185,250.9545,239.7422 M,0,74222,74244,250.9545,239.7422,242.9469,238.3659 M,0,74244,74266,242.9469,238.3659,235,237 M,0,74266,74443,235,237,157,188 M,0,74443,74972,157,188,308,414 M,0,74972,74994,308,414,316.0076,412.6237 M,0,74994,75016,316.0076,412.6237,324.0152,411.2474 M,0,75016,75038,324.0152,411.2474,332.0228,409.8711 M,0,75038,75060,332.0228,409.8711,340.0303,408.4948 M,0,75060,75082,340.0303,408.4948,348.0379,407.1185 M,0,75082,75104,348.0379,407.1185,356.0455,405.7422 M,0,75104,75126,356.0455,405.7422,364.0531,404.3659 M,0,75126,75148,364.0531,404.3659,372,403 M,0,75148,75170,372,403,364.0531,404.3659 M,0,75170,75192,364.0531,404.3659,356.0455,405.7422 M,0,75192,75214,356.0455,405.7422,348.0379,407.1185 M,0,75214,75236,348.0379,407.1185,340.0303,408.4948 M,0,75236,75258,340.0303,408.4948,332.0228,409.8711 M,0,75258,75280,332.0228,409.8711,324.0152,411.2474 M,0,75280,75302,324.0152,411.2474,316.0076,412.6237 M,0,75302,75324,316.0076,412.6237,308,414 M,0,75324,75501,308,414,217,403 M,0,75501,75678,217,403,126,393 M,0,75678,75854,126,393,133,302 M,0,75854,75876,133,302,137.2696,295.0873 M,0,75876,75898,137.2696,295.0873,141.5393,288.1745 M,0,75898,75920,141.5393,288.1745,145.8089,281.2618 M,0,75920,75942,145.8089,281.2618,150.0785,274.3491 M,0,75942,75964,150.0785,274.3491,153.9079,267.3439 M,0,75964,75986,153.9079,267.3439,152.7786,259.2978 M,0,75986,76008,152.7786,259.2978,151.6494,251.2516 M,0,76008,76030,151.6494,251.2516,150.5201,243.2055 M,0,76030,76052,150.5201,243.2055,149.3908,235.1594 M,0,76052,76074,149.3908,235.1594,148.2615,227.1132 M,0,76074,76096,148.2615,227.1132,147.1322,219.0671 M,0,76096,76118,147.1322,219.0671,146.0029,211.0209 M,0,76118,76207,146.0029,211.0209,114,178 M,0,76207,76229,114,178,110.8982,170.4904 M,0,76229,76251,110.8982,170.4904,107.7964,162.9807 M,0,76251,76273,107.7964,162.9807,104.6946,155.4711 M,0,76273,76295,104.6946,155.4711,101.5928,147.9615 M,0,76295,76317,101.5928,147.9615,98.491,140.4519 M,0,76317,76339,98.491,140.4519,95.38919,132.9423 M,0,76339,76361,95.38919,132.9423,96.16814,124.9911 M,0,76361,76383,96.16814,124.9911,97.50388,116.9767 M,0,76383,76405,97.50388,116.9767,98.83963,108.9622 M,0,76405,76427,98.83963,108.9622,100.1754,100.9478 M,0,76427,76449,100.1754,100.9478,101.5111,92.93335 M,0,76449,76471,101.5111,92.93335,102.8468,84.9189 M,0,76471,76493,102.8468,84.9189,101.5111,92.93335 M,0,76493,76515,101.5111,92.93335,100.1754,100.9478 M,0,76515,76537,100.1754,100.9478,98.83963,108.9622 M,0,76537,76559,98.83963,108.9622,97.50388,116.9767 M,0,76559,76582,97.50388,116.9767,96.16814,124.9911 M,0,76582,76604,96.16814,124.9911,95.38919,132.9423 M,0,76604,76626,95.38919,132.9423,98.491,140.4519 M,0,76626,76648,98.491,140.4519,101.5928,147.9615 M,0,76648,76670,101.5928,147.9615,104.6946,155.4711 M,0,76670,76692,104.6946,155.4711,107.7964,162.9807 M,0,76692,76714,107.7964,162.9807,110.8982,170.4904 M,0,76714,76736,110.8982,170.4904,114,178 M,0,76736,76913,114,178,184,120 M,0,76913,76935,184,120,192.0076,118.6237 M,0,76935,76957,192.0076,118.6237,200.0152,117.2474 M,0,76957,76979,200.0152,117.2474,208.0228,115.8711 M,0,76979,77001,208.0228,115.8711,216.0303,114.4948 M,0,77001,77023,216.0303,114.4948,224.0379,113.1185 M,0,77023,77045,224.0379,113.1185,232.0455,111.7422 M,0,77045,77067,232.0455,111.7422,240.0531,110.3659 M,0,77067,77089,240.0531,110.3659,248,109 M,0,77089,77266,248,109,332,143 M,0,77266,77795,332,143,260,406 M,0,77795,77972,260,406,240,316 M,0,77972,78148,240,316 M,0,78148,78325,240,316,330,300 M,0,78325,78347,330,300,338.0076,301.3763 M,0,78347,78369,338.0076,301.3763,346.0152,302.7526 M,0,78369,78391,346.0152,302.7526,354.0228,304.1289 M,0,78391,78413,354.0228,304.1289,362.0303,305.5052 M,0,78413,78435,362.0303,305.5052,370.0379,306.8815 M,0,78435,78457,370.0379,306.8815,378.0455,308.2578 M,0,78457,78479,378.0455,308.2578,386.0531,309.6341 M,0,78479,78501,386.0531,309.6341,394,311 M,0,78501,78678,394,311,484,321 M,0,78678,78700,484,321,488.2696,314.0873 M,0,78700,78722,488.2696,314.0873,492.5392,307.1745 M,0,78722,78744,492.5392,307.1745,496.8089,300.2618 M,0,78744,78766,496.8089,300.2618,501.0785,293.3491 M,0,78766,78788,501.0785,293.3491,504.9079,286.3439 M,0,78788,78810,504.9079,286.3439,503.7786,278.2978 M,0,78810,78832,503.7786,278.2978,502.6494,270.2516 M,0,78832,78854,502.6494,270.2516,501.5201,262.2055 M,0,78854,78876,501.5201,262.2055,500.3908,254.1594 M,0,78876,78898,500.3908,254.1594,499.2615,246.1132 M,0,78898,78920,499.2615,246.1132,498.1322,238.0671 M,0,78920,78942,498.1322,238.0671,497.0029,230.0209 M,0,78942,79031,497.0029,230.0209,493,184 M,0,79031,79053,493,184,484.9855,185.3357 M,0,79053,79075,484.9855,185.3357,476.9711,186.6715 M,0,79075,79097,476.9711,186.6715,468.9566,188.0072 M,0,79097,79119,468.9566,188.0072,460.9422,189.343 M,0,79119,79141,460.9422,189.343,452.9277,190.6787 M,0,79141,79163,452.9277,190.6787,444.9133,192.0145 M,0,79163,79185,444.9133,192.0145,436.8988,193.3502 M,0,79185,79207,436.8988,193.3502,428.8844,194.6859 M,0,79207,79229,428.8844,194.6859,420.8699,196.0217 M,0,79229,79251,420.8699,196.0217,412.8555,197.3574 M,0,79251,79273,412.8555,197.3574,404.841,198.6932 M,0,79273,79295,404.841,198.6932,396.8266,200.0289 M,0,79295,79317,396.8266,200.0289,404.841,198.6932 M,0,79317,79339,404.841,198.6932,412.8555,197.3574 M,0,79339,79361,412.8555,197.3574,420.8699,196.0217 M,0,79361,79383,420.8699,196.0217,428.8844,194.6859 M,0,79383,79406,428.8844,194.6859,436.8988,193.3502 M,0,79406,79428,436.8988,193.3502,444.9133,192.0145 M,0,79428,79450,444.9133,192.0145,452.9277,190.6787 M,0,79450,79472,452.9277,190.6787,460.9422,189.343 M,0,79472,79494,460.9422,189.343,468.9566,188.0072 M,0,79494,79516,468.9566,188.0072,476.9711,186.6715 M,0,79516,79538,476.9711,186.6715,484.9855,185.3357 M,0,79538,79560,484.9855,185.3357,493,184 M,0,79560,79737,493,184,543,107 M,0,79737,79759,543,107,534.9924,105.6237 M,0,79759,79781,534.9924,105.6237,526.9849,104.2474 M,0,79781,79803,526.9849,104.2474,518.9772,102.8711 M,0,79803,79825,518.9772,102.8711,510.9697,101.4948 M,0,79825,79847,510.9697,101.4948,502.9621,100.1185 M,0,79847,79869,502.9621,100.1185,494.9545,98.74218 M,0,79869,79891,494.9545,98.74218,486.9469,97.36588 M,0,79891,79913,486.9469,97.36588,479,96 M,0,79913,80090,479,96,389,77 M,0,80090,80795,389,77 M,0,80795,80972,389,77 M,0,80972,81148,389,77,332,148 M,0,81148,81325,332,148,241,158 M,0,81325,81501,241,158,150,168 M,0,81501,81523,150,168,145.7304,174.9127 M,0,81523,81545,145.7304,174.9127,141.4607,181.8255 M,0,81545,81567,141.4607,181.8255,137.1911,188.7382 M,0,81567,81589,137.1911,188.7382,132.9215,195.6509 M,0,81589,81611,132.9215,195.6509,129.0921,202.6561 M,0,81611,81633,129.0921,202.6561,130.2214,210.7022 M,0,81633,81655,130.2214,210.7022,131.3506,218.7484 M,0,81655,81677,131.3506,218.7484,132.4799,226.7945 M,0,81677,81699,132.4799,226.7945,133.6092,234.8406 M,0,81699,81721,133.6092,234.8406,134.7385,242.8868 M,0,81721,81743,134.7385,242.8868,135.8678,250.9329 M,0,81743,81765,135.8678,250.9329,136.9971,258.9791 M,0,81765,81854,136.9971,258.9791,145,304 M,0,81854,81876,145,304,153.0076,305.3763 M,0,81876,81898,153.0076,305.3763,161.0152,306.7526 M,0,81898,81920,161.0152,306.7526,169.0228,308.1289 M,0,81920,81942,169.0228,308.1289,177.0303,309.5052 M,0,81942,81964,177.0303,309.5052,185.0379,310.8815 M,0,81964,81986,185.0379,310.8815,193.0455,312.2578 M,0,81986,82008,193.0455,312.2578,201.0531,313.6341 M,0,82008,82030,201.0531,313.6341,209,315 M,0,82030,82052,209,315,201.0531,313.6341 M,0,82052,82074,201.0531,313.6341,193.0455,312.2578 M,0,82074,82096,193.0455,312.2578,185.0379,310.8815 M,0,82096,82118,185.0379,310.8815,177.0303,309.5052 M,0,82118,82140,177.0303,309.5052,169.0228,308.1289 M,0,82140,82162,169.0228,308.1289,161.0152,306.7526 M,0,82162,82184,161.0152,306.7526,153.0076,305.3763 M,0,82184,82206,153.0076,305.3763,145,304 M,0,82206,82384,145,304,165,393 M,0,82384,82560,165,393,246,432 M,0,82560,82582,246,432,254.0076,430.6237 M,0,82582,82604,254.0076,430.6237,262.0152,429.2474 M,0,82604,82626,262.0152,429.2474,270.0228,427.8711 M,0,82626,82648,270.0228,427.8711,278.0303,426.4948 M,0,82648,82670,278.0303,426.4948,286.0379,425.1185 M,0,82670,82692,286.0379,425.1185,294.0455,423.7422 M,0,82692,82714,294.0455,423.7422,302.0531,422.3659 M,0,82714,82736,302.0531,422.3659,310,421 M,0,82736,82913,310,421,376,358 M,0,82913,83619,376,358 M,0,83619,83795,376,358 M,0,83795,83972,376,358,304,301 M,0,83972,83994,304,301,305.3763,292.9924 M,0,83994,84016,305.3763,292.9924,306.7526,284.9848 M,0,84016,84038,306.7526,284.9848,308.1289,276.9772 M,0,84038,84060,308.1289,276.9772,309.5052,268.9697 M,0,84060,84082,309.5052,268.9697,310.8815,260.9621 M,0,84082,84104,310.8815,260.9621,312.2578,252.9545 M,0,84104,84126,312.2578,252.9545,313.6341,244.9469 M,0,84126,84148,313.6341,244.9469,315,237 M,0,84148,84325,315,237,331,147 M,0,84325,84347,331,147,337.9127,142.7304 M,0,84347,84369,337.9127,142.7304,344.8255,138.4607 M,0,84369,84391,344.8255,138.4607,351.7382,134.1911 M,0,84391,84413,351.7382,134.1911,358.6509,129.9215 M,0,84413,84435,358.6509,129.9215,365.6561,126.0921 M,0,84435,84457,365.6561,126.0921,373.7022,127.2214 M,0,84457,84479,373.7022,127.2214,381.7484,128.3506 M,0,84479,84501,381.7484,128.3506,389.7945,129.4799 M,0,84501,84523,389.7945,129.4799,397.8406,130.6092 M,0,84523,84545,397.8406,130.6092,405.8868,131.7385 M,0,84545,84567,405.8868,131.7385,413.9329,132.8678 M,0,84567,84589,413.9329,132.8678,421.9791,133.9971 M,0,84589,84678,421.9791,133.9971,447,171 M,0,84678,84700,447,171,445.6642,179.0145 M,0,84700,84722,445.6642,179.0145,444.3285,187.0289 M,0,84722,84744,444.3285,187.0289,442.9928,195.0434 M,0,84744,84766,442.9928,195.0434,441.657,203.0578 M,0,84766,84788,441.657,203.0578,440.3213,211.0723 M,0,84788,84810,440.3213,211.0723,438.9855,219.0867 M,0,84810,84832,438.9855,219.0867,437.6498,227.1012 M,0,84832,84854,437.6498,227.1012,436.3141,235.1156 M,0,84854,84876,436.3141,235.1156,434.9783,243.1301 M,0,84876,84898,434.9783,243.1301,433.6426,251.1445 M,0,84898,84920,433.6426,251.1445,432.3069,259.159 M,0,84920,84942,432.3069,259.159,430.9711,267.1734 M,0,84942,84964,430.9711,267.1734,432.3069,259.159 M,0,84964,84986,432.3069,259.159,433.6426,251.1445 M,0,84986,85008,433.6426,251.1445,434.9783,243.1301 M,0,85008,85030,434.9783,243.1301,436.3141,235.1156 M,0,85030,85053,436.3141,235.1156,437.6498,227.1012 M,0,85053,85075,437.6498,227.1012,438.9855,219.0867 M,0,85075,85097,438.9855,219.0867,440.3213,211.0723 M,0,85097,85119,440.3213,211.0723,441.657,203.0578 M,0,85119,85141,441.657,203.0578,442.9928,195.0434 M,0,85141,85163,442.9928,195.0434,444.3285,187.0289 M,0,85163,85185,444.3285,187.0289,445.6642,179.0145 M,0,85185,85207,445.6642,179.0145,447,171 M,0,85207,85384,447,171,532,203 M,0,85384,85406,532,203,530.6237,211.0076 M,0,85406,85428,530.6237,211.0076,529.2474,219.0152 M,0,85428,85450,529.2474,219.0152,527.8711,227.0228 M,0,85450,85472,527.8711,227.0228,526.4948,235.0303 M,0,85472,85494,526.4948,235.0303,525.1185,243.0379 M,0,85494,85516,525.1185,243.0379,523.7422,251.0455 M,0,85516,85538,523.7422,251.0455,522.3658,259.0531 M,0,85538,85560,522.3658,259.0531,521,267 M,0,85560,85737,521,267,479,348 M,0,85737,86266,479,348,234,226 M,0,86266,86288,234,226,232.6237,217.9924 M,0,86288,86310,232.6237,217.9924,231.2474,209.9848 M,0,86310,86332,231.2474,209.9848,229.8711,201.9772 M,0,86332,86354,229.8711,201.9772,228.4948,193.9697 M,0,86354,86376,228.4948,193.9697,227.1185,185.9621 M,0,86376,86398,227.1185,185.9621,225.7422,177.9545 M,0,86398,86420,225.7422,177.9545,224.3659,169.9469 M,0,86420,86442,224.3659,169.9469,223,162 M,0,86442,86464,223,162,224.3659,169.9469 M,0,86464,86486,224.3659,169.9469,225.7422,177.9545 M,0,86486,86508,225.7422,177.9545,227.1185,185.9621 M,0,86508,86530,227.1185,185.9621,228.4948,193.9697 M,0,86530,86552,228.4948,193.9697,229.8711,201.9772 M,0,86552,86574,229.8711,201.9772,231.2474,209.9848 M,0,86574,86596,231.2474,209.9848,232.6237,217.9924 M,0,86596,86618,232.6237,217.9924,234,226 M,0,86618,86795,234,226,314,268 M,0,86795,86972,314,268,335,178 M,0,86972,87148,335,178,356,89 M,0,87148,87170,356,89,349.0873,84.73037 M,0,87170,87192,349.0873,84.73037,342.1745,80.46074 M,0,87192,87214,342.1745,80.46074,335.2618,76.19112 M,0,87214,87236,335.2618,76.19112,328.3491,71.92148 M,0,87236,87258,328.3491,71.92148,321.3439,68.09208 M,0,87258,87280,321.3439,68.09208,313.2978,69.22137 M,0,87280,87302,313.2978,69.22137,305.2516,70.35065 M,0,87302,87324,305.2516,70.35065,297.2055,71.47993 M,0,87324,87346,297.2055,71.47993,289.1594,72.60921 M,0,87346,87368,289.1594,72.60921,281.1132,73.73849 M,0,87368,87390,281.1132,73.73849,273.0671,74.86778 M,0,87390,87412,273.0671,74.86778,265.0209,75.99706 M,0,87412,87501,265.0209,75.99706,219,72 M,0,87501,87523,219,72,211.4904,75.1018 M,0,87523,87545,211.4904,75.1018,203.9808,78.2036 M,0,87545,87567,203.9808,78.2036,196.4711,81.3054 M,0,87567,87589,196.4711,81.3054,188.9615,84.4072 M,0,87589,87611,188.9615,84.4072,181.4519,87.509 M,0,87611,87633,181.4519,87.509,173.9423,90.61081 M,0,87633,87655,173.9423,90.61081,165.9911,89.83186 M,0,87655,87677,165.9911,89.83186,157.9767,88.49612 M,0,87677,87699,157.9767,88.49612,149.9622,87.16037 M,0,87699,87721,149.9622,87.16037,141.9478,85.82463 M,0,87721,87743,141.9478,85.82463,133.9333,84.48889 M,0,87743,87765,133.9333,84.48889,125.9189,83.15315 M,0,87765,87787,125.9189,83.15315,133.9333,84.48889 M,0,87787,87809,133.9333,84.48889,141.9478,85.82463 M,0,87809,87831,141.9478,85.82463,149.9622,87.16037 M,0,87831,87853,149.9622,87.16037,157.9767,88.49612 M,0,87853,87876,157.9767,88.49612,165.9911,89.83186 M,0,87876,87898,165.9911,89.83186,173.9423,90.61081 M,0,87898,87920,173.9423,90.61081,181.4519,87.509 M,0,87920,87942,181.4519,87.509,188.9615,84.4072 M,0,87942,87964,188.9615,84.4072,196.4711,81.3054 M,0,87964,87986,196.4711,81.3054,203.9808,78.2036 M,0,87986,88008,203.9808,78.2036,211.4904,75.1018 M,0,88008,88030,211.4904,75.1018,219,72 M,0,88030,88207,219,72,222,161 M,0,88207,88229,222,161,223.3763,169.0076 M,0,88229,88251,223.3763,169.0076,224.7526,177.0152 M,0,88251,88273,224.7526,177.0152,226.1289,185.0228 M,0,88273,88295,226.1289,185.0228,227.5052,193.0303 M,0,88295,88317,227.5052,193.0303,228.8815,201.0379 M,0,88317,88339,228.8815,201.0379,230.2578,209.0455 M,0,88339,88361,230.2578,209.0455,231.6341,217.0531 M,0,88361,88383,231.6341,217.0531,233,225 M,0,88383,88560,233,225,184,302 M,0,88560,89090,184,302,449,365 M,0,89090,89266,449,365,469,276 M,0,89266,89443,469,276 M,0,89443,89619,469,276,379,258 M,0,89619,89641,379,258,370.9924,259.3763 M,0,89641,89663,370.9924,259.3763,362.9848,260.7526 M,0,89663,89685,362.9848,260.7526,354.9772,262.1289 M,0,89685,89707,354.9772,262.1289,346.9697,263.5052 M,0,89707,89729,346.9697,263.5052,338.9621,264.8815 M,0,89729,89751,338.9621,264.8815,330.9545,266.2578 M,0,89751,89773,330.9545,266.2578,322.9469,267.6341 M,0,89773,89795,322.9469,267.6341,315,269 M,0,89795,89972,315,269,233,225 M,0,89972,89994,233,225,228.7304,218.0873 M,0,89994,90016,228.7304,218.0873,224.4607,211.1745 M,0,90016,90038,224.4607,211.1745,220.1911,204.2618 M,0,90038,90060,220.1911,204.2618,215.9215,197.3491 M,0,90060,90082,215.9215,197.3491,212.0921,190.3439 M,0,90082,90104,212.0921,190.3439,213.2214,182.2978 M,0,90104,90126,213.2214,182.2978,214.3506,174.2516 M,0,90126,90148,214.3506,174.2516,215.4799,166.2055 M,0,90148,90170,215.4799,166.2055,216.6092,158.1594 M,0,90170,90192,216.6092,158.1594,217.7385,150.1132 M,0,90192,90214,217.7385,150.1132,218.8678,142.0671 M,0,90214,90236,218.8678,142.0671,219.9971,134.0209 M,0,90236,90325,219.9971,134.0209,260,111 M,0,90325,90347,260,111,268.0145,112.3357 M,0,90347,90369,268.0145,112.3357,276.0289,113.6715 M,0,90369,90391,276.0289,113.6715,284.0433,115.0072 M,0,90391,90413,284.0433,115.0072,292.0578,116.343 M,0,90413,90435,292.0578,116.343,300.0723,117.6787 M,0,90435,90457,300.0723,117.6787,308.0867,119.0145 M,0,90457,90479,308.0867,119.0145,316.1011,120.3502 M,0,90479,90501,316.1011,120.3502,324.1156,121.6859 M,0,90501,90523,324.1156,121.6859,332.1301,123.0217 M,0,90523,90545,332.1301,123.0217,340.1445,124.3574 M,0,90545,90567,340.1445,124.3574,348.1589,125.6932 M,0,90567,90589,348.1589,125.6932,356,127 M,0,90589,90611,356,127,348.1589,125.6932 M,0,90611,90633,348.1589,125.6932,340.1445,124.3574 M,0,90633,90655,340.1445,124.3574,332.1301,123.0217 M,0,90655,90677,332.1301,123.0217,324.1156,121.6859 M,0,90677,90700,324.1156,121.6859,316.1011,120.3502 M,0,90700,90722,316.1011,120.3502,308.0867,119.0145 M,0,90722,90744,308.0867,119.0145,300.0723,117.6787 M,0,90744,90766,300.0723,117.6787,292.0578,116.343 M,0,90766,90788,292.0578,116.343,284.0433,115.0072 M,0,90788,90810,284.0433,115.0072,276.0289,113.6715 M,0,90810,90832,276.0289,113.6715,268.0145,112.3357 M,0,90832,90854,268.0145,112.3357,260,111 M,0,90854,91031,260,111,180,65 M,0,91031,91053,180,65,171.9924,66.3763 M,0,91053,91075,171.9924,66.3763,163.9848,67.75261 M,0,91075,91097,163.9848,67.75261,155.9772,69.12891 M,0,91097,91119,155.9772,69.12891,147.9697,70.50522 M,0,91119,91141,147.9697,70.50522,139.9621,71.88152 M,0,91141,91163,139.9621,71.88152,131.9545,73.25782 M,0,91163,91185,131.9545,73.25782,123.9469,74.63412 M,0,91185,91207,123.9469,74.63412,116,76 M,0,91207,91384,116,76,82,160 M,0,91384,91913,82,160,275,351 M,0,91913,91935,275,351,273.6237,359.0076 M,0,91935,91957,273.6237,359.0076,272.2474,367.0152 M,0,91957,91979,272.2474,367.0152,270.8711,375.0228 M,0,91979,92001,270.8711,375.0228,269.4948,383.0303 M,0,92001,92023,269.4948,383.0303,268.1185,391.0379 M,0,92023,92045,268.1185,391.0379,266.7422,399.0455 M,0,92045,92067,266.7422,399.0455,265.3659,407.0531 M,0,92067,92089,265.3659,407.0531,264,415 M,0,92089,92111,264,415,265.3659,407.0531 M,0,92111,92133,265.3659,407.0531,266.7422,399.0455 M,0,92133,92155,266.7422,399.0455,268.1185,391.0379 M,0,92155,92177,268.1185,391.0379,269.4948,383.0303 M,0,92177,92199,269.4948,383.0303,270.8711,375.0228 M,0,92199,92221,270.8711,375.0228,272.2474,367.0152 M,0,92221,92243,272.2474,367.0152,273.6237,359.0076 M,0,92243,92265,273.6237,359.0076,275,351 M,0,92265,92443,275,351,229,271 M,0,92443,92619,229,271,317,251 M,0,92619,92795,317,251,405,232 M,0,92795,92817,405,232,409.2696,225.0873 M,0,92817,92839,409.2696,225.0873,413.5392,218.1745 M,0,92839,92861,413.5392,218.1745,417.8089,211.2618 M,0,92861,92883,417.8089,211.2618,422.0785,204.3491 M,0,92883,92905,422.0785,204.3491,425.9079,197.3439 M,0,92905,92927,425.9079,197.3439,424.7786,189.2978 M,0,92927,92949,424.7786,189.2978,423.6494,181.2516 M,0,92949,92971,423.6494,181.2516,422.5201,173.2055 M,0,92971,92993,422.5201,173.2055,421.3908,165.1594 M,0,92993,93015,421.3908,165.1594,420.2615,157.1132 M,0,93015,93037,420.2615,157.1132,419.1322,149.0671 M,0,93037,93059,419.1322,149.0671,418.0029,141.0209 M,0,93059,93148,418.0029,141.0209,415,95 M,0,93148,93170,415,95,407.5149,98.1604 M,0,93170,93192,407.5149,98.1604,400.0297,101.3208 M,0,93192,93214,400.0297,101.3208,392.5446,104.4812 M,0,93214,93236,392.5446,104.4812,385.0594,107.6416 M,0,93236,93258,385.0594,107.6416,377.5742,110.802 M,0,93258,93280,377.5742,110.802,370.0891,113.9624 M,0,93280,93302,370.0891,113.9624,362.0809,112.6802 M,0,93302,93324,362.0809,112.6802,354.0665,111.3444 M,0,93324,93346,354.0665,111.3444,346.052,110.0087 M,0,93346,93368,346.052,110.0087,338.0376,108.6729 M,0,93368,93390,338.0376,108.6729,330.0231,107.3372 M,0,93390,93412,330.0231,107.3372,322.0087,106.0014 M,0,93412,93434,322.0087,106.0014,330.0231,107.3372 M,0,93434,93456,330.0231,107.3372,338.0376,108.6729 M,0,93456,93478,338.0376,108.6729,346.052,110.0087 M,0,93478,93500,346.052,110.0087,354.0665,111.3444 M,0,93500,93523,354.0665,111.3444,362.0809,112.6802 M,0,93523,93545,362.0809,112.6802,370.0891,113.9624 M,0,93545,93567,370.0891,113.9624,377.5742,110.802 M,0,93567,93589,377.5742,110.802,385.0594,107.6416 M,0,93589,93611,385.0594,107.6416,392.5446,104.4812 M,0,93611,93633,392.5446,104.4812,400.0297,101.3208 M,0,93633,93655,400.0297,101.3208,407.5149,98.1604 M,0,93655,93677,407.5149,98.1604,415,95 M,0,93677,93854,415,95,503,117 M,0,93854,93876,503,117,504.3763,125.0076 M,0,93876,93898,504.3763,125.0076,505.7526,133.0152 M,0,93898,93920,505.7526,133.0152,507.1289,141.0228 M,0,93920,93942,507.1289,141.0228,508.5052,149.0303 M,0,93942,93964,508.5052,149.0303,509.8815,157.0379 M,0,93964,93986,509.8815,157.0379,511.2578,165.0455 M,0,93986,94008,511.2578,165.0455,512.6342,173.0531 M,0,94008,94030,512.6342,173.0531,514,181 M,0,94030,94207,514,181,490,269 M,0,94207,94913,490,269 M,0,94913,95090,490,269 M,0,95090,95266,490,269,443,346 M,0,95266,95288,443,346,434.9924,347.3763 M,0,95288,95310,434.9924,347.3763,426.9848,348.7526 M,0,95310,95332,426.9848,348.7526,418.9772,350.1289 M,0,95332,95354,418.9772,350.1289,410.9697,351.5052 M,0,95354,95376,410.9697,351.5052,402.9621,352.8815 M,0,95376,95398,402.9621,352.8815,394.9545,354.2578 M,0,95398,95420,394.9545,354.2578,386.9469,355.6341 M,0,95420,95442,386.9469,355.6341,379,357 M,0,95442,95619,379,357,288,365 M,0,95619,95641,288,365,283.7304,358.0873 M,0,95641,95663,283.7304,358.0873,279.4608,351.1745 M,0,95663,95685,279.4608,351.1745,275.1911,344.2618 M,0,95685,95707,275.1911,344.2618,270.9215,337.3491 M,0,95707,95729,270.9215,337.3491,267.0921,330.3439 M,0,95729,95751,267.0921,330.3439,268.2214,322.2978 M,0,95751,95773,268.2214,322.2978,269.3506,314.2516 M,0,95773,95795,269.3506,314.2516,270.4799,306.2055 M,0,95795,95817,270.4799,306.2055,271.6092,298.1594 M,0,95817,95839,271.6092,298.1594,272.7385,290.1132 M,0,95839,95861,272.7385,290.1132,273.8678,282.0671 M,0,95861,95883,273.8678,282.0671,274.9971,274.0209 M,0,95883,95972,274.9971,274.0209,291,231 M,0,95972,95994,291,231,289.6642,222.9855 M,0,95994,96016,289.6642,222.9855,288.3285,214.9711 M,0,96016,96038,288.3285,214.9711,286.9928,206.9566 M,0,96038,96060,286.9928,206.9566,285.657,198.9422 M,0,96060,96082,285.657,198.9422,284.3213,190.9277 M,0,96082,96104,284.3213,190.9277,282.9855,182.9133 M,0,96104,96126,282.9855,182.9133,281.6498,174.8988 M,0,96126,96148,281.6498,174.8988,280.3141,166.8844 M,0,96148,96170,280.3141,166.8844,278.9783,158.8699 M,0,96170,96192,278.9783,158.8699,277.6426,150.8555 M,0,96192,96214,277.6426,150.8555,276.3068,142.841 M,0,96214,96236,276.3068,142.841,274.9711,134.8266 M,0,96236,96258,274.9711,134.8266,276.3068,142.841 M,0,96258,96280,276.3068,142.841,277.6426,150.8555 M,0,96280,96302,277.6426,150.8555,278.9783,158.8699 M,0,96302,96324,278.9783,158.8699,280.3141,166.8844 M,0,96324,96347,280.3141,166.8844,281.6498,174.8988 M,0,96347,96369,281.6498,174.8988,282.9855,182.9133 M,0,96369,96391,282.9855,182.9133,284.3213,190.9277 M,0,96391,96413,284.3213,190.9277,285.657,198.9422 M,0,96413,96435,285.657,198.9422,286.9928,206.9566 M,0,96435,96457,286.9928,206.9566,288.3285,214.9711 M,0,96457,96479,288.3285,214.9711,289.6642,222.9855 M,0,96479,96501,289.6642,222.9855,291,231 M,0,96501,96678,291,231,203,205 M,0,96678,96700,203,205,201.6237,213.0076 M,0,96700,96722,201.6237,213.0076,200.2474,221.0152 M,0,96722,96744,200.2474,221.0152,198.8711,229.0228 M,0,96744,96766,198.8711,229.0228,197.4948,237.0303 M,0,96766,96788,197.4948,237.0303,196.1185,245.0379 M,0,96788,96810,196.1185,245.0379,194.7422,253.0455 M,0,96810,96832,194.7422,253.0455,193.3659,261.0531 M,0,96832,96854,193.3659,261.0531,192,269 M,0,96854,97031,192,269,173,358 M,0,97031,97560,173,358,392,195 M,0,97560,97582,392,195,390.6237,186.9924 M,0,97582,97604,390.6237,186.9924,389.2474,178.9848 M,0,97604,97626,389.2474,178.9848,387.8711,170.9772 M,0,97626,97648,387.8711,170.9772,386.4948,162.9697 M,0,97648,97670,386.4948,162.9697,385.1185,154.9621 M,0,97670,97692,385.1185,154.9621,383.7422,146.9545 M,0,97692,97714,383.7422,146.9545,382.3659,138.9469 M,0,97714,97736,382.3659,138.9469,381,131 M,0,97736,97758,381,131,382.3659,138.9469 M,0,97758,97780,382.3659,138.9469,383.7422,146.9545 M,0,97780,97802,383.7422,146.9545,385.1185,154.9621 M,0,97802,97824,385.1185,154.9621,386.4948,162.9697 M,0,97824,97846,386.4948,162.9697,387.8711,170.9772 M,0,97846,97868,387.8711,170.9772,389.2474,178.9848 M,0,97868,97890,389.2474,178.9848,390.6237,186.9924 M,0,97890,97912,390.6237,186.9924,392,195 M,0,97912,98090,392,195,329,262 M,0,98090,98266,329,262,413,296 M,0,98266,98443,413,296,497,330 M,0,98443,98465,497,330,501.2696,323.0873 M,0,98465,98487,501.2696,323.0873,505.5392,316.1745 M,0,98487,98509,505.5392,316.1745,509.8089,309.2618 M,0,98509,98531,509.8089,309.2618,514.0785,302.3491 M,0,98531,98553,514.0785,302.3491,517.908,295.3439 M,0,98553,98575,517.908,295.3439,516.7786,287.2978 M,0,98575,98597,516.7786,287.2978,515.6494,279.2516 M,0,98597,98619,515.6494,279.2516,514.5201,271.2055 M,0,98619,98641,514.5201,271.2055,513.3907,263.1594 M,0,98641,98663,513.3907,263.1594,512.2615,255.1132 M,0,98663,98685,512.2615,255.1132,511.1322,247.0671 M,0,98685,98707,511.1322,247.0671,510.0029,239.0209 M,0,98707,98795,510.0029,239.0209,483,202 M,0,98795,98817,483,202,490.4851,198.8396 M,0,98817,98839,490.4851,198.8396,497.9703,195.6792 M,0,98839,98861,497.9703,195.6792,505.4554,192.5188 M,0,98861,98883,505.4554,192.5188,512.9406,189.3584 M,0,98883,98905,512.9406,189.3584,520.4258,186.198 M,0,98905,98927,520.4258,186.198,527.9109,183.0376 M,0,98927,98949,527.9109,183.0376,535.9191,184.3198 M,0,98949,98971,535.9191,184.3198,543.9335,185.6556 M,0,98971,98993,543.9335,185.6556,551.948,186.9913 M,0,98993,99015,551.948,186.9913,559.9624,188.3271 M,0,99015,99037,559.9624,188.3271,567.9769,189.6628 M,0,99037,99059,567.9769,189.6628,575.9913,190.9986 M,0,99059,99081,575.9913,190.9986,567.9769,189.6628 M,0,99081,99103,567.9769,189.6628,559.9624,188.3271 M,0,99103,99125,559.9624,188.3271,551.948,186.9913 M,0,99125,99147,551.948,186.9913,543.9335,185.6556 M,0,99147,99170,543.9335,185.6556,535.9191,184.3198 M,0,99170,99192,535.9191,184.3198,527.9109,183.0376 M,0,99192,99214,527.9109,183.0376,520.4258,186.198 M,0,99214,99236,520.4258,186.198,512.9406,189.3584 M,0,99236,99258,512.9406,189.3584,505.4554,192.5188 M,0,99258,99280,505.4554,192.5188,497.9703,195.6792 M,0,99280,99302,497.9703,195.6792,490.4851,198.8396 M,0,99302,99324,490.4851,198.8396,483,202 M,0,99324,99501,483,202,392,195 M,0,99501,99523,392,195,383.9924,193.6237 M,0,99523,99545,383.9924,193.6237,375.9848,192.2474 M,0,99545,99567,375.9848,192.2474,367.9772,190.8711 M,0,99567,99589,367.9772,190.8711,359.9697,189.4948 M,0,99589,99611,359.9697,189.4948,351.9621,188.1185 M,0,99611,99633,351.9621,188.1185,343.9545,186.7422 M,0,99633,99655,343.9545,186.7422,335.9469,185.3659 M,0,99655,99677,335.9469,185.3659,328,184 M,0,99677,99854,328,184,267,115 M,0,99854,100384,267,115,124,348 M,0,100384,100560,124,348,186,413 M,0,100560,100737,186,413 M,0,100737,100913,186,413,273,389 M,0,100913,100935,273,389,274.3763,380.9924 M,0,100935,100957,274.3763,380.9924,275.7526,372.9848 M,0,100957,100979,275.7526,372.9848,277.1289,364.9772 M,0,100979,101001,277.1289,364.9772,278.5052,356.9697 M,0,101001,101023,278.5052,356.9697,279.8815,348.9621 M,0,101023,101045,279.8815,348.9621,281.2578,340.9545 M,0,101045,101067,281.2578,340.9545,282.6341,332.9469 M,0,101067,101089,282.6341,332.9469,284,325 M,0,101089,101266,284,325,303,235 M,0,101266,101288,303,235,309.9127,230.7304 M,0,101288,101310,309.9127,230.7304,316.8255,226.4607 M,0,101310,101332,316.8255,226.4607,323.7382,222.1911 M,0,101332,101354,323.7382,222.1911,330.6509,217.9215 M,0,101354,101376,330.6509,217.9215,337.6561,214.0921 M,0,101376,101398,337.6561,214.0921,345.7022,215.2214 M,0,101398,101420,345.7022,215.2214,353.7484,216.3506 M,0,101420,101442,353.7484,216.3506,361.7945,217.4799 M,0,101442,101464,361.7945,217.4799,369.8406,218.6092 M,0,101464,101486,369.8406,218.6092,377.8868,219.7385 M,0,101486,101508,377.8868,219.7385,385.9329,220.8678 M,0,101508,101530,385.9329,220.8678,393.9791,221.9971 M,0,101530,101619,393.9791,221.9971,439,230 M,0,101619,101641,439,230,437.6642,238.0145 M,0,101641,101663,437.6642,238.0145,436.3285,246.0289 M,0,101663,101685,436.3285,246.0289,434.9928,254.0434 M,0,101685,101707,434.9928,254.0434,433.657,262.0578 M,0,101707,101729,433.657,262.0578,432.3213,270.0723 M,0,101729,101751,432.3213,270.0723,430.9855,278.0867 M,0,101751,101773,430.9855,278.0867,429.6498,286.1012 M,0,101773,101795,429.6498,286.1012,428.3141,294.1156 M,0,101795,101817,428.3141,294.1156,426.9783,302.1301 M,0,101817,101839,426.9783,302.1301,425.6426,310.1445 M,0,101839,101861,425.6426,310.1445,424.3069,318.159 M,0,101861,101883,424.3069,318.159,422.9711,326.1734 M,0,101883,101905,422.9711,326.1734,424.3069,318.159 M,0,101905,101927,424.3069,318.159,425.6426,310.1445 M,0,101927,101949,425.6426,310.1445,426.9783,302.1301 M,0,101949,101971,426.9783,302.1301,428.3141,294.1156 M,0,101971,101994,428.3141,294.1156,429.6498,286.1012 M,0,101994,102016,429.6498,286.1012,430.9855,278.0867 M,0,102016,102038,430.9855,278.0867,432.3213,270.0723 M,0,102038,102060,432.3213,270.0723,433.657,262.0578 M,0,102060,102082,433.657,262.0578,434.9928,254.0434 M,0,102082,102104,434.9928,254.0434,436.3285,246.0289 M,0,102104,102126,436.3285,246.0289,437.6642,238.0145 M,0,102126,102148,437.6642,238.0145,439,230 M,0,102148,102325,439,230,517,184 M,0,102325,102347,517,184,515.6237,175.9924 M,0,102347,102369,515.6237,175.9924,514.2474,167.9848 M,0,102369,102391,514.2474,167.9848,512.8711,159.9772 M,0,102391,102413,512.8711,159.9772,511.4948,151.9697 M,0,102413,102435,511.4948,151.9697,510.1185,143.9621 M,0,102435,102457,510.1185,143.9621,508.7422,135.9545 M,0,102457,102479,508.7422,135.9545,507.3659,127.9469 M,0,102479,102501,507.3659,127.9469,506,120 M,0,102501,102678,506,120,436,60 M,0,102678,103031,436,60,271,137 M,0,103031,103207,271,137 M,0,103207,103384,271,137,198,192 M,0,103384,103406,198,192,190.0061,190.5466 M,0,103406,103428,190.0061,190.5466,182.0121,189.0931 M,0,103428,103450,182.0121,189.0931,174.0182,187.6397 M,0,103450,103472,174.0182,187.6397,166.0242,186.1862 M,0,103472,103494,166.0242,186.1862,174.0182,187.6397 M,0,103494,103516,174.0182,187.6397,182.0121,189.0931 M,0,103516,103538,182.0121,189.0931,190.0061,190.5466 M,0,103538,103560,190.0061,190.5466,198,192 M,0,103560,103737,198,192,255,262 M,0,103737,103759,255,262,256.3763,270.0076 M,0,103759,103781,256.3763,270.0076,257.7526,278.0152 M,0,103781,103803,257.7526,278.0152,259.1289,286.0228 M,0,103803,103825,259.1289,286.0228,260.5052,294.0303 M,0,103825,103847,260.5052,294.0303,261.8815,302.0379 M,0,103847,103869,261.8815,302.0379,263.2578,310.0455 M,0,103869,103891,263.2578,310.0455,264.6341,318.0531 M,0,103891,103913,264.6341,318.0531,266,326 M,0,103913,104090,266,326,192,380 M,0,104090,104266,192,380,101,369 M,0,104266,104354,101,369 M,0,104354,104443,101,369
Sprite,Background,Centre,"sb/pixel.png",0,0 C,0,60325,,119,214,244 R,0,60325,,4.117843 S,0,60325,,15 M,19,60325,60925,90,192,-4.437917,255.8551 F,19,60325,63148,1,0
Sprite,Background,Centre,"sb/pixel.png",0,0 C,0,60325,,119,214,244 R,0,60325,,7.259436 S,0,60325,,17 M,19,60325,60925,90,192,184.4379,128.1449 F,19,60325,63148,1,0
Sprite,Background,Centre,"sb/pixel.png",0,0 C,0,60325,,119,214,244 R,0,60325,,3.885935 S,0,60325,,19 M,19,60325,60925,90,192,18.18624,269.9666 F,19,60325,63148,1,0
Sprite,Background,Centre,"sb/pixel.png",0,0 C,0,60325,,119,214,244 R,0,60325,,7.027528 S,0,60325,,17 M,19,60325,60925,90,192,161.8138,114.0334 F,19,60325,63148,1,0
Sprite,Background,Centre,"sb/pixel.png",0,0 C,0,60325,,86,191,237 R,0,60325,,5.710316 S,0,60325,,15 M,19,60325,60925,90,192,24.4125,90.31775 F,19,60325,63148,1,0
Sprite,Background,Centre,"sb/pixel.png",0,0 C,0,60325,,86,191,237 R,0,60325,,8.851909 S,0,60325,,16 M,19,60325,60925,90,192,155.5875,293.6823 F,19,60325,63148,1,0
Sprite,Background,Centre,"sb/pixel.png",0,0 C,0,60325,,119,214,244 R,0,60325,,4.386849 S,0,60325,,16 M,19,60325,60925,90,192,-36.96209,234.8559 F,19,60325,63148,1,0
Sprite,Background,Centre,"sb/pixel.png",0,0 C,0,60325,,86,191,237 R,0,60325,,7.528442 S,0,60325,,16 M,19,60325,60925,90,192,216.9621,149.1441 F,19,60325,63148,1,0
Sprite,Background,Centre,"sb/pixel.png",0,0 C,0,60325,,86,191,237 R,0,60325,,4.857638 S,0,60325,,19 M,19,60325,60925,90,192,-16.86275,176.3682 F,19,60325,63148,1,0
Sprite,Background,Centre,"sb/pixel.png",0,0 C,0,60325,,119,214,244 R,0,60325,,7.99923 S,0,60325,,18 M,19,60325,60925,90,192,196.8627,207.6318 F,19,60325,63148,1,0
Sprite,Background,Centre,"sb/pixel.png",0,0 C,0,60325,,119,214,244 R,0,60325,,5.114221 S,0,60325,,18 M,19,60325,60925,90,192,-17.68047,146.2407 F,19,60325,63148,1,0
Sprite,Background,Centre,"sb/pixel.png",0,0 C,0,60325,,119,214,244 R,0,60325,,8.255814 S,0,60325,,18 M,19,60325,60925,90,192,197.6805,237.7593 F,19,60325,63148,1,0
Sprite,Background,Centre,"sb/pixel.png",0,0 C,0,63148,,86,191,237 R,0,63148,,5.745384 S,0,63148,,19 M,19,63148,63748,268,420,210.1158,322.9514 F,19,63148,65971,1,0
Sprite,Background,Centre,"sb/pixel.png",0,0 C,0,63148,,86,191,237 R,0,63148,,8.886976 S,0,63148,,18 M,19,63148,63748,268,420,325.8842,517.0486 F,19,63148,65971,1,0
Sprite,Background,Centre,"sb/pixel.png",0,0 C,0,63148,,86,191,237 R,0,63148,,4.683674 S,0,63148,,18 M,19,63148,63748,268,420,132.0561,423.9047 F,19,63148,65971,1,0
Sprite,Background,Centre,"sb/pixel.png",0,0 C,0,63148,,119,214,244 R,0,63148,,7.825267 S,0,63148,,17 M,19,63148,63748,268,420,403.9439,416.0953 F,19,63148,65971,1,0
Sprite,Background,Centre,"sb/pixel.png",0,0 C,0,63148,,86,191,237 R,0,63148,,5.87239 S,0,63148,,16 M,19,63148,63748,268,420,225.6701,322.8188 F,19,63148,65971,1,0
Sprite,Background,Centre,"sb/pixel.png",0,0 C,0,63148,,86,191,237 R,0,63148,,9.013983 S,0,63148,,19 M,19,63148,63748,268,420,310.3299,517.1812 F,19,63148,65971,1,0
Sprite,Background,Centre,"sb/pixel.png",0,0 C,0,63148,,86,191,237 R,0,63148,,4.921194 S,0,63148,,15 M,19,63148,63748,268,420,168.2155,398.8563 F,19,63148,65971,1,0
Sprite,Background,Centre,"sb/pixel.png",0,0 C,0,63148,,86,191,237 R,0,63148,,8.062787 S,0,63148,,16 M,19,63148,63748,268,420,367.7845,441.1437 F,19,63148,65971,1,0
Sprite,Background,Centre,"sb/pixel.png",0,0 C,0,63148,,86,191,237 R,0,63148,,6.025942 S,0,63148,,16 M,19,63148,63748,268,420,239.251,310.7183 F,19,63148,65971,1,0
Sprite,Background,Centre,"sb/pixel.png",0,0 C,0,63148,,119,214,244 R,0,63148,,9.167534 S,0,63148,,19 M,19,63148,63748,268,420,296.749,529.2817 F,19,63148,65971,1,0
Sprite,Background,Centre,"sb/pixel.png",0,0 C,0,63148,,119,214,244 R,0,63148,,4.241451 S,0,63148,,16 M,19,63148,63748,268,420,177.9945,465.8259 F,19,63148,65971,1,0
Sprite,Background,Centre,"sb/pixel.png",0,0 C,0,63148,,119,214,244 R,0,63148,,7.383044 S,0,63148,,16 M,19,63148,63748,268,420,358.0055,374.1741 F,19,63148,65971,1,0
Sprite,Background,Centre,"sb/pixel.png",0,0 C,0,65971,,119,214,244 R,0,65972,,4.614895 S,0,65972,,16 M,19,65972,66572,332,64,211.5746,75.77803 F,19,65972,68795,1,0
Sprite,Background,Centre,"sb/pixel.png",0,0 C,0,65971,,86,191,237 R,0,65972,,7.756488 S,0,65972,,19 M,19,65972,66572,332,64,452.4254,52.22197 F,19,65972,68795,1,0
Sprite,Background,Centre,"sb/pixel.png",0,0 C,0,65971,,119,214,244 R,0,65972,,4.836933 S,0,65972,,15 M,19,65972,66572,332,64,191.0999,46.36044 F,19,65972,68795,1,0
Sprite,Background,Centre,"sb/pixel.png",0,0 C,0,65971,,119,214,244 R,0,65972,,7.978526 S,0,65972,,15 M,19,65972,66572,332,64,472.9001,81.63956 F,19,65972,68795,1,0
Sprite,Background,Centre,"sb/pixel.png",0,0 C,0,65971,,119,214,244 R,0,65972,,5.651825 S,0,65972,,16 M,19,65972,66572,332,64,261.1708,-32.86707 F,19,65972,68795,1,0
Sprite,Background,Centre,"sb/pixel.png",0,0 C,0,65971,,119,214,244 R,0,65972,,8.793418 S,0,65972,,15 M,19,65972,66572,332,64,402.8292,160.8671 F,19,65972,68795,1,0
Sprite,Background,Centre,"sb/pixel.png",0,0 C,0,65971,,86,191,237 R,0,65972,,3.379849 S,0,65972,,17 M,19,65972,66572,332,64,299.9028,196.1581 F,19,65972,68795,1,0
Sprite,Background,Centre,"sb/pixel.png",0,0 C,0,65971,,119,214,244 R,0,65972,,6.521442 S,0,65972,,16 M,19,65972,66572,332,64,364.0972,-68.15813 F,19,65972,68795,1,0
Sprite,Background,Centre,"sb/pixel.png",0,0 C,0,65971,,119,214,244 R,0,65972,,5.673545 S,0,65972,,18 M,19,65972,66572,332,64,271.3073,-22.90455 F,19,65972,68795,1,0
Sprite,Background,Centre,"sb/pixel.png",0,0 C,0,65971,,119,214,244 R,0,65972,,8.815138 S,0,65972,,15 M,19,65972,66572,332,64,392.6927,150.9045 F,19,65972,68795,1,0
Sprite,Background,Centre,"sb/pixel.png",0,0 C,0,65971,,86,191,237 R,0,65972,,4.231613 S,0,65972,,18 M,19,65972,66572,332,64,215.8506,124.5832 F,19,65972,68795,1,0
Sprite,Background,Centre,"sb/pixel.png",0,0 C,0,65971,,86,191,237 R,0,65972,,7.373206 S,0,65972,,17 M,19,65972,66572,332,64,448.1494,3.416815 F,19,65972,68795,1,0
Sprite,Background,Centre,"sb/pixel.png",0,0 C,0,68794,,119,214,244 R,0,68795,,5.684906 S,0,68795,,18 M,19,68795,69395,208,383,144.9192,290.4537 F,19,68795,71618,1,0
Sprite,Background,Centre,"sb/pixel.png",0,0 C,0,68794,,86,191,237 R,0,68795,,8.826499 S,0,68795,,18 M,19,68795,69395,208,383,271.0808,475.5463 F,19,68795,71618,1,0
Sprite,Background,Centre,"sb/pixel.png",0,0 C,0,68794,,119,214,244 R,0,68795,,3.637715 S,0,68795,,19 M,19,68795,69395,208,383,138.9773,510.5181 F,19,68795,71618,1,0
Sprite,Background,Centre,"sb/pixel.png",0,0 C,0,68794,,86,191,237 R,0,68795,,6.779307 S,0,68795,,19 M,19,68795,69395,208,383,277.0227,255.4819 F,19,68795,71618,1,0
Sprite,Background,Centre,"sb/pixel.png",0,0 C,0,68794,,86,191,237 R,0,68795,,4.718861 S,0,68795,,15 M,19,68795,69395,208,383,102.0022,382.314 F,19,68795,71618,1,0
Sprite,Background,Centre,"sb/pixel.png",0,0 C,0,68794,,119,214,244 R,0,68795,,7.860454 S,0,68795,,17 M,19,68795,69395,208,383,313.9978,383.686 F,19,68795,71618,1,0
Sprite,Background,Centre,"sb/pixel.png",0,0 C,0,68794,,119,214,244 R,0,68795,,4.854945 S,0,68795,,18 M,19,68795,69395,208,383,64.47086,362.3994 F,19,68795,71618,1,0
Sprite,Background,Centre,"sb/pixel.png",0,0 C,0,68794,,86,191,237 R,0,68795,,7.996537 S,0,68795,,18 M,19,68795,69395,208,383,351.5291,403.6006 F,19,68795,71618,1,0
Sprite,Background,Centre,"sb/pixel.png",0,0 C,0,68794,,119,214,244 R,0,68795,,4.835289 S,0,68795,,19 M,19,68795,69395,208,383,71.04089,366.0825 F,19,68795,71618,1,0
Sprite,Background,Centre,"sb/pixel.png",0,0 C,0,68794,,86,191,237 R,0,68795,,7.976882 S,0,68795,,17 M,19,68795,69395,208,383,344.9591,399.9175 F,19,68795,71618,1,0
Sprite,Background,Centre,"sb/pixel.png",0,0 C,0,68794,,86,191,237 R,0,68795,,3.50777 S,0,68795,,19 M,19,68795,69395,208,383,170.7629,480.1051 F,19,68795,71618,1,0
Sprite,Background,Centre,"sb/pixel.png",0,0 C,0,68794,,119,214,244 R,0,68795,,6.649363 S,0,68795,,19 M,19,68795,69395,208,383,245.2371,285.8949 F,19,68795,71618,1,0
Sprite,Background,Centre,"sb/pixel.png",0,0 C,0,71617,,119,214,244 R,0,71619,,5.84826 S,0,71619,,15 M,19,71619,72219,354,355,304.2815,247.9856 F,19,71619,74442,1,0
Sprite,Background,Centre,"sb/pixel.png",0,0 C,0,71617,,119,214,244 R,0,71619,,8.989852 S,0,71619,,15 M,19,71619,72219,354,355,403.7185,462.0144 F,19,71619,74442,1,0
Sprite,Background,Centre,"sb/pixel.png",0,0 C,0,71617,,86,191,237 R,0,71619,,3.820637 S,0,71619,,17 M,19,71619,72219,354,355,262.3048,468.6133 F,19,71619,74442,1,0
Sprite,Background,Centre,"sb/pixel.png",0,0 C,0,71617,,119,214,244 R,0,71619,,6.962229 S,0,71619,,16 M,19,71619,72219,354,355,445.6952,241.3867 F,19,71619,74442,1,0
Sprite,Background,Centre,"sb/pixel.png",0,0 C,0,71617,,119,214,244 R,0,71619,,4.064777 S,0,71619,,17 M,19,71619,72219,354,355,265.4745,421.9645 F,19,71619,74442,1,0
Sprite,Background,Centre,"sb/pixel.png",0,0 C,0,71617,,119,214,244 R,0,71619,,7.20637 S,0,71619,,19 M,19,71619,72219,354,355,442.5255,288.0355 F,19,71619,74442,1,0
Sprite,Background,Centre,"sb/pixel.png",0,0 C,0,71617,,86,191,237 R,0,71619,,3.52777 S,0,71619,,18 M,19,71619,72219,354,355,312.9452,455.9728 F,19,71619,74442,1,0
Sprite,Background,Centre,"sb/pixel.png",0,0 C,0,71617,,119,214,244 R,0,71619,,6.669363 S,0,71619,,18 M,19,71619,72219,354,355,395.0548,254.0272 F,19,71619,74442,1,0
Sprite,Background,Centre,"sb/pixel.png",0,0 C,0,71617,,119,214,244 R,0,71619,,3.758429 S,0,71619,,18 M,19,71619,72219,354,355,290.9481,443.9127 F,19,71619,74442,1,0
Sprite,Background,Centre,"sb/pixel.png",0,0 C,0,71617,,86,191,237 R,0,71619,,6.900022 S,0,71619,,17 M,19,71619,72219,354,355,417.0519,266.0873 F,19,71619,74442,1,0
Sprite,Background,Centre,"sb/pixel.png",0,0 C,0,71617,,86,191,237 R,0,71619,,4.089674 S,0,71619,,19 M,19,71619,72219,354,355,248.4013,430.8216 F,19,71619,74442,1,0
Sprite,Background,Centre,"sb/pixel.png",0,0 C,0,71617,,119,214,244 R,0,71619,,7.231266 S,0,71619,,19 M,19,71619,72219,354,355,459.5987,279.1784 F,19,71619,74442,1,0
Sprite,Background,Centre,"sb/pixel.png",0,0 C,0,74440,,86,191,237 R,0,74443,,3.977628 S,0,74443,,16 M,19,74443,75043,157,188,64.99314,271.1309 F,19,74443,77266,1,0
Sprite,Background,Centre,"sb/pixel.png",0,0 C,0,74440,,119,214,244 R,0,74443,,7.11922 S,0,74443,,17 M,19,74443,75043,157,188,249.0069,104.8692 F,19,74443,77266,1,0
Sprite,Background,Centre,"sb/pixel.png",0,0 C,0,74440,,119,214,244 R,0,74443,,3.415926 S,0,74443,,16 M,19,74443,75043,157,188,128.5549,289.0736 F,19,74443,77266,1,0
Sprite,Background,Centre,"sb/pixel.png",0,0 C,0,74440,,86,191,237 R,0,74443,,6.557519 S,0,74443,,17 M,19,74443,75043,157,188,185.4451,86.92638 F,19,74443,77266,1,0
Sprite,Background,Centre,"sb/pixel.png",0,0 C,0,74440,,86,191,237 R,0,74443,,3.146563 S,0,74443,,19 M,19,74443,75043,157,188,156.349,318.9984 F,19,74443,77266,1,0
Sprite,Background,Centre,"sb/pixel.png",0,0 C,0,74440,,86,191,237 R,0,74443,,6.288155 S,0,74443,,16 M,19,74443,75043,157,188,157.651,57.00162 F,19,74443,77266,1,0
Sprite,Background,Centre,"sb/pixel.png",0,0 C,0,74440,,119,214,244 R,0,74443,,3.896445 S,0,74443,,16 M,19,74443,75043,157,188,80.25975,269.5778 F,19,74443,77266,1,0
Sprite,Background,Centre,"sb/pixel.png",0,0 C,0,74440,,86,191,237 R,0,74443,,7.038037 S,0,74443,,16 M,19,74443,75043,157,188,233.7402,106.4222 F,19,74443,77266,1,0
Sprite,Background,Centre,"sb/pixel.png",0,0 C,0,74440,,119,214,244 R,0,74443,,5.991525 S,0,74443,,15 M,19,74443,75043,157,188,121.3447,69.23679 F,19,74443,77266,1,0
Sprite,Background,Centre,"sb/pixel.png",0,0 C,0,74440,,119,214,244 R,0,74443,,9.133118 S,0,74443,,18 M,19,74443,75043,157,188,192.6553,306.7632 F,19,74443,77266,1,0
Sprite,Background,Centre,"sb/pixel.png",0,0 C,0,74440,,86,191,237 R,0,74443,,4.779942 S,0,74443,,18 M,19,74443,75043,157,188,33.28282,179.6299 F,19,74443,77266,1,0
Sprite,Background,Centre,"sb/pixel.png",0,0 C,0,74440,,119,214,244 R,0,74443,,7.921534 S,0,74443,,18 M,19,74443,75043,157,188,280.7172,196.3701 F,19,74443,77266,1,0
Sprite,Background,Centre,"sb/pixel.png",0,0 C,0,77263,,86,191,237 R,0,77266,,4.157419 S,0,77266,,15 M,19,77266,77866,332,143,210.462,218.3493 F,19,77266,80089,1,0
Sprite,Background,Centre,"sb/pixel.png",0,0 C,0,77263,,86,191,237 R,0,77266,,7.299011 S,0,77266,,15 M,19,77266,77866,332,143,453.538,67.65073 F,19,77266,80089,1,0
Sprite,Background,Centre,"sb/pixel.png",0,0 C,0,77263,,119,214,244 R,0,77266,,4.02633 S,0,77266,,18 M,19,77266,77866,332,143,219.0327,235.49 F,19,77266,80089,1,0
Sprite,Background,Centre,"sb/pixel.png",0,0 C,0,77263,,86,191,237 R,0,77266,,7.167922 S,0,77266,,15 M,19,77266,77866,332,143,444.9673,50.51004 F,19,77266,80089,1,0
Sprite,Background,Centre,"sb/pixel.png",0,0 C,0,77263,,86,191,237 R,0,77266,,4.865514 S,0,77266,,17 M,19,77266,77866,332,143,209.4509,124.0867 F,19,77266,80089,1,0
Sprite,Background,Centre,"sb/pixel.png",0,0 C,0,77263,,86,191,237 R,0,77266,,8.007106 S,0,77266,,15 M,19,77266,77866,332,143,454.5491,161.9133 F,19,77266,80089,1,0
Sprite,Background,Centre,"sb/pixel.png",0,0 C,0,77263,,86,191,237 R,0,77266,,5.064476 S,0,77266,,16 M,19,77266,77866,332,143,197.7723,93.68543 F,19,77266,80089,1,0
Sprite,Background,Centre,"sb/pixel.png",0,0 C,0,77263,,119,214,244 R,0,77266,,8.206068 S,0,77266,,19 M,19,77266,77866,332,143,466.2277,192.3146 F,19,77266,80089,1,0
Sprite,Background,Centre,"sb/pixel.png",0,0 C,0,77263,,86,191,237 R,0,77266,,4.485025 S,0,77266,,19 M,19,77266,77866,332,143,234.5736,165.541 F,19,77266,80089,1,0
Sprite,Background,Centre,"sb/pixel.png",0,0 C,0,77263,,86,191,237 R,0,77266,,7.626617 S,0,77266,,15 M,19,77266,77866,332,143,429.4264,120.459 F,19,77266,80089,1,0
Sprite,Background,Centre,"sb/pixel.png",0,0 C,0,77263,,119,214,244 R,0,77266,,4.637382 S,0,77266,,16 M,19,77266,77866,332,143,215.329,151.7676 F,19,77266,80089,1,0
Sprite,Background,Centre,"sb/pixel.png",0,0 C,0,77263,,119,214,244 R,0,77266,,7.778975 S,0,77266,,19 M,19,77266,77866,332,143,448.671,134.2324 F,19,77266,80089,1,0
Sprite,Background,Centre,"sb/pixel.png",0,0 C,0,80086,,86,191,237 R,0,80090,,4.497903 S,0,80090,,15 M,19,80090,80690,389,77,287.3831,99.13588 F,19,80090,82913,1,0
Sprite,Background,Centre,"sb/pixel.png",0,0 C,0,80086,,119,214,244 R,0,80090,,7.639496 S,0,80090,,19 M,19,80090,80690,389,77,490.6169,54.86412 F,19,80090,82913,1,0
Sprite,Background,Centre,"sb/pixel.png",0,0 C,0,80086,,86,191,237 R,0,80090,,5.381914 S,0,80090,,15 M,19,80090,80690,389,77,306.6677,11.83561 F,19,80090,82913,1,0
Sprite,Background,Centre,"sb/pixel.png",0,0 C,0,80086,,86,191,237 R,0,80090,,8.523506 S,0,80090,,18 M,19,80090,80690,389,77,471.3323,142.1644 F,19,80090,82913,1,0
Sprite,Background,Centre,"sb/pixel.png",0,0 C,0,80086,,86,191,237 R,0,80090,,5.772515 S,0,80090,,19 M,19,80090,80690,389,77,339.6351,-11.11414 F,19,80090,82913,1,0
Sprite,Background,Centre,"sb/pixel.png",0,0 C,0,80086,,119,214,244 R,0,80090,,8.914108 S,0,80090,,16 M,19,80090,80690,389,77,438.3649,165.1142 F,19,80090,82913,1,0
Sprite,Background,Centre,"sb/pixel.png",0,0 C,0,80086,,86,191,237 R,0,80090,,3.213962 S,0,80090,,19 M,19,80090,80690,389,77,381.7694,176.7383 F,19,80090,82913,1,0
Sprite,Background,Centre,"sb/pixel.png",0,0 C,0,80086,,86,191,237 R,0,80090,,6.355554 S,0,80090,,17 M,19,80090,80690,389,77,396.2306,-22.73825 F,19,80090,82913,1,0
Sprite,Background,Centre,"sb/pixel.png",0,0 C,0,80086,,119,214,244 R,0,80090,,3.457416 S,0,80090,,16 M,19,80090,80690,389,77,351.1069,192.966 F,19,80090,82913,1,0
Sprite,Background,Centre,"sb/pixel.png",0,0 C,0,80086,,119,214,244 R,0,80090,,6.599009 S,0,80090,,16 M,19,80090,80690,389,77,426.8931,-38.96601 F,19,80090,82913,1,0
Sprite,Background,Centre,"sb/pixel.png",0,0 C,0,80086,,119,214,244 R,0,80090,,5.501654 S,0,80090,,19 M,19,80090,80690,389,77,308.7021,-3.921279 F,19,80090,82913,1,0
Sprite,Background,Centre,"sb/pixel.png",0,0 C,0,80086,,119,214,244 R,0,80090,,8.643247 S,0,80090,,17 M,19,80090,80690,389,77,469.2979,157.9213 F,19,80090,82913,1,0
Sprite,Background,Centre,"sb/pixel.png",0,0 C,0,82909,,86,191,237 R,0,82913,,4.095393 S,0,82913,,18 M,19,82913,83513,376,358,274.8631,429.7449 F,19,82913,85736,1,0
Sprite,Background,Centre,"sb/pixel.png",0,0 C,0,82909,,86,191,237 R,0,82913,,7.236985 S,0,82913,,16 M,19,82913,83513,376,358,477.1369,286.2551 F,19,82913,85736,1,0
Sprite,Background,Centre,"sb/pixel.png",0,0 C,0,82909,,119,214,244 R,0,82913,,3.527652 S,0,82913,,16 M,19,82913,83513,376,358,330.8151,469.168 F,19,82913,85736,1,0
Sprite,Background,Centre,"sb/pixel.png",0,0 C,0,82909,,119,214,244 R,0,82913,,6.669245 S,0,82913,,18 M,19,82913,83513,376,358,421.1849,246.832 F,19,82913,85736,1,0
Sprite,Background,Centre,"sb/pixel.png",0,0 C,0,82909,,119,214,244 R,0,82913,,4.05304 S,0,82913,,15 M,19,82913,83513,376,358,276.4107,435.188 F,19,82913,85736,1,0
Sprite,Background,Centre,"sb/pixel.png",0,0 C,0,82909,,119,214,244 R,0,82913,,7.194632 S,0,82913,,17 M,19,82913,83513,376,358,475.5893,280.812 F,19,82913,85736,1,0
Sprite,Background,Centre,"sb/pixel.png",0,0 C,0,82909,,119,214,244 R,0,82913,,4.27375 S,0,82913,,15 M,19,82913,83513,376,358,261.023,411.9379 F,19,82913,85736,1,0
Sprite,Background,Centre,"sb/pixel.png",0,0 C,0,82909,,119,214,244 R,0,82913,,7.415342 S,0,82913,,18 M,19,82913,83513,376,358,490.977,304.0621 F,19,82913,85736,1,0
Sprite,Background,Centre,"sb/pixel.png",0,0 C,0,82909,,86,191,237 R,0,82913,,5.388048 S,0,82913,,17 M,19,82913,83513,376,358,282.3646,282.9506 F,19,82913,85736,1,0
Sprite,Background,Centre,"sb/pixel.png",0,0 C,0,82909,,119,214,244 R,0,82913,,8.529641 S,0,82913,,16 M,19,82913,83513,376,358,469.6354,433.0494 F,19,82913,85736,1,0
Sprite,Background,Centre,"sb/pixel.png",0,0 C,0,82909,,86,191,237 R,0,82913,,5.101453 S,0,82913,,17 M,19,82913,83513,376,358,241.8366,302.9983 F,19,82913,85736,1,0
Sprite,Background,Centre,"sb/pixel.png",0,0 C,0,82909,,86,191,237 R,0,82913,,8.243046 S,0,82913,,17 M,19,82913,83513,376,358,510.1634,413.0017 F,19,82913,85736,1,0
Sprite,Background,Centre,"sb/pixel.png",0,0 C,0,85732,,119,214,244 R,0,85737,,5.051043 S,0,85737,,16 M,19,85737,86337,479,348,371.4749,310.1272 F,19,85737,88560,1,0
Sprite,Background,Centre,"sb/pixel.png",0,0 C,0,85732,,86,191,237 R,0,85737,,8.192636 S,0,85737,,16 M,19,85737,86337,479,348,586.5251,385.8728 F,19,85737,88560,1,0
Sprite,Background,Centre,"sb/pixel.png",0,0 C,0,85732,,119,214,244 R,0,85737,,3.356693 S,0,85737,,17 M,19,85737,86337,479,348,449.5445,482.8198 F,19,85737,88560,1,0
Sprite,Background,Centre,"sb/pixel.png",0,0 C,0,85732,,119,214,244 R,0,85737,,6.498286 S,0,85737,,18 M,19,85737,86337,479,348,508.4555,213.1802 F,19,85737,88560,1,0
Sprite,Background,Centre,"sb/pixel.png",0,0 C,0,85732,,119,214,244 R,0,85737,,3.405401 S,0,85737,,17 M,19,85737,86337,479,348,443.7976,478.3295 F,19,85737,88560,1,0
Sprite,Background,Centre,"sb/pixel.png",0,0 C,0,85732,,86,191,237 R,0,85737,,6.546993 S,0,85737,,17 M,19,85737,86337,479,348,514.2024,217.6705 F,19,85737,88560,1,0
Sprite,Background,Centre,"sb/pixel.png",0,0 C,0,85732,,119,214,244 R,0,85737,,3.526809 S,0,85737,,15 M,19,85737,86337,479,348,439.1695,446.232 F,19,85737,88560,1,0
Sprite,Background,Centre,"sb/pixel.png",0,0 C,0,85732,,119,214,244 R,0,85737,,6.668402 S,0,85737,,15 M,19,85737,86337,479,348,518.8306,249.768 F,19,85737,88560,1,0
Sprite,Background,Centre,"sb/pixel.png",0,0 C,0,85732,,119,214,244 R,0,85737,,4.480358 S,0,85737,,16 M,19,85737,86337,479,348,347.6178,379.0439 F,19,85737,88560,1,0
Sprite,Background,Centre,"sb/pixel.png",0,0 C,0,85732,,86,191,237 R,0,85737,,7.621951 S,0,85737,,15 M,19,85737,86337,479,348,610.3822,316.9561 F,19,85737,88560,1,0
Sprite,Background,Centre,"sb/pixel.png",0,0 C,0,85732,,86,191,237 R,0,85737,,5.391022 S,0,85737,,18 M,19,85737,86337,479,348,367.6843,258.2347 F,19,85737,88560,1,0
Sprite,Background,Centre,"sb/pixel.png",0,0 C,0,85732,,119,214,244 R,0,85737,,8.532615 S,0,85737,,19 M,19,85737,86337,479,348,590.3157,437.7653 F,19,85737,88560,1,0
Sprite,Background,Centre,"sb/pixel.png",0,0 C,0,88555,,86,191,237 R,0,88560,,3.250267 S,0,88560,,15 M,19,88560,89160,184,302,172.9371,403.3983 F,19,88560,91383,1,0
Sprite,Background,Centre,"sb/pixel.png",0,0 C,0,88555,,119,214,244 R,0,88560,,6.391859 S,0,88560,,16 M,19,88560,89160,184,302,195.0629,200.6017 F,19,88560,91383,1,0
Sprite,Background,Centre,"sb/pixel.png",0,0 C,0,88555,,119,214,244 R,0,88560,,3.8595 S,0,88560,,15 M,19,88560,89160,184,302,111.6409,384.8503 F,19,88560,91383,1,0
Sprite,Background,Centre,"sb/pixel.png",0,0 C,0,88555,,119,214,244 R,0,88560,,7.001092 S,0,88560,,17 M,19,88560,89160,184,302,256.3591,219.1497 F,19,88560,91383,1,0
Sprite,Background,Centre,"sb/pixel.png",0,0 C,0,88555,,119,214,244 R,0,88560,,3.754303 S,0,88560,,17 M,19,88560,89160,184,302,124.7661,386.2635 F,19,88560,91383,1,0
Sprite,Background,Centre,"sb/pixel.png",0,0 C,0,88555,,119,214,244 R,0,88560,,6.895895 S,0,88560,,17 M,19,88560,89160,184,302,243.2339,217.7365 F,19,88560,91383,1,0
Sprite,Background,Centre,"sb/pixel.png",0,0 C,0,88555,,119,214,244 R,0,88560,,3.404871 S,0,88560,,16 M,19,88560,89160,184,302,151.2088,423.6583 F,19,88560,91383,1,0
Sprite,Background,Centre,"sb/pixel.png",0,0 C,0,88555,,86,191,237 R,0,88560,,6.546463 S,0,88560,,15 M,19,88560,89160,184,302,216.7912,180.3417 F,19,88560,91383,1,0
Sprite,Background,Centre,"sb/pixel.png",0,0 C,0,88555,,119,214,244 R,0,88560,,3.656673 S,0,88560,,16 M,19,88560,89160,184,302,114.0501,425.576 F,19,88560,91383,1,0
Sprite,Background,Centre,"sb/pixel.png",0,0 C,0,88555,,86,191,237 R,0,88560,,6.798265 S,0,88560,,15 M,19,88560,89160,184,302,253.9499,178.424 F,19,88560,91383,1,0
Sprite,Background,Centre,"sb/pixel.png",0,0 C,0,88555,,119,214,244 R,0,88560,,6.002395 S,0,88560,,15 M,19,88560,89160,184,302,151.5775,189.5821 F,19,88560,91383,1,0
Sprite,Background,Centre,"sb/pixel.png",0,0 C,0,88555,,86,191,237 R,0,88560,,9.143988 S,0,88560,,17 M,19,88560,89160,184,302,216.4225,414.4179 F,19,88560,91383,1,0
Sprite,Background,Centre,"sb/pixel.png",0,0 C,0,91378,,119,214,244 R,0,91384,,5.441654 S,0,91384,,16 M,19,91384,91984,82,160,5.196564,91.36887 F,19,91384,94207,1,0
Sprite,Background,Centre,"sb/pixel.png",0,0 C,0,91378,,86,191,237 R,0,91384,,8.583246 S,0,91384,,18 M,19,91384,91984,82,160,158.8034,228.6311 F,19,91384,94207,1,0
Sprite,Background,Centre,"sb/pixel.png",0,0 C,0,91378,,119,214,244 R,0,91384,,5.584375 S,0,91384,,18 M,19,91384,91984,82,160,4.803172,68.12699 F,19,91384,94207,1,0
Sprite,Background,Centre,"sb/pixel.png",0,0 C,0,91378,,119,214,244 R,0,91384,,8.725968 S,0,91384,,18 M,19,91384,91984,82,160,159.1968,251.873 F,19,91384,94207,1,0
Sprite,Background,Centre,"sb/pixel.png",0,0 C,0,91378,,86,191,237 R,0,91384,,5.496618 S,0,91384,,16 M,19,91384,91984,82,160,2.711513,80.89668 F,19,91384,94207,1,0
Sprite,Background,Centre,"sb/pixel.png",0,0 C,0,91378,,86,191,237 R,0,91384,,8.638211 S,0,91384,,19 M,19,91384,91984,82,160,161.2885,239.1033 F,19,91384,94207,1,0
Sprite,Background,Centre,"sb/pixel.png",0,0 C,0,91378,,119,214,244 R,0,91384,,5.221583 S,0,91384,,18 M,19,91384,91984,82,160,-39.36611,92.24111 F,19,91384,94207,1,0
Sprite,Background,Centre,"sb/pixel.png",0,0 C,0,91378,,86,191,237 R,0,91384,,8.363176 S,0,91384,,16 M,19,91384,91984,82,160,203.3661,227.7589 F,19,91384,94207,1,0
Sprite,Background,Centre,"sb/pixel.png",0,0 C,0,91378,,119,214,244 R,0,91384,,3.737297 S,0,91384,,16 M,19,91384,91984,82,160,1.763875,278.3688 F,19,91384,94207,1,0
Sprite,Background,Centre,"sb/pixel.png",0,0 C,0,91378,,119,214,244 R,0,91384,,6.87889 S,0,91384,,19 M,19,91384,91984,82,160,162.2361,41.63124 F,19,91384,94207,1,0
Sprite,Background,Centre,"sb/pixel.png",0,0 C,0,91378,,86,191,237 R,0,91384,,3.927076 S,0,91384,,19 M,19,91384,91984,82,160,8.454643,233.5329 F,19,91384,94207,1,0
Sprite,Background,Centre,"sb/pixel.png",0,0 C,0,91378,,86,191,237 R,0,91384,,7.068668 S,0,91384,,16 M,19,91384,91984,82,160,155.5454,86.46715 F,19,91384,94207,1,0
Sprite,Background,Centre,"sb/pixel.png",0,0 C,0,94201,,86,191,237 R,0,94207,,4.765654 S,0,94207,,17 M,19,94207,94807,490,269,347.2028,261.3867 F,19,94207,97030,1,0
Sprite,Background,Centre,"sb/pixel.png",0,0 C,0,94201,,119,214,244 R,0,94207,,7.907247 S,0,94207,,17 M,19,94207,94807,490,269,632.7972,276.6133 F,19,94207,97030,1,0
Sprite,Background,Centre,"sb/pixel.png",0,0 C,0,94201,,86,191,237 R,0,94207,,5.179014 S,0,94207,,17 M,19,94207,94807,490,269,376.5774,211.8659 F,19,94207,97030,1,0
Sprite,Background,Centre,"sb/pixel.png",0,0 C,0,94201,,86,191,237 R,0,94207,,8.320607 S,0,94207,,17 M,19,94207,94807,490,269,603.4226,326.1341 F,19,94207,97030,1,0
Sprite,Background,Centre,"sb/pixel.png",0,0 C,0,94201,,86,191,237 R,0,94207,,4.974948 S,0,94207,,16 M,19,94207,94807,490,269,367.3524,236.0368 F,19,94207,97030,1,0
Sprite,Background,Centre,"sb/pixel.png",0,0 C,0,94201,,119,214,244 R,0,94207,,8.11654 S,0,94207,,18 M,19,94207,94807,490,269,612.6476,301.9632 F,19,94207,97030,1,0
Sprite,Background,Centre,"sb/pixel.png",0,0 C,0,94201,,119,214,244 R,0,94207,,4.285456 S,0,94207,,18 M,19,94207,94807,490,269,398.976,310.4081 F,19,94207,97030,1,0
Sprite,Background,Centre,"sb/pixel.png",0,0 C,0,94201,,119,214,244 R,0,94207,,7.427048 S,0,94207,,19 M,19,94207,94807,490,269,581.024,227.5919 F,19,94207,97030,1,0
Sprite,Background,Centre,"sb/pixel.png",0,0 C,0,94201,,119,214,244 R,0,94207,,4.293542 S,0,94207,,17 M,19,94207,94807,490,269,374.8916,320.2451 F,19,94207,97030,1,0
Sprite,Background,Centre,"sb/pixel.png",0,0 C,0,94201,,119,214,244 R,0,94207,,7.435135 S,0,94207,,19 M,19,94207,94807,490,269,605.1084,217.7549 F,19,94207,97030,1,0
Sprite,Background,Centre,"sb/pixel.png",0,0 C,0,94201,,119,214,244 R,0,94207,,3.388066 S,0,94207,,16 M,19,94207,94807,490,269,454.3782,410.5877 F,19,94207,97030,1,0
Sprite,Background,Centre,"sb/pixel.png",0,0 C,0,94201,,86,191,237 R,0,94207,,6.529658 S,0,94207,,18 M,19,94207,94807,490,269,525.6218,127.4123 F,19,94207,97030,1,0
Sprite,Background,Centre,"sb/pixel.png",0,0 C,0,97024,,119,214,244 R,0,97031,,3.838402 S,0,97031,,18 M,19,97031,97631,173,358,103.0466,441.5914 F,19,97031,99854,1,0
Sprite,Background,Centre,"sb/pixel.png",0,0 C,0,97024,,119,214,244 R,0,97031,,6.979995 S,0,97031,,16 M,19,97031,97631,173,358,242.9534,274.4086 F,19,97031,99854,1,0
Sprite,Background,Centre,"sb/pixel.png",0,0 C,0,97024,,119,214,244 R,0,97031,,4.467038 S,0,97031,,19 M,19,97031,97631,173,358,39.13279,391.5197 F,19,97031,99854,1,0
Sprite,Background,Centre,"sb/pixel.png",0,0 C,0,97024,,86,191,237 R,0,97031,,7.608631 S,0,97031,,17 M,19,97031,97631,173,358,306.8672,324.4803 F,19,97031,99854,1,0
Sprite,Background,Centre,"sb/pixel.png",0,0 C,0,97024,,86,191,237 R,0,97031,,4.007555 S,0,97031,,19 M,19,97031,97631,173,358,64.83584,450.0028 F,19,97031,99854,1,0
Sprite,Background,Centre,"sb/pixel.png",0,0 C,0,97024,,119,214,244 R,0,97031,,7.149148 S,0,97031,,18 M,19,97031,97631,173,358,281.1642,265.9972 F,19,97031,99854,1,0
Sprite,Background,Centre,"sb/pixel.png",0,0 C,0,97024,,86,191,237 R,0,97031,,3.27059 S,0,97031,,18 M,19,97031,97631,173,358,155.2477,494.8534 F,19,97031,99854,1,0
Sprite,Background,Centre,"sb/pixel.png",0,0 C,0,97024,,119,214,244 R,0,97031,,6.412183 S,0,97031,,19 M,19,97031,97631,173,358,190.7523,221.1466 F,19,97031,99854,1,0
Sprite,Background,Centre,"sb/pixel.png",0,0 C,0,97024,,119,214,244 R,0,97031,,3.606901 S,0,97031,,19 M,19,97031,97631,173,358,123.1945,457.1989 F,19,97031,99854,1,0
Sprite,Background,Centre,"sb/pixel.png",0,0 C,0,97024,,119,214,244 R,0,97031,,6.748493 S,0,97031,,18 M,19,97031,97631,173,358,222.8055,258.8011 F,19,97031,99854,1,0
Sprite,Background,Centre,"sb/pixel.png",0,0 C,0,97024,,86,191,237 R,0,97031,,3.279113 S,0,97031,,19 M,19,97031,97631,173,358,157.6462,468.9426 F,19,97031,99854,1,0
Sprite,Background,Centre,"sb/pixel.png",0,0 C,0,97024,,119,214,244 R,0,97031,,6.420706 S,0,97031,,16 M,19,97031,97631,173,358,188.3538,247.0574 F,19,97031,99854,1,0
Sprite,Background,Centre,"sb/pixel.png",0,0 C,0,99847,,86,191,237 R,0,99854,,4.455695 S,0,99854,,19 M,19,99854,100454,267,115,138.3578,148.7666 F,19,99854,102677,1,0
Sprite,Background,Centre,"sb/pixel.png",0,0 C,0,99847,,119,214,244 R,0,99854,,7.597288 S,0,99854,,16 M,19,99854,100454,267,115,395.6422,81.23341 F,19,99854,102677,1,0
Sprite,Background,Centre,"sb/pixel.png",0,0 C,0,99847,,86,191,237 R,0,99854,,5.34972 S,0,99854,,18 M,19,99854,100454,267,115,168.1465,41.80861 F,19,99854,102677,1,0
Sprite,Background,Centre,"sb/pixel.png",0,0 C,0,99847,,119,214,244 R,0,99854,,8.491312 S,0,99854,,17 M,19,99854,100454,267,115,365.8535,188.1914 F,19,99854,102677,1,0
Sprite,Background,Centre,"sb/pixel.png",0,0 C,0,99847,,119,214,244 R,0,99854,,4.086537 S,0,99854,,18 M,19,99854,100454,267,115,176.228,180.6083 F,19,99854,102677,1,0
Sprite,Background,Centre,"sb/pixel.png",0,0 C,0,99847,,119,214,244 R,0,99854,,7.228129 S,0,99854,,15 M,19,99854,100454,267,115,357.772,49.39174 F,19,99854,102677,1,0
Sprite,Background,Centre,"sb/pixel.png",0,0 C,0,99847,,119,214,244 R,0,99854,,6.160815 S,0,99854,,16 M,19,99854,100454,267,115,251.6198,-10.05778 F,19,99854,102677,1,0
Sprite,Background,Centre,"sb/pixel.png",0,0 C,0,99847,,86,191,237 R,0,99854,,9.302407 S,0,99854,,19 M,19,99854,100454,267,115,282.3802,240.0578 F,19,99854,102677,1,0
Sprite,Background,Centre,"sb/pixel.png",0,0 C,0,99847,,119,214,244 R,0,99854,,3.517027 S,0,99854,,18 M,19,99854,100454,267,115,220.7988,232.2239 F,19,99854,102677,1,0
Sprite,Background,Centre,"sb/pixel.png",0,0 C,0,99847,,86,191,237 R,0,99854,,6.658619 S,0,99854,,17 M,19,99854,100454,267,115,313.2012,-2.223918 F,19,99854,102677,1,0
Sprite,Background,Centre,"sb/pixel.png",0,0 C,0,99847,,86,191,237 R,0,99854,,5.728667 S,0,99854,,16 M,19,99854,100454,267,115,204.869,14.68179 F,19,99854,102677,1,0
Sprite,Background,Centre,"sb/pixel.png",0,0 C,0,99847,,119,214,244 R,0,99854,,8.87026 S,0,99854,,18 M,19,99854,100454,267,115,329.131,215.3182 F,19,99854,102677,1,0
Sprite,Background,Centre,"sb/pixel.png",0,0 C,0,102670,,119,214,244 R,0,102678,,5.721318 S,0,102678,,17 M,19,102678,103278,436,60,378.4611,-31.39626 F,19,102678,105501,1,0
Sprite,Background,Centre,"sb/pixel.png",0,0 C,0,102670,,86,191,237 R,0,102678,,8.86291 S,0,102678,,18 M,19,102678,103278,436,60,493.5389,151.3963 F,19,102678,105501,1,0
Sprite,Background,Centre,"sb/pixel.png",0,0 C,0,102670,,119,214,244 R,0,102678,,3.453322 S,0,102678,,18 M,19,102678,103278,436,60,399.8088,172.313 F,19,102678,105501,1,0
Sprite,Background,Centre,"sb/pixel.png",0,0 C,0,102670,,86,191,237 R,0,102678,,6.594914 S,0,102678,,15 M,19,102678,103278,436,60,472.1912,-52.31295 F,19,102678,105501,1,0
Sprite,Background,Centre,"sb/pixel.png",0,0 C,0,102670,,86,191,237 R,0,102678,,3.764538 S,0,102678,,18 M,19,102678,103278,436,60,369.489,152.5867 F,19,102678,105501,1,0
Sprite,Background,Centre,"sb/pixel.png",0,0 C,0,102670,,86,191,237 R,0,102678,,6.90613 S,0,102678,,18 M,19,102678,103278,436,60,502.511,-32.58668 F,19,102678,105501,1,0
Sprite,Background,Centre,"sb/pixel.png",0,0 C,0,102670,,119,214,244 R,0,102678,,3.779279 S,0,102678,,15 M,19,102678,103278,436,60,375.2755,141.9545 F,19,102678,105501,1,0
Sprite,Background,Centre,"sb/pixel.png",0,0 C,0,102670,,86,191,237 R,0,102678,,6.920871 S,0,102678,,19 M,19,102678,103278,436,60,496.7245,-21.95451 F,19,102678,105501,1,0
Sprite,Background,Centre,"sb/pixel.png",0,0 C,0,102670,,86,191,237 R,0,102678,,5.820742 S,0,102678,,17 M,19,102678,103278,436,60,389.1557,-33.97133 F,19,102678,105501,1,0
Sprite,Background,Centre,"sb/pixel.png",0,0 C,0,102670,,86,191,237 R,0,102678,,8.962335 S,0,102678,,18 M,19,102678,103278,436,60,482.8443,153.9713 F,19,102678,105501,1,0
Sprite,Background,Centre,"sb/pixel.png",0,0 C,0,102670,,86,191,237 R,0,102678,,5.733544 S,0,102678,,18 M,19,102678,103278,436,60,359.7323,-64.49594 F,19,102678,105501,1,0
Sprite,Background,Centre,"sb/pixel.png",0,0 C,0,102670,,86,191,237 R,0,102678,,8.875136 S,0,102678,,15 M,19,102678,103278,436,60,512.2677,184.4959 F,19,102678,105501,1,0
Sprite,Background,Centre,"sb/pixel.png",0,0 M,0,107266,109266,431,520,431,-40 F,0,107266,109266,1 F,0,107266,114325,0.8 L,107266,4 V,0,0,1200,4,4,4,-4 R,0,0,1200,0,6.283185 C,0,107266,,119,214,244
Sprite,Background,Centre,"sb/pixel.png",0,0 M,0,107310,109310,342,520,342,-40 F,0,107310,109310,1 F,0,107266,114325,0.8 L,107310,4 V,0,0,1200,4,4,4,-4 R,0,0,1200,0,6.283185 C,0,107310,,119,214,244
Sprite,Background,Centre,"sb/pixel.png",0,0 M,0,107354,109354,118,520,118,-40 F,0,107354,109354,1 F,0,107266,114325,0.8 L,107354,4 V,0,0,1200,4,4,4,-4 R,0,0,1200,0,6.283185 C,0,107354,,119,214,244
Sprite,Background,Centre,"sb/pixel.png",0,0 M,0,107398,109398,566,520,566,-40 F,0,107398,109398,1 F,0,107266,114325,0.8 L,107398,4 V,0,0,1200,4,4,4,-4 R,0,0,1200,0,6.283185 C,0,107398,,119,214,244
Sprite,Background,Centre,"sb/pixel.png",0,0 M,0,107442,109442,677,520,677,-40 F,0,107442,109442,1 F,0,107266,114325,0.8 L,107442,4 V,0,0,1200,4,4,4,-4 R,0,0,1200,0,6.283185 C,0,107442,,119,214,244
Sprite,Background,Centre,"sb/pixel.png",0,0 M,0,107486,109486,236,520,236,-40 F,0,107486,109486,1 F,0,107266,114325,0.8 L,107486,4 V,0,0,1200,4,4,4,-4 R,0,0,1200,0,6.283185 C,0,107486,,86,191,237
Sprite,Background,Centre,"sb/pixel.png",0,0 M,0,107530,109530,288,520,288,-40 F,0,107530,109530,1 F,0,107266,114325,0.8 L,107530,4 V,0,0,1200,4,4,4,-4 R,0,0,1200,0,6.283185 C,0,107530,,119,214,244
Sprite,Background,Centre,"sb/pixel.png",0,0 M,0,107574,109574,255,520,255,-40 F,0,107574,109574,1 F,0,107266,114325,0.8 L,107574,4 V,0,0,1200,4,4,4,-4 R,0,0,1200,0,6.283185 C,0,107574,,119,214,244
Sprite,Background,Centre,"sb/pixel.png",0,0 M,0,107618,109618,31,520,31,-40 F,0,107618,109618,1 F,0,107266,114325,0.8 L,107618,4 V,0,0,1200,4,4,4,-4 R,0,0,1200,0,6.283185 C,0,107618,,119,214,244
Sprite,Background,Centre,"sb/pixel.png",0,0 M,0,107663,109663,442,520,442,-40 F,0,107663,109663,1 F,0,107266,114325,0.8 L,107663,4 V,0,0,1200,4,4,4,-4 R,0,0,1200,0,6.283185 C,0,107663,,86,191,237
Sprite,Background,Centre,"sb/pixel.png",0,0 M,0,107707,109707,264,520,264,-40 F,0,107707,109707,1 F,0,107266,114325,0.8 L,107707,4 V,0,0,1200,4,4,4,-4 R,0,0,1200,0,6.283185 C,0,107707,,86,191,237
Sprite,Background,Centre,"sb/pixel.png",0,0 M,0,107751,109751,497,520,497,-40 F,0,107751,109751,1 F,0,107266,114325,0.8 L,107751,4 V,0,0,1200,4,4,4,-4 R,0,0,1200,0,6.283185 C,0,107751,,86,191,237
Sprite,Background,Centre,"sb/pixel.png",0,0 M,0,107795,109795,-102,520,-102,-40 F,0,107795,109795,1 F,0,107266,114325,0.8 L,107795,4 V,0,0,1200,4,4,4,-4 R,0,0,1200,0,6.283185 C,0,107795,,86,191,237
Sprite,Background,Centre,"sb/pixel.png",0,0 M,0,107839,109839,243,520,243,-40 F,0,107839,109839,1 F,0,107266,114325,0.8 L,107839,4 V,0,0,1200,4,4,4,-4 R,0,0,1200,0,6.283185 C,0,107839,,119,214,244
Sprite,Background,Centre,"sb/pixel.png",0,0 M,0,107883,109883,643,520,643,-40 F,0,107883,109883,1 F,0,107266,114325,0.8 L,107883,4 V,0,0,1200,4,4,4,-4 R,0,0,1200,0,6.283185 C,0,107883,,86,191,237
Sprite,Background,Centre,"sb/pixel.png",0,0 M,0,107927,109927,104,520,104,-40 F,0,107927,109927,1 F,0,107266,114325,0.8 L,107927,4 V,0,0,1200,4,4,4,-4 R,0,0,1200,0,6.283185 C,0,107927,,119,214,244
Sprite,Background,Centre,"sb/pixel.png",0,0 M,0,107971,109971,191,520,191,-40 F,0,107971,109971,1 F,0,107266,114325,0.8 L,107971,4 V,0,0,1200,4,4,4,-4 R,0,0,1200,0,6.283185 C,0,107971,,86,191,237
Sprite,Background,Centre,"sb/pixel.png",0,0 M,0,108016,110016,-93,520,-93,-40 F,0,108016,110016,1 F,0,107266,114325,0.8 L,108016,4 V,0,0,1200,4,4,4,-4 R,0,0,1200,0,6.283185 C,0,108016,,86,191,237
Sprite,Background,Centre,"sb/pixel.png",0,0 M,0,108060,110060,1,520,1,-40 F,0,108060,110060,1 F,0,107266,114325,0.8 L,108060,4 V,0,0,1200,4,4,4,-4 R,0,0,1200,0,6.283185 C,0,108060,,86,191,237
Sprite,Background,Centre,"sb/pixel.png",0,0 M,0,108104,110104,568,520,568,-40 F,0,108104,110104,1 F,0,107266,114325,0.8 L,108104,4 V,0,0,1200,4,4,4,-4 R,0,0,1200,0,6.283185 C,0,108104,,86,191,237
Sprite,Background,Centre,"sb/pixel.png",0,0 M,0,108148,110148,124,520,124,-40 F,0,108148,110148,1 F,0,107266,114325,0.8 L,108148,4 V,0,0,1200,4,4,4,-4 R,0,0,1200,0,6.283185 C,0,108148,,119,214,244
Sprite,Background,Centre,"sb/pixel.png",0,0 M,0,108192,110192,651,520,651,-40 F,0,108192,110192,1 F,0,107266,114325,0.8 L,108192,4 V,0,0,1200,4,4,4,-4 R,0,0,1200,0,6.283185 C,0,108192,,86,191,237
Sprite,Background,Centre,"sb/pixel.png",0,0 M,0,108236,110236,491,520,491,-40 F,0,108236,110236,1 F,0,107266,114325,0.8 L,108236,4 V,0,0,1200,4,4,4,-4 R,0,0,1200,0,6.283185 C,0,108236,,119,214,244
Sprite,Background,Centre,"sb/pixel.png",0,0 M,0,108280,110280,718,520,718,-40 F,0,108280,110280,1 F,0,107266,114325,0.8 L,108280,4 V,0,0,1200,4,4,4,-4 R,0,0,1200,0,6.283185 C,0,108280,,86,191,237
Sprite,Background,Centre,"sb/pixel.png",0,0 M,0,108324,110324,197,520,197,-40 F,0,108324,110324,1 F,0,107266,114325,0.8 L,108324,4 V,0,0,1200,4,4,4,-4 R,0,0,1200,0,6.283185 C,0,108324,,86,191,237
Sprite,Background,Centre,"sb/pixel.png",0,0 M,0,108368,110368,553,520,553,-40 F,0,108368,110368,1 F,0,107266,114325,0.8 L,108368,4 V,0,0,1200,4,4,4,-4 R,0,0,1200,0,6.283185 C,0,108368,,119,214,244
Sprite,Background,Centre,"sb/pixel.png",0,0 M,0,108413,110413,-63,520,-63,-40 F,0,108413,110413,1 F,0,107266,114325,0.8 L,108413,4 V,0,0,1200,4,4,4,-4 R,0,0,1200,0,6.283185 C,0,108413,,119,214,244
Sprite,Background,Centre,"sb/pixel.png",0,0 M,0,108457,110457,472,520,472,-40 F,0,108457,110457,1 F,0,107266,114325,0.8 L,108457,4 V,0,0,1200,4,4,4,-4 R,0,0,1200,0,6.283185 C,0,108457,,86,191,237
Sprite,Background,Centre,"sb/pixel.png",0,0 M,0,108501,110501,485,520,485,-40 F,0,108501,110501,1 F,0,107266,114325,0.8 L,108501,4 V,0,0,1200,4,4,4,-4 R,0,0,1200,0,6.283185 C,0,108501,,86,191,237
Sprite,Background,Centre,"sb/pixel.png",0,0 M,0,108545,110545,253,520,253,-40 F,0,108545,110545,1 F,0,107266,114325,0.8 L,108545,4 V,0,0,1200,4,4,4,-4 R,0,0,1200,0,6.283185 C,0,108545,,86,191,237
Sprite,Background,Centre,"sb/pixel.png",0,0 M,0,108589,110589,543,520,543,-40 F,0,108589,110589,1 F,0,107266,114325,0.8 L,108589,4 V,0,0,1200,4,4,4,-4 R,0,0,1200,0,6.283185 C,0,108589,,119,214,244
Sprite,Background,Centre,"sb/pixel.png",0,0 M,0,108633,110633,350,520,350,-40 F,0,108633,110633,1 F,0,107266,114325,0.8 L,108633,4 V,0,0,1200,4,4,4,-4 R,0,0,1200,0,6.283185 C,0,108633,,119,214,244
Sprite,Background,Centre,"sb/pixel.png",0,0 M,0,108677,110677,-44,520,-44,-40 F,0,108677,110677,1 F,0,107266,114325,0.8 L,108677,4 V,0,0,1200,4,4,4,-4 R,0,0,1200,0,6.283185 C,0,108677,,86,191,237
Sprite,Background,Centre,"sb/pixel.png",0,0 M,0,108721,110721,72,520,72,-40 F,0,108721,110721,1 F,0,107266,114325,0.8 L,108721,4 V,0,0,1200,4,4,4,-4 R,0,0,1200,0,6.283185 C,0,108721,,86,191,237
Sprite,Background,Centre,"sb/pixel.png",0,0 M,0,108766,110766,28,520,28,-40 F,0,108766,110766,1 F,0,107266,114325,0.8 L,108766,4 V,0,0,1200,4,4,4,-4 R,0,0,1200,0,6.283185 C,0,108766,,86,191,237
Sprite,Background,Centre,"sb/pixel.png",0,0 M,0,108810,110810,658,520,658,-40 F,0,108810,110810,1 F,0,107266,114325,0.8 L,108810,4 V,0,0,1200,4,4,4,-4 R,0,0,1200,0,6.283185 C,0,108810,,119,214,244
Sprite,Background,Centre,"sb/pixel.png",0,0 M,0,108854,110854,372,520,372,-40 F,0,108854,110854,1 F,0,107266,114325,0.8 L,108854,4 V,0,0,1200,4,4,4,-4 R,0,0,1200,0,6.283185 C,0,108854,,86,191,237
Sprite,Background,Centre,"sb/pixel.png",0,0 M,0,108898,110898,311,520,311,-40 F,0,108898,110898,1 F,0,107266,114325,0.8 L,108898,4 V,0,0,1200,4,4,4,-4 R,0,0,1200,0,6.283185 C,0,108898,,119,214,244
Sprite,Background,Centre,"sb/pixel.png",0,0 M,0,108942,110942,528,520,528,-40 F,0,108942,110942,1 F,0,107266,114325,0.8 L,108942,4 V,0,0,1200,4,4,4,-4 R,0,0,1200,0,6.283185 C,0,108942,,119,214,244
Sprite,Background,Centre,"sb/pixel.png",0,0 M,0,108986,110986,58,520,58,-40 F,0,108986,110986,1 F,0,107266,114325,0.8 L,108986,4 V,0,0,1200,4,4,4,-4 R,0,0,1200,0,6.283185 C,0,108986,,86,191,237
Sprite,Background,Centre,"sb/pixel.png",0,0 M,0,109030,111030,494,520,494,-40 F,0,109030,111030,1 F,0,107266,114325,0.8 L,109030,4 V,0,0,1200,4,4,4,-4 R,0,0,1200,0,6.283185 C,0,109030,,86,191,237
Sprite,Background,Centre,"sb/pixel.png",0,0 M,0,109074,111074,689,520,689,-40 F,0,109074,111074,1 F,0,107266,114325,0.8 L,109074,4 V,0,0,1200,4,4,4,-4 R,0,0,1200,0,6.283185 C,0,109074,,119,214,244
Sprite,Background,Centre,"sb/pixel.png",0,0 M,0,109118,111118,654,520,654,-40 F,0,109118,111118,1 F,0,107266,114325,0.8 L,109118,4 V,0,0,1200,4,4,4,-4 R,0,0,1200,0,6.283185 C,0,109118,,86,191,237
Sprite,Background,Centre,"sb/pixel.png",0,0 M,0,109163,111163,278,520,278,-40 F,0,109163,111163,1 F,0,107266,114325,0.8 L,109163,4 V,0,0,1200,4,4,4,-4 R,0,0,1200,0,6.283185 C,0,109163,,119,214,244
Sprite,Background,Centre,"sb/pixel.png",0,0 M,0,109207,111207,34,520,34,-40 F,0,109207,111207,1 F,0,107266,114325,0.8 L,109207,4 V,0,0,1200,4,4,4,-4 R,0,0,1200,0,6.283185 C,0,109207,,119,214,244
Sprite,Background,Centre,"sb/pixel.png",0,0 M,0,109251,111251,619,520,619,-40 F,0,109251,111251,1 F,0,107266,114325,0.8 L,109251,4 V,0,0,1200,4,4,4,-4 R,0,0,1200,0,6.283185 C,0,109251,,119,214,244
Sprite,Background,Centre,"sb/pixel.png",0,0 M,0,109295,111295,194,520,194,-40 F,0,109295,111295,1 F,0,107266,114325,0.8 L,109295,4 V,0,0,1200,4,4,4,-4 R,0,0,1200,0,6.283185 C,0,109295,,119,214,244
Sprite,Background,Centre,"sb/pixel.png",0,0 M,0,109339,111339,66,520,66,-40 F,0,109339,111339,1 F,0,107266,114325,0.8 L,109339,4 V,0,0,1200,4,4,4,-4 R,0,0,1200,0,6.283185 C,0,109339,,86,191,237
Sprite,Background,Centre,"sb/pixel.png",0,0 M,0,109383,111383,569,520,569,-40 F,0,109383,111383,1 F,0,107266,114325,0.8 L,109383,4 V,0,0,1200,4,4,4,-4 R,0,0,1200,0,6.283185 C,0,109383,,86,191,237
Sprite,Background,Centre,"sb/pixel.png",0,0 M,0,109427,111427,283,520,283,-40 F,0,109427,111427,1 F,0,107266,114325,0.8 L,109427,4 V,0,0,1200,4,4,4,-4 R,0,0,1200,0,6.283185 C,0,109427,,86,191,237
Sprite,Background,Centre,"sb/pixel.png",0,0 M,0,109471,111471,629,520,629,-40 F,0,109471,111471,1 F,0,107266,114325,0.8 L,109471,4 V,0,0,1200,4,4,4,-4 R,0,0,1200,0,6.283185 C,0,109471,,119,214,244
Sprite,Background,Centre,"sb/pixel.png",0,0 M,0,109516,111516,424,520,424,-40 F,0,109516,111516,1 F,0,107266,114325,0.8 L,109516,4 V,0,0,1200,4,4,4,-4 R,0,0,1200,0,6.283185 C,0,109516,,119,214,244
Sprite,Background,Centre,"sb/pixel.png",0,0 M,0,109560,111560,666,520,666,-40 F,0,109560,111560,1 F,0,107266,114325,0.8 L,109560,4 V,0,0,1200,4,4,4,-4 R,0,0,1200,0,6.283185 C,0,109560,,119,214,244
Sprite,Background,Centre,"sb/pixel.png",0,0 M,0,109604,111604,690,520,690,-40 F,0,109604,111604,1 F,0,107266,114325,0.8 L,109604,4 V,0,0,1200,4,4,4,-4 R,0,0,1200,0,6.283185 C,0,109604,,119,214,244
Sprite,Background,Centre,"sb/pixel.png",0,0 M,0,109648,111648,478,520,478,-40 F,0,109648,111648,1 F,0,107266,114325,0.8 L,109648,4 V,0,0,1200,4,4,4,-4 R,0,0,1200,0,6.283185 C,0,109648,,86,191,237
Sprite,Background,Centre,"sb/pixel.png",0,0 M,0,109692,111692,108,520,108,-40 F,0,109692,111692,1 F,0,107266,114325,0.8 L,109692,4 V,0,0,1200,4,4,4,-4 R,0,0,1200,0,6.283185 C,0,109692,,86,191,237
Sprite,Background,Centre,"sb/pixel.png",0,0 M,0,109736,111736,267,520,267,-40 F,0,109736,111736,1 F,0,107266,114325,0.8 L,109736,4 V,0,0,1200,4,4,4,-4 R,0,0,1200,0,6.283185 C,0,109736,,119,214,244
Sprite,Background,Centre,"sb/pixel.png",0,0 M,0,109780,111780,653,520,653,-40 F,0,109780,111780,1 F,0,107266,114325,0.8 L,109780,4 V,0,0,1200,4,4,4,-4 R,0,0,1200,0,6.283185 C,0,109780,,119,214,244
Sprite,Background,Centre,"sb/pixel.png",0,0 M,0,109824,111824,376,520,376,-40 F,0,109824,111824,1 F,0,107266,114325,0.8 L,109824,4 V,0,0,1200,4,4,4,-4 R,0,0,1200,0,6.283185 C,0,109824,,119,214,244
Sprite,Background,Centre,"sb/pixel.png",0,0 M,0,109868,111868,201,520,201,-40 F,0,109868,111868,1 F,0,107266,114325,0.8 L,109868,4 V,0,0,1200,4,4,4,-4 R,0,0,1200,0,6.283185 C,0,109868,,119,214,244
Sprite,Background,Centre,"sb/pixel.png",0,0 M,0,109913,111913,275,520,275,-40 F,0,109913,111913,1 F,0,107266,114325,0.8 L,109913,4 V,0,0,1200,4,4,4,-4 R,0,0,1200,0,6.283185 C,0,109913,,119,214,244
Sprite,Background,Centre,"sb/pixel.png",0,0 M,0,109957,111957,279,520,279,-40 F,0,109957,111957,1 F,0,107266,114325,0.8 L,109957,4 V,0,0,1200,4,4,4,-4 R,0,0,1200,0,6.283185 C,0,109957,,119,214,244
Sprite,Background,Centre,"sb/pixel.png",0,0 M,0,110001,112001,-83,520,-83,-40 F,0,110001,112001,1 F,0,107266,114325,0.8 L,110001,4 V,0,0,1200,4,4,4,-4 R,0,0,1200,0,6.283185 C,0,110001,,119,214,244
Sprite,Background,Centre,"sb/pixel.png",0,0 M,0,110045,112045,-78,520,-78,-40 F,0,110045,112045,1 F,0,107266,114325,0.8 L,110045,4 V,0,0,1200,4,4,4,-4 R,0,0,1200,0,6.283185 C,0,110045,,119,214,244
Sprite,Background,Centre,"sb/pixel.png",0,0 M,0,110089,112089,299,520,299,-40 F,0,110089,112089,1 F,0,107266,114325,0.8 L,110089,4 V,0,0,1200,4,4,4,-4 R,0,0,1200,0,6.283185 C,0,110089,,86,191,237
Sprite,Background,Centre,"sb/pixel.png",0,0 M,0,110133,112133,162,520,162,-40 F,0,110133,112133,1 F,0,107266,114325,0.8 L,110133,4 V,0,0,1200,4,4,4,-4 R,0,0,1200,0,6.283185 C,0,110133,,119,214,244
Sprite,Background,Centre,"sb/pixel.png",0,0 M,0,110177,112177,507,520,507,-40 F,0,110177,112177,1 F,0,107266,114325,0.8 L,110177,4 V,0,0,1200,4,4,4,-4 R,0,0,1200,0,6.283185 C,0,110177,,119,214,244
Sprite,Background,Centre,"sb/pixel.png",0,0 M,0,110221,112221,-46,520,-46,-40 F,0,110221,112221,1 F,0,107266,114325,0.8 L,110221,4 V,0,0,1200,4,4,4,-4 R,0,0,1200,0,6.283185 C,0,110221,,119,214,244
Sprite,Background,Centre,"sb/pixel.png",0,0 M,0,110266,112266,-101,520,-101,-40 F,0,110266,112266,1 F,0,107266,114325,0.8 L,110266,4 V,0,0,1200,4,4,4,-4 R,0,0,1200,0,6.283185 C,0,110266,,119,214,244
Sprite,Background,Centre,"sb/pixel.png",0,0 M,0,110310,112310,39,520,39,-40 F,0,110310,112310,1 F,0,107266,114325,0.8 L,110310,4 V,0,0,1200,4,4,4,-4 R,0,0,1200,0,6.283185 C,0,110310,,119,214,244
Sprite,Background,Centre,"sb/pixel.png",0,0 M,0,110354,112354,593,520,593,-40 F,0,110354,112354,1 F,0,107266,114325,0.8 L,110354,4 V,0,0,1200,4,4,4,-4 R,0,0,1200,0,6.283185 C,0,110354,,119,214,244
Sprite,Background,Centre,"sb/pixel.png",0,0 M,0,110398,112398,310,520,310,-40 F,0,110398,112398,1 F,0,107266,114325,0.8 L,110398,4 V,0,0,1200,4,4,4,-4 R,0,0,1200,0,6.283185 C,0,110398,,86,191,237
Sprite,Background,Centre,"sb/pixel.png",0,0 M,0,110442,112442,548,520,548,-40 F,0,110442,112442,1 F,0,107266,114325,0.8 L,110442,4 V,0,0,1200,4,4,4,-4 R,0,0,1200,0,6.283185 C,0,110442,,119,214,244
Sprite,Background,Centre,"sb/pixel.png",0,0 M,0,110486,112486,-60,520,-60,-40 F,0,110486,112486,1 F,0,107266,114325,0.8 L,110486,4 V,0,0,1200,4,4,4,-4 R,0,0,1200,0,6.283185 C,0,110486,,86,191,237
Sprite,Background,Centre,"sb/pixel.png",0,0 M,0,110530,112530,155,520,155,-40 F,0,110530,112530,1 F,0,107266,114325,0.8 L,110530,4 V,0,0,1200,4,4,4,-4 R,0,0,1200,0,6.283185 C,0,110530,,119,214,244
Sprite,Background,Centre,"sb/pixel.png",0,0 M,0,110574,112574,69,520,69,-40 F,0,110574,112574,1 F,0,107266,114325,0.8 L,110574,4 V,0,0,1200,4,4,4,-4 R,0,0,1200,0,6.283185 C,0,110574,,119,214,244
Sprite,Background,Centre,"sb/pixel.png",0,0 M,0,110618,112618,126,520,126,-40 F,0,110618,112618,1 F,0,107266,114325,0.8 L,110618,4 V,0,0,1200,4,4,4,-4 R,0,0,1200,0,6.283185 C,0,110618,,119,214,244
Sprite,Background,Centre,"sb/pixel.png",0,0 M,0,110663,112663,195,520,195,-40 F,0,110663,112663,1 F,0,107266,114325,0.8 L,110663,4 V,0,0,1200,4,4,4,-4 R,0,0,1200,0,6.283185 C,0,110663,,86,191,237
Sprite,Background,Centre,"sb/pixel.png",0,0 M,0,110707,112707,656,520,656,-40 F,0,110707,112707,1 F,0,107266,114325,0.8 L,110707,4 V,0,0,1200,4,4,4,-4 R,0,0,1200,0,6.283185 C,0,110707,,119,214,244
Sprite,Background,Centre,"sb/pixel.png",0,0 M,0,110751,112751,275,520,275,-40 F,0,110751,112751,1 F,0,107266,114325,0.8 L,110751,4 V,0,0,1200,4,4,4,-4 R,0,0,1200,0,6.283185 C,0,110751,,119,214,244
Sprite,Background,Centre,"sb/pixel.png",0,0 M,0,110795,112795,192,520,192,-40 F,0,110795,112795,1 F,0,107266,114325,0.8 L,110795,4 V,0,0,1200,4,4,4,-4 R,0,0,1200,0,6.283185 C,0,110795,,86,191,237
Sprite,Background,Centre,"sb/pixel.png",0,0 M,0,110839,112839,658,520,658,-40 F,0,110839,112839,1 F,0,107266,114325,0.8 L,110839,4 V,0,0,1200,4,4,4,-4 R,0,0,1200,0,6.283185 C,0,110839,,86,191,237
Sprite,Background,Centre,"sb/pixel.png",0,0 M,0,110883,112883,112,520,112,-40 F,0,110883,112883,1 F,0,107266,114325,0.8 L,110883,4 V,0,0,1200,4,4,4,-4 R,0,0,1200,0,6.283185 C,0,110883,,119,214,244
Sprite,Background,Centre,"sb/pixel.png",0,0 M,0,110927,112927,573,520,573,-40 F,0,110927,112927,1 F,0,107266,114325,0.8 L,110927,4 V,0,0,1200,4,4,4,-4 R,0,0,1200,0,6.283185 C,0,110927,,119,214,244
Sprite,Background,Centre,"sb/pixel.png",0,0 M,0,110971,112971,247,520,247,-40 F,0,110971,112971,1 F,0,107266,114325,0.8 L,110971,4 V,0,0,1200,4,4,4,-4 R,0,0,1200,0,6.283185 C,0,110971,,86,191,237
Sprite,Background,Centre,"sb/pixel.png",0,0 M,0,111016,113016,-3,520,-3,-40 F,0,111016,113016,1 F,0,107266,114325,0.8 L,111016,4 V,0,0,1200,4,4,4,-4 R,0,0,1200,0,6.283185 C,0,111016,,119,214,244
Sprite,Background,Centre,"sb/pixel.png",0,0 M,0,111060,113060,138,520,138,-40 F,0,111060,113060,1 F,0,107266,114325,0.8 L,111060,4 V,0,0,1200,4,4,4,-4 R,0,0,1200,0,6.283185 C,0,111060,,86,191,237
Sprite,Background,Centre,"sb/pixel.png",0,0 M,0,111104,113104,320,520,320,-40 F,0,111104,113104,1 F,0,107266,114325,0.8 L,111104,4 V,0,0,1200,4,4,4,-4 R,0,0,1200,0,6.283185 C,0,111104,,119,214,244
Sprite,Background,Centre,"sb/pixel.png",0,0 M,0,111148,113148,359,520,359,-40 F,0,111148,113148,1 F,0,107266,114325,0.8 L,111148,4 V,0,0,1200,4,4,4,-4 R,0,0,1200,0,6.283185 C,0,111148,,86,191,237
Sprite,Background,Centre,"sb/pixel.png",0,0 M,0,111192,113192,210,520,210,-40 F,0,111192,113192,1 F,0,107266,114325,0.8 L,111192,4 V,0,0,1200,4,4,4,-4 R,0,0,1200,0,6.283185 C,0,111192,,86,191,237
Sprite,Background,Centre,"sb/pixel.png",0,0 M,0,111236,113236,187,520,187,-40 F,0,111236,113236,1 F,0,107266,114325,0.8 L,111236,4 V,0,0,1200,4,4,4,-4 R,0,0,1200,0,6.283185 C,0,111236,,119,214,244
Sprite,Background,Centre,"sb/pixel.png",0,0 M,0,111280,113280,-59,520,-59,-40 F,0,111280,113280,1 F,0,107266,114325,0.8 L,111280,4 V,0,0,1200,4,4,4,-4 R,0,0,1200,0,6.283185 C,0,111280,,119,214,244
Sprite,Background,Centre,"sb/pixel.png",0,0 M,0,111324,113324,329,520,329,-40 F,0,111324,113324,1 F,0,107266,114325,0.8 L,111324,4 V,0,0,1200,4,4,4,-4 R,0,0,1200,0,6.283185 C,0,111324,,86,191,237
Sprite,Background,Centre,"sb/pixel.png",0,0 M,0,111368,113368,607,520,607,-40 F,0,111368,113368,1 F,0,107266,114325,0.8 L,111368,4 V,0,0,1200,4,4,4,-4 R,0,0,1200,0,6.283185 C,0,111368,,86,191,237
Sprite,Background,Centre,"sb/pixel.png",0,0 M,0,111413,113413,-76,520,-76,-40 F,0,111413,113413,1 F,0,107266,114325,0.8 L,111413,4 V,0,0,1200,4,4,4,-4 R,0,0,1200,0,6.283185 C,0,111413,,119,214,244
Sprite,Background,Centre,"sb/pixel.png",0,0 M,0,111457,113457,287,520,287,-40 F,0,111457,113457,1 F,0,107266,114325,0.8 L,111457,4 V,0,0,1200,4,4,4,-4 R,0,0,1200,0,6.283185 C,0,111457,,86,191,237
Sprite,Background,Centre,"sb/pixel.png",0,0 M,0,111501,113501,-100,520,-100,-40 F,0,111501,113501,1 F,0,107266,114325,0.8 L,111501,4 V,0,0,1200,4,4,4,-4 R,0,0,1200,0,6.283185 C,0,111501,,86,191,237
Sprite,Background,Centre,"sb/pixel.png",0,0 M,0,111545,113545,26,520,26,-40 F,0,111545,113545,1 F,0,107266,114325,0.8 L,111545,4 V,0,0,1200,4,4,4,-4 R,0,0,1200,0,6.283185 C,0,111545,,119,214,244
Sprite,Background,Centre,"sb/pixel.png",0,0 M,0,111589,113589,49,520,49,-40 F,0,111589,113589,1 F,0,107266,114325,0.8 L,111589,4 V,0,0,1200,4,4,4,-4 R,0,0,1200,0,6.283185 C,0,111589,,86,191,237
Sprite,Background,Centre,"sb/pixel.png",0,0 M,0,111633,113633,181,520,181,-40 F,0,111633,113633,1 F,0,107266,114325,0.8 L,111633,4 V,0,0,1200,4,4,4,-4 R,0,0,1200,0,6.283185 C,0,111633,,86,191,237
Sprite,Background,Centre,"sb/pixel.png",0,0 M,0,111677,113677,351,520,351,-40 F,0,111677,113677,1 F,0,107266,114325,0.8 L,111677,4 V,0,0,1200,4,4,4,-4 R,0,0,1200,0,6.283185 C,0,111677,,119,214,244
Sprite,Background,Centre,"sb/pixel.png",0,0 M,0,111721,113721,276,520,276,-40 F,0,111721,113721,1 F,0,107266,114325,0.8 L,111721,4 V,0,0,1200,4,4,4,-4 R,0,0,1200,0,6.283185 C,0,111721,,86,191,237
Sprite,Background,Centre,"sb/pixel.png",0,0 M,0,111766,113766,703,520,703,-40 F,0,111766,113766,1 F,0,107266,114325,0.8 L,111766,4 V,0,0,1200,4,4,4,-4 R,0,0,1200,0,6.283185 C,0,111766,,119,214,244
Sprite,Background,Centre,"sb/pixel.png",0,0 M,0,111810,113810,-68,520,-68,-40 F,0,111810,113810,1 F,0,107266,114325,0.8 L,111810,4 V,0,0,1200,4,4,4,-4 R,0,0,1200,0,6.283185 C,0,111810,,119,214,244
Sprite,Background,Centre,"sb/pixel.png",0,0 M,0,111854,113854,436,520,436,-40 F,0,111854,113854,1 F,0,107266,114325,0.8 L,111854,4 V,0,0,1200,4,4,4,-4 R,0,0,1200,0,6.283185 C,0,111854,,86,191,237
Sprite,Background,Centre,"sb/pixel.png",0,0 M,0,111898,113898,132,520,132,-40 F,0,111898,113898,1 F,0,107266,114325,0.8 L,111898,4 V,0,0,1200,4,4,4,-4 R,0,0,1200,0,6.283185 C,0,111898,,119,214,244
Sprite,Background,Centre,"sb/pixel.png",0,0 M,0,111942,113942,-12,520,-12,-40 F,0,111942,113942,1 F,0,107266,114325,0.8 L,111942,4 V,0,0,1200,4,4,4,-4 R,0,0,1200,0,6.283185 C,0,111942,,86,191,237
Sprite,Background,Centre,"sb/pixel.png",0,0 M,0,111986,113986,29,520,29,-40 F,0,111986,113986,1 F,0,107266,114325,0.8 L,111986,4 V,0,0,1200,4,4,4,-4 R,0,0,1200,0,6.283185 C,0,111986,,119,214,244
Sprite,Background,Centre,"sb/pixel.png",0,0 M,0,112030,114030,330,520,330,-40 F,0,112030,114030,1 F,0,107266,114325,0.8 L,112030,4 V,0,0,1200,4,4,4,-4 R,0,0,1200,0,6.283185 C,0,112030,,119,214,244
Sprite,Background,Centre,"sb/pixel.png",0,0 M,0,112074,114074,282,520,282,-40 F,0,112074,114074,1 F,0,107266,114325,0.8 L,112074,4 V,0,0,1200,4,4,4,-4 R,0,0,1200,0,6.283185 C,0,112074,,119,214,244
Sprite,Background,Centre,"sb/pixel.png",0,0 M,0,112118,114118,154,520,154,-40 F,0,112118,114118,1 F,0,107266,114325,0.8 L,112118,4 V,0,0,1200,4,4,4,-4 R,0,0,1200,0,6.283185 C,0,112118,,119,214,244
Sprite,Background,Centre,"sb/pixel.png",0,0 M,0,112163,114163,-99,520,-99,-40 F,0,112163,114163,1 F,0,107266,114325,0.8 L,112163,4 V,0,0,1200,4,4,4,-4 R,0,0,1200,0,6.283185 C,0,112163,,119,214,244
Sprite,Background,Centre,"sb/pixel.png",0,0 M,0,112207,114207,-46,520,-46,-40 F,0,112207,114207,1 F,0,107266,114325,0.8 L,112207,4 V,0,0,1200,4,4,4,-4 R,0,0,1200,0,6.283185 C,0,112207,,86,191,237
Sprite,Background,Centre,"sb/pixel.png",0,0 M,0,112251,114251,-22,520,-22,-40 F,0,112251,114251,1 F,0,107266,114325,0.8 L,112251,4 V,0,0,1200,4,4,4,-4 R,0,0,1200,0,6.283185 C,0,112251,,86,191,237
Sprite,Background,Centre,"sb/pixel.png",0,0 M,0,112295,114295,489,520,489,-40 F,0,112295,114295,1 F,0,107266,114325,0.8 L,112295,4 V,0,0,1200,4,4,4,-4 R,0,0,1200,0,6.283185 C,0,112295,,119,214,244
Sprite,Background,Centre,"sb/pixel.png",0,0 M,0,112339,114339,51,520,51,-40 F,0,112339,114339,1 F,0,107266,114325,0.8 L,112339,4 V,0,0,1200,4,4,4,-4 R,0,0,1200,0,6.283185 C,0,112339,,119,214,244
Sprite,Background,Centre,"sb/pixel.png",0,0 M,0,112383,114383,338,520,338,-40 F,0,112383,114383,1 F,0,107266,114325,0.8 L,112383,4 V,0,0,1200,4,4,4,-4 R,0,0,1200,0,6.283185 C,0,112383,,86,191,237
Sprite,Background,Centre,"sb/pixel.png",0,0 M,0,112427,114427,27,520,27,-40 F,0,112427,114427,1 F,0,107266,114325,0.8 L,112427,4 V,0,0,1200,4,4,4,-4 R,0,0,1200,0,6.283185 C,0,112427,,119,214,244
Sprite,Background,Centre,"sb/pixel.png",0,0 M,0,112471,114471,508,520,508,-40 F,0,112471,114471,1 F,0,107266,114325,0.8 L,112471,4 V,0,0,1200,4,4,4,-4 R,0,0,1200,0,6.283185 C,0,112471,,119,214,244
Sprite,Background,Centre,"sb/pixel.png",0,0 M,0,112516,114516,282,520,282,-40 F,0,112516,114516,1 F,0,107266,114325,0.8 L,112516,4 V,0,0,1200,4,4,4,-4 R,0,0,1200,0,6.283185 C,0,112516,,119,214,244
Sprite,Background,Centre,"sb/pixel.png",0,0 M,0,112560,114560,691,520,691,-40 F,0,112560,114560,1 F,0,107266,114325,0.8 L,112560,4 V,0,0,1200,4,4,4,-4 R,0,0,1200,0,6.283185 C,0,112560,,119,214,244
Sprite,Background,Centre,"sb/pixel.png",0,0 M,0,112604,114604,701,520,701,-40 F,0,112604,114604,1 F,0,107266,114325,0.8 L,112604,4 V,0,0,1200,4,4,4,-4 R,0,0,1200,0,6.283185 C,0,112604,,119,214,244
Sprite,Background,Centre,"sb/pixel.png",0,0 M,0,112648,114648,717,520,717,-40 F,0,112648,114648,1 F,0,107266,114325,0.8 L,112648,4 V,0,0,1200,4,4,4,-4 R,0,0,1200,0,6.283185 C,0,112648,,119,214,244
Sprite,Background,Centre,"sb/pixel.png",0,0 M,0,112692,114692,245,520,245,-40 F,0,112692,114692,1 F,0,107266,114325,0.8 L,112692,4 V,0,0,1200,4,4,4,-4 R,0,0,1200,0,6.283185 C,0,112692,,119,214,244
Sprite,Background,Centre,"sb/pixel.png",0,0 M,0,112736,114736,326,520,326,-40 F,0,112736,114736,1 F,0,107266,114325,0.8 L,112736,4 V,0,0,1200,4,4,4,-4 R,0,0,1200,0,6.283185 C,0,112736,,86,191,237
Sprite,Background,Centre,"sb/pixel.png",0,0 M,0,112780,114780,523,520,523,-40 F,0,112780,114780,1 F,0,107266,114325,0.8 L,112780,4 V,0,0,1200,4,4,4,-4 R,0,0,1200,0,6.283185 C,0,112780,,86,191,237
Sprite,Background,Centre,"sb/pixel.png",0,0 M,0,112824,114824,-52,520,-52,-40 F,0,112824,114824,1 F,0,107266,114325,0.8 L,112824,4 V,0,0,1200,4,4,4,-4 R,0,0,1200,0,6.283185 C,0,112824,,119,214,244
Sprite,Background,Centre,"sb/pixel.png",0,0 M,0,112868,114868,165,520,165,-40 F,0,112868,114868,1 F,0,107266,114325,0.8 L,112868,4 V,0,0,1200,4,4,4,-4 R,0,0,1200,0,6.283185 C,0,112868,,119,214,244
Sprite,Background,Centre,"sb/pixel.png",0,0 M,0,112913,114913,745,520,745,-40 F,0,112913,114913,1 F,0,107266,114325,0.8 L,112913,4 V,0,0,1200,4,4,4,-4 R,0,0,1200,0,6.283185 C,0,112913,,119,214,244
Sprite,Background,Centre,"sb/pixel.png",0,0 M,0,112957,114957,492,520,492,-40 F,0,112957,114957,1 F,0,107266,114325,0.8 L,112957,4 V,0,0,1200,4,4,4,-4 R,0,0,1200,0,6.283185 C,0,112957,,119,214,244
Sprite,Background,Centre,"sb/pixel.png",0,0 M,0,113001,115001,744,520,744,-40 F,0,113001,115001,1 F,0,107266,114325,0.8 L,113001,4 V,0,0,1200,4,4,4,-4 R,0,0,1200,0,6.283185 C,0,113001,,119,214,244
Sprite,Background,Centre,"sb/pixel.png",0,0 M,0,113045,115045,507,520,507,-40 F,0,113045,115045,1 F,0,107266,114325,0.8 L,113045,4 V,0,0,1200,4,4,4,-4 R,0,0,1200,0,6.283185 C,0,113045,,119,214,244
Sprite,Background,Centre,"sb/pixel.png",0,0 M,0,113089,115089,575,520,575,-40 F,0,113089,115089,1 F,0,107266,114325,0.8 L,113089,4 V,0,0,1200,4,4,4,-4 R,0,0,1200,0,6.283185 C,0,113089,,119,214,244
Sprite,Background,Centre,"sb/pixel.png",0,0 M,0,113133,115133,332,520,332,-40 F,0,113133,115133,1 F,0,107266,114325,0.8 L,113133,4 V,0,0,1200,4,4,4,-4 R,0,0,1200,0,6.283185 C,0,113133,,119,214,244
Sprite,Background,Centre,"sb/pixel.png",0,0 M,0,113177,115177,401,520,401,-40 F,0,113177,115177,1 F,0,107266,114325,0.8 L,113177,4 V,0,0,1200,4,4,4,-4 R,0,0,1200,0,6.283185 C,0,113177,,86,191,237
Sprite,Background,Centre,"sb/pixel.png",0,0 M,0,113221,115221,285,520,285,-40 F,0,113221,115221,1 F,0,107266,114325,0.8 L,113221,4 V,0,0,1200,4,4,4,-4 R,0,0,1200,0,6.283185 C,0,113221,,119,214,244
Sprite,Background,Centre,"sb/pixel.png",0,0 M,0,113266,115266,-77,520,-77,-40 F,0,113266,115266,1 F,0,107266,114325,0.8 L,113266,4 V,0,0,1200,4,4,4,-4 R,0,0,1200,0,6.283185 C,0,113266,,119,214,244
Sprite,Background,Centre,"sb/pixel.png",0,0 M,0,113310,115310,182,520,182,-40 F,0,113310,115310,1 F,0,107266,114325,0.8 L,113310,4 V,0,0,1200,4,4,4,-4 R,0,0,1200,0,6.283185 C,0,113310,,86,191,237
Sprite,Background,Centre,"sb/pixel.png",0,0 M,0,113354,115354,121,520,121,-40 F,0,113354,115354,1 F,0,107266,114325,0.8 L,113354,4 V,0,0,1200,4,4,4,-4 R,0,0,1200,0,6.283185 C,0,113354,,86,191,237
Sprite,Background,Centre,"sb/pixel.png",0,0 M,0,113398,115398,66,520,66,-40 F,0,113398,115398,1 F,0,107266,114325,0.8 L,113398,4 V,0,0,1200,4,4,4,-4 R,0,0,1200,0,6.283185 C,0,113398,,86,191,237
Sprite,Background,Centre,"sb/pixel.png",0,0 M,0,113442,115442,50,520,50,-40 F,0,113442,115442,1 F,0,107266,114325,0.8 L,113442,4 V,0,0,1200,4,4,4,-4 R,0,0,1200,0,6.283185 C,0,113442,,86,191,237
Sprite,Background,Centre,"sb/pixel.png",0,0 M,0,113486,115486,-12,520,-12,-40 F,0,113486,115486,1 F,0,107266,114325,0.8 L,113486,4 V,0,0,1200,4,4,4,-4 R,0,0,1200,0,6.283185 C,0,113486,,86,191,237
Sprite,Background,Centre,"sb/pixel.png",0,0 M,0,113530,115530,330,520,330,-40 F,0,113530,115530,1 F,0,107266,114325,0.8 L,113530,4 V,0,0,1200,4,4,4,-4 R,0,0,1200,0,6.283185 C,0,113530,,119,214,244
Sprite,Background,Centre,"sb/pixel.png",0,0 M,0,113574,115574,712,520,712,-40 F,0,113574,115574,1 F,0,107266,114325,0.8 L,113574,4 V,0,0,1200,4,4,4,-4 R,0,0,1200,0,6.283185 C,0,113574,,119,214,244
Sprite,Background,Centre,"sb/pixel.png",0,0 M,0,113618,115618,258,520,258,-40 F,0,113618,115618,1 F,0,107266,114325,0.8 L,113618,4 V,0,0,1200,4,4,4,-4 R,0,0,1200,0,6.283185 C,0,113618,,86,191,237
Sprite,Background,Centre,"sb/pixel.png",0,0 M,0,113663,115663,182,520,182,-40 F,0,113663,115663,1 F,0,107266,114325,0.8 L,113663,4 V,0,0,1200,4,4,4,-4 R,0,0,1200,0,6.283185 C,0,113663,,119,214,244
Sprite,Background,Centre,"sb/pixel.png",0,0 M,0,113707,115707,390,520,390,-40 F,0,113707,115707,1 F,0,107266,114325,0.8 L,113707,4 V,0,0,1200,4,4,4,-4 R,0,0,1200,0,6.283185 C,0,113707,,119,214,244
Sprite,Background,Centre,"sb/pixel.png",0,0 M,0,113751,115751,248,520,248,-40 F,0,113751,115751,1 F,0,107266,114325,0.8 L,113751,4 V,0,0,1200,4,4,4,-4 R,0,0,1200,0,6.283185 C,0,113751,,119,214,244
Sprite,Background,Centre,"sb/pixel.png",0,0 M,0,113795,115795,489,520,489,-40 F,0,113795,115795,1 F,0,107266,114325,0.8 L,113795,4 V,0,0,1200,4,4,4,-4 R,0,0,1200,0,6.283185 C,0,113795,,86,191,237
Sprite,Background,Centre,"sb/pixel.png",0,0 M,0,113839,115839,108,520,108,-40 F,0,113839,115839,1 F,0,107266,114325,0.8 L,113839,4 V,0,0,1200,4,4,4,-4 R,0,0,1200,0,6.283185 C,0,113839,,86,191,237
Sprite,Background,Centre,"sb/pixel.png",0,0 M,0,113883,115883,671,520,671,-40 F,0,113883,115883,1 F,0,107266,114325,0.8 L,113883,4 V,0,0,1200,4,4,4,-4 R,0,0,1200,0,6.283185 C,0,113883,,119,214,244
Sprite,Background,Centre,"sb/pixel.png",0,0 M,0,113927,115927,457,520,457,-40 F,0,113927,115927,1 F,0,107266,114325,0.8 L,113927,4 V,0,0,1200,4,4,4,-4 R,0,0,1200,0,6.283185 C,0,113927,,86,191,237
Sprite,Background,Centre,"sb/pixel.png",0,0 M,0,113971,115971,332,520,332,-40 F,0,113971,115971,1 F,0,107266,114325,0.8 L,113971,4 V,0,0,1200,4,4,4,-4 R,0,0,1200,0,6.283185 C,0,113971,,86,191,237
Sprite,Background,Centre,"sb/pixel.png",0,0 M,0,114016,116016,453,520,453,-40 F,0,114016,116016,1 F,0,107266,114325,0.8 L,114016,4 V,0,0,1200,4,4,4,-4 R,0,0,1200,0,6.283185 C,0,114016,,119,214,244
Sprite,Background,Centre,"sb/pixel.png",0,0 M,0,114060,116060,511,520,511,-40 F,0,114060,116060,1 F,0,107266,114325,0.8 L,114060,4 V,0,0,1200,4,4,4,-4 R,0,0,1200,0,6.283185 C,0,114060,,119,214,244
Sprite,Background,Centre,"sb/pixel.png",0,0 M,0,114104,116104,-61,520,-61,-40 F,0,114104,116104,1 F,0,107266,114325,0.8 L,114104,4 V,0,0,1200,4,4,4,-4 R,0,0,1200,0,6.283185 C,0,114104,,119,214,244
Sprite,Background,Centre,"sb/pixel.png",0,0 M,0,114148,116148,-43,520,-43,-40 F,0,114148,116148,1 F,0,107266,114325,0.8 L,114148,4 V,0,0,1200,4,4,4,-4 R,0,0,1200,0,6.283185 C,0,114148,,119,214,244
Sprite,Background,Centre,"sb/pixel.png",0,0 M,0,114192,116192,35,520,35,-40 F,0,114192,116192,1 F,0,107266,114325,0.8 L,114192,4 V,0,0,1200,4,4,4,-4 R,0,0,1200,0,6.283185 C,0,114192,,119,214,244
Sprite,Background,Centre,"sb/pixel.png",0,0 M,0,114236,116236,161,520,161,-40 F,0,114236,116236,1 F,0,107266,114325,0.8 L,114236,4 V,0,0,1200,4,4,4,-4 R,0,0,1200,0,6.283185 C,0,114236,,86,191,237
Sprite,Background,Centre,"sb/pixel.png",0,0 M,0,114280,116280,639,520,639,-40 F,0,114280,116280,1 F,0,107266,114325,0.8 L,114280,4 V,0,0,1200,4,4,4,-4 R,0,0,1200,0,6.283185 C,0,114280,,119,214,244
Sprite,Background,Centre,"sb/pixel.png",0,0 M,0,114324,116324,145,520,145,-40 F,0,114324,116324,1 F,0,107266,114325,0.8 L,114324,4 V,0,0,1200,4,4,4,-4 R,0,0,1200,0,6.283185 C,0,114324,,119,214,244
Sprite,Background,Centre,"sb/star.png",0,0 M,16,138678,141614,320,240,82.20486,263.9681 F,0,138678,141614,1,0 S,0,138678,141614,0,0.05
Sprite,Background,Centre,"sb/star.png",0,0 M,16,138728,140746,320,240,511.2784,150.9294 F,0,138728,140746,1,0 S,0,138728,140746,0,0.05
Sprite,Background,Centre,"sb/star.png",0,0 M,16,138778,141404,320,240,416.0025,478.3957 F,0,138778,141404,1,0 S,0,138778,141404,0,0.05
Sprite,Background,Centre,"sb/star.png",0,0 M,16,138828,141535,320,240,94.22885,250.1681 F,0,138828,141535,1,0 S,0,138828,141535,0,0.05
Sprite,Background,Centre,"sb/star.png",0,0 M,16,138878,141612,320,240,354.5189,316.5797 F,0,138878,141612,1,0 S,0,138878,141612,0,0.05
Sprite,Background,Centre,"sb/star.png",0,0 M,16,138928,141355,320,240,421.9939,241.1179 F,0,138928,141355,1,0 S,0,138928,141355,0,0.05
Sprite,Background,Centre,"sb/star.png",0,0 M,16,138978,141816,320,240,291.5794,-42.57436 F,0,138978,141816,1,0 S,0,138978,141816,0,0.05
Sprite,Background,Centre,"sb/star.png",0,0 M,16,139028,142025,320,240,245.6157,473.4352 F,0,139028,142025,1,0 S,0,139028,142025,0,0.05
Sprite,Background,Centre,"sb/star.png",0,0 M,16,139078,141443,320,240,487.5701,171.5803 F,0,139078,141443,1,0 S,0,139078,141443,0,0.05
Sprite,Background,Centre,"sb/star.png",0,0 M,16,139128,141391,320,240,291.4899,146.2387 F,0,139128,141391,1,0 S,0,139128,141391,0,0.05
Sprite,Background,Centre,"sb/star.png",0,0 M,16,139178,141864,320,240,73.12759,384.3953 F,0,139178,141864,1,0 S,0,139178,141864,0,0.05
Sprite,Background,Centre,"sb/star.png",0,0 M,16,139228,142082,320,240,382.7469,195.3701 F,0,139228,142082,1,0 S,0,139228,142082,0,0.05
Sprite,Background,Centre,"sb/star.png",0,0 M,16,139278,141478,320,240,434.3775,108.8749 F,0,139278,141478,1,0 S,0,139278,141478,0,0.05
Sprite,Background,Centre,"sb/star.png",0,0 M,16,139328,142053,320,240,436.3573,148.5397 F,0,139328,142053,1,0 S,0,139328,142053,0,0.05
Sprite,Background,Centre,"sb/star.png",0,0 M,16,139378,141619,320,240,251.8275,357.6797 F,0,139378,141619,1,0 S,0,139378,141619,0,0.05
Sprite,Background,Centre,"sb/star.png",0,0 M,16,139428,142011,320,240,447.6183,264.7702 F,0,139428,142011,1,0 S,0,139428,142011,0,0.05
Sprite,Background,Centre,"sb/star.png",0,0 M,16,139478,142448,320,240,382.3193,-23.73718 F,0,139478,142448,1,0 S,0,139478,142448,0,0.05
Sprite,Background,Centre,"sb/star.png",0,0 M,16,139528,142400,320,240,216.4839,369.7706 F,0,139528,142400,1,0 S,0,139528,142400,0,0.05
Sprite,Background,Centre,"sb/star.png",0,0 M,16,139578,141900,320,240,601.6058,203.201 F,0,139578,141900,1,0 S,0,139578,141900,0,0.05
Sprite,Background,Centre,"sb/star.png",0,0 M,16,139628,141812,320,240,475.8793,385.1573 F,0,139628,141812,1,0 S,0,139628,141812,0,0.05
Sprite,Background,Centre,"sb/star.png",0,0 M,16,139678,142670,320,240,227.674,134.7578 F,0,139678,142670,1,0 S,0,139678,142670,0,0.05
Sprite,Background,Centre,"sb/star.png",0,0 M,16,139728,142214,320,240,322.7973,185.0712 F,0,139728,142214,1,0 S,0,139728,142214,0,0.05
Sprite,Background,Centre,"sb/star.png",0,0 M,16,139778,141855,320,240,585.8995,280.7241 F,0,139778,141855,1,0 S,0,139778,141855,0,0.05
Sprite,Background,Centre,"sb/star.png",0,0 M,16,139828,142108,320,240,295.0334,136.9822 F,0,139828,142108,1,0 S,0,139828,142108,0,0.05
Sprite,Background,Centre,"sb/star.png",0,0 M,16,139878,142015,320,240,244.7053,219.6358 F,0,139878,142015,1,0 S,0,139878,142015,0,0.05
Sprite,Background,Centre,"sb/star.png",0,0 M,16,139928,142768,320,240,102.8718,337.4645 F,0,139928,142768,1,0 S,0,139928,142768,0,0.05
Sprite,Background,Centre,"sb/star.png",0,0 M,16,139978,142943,320,240,388.491,475.2318 F,0,139978,142943,1,0 S,0,139978,142943,0,0.05
Sprite,Background,Centre,"sb/star.png",0,0 M,16,140028,142935,320,240,276.444,355.0299 F,0,140028,142935,1,0 S,0,140028,142935,0,0.05
Sprite,Background,Centre,"sb/star.png",0,0 M,16,140078,142994,320,240,68.57391,268.1766 F,0,140078,142994,1,0 S,0,140078,142994,0,0.05
Sprite,Background,Centre,"sb/star.png",0,0 M,16,140128,142186,320,240,405.8785,401.5979 F,0,140128,142186,1,0 S,0,140128,142186,0,0.05
Sprite,Background,Centre,"sb/star.png",0,0 M,16,140178,143100,320,240,349.8484,194.9992 F,0,140178,143100,1,0 S,0,140178,143100,0,0.05
Sprite,Background,Centre,"sb/star.png",0,0 M,16,140228,142972,320,240,547.8839,288.5584 F,0,140228,142972,1,0 S,0,140228,142972,0,0.05
Sprite,Background,Centre,"sb/star.png",0,0 M,16,140278,142536,320,240,209.514,450.8005 F,0,140278,142536,1,0 S,0,140278,142536,0,0.05
Sprite,Background,Centre,"sb/star.png",0,0 M,16,140328,142903,320,240,155.5023,302.582 F,0,140328,142903,1,0 S,0,140328,142903,0,0.05
Sprite,Background,Centre,"sb/star.png",0,0 M,16,140378,142384,320,240,201.8693,52.03952 F,0,140378,142384,1,0 S,0,140378,142384,0,0.05
Sprite,Background,Centre,"sb/star.png",0,0 M,16,140428,142502,320,240,180.6182,426.7129 F,0,140428,142502,1,0 S,0,140428,142502,0,0.05
Sprite,Background,Centre,"sb/star.png",0,0 M,16,140478,143293,320,240,388.1502,395.7419 F,0,140478,143293,1,0 S,0,140478,143293,0,0.05
Sprite,Background,Centre,"sb/star.png",0,0 M,16,140528,143074,320,240,391.7196,164.6854 F,0,140528,143074,1,0 S,0,140528,143074,0,0.05
Sprite,Background,Centre,"sb/star.png",0,0 M,16,140578,143492,320,240,384.3873,269.9211 F,0,140578,143492,1,0 S,0,140578,143492,0,0.05
Sprite,Background,Centre,"sb/star.png",0,0 M,16,140628,142955,320,240,371.3257,425.0126 F,0,140628,142955,1,0 S,0,140628,142955,0,0.05
Sprite,Background,Centre,"sb/star.png",0,0 M,16,140678,142953,320,240,289.0264,284.2339 F,0,140678,142953,1,0 S,0,140678,142953,0,0.05
Sprite,Background,Centre,"sb/star.png",0,0 M,16,140728,143579,320,240,354.2689,374.7095 F,0,140728,143579,1,0 S,0,140728,143579,0,0.05
Sprite,Background,Centre,"sb/star.png",0,0 M,16,140778,143646,320,240,211.6619,340.8308 F,0,140778,143646,1,0 S,0,140778,143646,0,0.05
Sprite,Background,Centre,"sb/star.png",0,0 M,16,140828,143336,320,240,514.9983,239.1876 F,0,140828,143336,1,0 S,0,140828,143336,0,0.05
Sprite,Background,Centre,"sb/star.png",0,0 M,16,140878,142984,320,240,295.8909,385.0095 F,0,140878,142984,1,0 S,0,140878,142984,0,0.05
Sprite,Background,Centre,"sb/star.png",0,0 M,16,140928,143690,320,240,101.4481,73.08665 F,0,140928,143690,1,0 S,0,140928,143690,0,0.05
Sprite,Background,Centre,"sb/star.png",0,0 M,16,140978,143624,320,240,548.7175,363.6459 F,0,140978,143624,1,0 S,0,140978,143624,0,0.05
Sprite,Background,Centre,"sb/star.png",0,0 M,16,141028,143158,320,240,424.6645,273.843 F,0,141028,143158,1,0 S,0,141028,143158,0,0.05
Sprite,Background,Centre,"sb/star.png",0,0 M,16,141078,144065,320,240,361.2874,103.09 F,0,141078,144065,1,0 S,0,141078,144065,0,0.05
Sprite,Background,Centre,"sb/star.png",0,0 M,16,141128,144100,320,240,166.819,33.63971 F,0,141128,144100,1,0 S,0,141128,144100,0,0.05
Sprite,Background,Centre,"sb/star.png",0,0 M,16,141178,144142,320,240,430.5109,499.4443 F,0,141178,144142,1,0 S,0,141178,144142,0,0.05
Sprite,Background,Centre,"sb/star.png",0,0 M,16,141228,143347,320,240,196.3794,249.693 F,0,141228,143347,1,0 S,0,141228,143347,0,0.05
Sprite,Background,Centre,"sb/star.png",0,0 M,16,141278,143372,320,240,277.2556,316.9215 F,0,141278,143372,1,0 S,0,141278,143372,0,0.05
Sprite,Background,Centre,"sb/star.png",0,0 M,16,141328,143778,320,240,264.7091,324.5217 F,0,141328,143778,1,0 S,0,141328,143778,0,0.05
Sprite,Background,Centre,"sb/star.png",0,0 M,16,141378,144349,320,240,422.3966,166.577 F,0,141378,144349,1,0 S,0,141378,144349,0,0.05
Sprite,Background,Centre,"sb/star.png",0,0 M,16,141428,143613,320,240,396.4861,99.46577 F,0,141428,143613,1,0 S,0,141428,143613,0,0.05
Sprite,Background,Centre,"sb/star.png",0,0 M,16,141478,144072,320,240,355.5149,319.421 F,0,141478,144072,1,0 S,0,141478,144072,0,0.05
Sprite,Background,Centre,"sb/star.png",0,0 M,16,141528,143993,320,240,290.567,21.97775 F,0,141528,143993,1,0 S,0,141528,143993,0,0.05
Sprite,Background,Centre,"sb/star.png",0,0 M,16,141578,143706,320,240,333.4439,155.0573 F,0,141578,143706,1,0 S,0,141578,143706,0,0.05
Sprite,Background,Centre,"sb/star.png",0,0 M,16,141628,143925,320,240,584.4666,211.479 F,0,141628,143925,1,0 S,0,141628,143925,0,0.05
Sprite,Background,Centre,"sb/star.png",0,0 M,16,141678,144091,320,240,66.76519,135.3667 F,0,141678,144091,1,0 S,0,141678,144091,0,0.05
Sprite,Background,Centre,"sb/star.png",0,0 M,16,141728,144460,320,240,211.3138,89.05861 F,0,141728,144460,1,0 S,0,141728,144460,0,0.05
Sprite,Background,Centre,"sb/star.png",0,0 M,16,141778,144591,320,240,569.4688,399.3152 F,0,141778,144591,1,0 S,0,141778,144591,0,0.05
Sprite,Background,Centre,"sb/star.png",0,0 M,16,141828,144616,320,240,316.0302,24.03648 F,0,141828,144616,1,0 S,0,141828,144616,0,0.05
Sprite,Background,Centre,"sb/star.png",0,0 M,16,141878,144151,320,240,254.7609,165.5362 F,0,141878,144151,1,0 S,0,141878,144151,0,0.05
Sprite,Background,Centre,"sb/star.png",0,0 M,16,141928,144664,320,240,402.1141,205.674 F,0,141928,144664,1,0 S,0,141928,144664,0,0.05
Sprite,Background,Centre,"sb/star.png",0,0 M,16,141978,144126,320,240,549.6609,141.2281 F,0,141978,144126,1,0 S,0,141978,144126,0,0.05
Sprite,Background,Centre,"sb/star.png",0,0 M,16,142028,144995,320,240,257.6549,110.196 F,0,142028,144995,1,0 S,0,142028,144995,0,0.05
Sprite,Background,Centre,"sb/star.png",0,0 M,16,142078,144543,320,240,320.0714,414 F,0,142078,144543,1,0 S,0,142078,144543,0,0.05
Sprite,Background,Centre,"sb/star.png",0,0 M,16,142128,144585,320,240,488.5916,484.5115 F,0,142128,144585,1,0 S,0,142128,144585,0,0.05
Sprite,Background,Centre,"sb/star.png",0,0 M,16,142178,144890,320,240,257.52,481.0337 F,0,142178,144890,1,0 S,0,142178,144890,0,0.05
Sprite,Background,Centre,"sb/star.png",0,0 M,16,142228,144575,320,240,298.6337,294.9953 F,0,142228,144575,1,0 S,0,142228,144575,0,0.05
Sprite,Background,Centre,"sb/star.png",0,0 M,16,142278,145057,320,240,328.2459,131.3123 F,0,142278,145057,1,0 S,0,142278,145057,0,0.05
Sprite,Background,Centre,"sb/star.png",0,0 M,16,142328,144578,320,240,183.8029,280.1789 F,0,142328,144578,1,0 S,0,142328,144578,0,0.05
Sprite,Background,Centre,"sb/star.png",0,0 M,16,142378,145116,320,240,70.29662,265.4799 F,0,142378,145116,1,0 S,0,142378,145116,0,0.05
Sprite,Background,Centre,"sb/star.png",0,0 M,16,142428,144864,320,240,222.4762,249.6493 F,0,142428,144864,1,0 S,0,142428,144864,0,0.05
Sprite,Background,Centre,"sb/star.png",0,0 M,16,142478,144571,320,240,466.4987,227.8708 F,0,142478,144571,1,0 S,0,142478,144571,0,0.05
Sprite,Background,Centre,"sb/star.png",0,0 M,16,142528,145365,320,240,400.6599,272.6033 F,0,142528,145365,1,0 S,0,142528,145365,0,0.05
Sprite,Background,Centre,"sb/star.png",0,0 M,16,142578,144625,320,240,160.2236,220.1882 F,0,142578,144625,1,0 S,0,142578,144625,0,0.05
Sprite,Background,Centre,"sb/star.png",0,0 M,16,142628,145511,320,240,431.2512,272.8507 F,0,142628,145511,1,0 S,0,142628,145511,0,0.05
Sprite,Background,Centre,"sb/star.png",0,0 M,16,142678,145078,320,240,458.9097,234.9899 F,0,142678,145078,1,0 S,0,142678,145078,0,0.05
Sprite,Background,Centre,"sb/star.png",0,0 M,16,142728,145664,320,240,367.3535,189.8138 F,0,142728,145664,1,0 S,0,142728,145664,0,0.05
Sprite,Background,Centre,"sb/star.png",0,0 M,16,142778,145234,320,240,470.6264,477.2187 F,0,142778,145234,1,0 S,0,142778,145234,0,0.05
Sprite,Background,Centre,"sb/star.png",0,0 M,16,142828,145154,320,240,573.0929,100.483 F,0,142828,145154,1,0 S,0,142828,145154,0,0.05
Sprite,Background,Centre,"sb/star.png",0,0 M,16,142878,145052,320,240,71.13234,354.6337 F,0,142878,145052,1,0 S,0,142878,145052,0,0.05
Sprite,Background,Centre,"sb/star.png",0,0 M,16,142928,145409,320,240,223.4714,193.8348 F,0,142928,145409,1,0 S,0,142928,145409,0,0.05
Sprite,Background,Centre,"sb/star.png",0,0 M,16,142978,145172,320,240,300.2204,293.4581 F,0,142978,145172,1,0 S,0,142978,145172,0,0.05
Sprite,Background,Centre,"sb/star.png",0,0 M,16,143028,145793,320,240,206.1771,156.7813 F,0,143028,145793,1,0 S,0,143028,145793,0,0.05
Sprite,Background,Centre,"sb/star.png",0,0 M,16,143078,145245,320,240,160.8394,24.3802 F,0,143078,145245,1,0 S,0,143078,145245,0,0.05
Sprite,Background,Centre,"sb/star.png",0,0 M,16,143128,145357,320,240,214.5254,172.9172 F,0,143128,145357,1,0 S,0,143128,145357,0,0.05
Sprite,Background,Centre,"sb/star.png",0,0 M,16,143178,145967,320,240,589.7609,191.9892 F,0,143178,145967,1,0 S,0,143178,145967,0,0.05
Sprite,Background,Centre,"sb/star.png",0,0 M,16,143228,145944,320,240,580.7691,265.3668 F,0,143228,145944,1,0 S,0,143228,145944,0,0.05
Sprite,Background,Centre,"sb/star.png",0,0 M,16,143278,145738,320,240,288.8268,-8.048847 F,0,143278,145738,1,0 S,0,143278,145738,0,0.05
Sprite,Background,Centre,"sb/star.png",0,0 M,16,143328,145941,320,240,288.4964,532.3073 F,0,143328,145941,1,0 S,0,143328,145941,0,0.05
Sprite,Background,Centre,"sb/star.png",0,0 M,16,143378,145702,320,240,99.10403,336.3637 F,0,143378,145702,1,0 S,0,143378,145702,0,0.05
Sprite,Background,Centre,"sb/star.png",0,0 M,16,143428,145495,320,240,319.7208,454.9998 F,0,143428,145495,1,0 S,0,143428,145495,0,0.05
Sprite,Background,Centre,"sb/star.png",0,0 M,16,143478,146107,320,240,358.1063,427.1601 F,0,143478,146107,1,0 S,0,143478,146107,0,0.05
Sprite,Background,Centre,"sb/star.png",0,0 M,16,143528,146476,320,240,337.0727,461.3426 F,0,143528,146476,1,0 S,0,143528,146476,0,0.05
Sprite,Background,Centre,"sb/star.png",0,0 M,16,143578,146317,320,240,527.7397,229.5972 F,0,143578,146317,1,0 S,0,143578,146317,0,0.05
Sprite,Background,Centre,"sb/star.png",0,0 M,16,143628,146021,320,240,392.5424,470.8714 F,0,143628,146021,1,0 S,0,143628,146021,0,0.05
Sprite,Background,Centre,"sb/star.png",0,0 M,16,143678,145899,320,240,245.0395,165.0539 F,0,143678,145899,1,0 S,0,143678,145899,0,0.05
Sprite,Background,Centre,"sb/star.png",0,0 M,16,143728,146297,320,240,490.8095,308.4112 F,0,143728,146297,1,0 S,0,143728,146297,0,0.05
Sprite,Background,Centre,"sb/star.png",0,0 M,16,143778,146725,320,240,476.3226,289.5908 F,0,143778,146725,1,0 S,0,143778,146725,0,0.05
Sprite,Background,Centre,"sb/star.png",0,0 M,16,143828,146243,320,240,270.828,264.6397 F,0,143828,146243,1,0 S,0,143828,146243,0,0.05
Sprite,Background,Centre,"sb/star.png",0,0 M,16,143878,146718,320,240,505.4553,300.2607 F,0,143878,146718,1,0 S,0,143878,146718,0,0.05
Sprite,Background,Centre,"sb/star.png",0,0 M,16,143928,145967,320,240,189.0885,148.0098 F,0,143928,145967,1,0 S,0,143928,145967,0,0.05
Sprite,Background,Centre,"sb/star.png",0,0 M,16,143978,146143,320,240,337.9682,312.8158 F,0,143978,146143,1,0 S,0,143978,146143,0,0.05
Sprite,Background,Centre,"sb/star.png",0,0 M,16,144028,146426,320,240,299.7103,42.03706 F,0,144028,146426,1,0 S,0,144028,146426,0,0.05
Sprite,Background,Centre,"sb/star.png",0,0 M,16,144078,146450,320,240,388.5938,490.7885 F,0,144078,146450,1,0 S,0,144078,146450,0,0.05
Sprite,Background,Centre,"sb/star.png",0,0 M,16,144128,146862,320,240,385.1063,526.7005 F,0,144128,146862,1,0 S,0,144128,146862,0,0.05
Sprite,Background,Centre,"sb/star.png",0,0 M,16,144178,146201,320,240,384.5953,253.5441 F,0,144178,146201,1,0 S,0,144178,146201,0,0.05
Sprite,Background,Centre,"sb/star.png",0,0 M,16,144228,146756,320,240,321.6779,93.00957 F,0,144228,146756,1,0 S,0,144228,146756,0,0.05
Sprite,Background,Centre,"sb/star.png",0,0 M,16,144278,146920,320,240,350.6334,476.0203 F,0,144278,146920,1,0 S,0,144278,146920,0,0.05
Sprite,Background,Centre,"sb/star.png",0,0 M,16,144328,146701,320,240,342.2823,315.7925 F,0,144328,146701,1,0 S,0,144328,146701,0,0.05
Sprite,Background,Centre,"sb/star.png",0,0 M,16,144378,146579,320,240,221.1986,210.8918 F,0,144378,146579,1,0 S,0,144378,146579,0,0.05
Sprite,Background,Centre,"sb/star.png",0,0 M,16,144428,147219,320,240,379.396,287.4143 F,0,144428,147219,1,0 S,0,144428,147219,0,0.05
Sprite,Background,Centre,"sb/star.png",0,0 M,16,144478,146665,320,240,397.4312,450.1913 F,0,144478,146665,1,0 S,0,144478,146665,0,0.05
Sprite,Background,Centre,"sb/star.png",0,0 M,16,144528,146922,320,240,268.5925,147.3001 F,0,144528,146922,1,0 S,0,144528,146922,0,0.05
Sprite,Background,Centre,"sb/star.png",0,0 M,16,144578,147568,320,240,143.2112,56.23191 F,0,144578,147568,1,0 S,0,144578,147568,0,0.05
Sprite,Background,Centre,"sb/star.png",0,0 M,16,144628,147519,320,240,287.3253,146.5475 F,0,144628,147519,1,0 S,0,144628,147519,0,0.05
Sprite,Background,Centre,"sb/star.png",0,0 M,16,144678,147531,320,240,217.6937,251.9341 F,0,144678,147531,1,0 S,0,144678,147531,0,0.05
Sprite,Background,Centre,"sb/star.png",0,0 M,16,144728,147562,320,240,462.0289,198.3853 F,0,144728,147562,1,0 S,0,144728,147562,0,0.05
Sprite,Background,Centre,"sb/star.png",0,0 M,16,144778,147171,320,240,367.3972,358.9012 F,0,144778,147171,1,0 S,0,144778,147171,0,0.05
Sprite,Background,Centre,"sb/star.png",0,0 M,16,144828,147126,320,240,262.3292,102.6134 F,0,144828,147126,1,0 S,0,144828,147126,0,0.05
Sprite,Background,Centre,"sb/star.png",0,0 M,16,144878,147246,320,240,566.2075,210.236 F,0,144878,147246,1,0 S,0,144878,147246,0,0.05
Sprite,Background,Centre,"sb/star.png",0,0 M,16,144928,146935,320,240,245.5633,305.2701 F,0,144928,146935,1,0 S,0,144928,146935,0,0.05
Sprite,Background,Centre,"sb/star.png",0,0 M,16,144978,147166,320,240,299.1713,46.11559 F,0,144978,147166,1,0 S,0,144978,147166,0,0.05
Sprite,Background,Centre,"sb/star.png",0,0 M,16,145028,147128,320,240,288.5079,423.3146 F,0,145028,147128,1,0 S,0,145028,147128,0,0.05
Sprite,Background,Centre,"sb/star.png",0,0 M,16,145078,147098,320,240,429.2138,64.15536 F,0,145078,147098,1,0 S,0,145078,147098,0,0.05
Sprite,Background,Centre,"sb/star.png",0,0 M,16,145128,147491,320,240,152.9564,162.8481 F,0,145128,147491,1,0 S,0,145128,147491,0,0.05
Sprite,Background,Centre,"sb/star.png",0,0 M,16,145178,147301,320,240,97.96619,157.1146 F,0,145178,147301,1,0 S,0,145178,147301,0,0.05
Sprite,Background,Centre,"sb/star.png",0,0 M,16,145228,147760,320,240,469.2267,139.3452 F,0,145228,147760,1,0 S,0,145228,147760,0,0.05
Sprite,Background,Centre,"sb/star.png",0,0 M,16,145278,148000,320,240,381.2331,112.9901 F,0,145278,148000,1,0 S,0,145278,148000,0,0.05
Sprite,Background,Centre,"sb/star.png",0,0 M,16,145328,147918,320,240,361.9286,97.02102 F,0,145328,147918,1,0 S,0,145328,147918,0,0.05
Sprite,Background,Centre,"sb/star.png",0,0 M,16,145378,148295,320,240,231.4595,497.1859 F,0,145378,148295,1,0 S,0,145378,148295,0,0.05
Sprite,Background,Centre,"sb/star.png",0,0 M,16,145428,147935,320,240,268.495,261.9825 F,0,145428,147935,1,0 S,0,145428,147935,0,0.05
Sprite,Background,Centre,"sb/star.png",0,0 M,16,145478,148166,320,240,112.3452,30.46598 F,0,145478,148166,1,0 S,0,145478,148166,0,0.05
Sprite,Background,Centre,"sb/star.png",0,0 M,16,145528,147770,320,240,153.5984,88.55529 F,0,145528,147770,1,0 S,0,145528,147770,0,0.05
Sprite,Background,Centre,"sb/star.png",0,0 M,16,145578,148541,320,240,201.6354,33.5204 F,0,145578,148541,1,0 S,0,145578,148541,0,0.05
Sprite,Background,Centre,"sb/star.png",0,0 M,16,145628,147832,320,240,341.6296,-12.07372 F,0,145628,147832,1,0 S,0,145628,147832,0,0.05
Sprite,Background,Centre,"sb/star.png",0,0 M,16,145678,147794,320,240,328.5041,183.638 F,0,145678,147794,1,0 S,0,145678,147794,0,0.05
Sprite,Background,Centre,"sb/star.png",0,0 M,16,145728,148348,320,240,263.625,166.0348 F,0,145728,148348,1,0 S,0,145728,148348,0,0.05
Sprite,Background,Centre,"sb/star.png",0,0 M,16,145778,147907,320,240,285.6333,495.7009 F,0,145778,147907,1,0 S,0,145778,147907,0,0.05
Sprite,Background,Centre,"sb/star.png",0,0 M,16,145828,147903,320,240,378.5515,134.1099 F,0,145828,147903,1,0 S,0,145828,147903,0,0.05
Sprite,Background,Centre,"sb/star.png",0,0 M,16,145878,148441,320,240,403.1738,420.7848 F,0,145878,148441,1,0 S,0,145878,148441,0,0.05
Sprite,Background,Centre,"sb/star.png",0,0 M,16,145928,148865,320,240,267.55,160.7914 F,0,145928,148865,1,0 S,0,145928,148865,0,0.05
Sprite,Background,Centre,"sb/star.png",0,0 M,16,145978,148952,320,240,177.5397,133.2805 F,0,145978,148952,1,0 S,0,145978,148952,0,0.05
Sprite,Background,Centre,"sb/star.png",0,0 M,16,146028,148430,320,240,115.1017,165.5641 F,0,146028,148430,1,0 S,0,146028,148430,0,0.05
Sprite,Background,Centre,"sb/star.png",0,0 M,16,146078,149021,320,240,577.9302,319.8247 F,0,146078,149021,1,0 S,0,146078,149021,0,0.05
Sprite,Background,Centre,"sb/star.png",0,0 M,16,146128,149067,320,240,341.6042,49.21934 F,0,146128,149067,1,0 S,0,146128,149067,0,0.05
Sprite,Background,Centre,"sb/star.png",0,0 M,16,146178,148416,320,240,150.8669,181.3911 F,0,146178,148416,1,0 S,0,146178,148416,0,0.05
Sprite,Background,Centre,"sb/star.png",0,0 M,16,146228,148285,320,240,205.6947,363.119 F,0,146228,148285,1,0 S,0,146228,148285,0,0.05
Sprite,Background,Centre,"sb/star.png",0,0 M,16,146278,148299,320,240,293.0352,118.9674 F,0,146278,148299,1,0 S,0,146278,148299,0,0.05
Sprite,Background,Centre,"sb/star.png",0,0 M,16,146328,148984,320,240,371.7612,374.3755 F,0,146328,148984,1,0 S,0,146328,148984,0,0.05
Sprite,Background,Centre,"sb/star.png",0,0 M,16,146378,148542,320,240,256.0788,47.3265 F,0,146378,148542,1,0 S,0,146378,148542,0,0.05
Sprite,Background,Centre,"sb/star.png",0,0 M,16,146428,149223,320,240,492.2726,375.2151 F,0,146428,149223,1,0 S,0,146428,149223,0,0.05
Sprite,Background,Centre,"sb/star.png",0,0 M,16,146478,148914,320,240,269.3504,216.1124 F,0,146478,148914,1,0 S,0,146478,148914,0,0.05
Sprite,Background,Centre,"sb/star.png",0,0 M,16,146528,148538,320,240,286.7832,341.7136 F,0,146528,148538,1,0 S,0,146528,148538,0,0.05
Sprite,Background,Centre,"sb/star.png",0,0 M,16,146578,148739,320,240,180.5117,420.3524 F,0,146578,148739,1,0 S,0,146578,148739,0,0.05
Sprite,Background,Centre,"sb/star.png",0,0 M,16,146628,148846,320,240,261.0639,450.9207 F,0,146628,148846,1,0 S,0,146628,148846,0,0.05
Sprite,Background,Centre,"sb/star.png",0,0 M,16,146678,149276,320,240,310.5386,336.5375 F,0,146678,149276,1,0 S,0,146678,149276,0,0.05
Sprite,Background,Centre,"sb/star.png",0,0 M,16,146728,149231,320,240,345.1779,-17.7733 F,0,146728,149231,1,0 S,0,146728,149231,0,0.05
Sprite,Background,Centre,"sb/star.png",0,0 M,16,146778,149055,320,240,446.4642,362.4042 F,0,146778,149055,1,0 S,0,146778,149055,0,0.05
Sprite,Background,Centre,"sb/star.png",0,0 M,16,146828,149640,320,240,530.2866,56.6409 F,0,146828,149640,1,0 S,0,146828,149640,0,0.05
Sprite,Background,Centre,"sb/star.png",0,0 M,16,146878,149819,320,240,404.4776,337.4912 F,0,146878,149819,1,0 S,0,146878,149819,0,0.05
Sprite,Background,Centre,"sb/star.png",0,0 M,16,146928,149338,320,240,420.923,281.1771 F,0,146928,149338,1,0 S,0,146928,149338,0,0.05
Sprite,Background,Centre,"sb/star.png",0,0 M,16,146978,149834,320,240,345.3594,322.176 F,0,146978,149834,1,0 S,0,146978,149834,0,0.05
Sprite,Background,Centre,"sb/star.png",0,0 M,16,147028,149969,320,240,151.5132,192.7009 F,0,147028,149969,1,0 S,0,147028,149969,0,0.05
Sprite,Background,Centre,"sb/star.png",0,0 M,16,147078,149275,320,240,294.4329,343.9005 F,0,147078,149275,1,0 S,0,147078,149275,0,0.05
Sprite,Background,Centre,"sb/star.png",0,0 M,16,147128,149380,320,240,339.3596,-33.31522 F,0,147128,149380,1,0 S,0,147128,149380,0,0.05
Sprite,Background,Centre,"sb/star.png",0,0 M,16,147178,149192,320,240,136.9059,69.775 F,0,147178,149192,1,0 S,0,147178,149192,0,0.05
Sprite,Background,Centre,"sb/star.png",0,0 M,16,147228,149649,320,240,344.8044,298.9978 F,0,147228,149649,1,0 S,0,147228,149649,0,0.05
Sprite,Background,Centre,"sb/star.png",0,0 M,16,147278,150203,320,240,355.454,27.94337 F,0,147278,150203,1,0 S,0,147278,150203,0,0.05
Sprite,Background,Centre,"sb/star.png",0,0 M,16,147328,150261,320,240,403.5922,398.2825 F,0,147328,150261,1,0 S,0,147328,150261,0,0.05
Sprite,Background,Centre,"sb/star.png",0,0 M,16,147378,150361,320,240,478.0134,370.6016 F,0,147378,150361,1,0 S,0,147378,150361,0,0.05
Sprite,Background,Centre,"sb/star.png",0,0 M,16,147428,150112,320,240,377.0704,204.9006 F,0,147428,150112,1,0 S,0,147428,150112,0,0.05
Sprite,Background,Centre,"sb/star.png",0,0 M,16,147478,149641,320,240,85.825,276.4839 F,0,147478,149641,1,0 S,0,147478,149641,0,0.05
Sprite,Background,Centre,"sb/star.png",0,0 M,16,147528,149821,320,240,182.4472,213.9382 F,0,147528,149821,1,0 S,0,147528,149821,0,0.05
Sprite,Background,Centre,"sb/star.png",0,0 M,16,147578,149669,320,240,237.8991,42.37552 F,0,147578,149669,1,0 S,0,147578,149669,0,0.05
Sprite,Background,Centre,"sb/star.png",0,0 M,16,147628,150349,320,240,222.2849,160.4529 F,0,147628,150349,1,0 S,0,147628,150349,0,0.05
Sprite,Background,Centre,"sb/star.png",0,0 M,16,147678,150155,320,240,276.7341,204.4463 F,0,147678,150155,1,0 S,0,147678,150155,0,0.05
Sprite,Background,Centre,"sb/star.png",0,0 M,16,147728,150089,320,240,509.023,402.0842 F,0,147728,150089,1,0 S,0,147728,150089,0,0.05
Sprite,Background,Centre,"sb/star.png",0,0 M,16,147778,150044,320,240,308.6389,419.6411 F,0,147778,150044,1,0 S,0,147778,150044,0,0.05
Sprite,Background,Centre,"sb/star.png",0,0 M,16,147828,150777,320,240,168.5786,160.5483 F,0,147828,150777,1,0 S,0,147828,150777,0,0.05
Sprite,Background,Centre,"sb/star.png",0,0 M,16,147878,150163,320,240,128.0582,36.14135 F,0,147878,150163,1,0 S,0,147878,150163,0,0.05
Sprite,Background,Centre,"sb/star.png",0,0 M,16,147928,149957,320,240,529.8478,41.29189 F,0,147928,149957,1,0 S,0,147928,149957,0,0.05
Sprite,Background,Centre,"sb/star.png",0,0 M,16,147978,150411,320,240,415.6506,390.1165 F,0,147978,150411,1,0 S,0,147978,150411,0,0.05
Sprite,Background,Centre,"sb/star.png",0,0 M,16,148028,150404,320,240,363.7256,297.202 F,0,148028,150404,1,0 S,0,148028,150404,0,0.05
Sprite,Background,Centre,"sb/star.png",0,0 M,16,148078,150363,320,240,105.4897,322.978 F,0,148078,150363,1,0 S,0,148078,150363,0,0.05
Sprite,Background,Centre,"sb/star.png",0,0 M,16,148128,150217,320,240,212.6707,316.8403 F,0,148128,150217,1,0 S,0,148128,150217,0,0.05
Sprite,Background,Centre,"sb/star.png",0,0 M,16,148178,150677,320,240,258.3582,318.7419 F,0,148178,150677,1,0 S,0,148178,150677,0,0.05
Sprite,Background,Centre,"sb/star.png",0,0 M,16,148228,150395,320,240,156.1333,246.6121 F,0,148228,150395,1,0 S,0,148228,150395,0,0.05
Sprite,Background,Centre,"sb/star.png",0,0 M,16,148278,150841,320,240,414.1062,57.87635 F,0,148278,150841,1,0 S,0,148278,150841,0,0.05
Sprite,Background,Centre,"sb/star.png",0,0 M,16,148328,151325,320,240,173.0632,193.8959 F,0,148328,151325,1,0 S,0,148328,151325,0,0.05
Sprite,Background,Centre,"sb/star.png",0,0 M,16,148378,151030,320,240,309.959,342.5094 F,0,148378,151030,1,0 S,0,148378,151030,0,0.05
Sprite,Background,Centre,"sb/star.png",0,0 M,16,148428,151326,320,240,272.6987,259.0679 F,0,148428,151326,1,0 S,0,148428,151326,0,0.05
Sprite,Background,Centre,"sb/star.png",0,0 M,16,148478,151378,320,240,299.2845,178.3894 F,0,148478,151378,1,0 S,0,148478,151378,0,0.05
Sprite,Background,Centre,"sb/star.png",0,0 M,16,148528,151335,320,240,351.799,122.217 F,0,148528,151335,1,0 S,0,148528,151335,0,0.05
Sprite,Background,Centre,"sb/star.png",0,0 M,16,148578,151027,320,240,388.9191,210.4169 F,0,148578,151027,1,0 S,0,148578,151027,0,0.05
Sprite,Background,Centre,"sb/star.png",0,0 M,16,148628,151091,320,240,380.2433,271.5396 F,0,148628,151091,1,0 S,0,148628,151091,0,0.05
Sprite,Background,Centre,"sb/star.png",0,0 M,16,148678,151349,320,240,354.9807,327.2488 F,0,148678,151349,1,0 S,0,148678,151349,0,0.05
Sprite,Background,Centre,"sb/star.png",0,0 M,16,148728,151586,320,240,288.6754,398.9427 F,0,148728,151586,1,0 S,0,148728,151586,0,0.05
Sprite,Background,Centre,"sb/star.png",0,0 M,16,148778,150999,320,240,242.7441,256.5085 F,0,148778,150999,1,0 S,0,148778,150999,0,0.05
Sprite,Background,Centre,"sb/star.png",0,0 M,16,148828,150964,320,240,234.6111,382.3542 F,0,148828,150964,1,0 S,0,148828,150964,0,0.05
Sprite,Background,Centre,"sb/star.png",0,0 M,16,148878,150931,320,240,450.9773,330.1441 F,0,148878,150931,1,0 S,0,148878,150931,0,0.05
Sprite,Background,Centre,"sb/star.png",0,0 M,16,148928,151539,320,240,482.438,77.16908 F,0,148928,151539,1,0 S,0,148928,151539,0,0.05
Sprite,Background,Centre,"sb/star.png",0,0 M,16,148978,151858,320,240,286.6912,97.85035 F,0,148978,151858,1,0 S,0,148978,151858,0,0.05
Sprite,Background,Centre,"sb/star.png",0,0 M,16,149028,151030,320,240,308.188,336.2781 F,0,149028,151030,1,0 S,0,149028,151030,0,0.05
Sprite,Background,Centre,"sb/star.png",0,0 M,16,149078,151780,320,240,511.4959,127.6911 F,0,149078,151780,1,0 S,0,149078,151780,0,0.05
Sprite,Background,Centre,"sb/star.png",0,0 M,16,149128,151691,320,240,179.0906,420.5146 F,0,149128,151691,1,0 S,0,149128,151691,0,0.05
Sprite,Background,Centre,"sb/star.png",0,0 M,16,149178,151736,320,240,249.2116,218.436 F,0,149178,151736,1,0 S,0,149178,151736,0,0.05
Sprite,Background,Centre,"sb/star.png",0,0 M,16,149228,151977,320,240,327.9438,370.7589 F,0,149228,151977,1,0 S,0,149228,151977,0,0.05
Sprite,Background,Centre,"sb/star.png",0,0 M,16,149278,151637,320,240,341.459,-7.069849 F,0,149278,151637,1,0 S,0,149278,151637,0,0.05
Sprite,Background,Centre,"sb/star.png",0,0 M,16,149328,152312,320,240,488.8851,100.5768 F,0,149328,152312,1,0 S,0,149328,152312,0,0.05
Sprite,Background,Centre,"sb/star.png",0,0 M,16,149378,152350,320,240,121.341,105.3352 F,0,149378,152350,1,0 S,0,149378,152350,0,0.05
Sprite,Background,Centre,"sb/star.png",0,0 M,16,149428,151790,320,240,462.1201,49.09197 F,0,149428,151790,1,0 S,0,149428,151790,0,0.05
Sprite,Background,Centre,"sb/star.png",0,0 M,16,149478,152174,320,240,134.6041,420.8573 F,0,149478,152174,1,0 S,0,149478,152174,0,0.05
Sprite,Background,Centre,"sb/star.png",0,0 M,16,149528,151588,320,240,245.8745,59.63813 F,0,149528,151588,1,0 S,0,149528,151588,0,0.05
Sprite,Background,Centre,"sb/star.png",0,0 M,16,149578,151941,320,240,536.3698,223.4738 F,0,149578,151941,1,0 S,0,149578,151941,0,0.05
Sprite,Background,Centre,"sb/hit/r.png",172,385 S,7,149619,150671,0.25,0.5 F,6,149619,150671,1,0
Sprite,Background,Centre,"sb/hit/r.png",210,94 S,7,150325,151025,0.25,0.5 F,6,150325,151025,1,0
Sprite,Background,Centre,"sb/hit/r.png",210,94 S,7,151031,151731,0.25,0.5 F,6,151031,151731,1,0
Sprite,Background,Centre,"sb/hit/r.png",336,145 S,7,151736,152612,0.25,0.5 F,6,151736,152612,1,0
Sprite,Background,Centre,"sb/hit/r.png",393,142 S,7,152443,153495,0.25,0.5 F,6,152443,153495,1,0
Sprite,Background,Centre,"sb/hit/r.png",366,336 S,7,153148,153848,0.25,0.5 F,6,153148,153848,1,0
Sprite,Background,Centre,"sb/hit/r.png",366,336 S,7,153854,154906,0.25,0.5 F,6,153854,154906,1,0
Sprite,Background,Centre,"sb/hit/r.png",393,142 S,7,154559,155259,0.25,0.5 F,6,154559,155259,1,0
Sprite,Background,Centre,"sb/hit/r.png",393,141 S,7,155266,156318,0.25,0.5 F,6,155266,156318,1,0
Sprite,Background,Centre,"sb/hit/r.png",246,279 S,7,155972,157024,0.25,0.5 F,6,155972,157024,1,0
Sprite,Background,Centre,"sb/hit/r.png",505,387 S,7,156678,157730,0.25,0.5 F,6,156678,157730,1,0
Sprite,Background,Centre,"sb/hit/r.png",433,306 S,7,157384,158436,0.25,0.5 F,6,157384,158436,1,0
Sprite,Background,Centre,"sb/hit/r.png",442,189 S,7,158090,158966,0.25,0.5 F,6,158090,158966,1,0
Sprite,Background,Centre,"sb/hit/r.png",298,220 S,7,158443,159319,0.25,0.5 F,6,158443,159319,1,0
Sprite,Background,Centre,"sb/hit/r.png",329,364 S,7,158795,159671,0.25,0.5 F,6,158795,159671,1,0
Sprite,Background,Centre,"sb/hit/r.png",473,333 S,7,159148,160024,0.25,0.5 F,6,159148,160024,1,0
Sprite,Background,Centre,"sb/hit/h.png",320,248 S,7,159501,161560,0.7,1.4 F,7,159501,161560,1,0
Sprite,Background,Centre,"sb/bar.png",0,0 F,0,205384,206090,1,0 V,0,160913,,35,1 C,0,160913,,86,191,237 M,0,160913,,208,194 M,0,160913,160935,208,194,209.0332,185.941 M,0,160935,160957,209.0332,185.941,210.0664,177.8819 M,0,160957,160979,210.0664,177.8819,211.0996,169.8229 M,0,160979,161001,211.0996,169.8229,212.1328,161.7638 M,0,161001,161023,212.1328,161.7638,213.7061,153.9016 M,0,161023,161045,213.7061,153.9016,218.0998,147.067 M,0,161045,161067,218.0998,147.067,222.1079,140.0939 M,0,161067,161089,222.1079,140.0939,223.0683,132.0259 M,0,161089,161111,223.0683,132.0259,224.0288,123.9579 M,0,161111,161133,224.0288,123.9579,224.9893,115.8898 M,0,161133,161155,224.9893,115.8898,225.9498,107.8218 M,0,161155,161177,225.9498,107.8218,226.9103,99.75378 M,0,161177,161199,226.9103,99.75378,225.9498,107.8218 M,0,161199,161221,225.9498,107.8218,224.9893,115.8898 M,0,161221,161243,224.9893,115.8898,224.0288,123.9579 M,0,161243,161265,224.0288,123.9579,223.0683,132.0259 M,0,161265,161287,223.0683,132.0259,222.1079,140.0939 M,0,161287,161310,222.1079,140.0939,218.0998,147.067 M,0,161310,161332,218.0998,147.067,213.7061,153.9016 M,0,161332,161354,213.7061,153.9016,212.1328,161.7638 M,0,161354,161376,212.1328,161.7638,211.0996,169.8229 M,0,161376,161398,211.0996,169.8229,210.0664,177.8819 M,0,161398,161420,210.0664,177.8819,209.0332,185.941 M,0,161420,161442,209.0332,185.941,208,194 M,0,161442,161464,208,194 M,0,161442,161619,208,194,263,267 M,0,161619,161795,263,267,350,241 M,0,161795,161972,350,241,413,307 M,0,161972,162678,413,307,200,245 M,0,162678,162700,200,245,201.2355,236.9695 M,0,162700,162722,201.2355,236.9695,202.4709,228.939 M,0,162722,162744,202.4709,228.939,203.7064,220.9084 M,0,162744,162766,203.7064,220.9084,204.9419,212.8779 M,0,162766,162788,204.9419,212.8779,206.1773,204.8474 M,0,162788,162810,206.1773,204.8474,207.4128,196.8169 M,0,162810,162832,207.4128,196.8169,208.6483,188.7864 M,0,162832,162854,208.6483,188.7864,209.8837,180.7558 M,0,162854,162876,209.8837,180.7558 M,0,162854,163031,209.8837,180.7558,280,121 M,0,163031,163207,280,121,361,161 M,0,163207,163384,361,161 M,0,163384,163406,361,161,369.0076,159.6237 M,0,163406,163428,369.0076,159.6237,377.0152,158.2474 M,0,163428,163450,377.0152,158.2474,385.0228,156.8711 M,0,163450,163472,385.0228,156.8711,393.0303,155.4948 M,0,163472,163494,393.0303,155.4948,401.0379,154.1185 M,0,163494,163516,401.0379,154.1185,409.0455,152.7422 M,0,163516,163538,409.0455,152.7422,417.0531,151.3659 M,0,163538,163560,417.0531,151.3659,425,150 M,0,163560,163582,425,150 M,0,163560,163737,425,150,515,164 M,0,163737,163759,515,164,511.9825,156.4561 M,0,163759,163781,511.9825,156.4561,508.9649,148.9123 M,0,163781,163803,508.9649,148.9123,505.9474,141.3684 M,0,163803,163825,505.9474,141.3684,502.9298,133.8245 M,0,163825,163847,502.9298,133.8245,499.9123,126.2806 M,0,163847,163869,499.9123,126.2806,497.0701,118.7253 M,0,163869,163891,497.0701,118.7253,499.0801,110.8528 M,0,163891,163913,499.0801,110.8528,501.0901,102.9804 M,0,163913,163935,501.0901,102.9804,503.1001,95.10793 M,0,163935,163957,503.1001,95.10793,505.1101,87.23547 M,0,163957,163979,505.1101,87.23547,507.1201,79.36301 M,0,163979,164001,507.1201,79.36301,509,72 M,0,164001,164023,509,72,507.1201,79.36301 M,0,164023,164045,507.1201,79.36301,505.1101,87.23547 M,0,164045,164067,505.1101,87.23547,503.1001,95.10793 M,0,164067,164089,503.1001,95.10793,501.0901,102.9804 M,0,164089,164111,501.0901,102.9804,499.0801,110.8528 M,0,164111,164134,499.0801,110.8528,497.0701,118.7253 M,0,164134,164156,497.0701,118.7253,499.9123,126.2806 M,0,164156,164178,499.9123,126.2806,502.9298,133.8245 M,0,164178,164200,502.9298,133.8245,505.9474,141.3684 M,0,164200,164222,505.9474,141.3684,508.9649,148.9123 M,0,164222,164244,508.9649,148.9123,511.9825,156.4561 M,0,164244,164266,511.9825,156.4561,515,164 M,0,164266,164288,515,164 M,0,164266,164354,515,164,521,175 M,0,164354,164443,521,175,527,186 M,0,164443,164465,527,186,525.5027,193.9858 M,0,164465,164487,525.5027,193.9858,524.0053,201.9717 M,0,164487,164509,524.0053,201.9717,522.5079,209.9575 M,0,164509,164531,522.5079,209.9575,521.0106,217.9433 M,0,164531,164553,521.0106,217.9433,519.5133,225.9292 M,0,164553,164575,519.5133,225.9292,518.0159,233.915 M,0,164575,164597,518.0159,233.915,516.5186,241.9008 M,0,164597,164619,516.5186,241.9008,515.0212,249.8867 M,0,164619,164641,515.0212,249.8867 M,0,164619,164795,515.0212,249.8867,500,339 M,0,164795,165325,500,339,274,191 M,0,165325,165347,274,191,281.875,189 M,0,165347,165369,281.875,189,289.75,187 M,0,165369,165391,289.75,187,297.625,185 M,0,165391,165413,297.625,185,305.5,183 M,0,165413,165435,305.5,183,313.375,181 M,0,165435,165457,313.375,181,321.25,179 M,0,165457,165479,321.25,179,329.125,177 M,0,165479,165501,329.125,177,337,175 M,0,165501,165523,337,175,329.125,177 M,0,165523,165545,329.125,177,321.25,179 M,0,165545,165567,321.25,179,313.375,181 M,0,165567,165589,313.375,181,305.5,183 M,0,165589,165611,305.5,183,297.625,185 M,0,165611,165633,297.625,185,289.75,187 M,0,165633,165655,289.75,187,281.875,189 M,0,165655,165677,281.875,189,274,191 M,0,165677,165699,274,191 M,0,165677,165854,274,191,193,148 M,0,165854,166031,193,148,134,219 M,0,166031,166119,134,219 M,0,166119,166207,134,219 M,0,166207,166229,134,219,129.9689,226.0545 M,0,166229,166251,129.9689,226.0545,125.9377,233.1089 M,0,166251,166273,125.9377,233.1089,121.9066,240.1634 M,0,166273,166295,121.9066,240.1634,117.8755,247.2179 M,0,166295,166317,117.8755,247.2179,114.0323,254.312 M,0,166317,166339,114.0323,254.312,114.8683,262.3939 M,0,166339,166361,114.8683,262.3939,115.7044,270.4758 M,0,166361,166383,115.7044,270.4758,116.5405,278.5577 M,0,166383,166405,116.5405,278.5577,117.3765,286.6395 M,0,166405,166427,117.3765,286.6395,118.2126,294.7214 M,0,166427,166449,118.2126,294.7214,119.0486,302.8033 M,0,166449,166471,119.0486,302.8033,119.8847,310.8851 M,0,166471,166493,119.8847,310.8851 M,0,166471,166560,119.8847,310.8851,149,345 M,0,166560,166582,149,345,156.8922,343.0689 M,0,166582,166604,156.8922,343.0689,164.7844,341.1379 M,0,166604,166626,164.7844,341.1379,172.6766,339.2068 M,0,166626,166648,172.6766,339.2068,180.5688,337.2757 M,0,166648,166670,180.5688,337.2757,188.4609,335.3447 M,0,166670,166692,188.4609,335.3447,196.3531,333.4136 M,0,166692,166714,196.3531,333.4136,204.2453,331.4825 M,0,166714,166736,204.2453,331.4825,212.1375,329.5515 M,0,166736,166758,212.1375,329.5515,220.0297,327.6204 M,0,166758,166780,220.0297,327.6204,227.9219,325.6893 M,0,166780,166802,227.9219,325.6893,235.8141,323.7583 M,0,166802,166824,235.8141,323.7583,243,322 M,0,166824,166846,243,322,235.8141,323.7583 M,0,166846,166868,235.8141,323.7583,227.9219,325.6893 M,0,166868,166890,227.9219,325.6893,220.0297,327.6204 M,0,166890,166912,220.0297,327.6204,212.1375,329.5515 M,0,166912,166934,212.1375,329.5515,204.2453,331.4825 M,0,166934,166957,204.2453,331.4825,196.3531,333.4136 M,0,166957,166979,196.3531,333.4136,188.4609,335.3447 M,0,166979,167001,188.4609,335.3447,180.5688,337.2757 M,0,167001,167023,180.5688,337.2757,172.6766,339.2068 M,0,167023,167045,172.6766,339.2068,164.7844,341.1379 M,0,167045,167067,164.7844,341.1379,156.8922,343.0689 M,0,167067,167089,156.8922,343.0689,149,345 M,0,167089,167111,149,345 M,0,167089,167266,149,345,187,427 M,0,167266,167288,187,427,194.9041,425.1181 M,0,167288,167310,194.9041,425.1181,202.8081,423.2362 M,0,167310,167332,202.8081,423.2362,210.7122,421.3542 M,0,167332,167354,210.7122,421.3542,218.6162,419.4723 M,0,167354,167376,218.6162,419.4723,226.5202,417.5904 M,0,167376,167398,226.5202,417.5904,234.4243,415.7085 M,0,167398,167420,234.4243,415.7085,242.3284,413.8266 M,0,167420,167442,242.3284,413.8266,250,412 M,0,167442,167464,250,412 M,0,167442,167619,250,412,338,387 M,0,167619,168148,338,387,511,176 M,0,168148,168325,511,176,446,240 M,0,168325,168501,446,240 M,0,168501,168678,446,240,503,311 M,0,168678,168700,503,311,502.0687,319.0714 M,0,168700,168722,502.0687,319.0714,501.1374,327.1429 M,0,168722,168744,501.1374,327.1429,500.206,335.2144 M,0,168744,168766,500.206,335.2144,499.2747,343.2858 M,0,168766,168788,499.2747,343.2858,498.3434,351.3572 M,0,168788,168810,498.3434,351.3572,497.4121,359.4287 M,0,168810,168832,497.4121,359.4287,496.4807,367.5001 M,0,168832,168854,496.4807,367.5001,495.5494,375.5716 M,0,168854,168876,495.5494,375.5716 M,0,168854,169031,495.5494,375.5716,420,427 M,0,169031,169053,420,427,411.889,427.4771 M,0,169053,169075,411.889,427.4771,403.778,427.9542 M,0,169075,169097,403.778,427.9542,395.6671,428.4313 M,0,169097,169119,395.6671,428.4313,387.5561,428.9085 M,0,169119,169141,387.5561,428.9085,379.4451,429.3856 M,0,169141,169163,379.4451,429.3856,371.3341,429.8627 M,0,169163,169185,371.3341,429.8627,365.0845,425.739 M,0,169185,169207,365.0845,425.739,359.5869,419.7563 M,0,169207,169229,359.5869,419.7563,354.0893,413.7737 M,0,169229,169251,354.0893,413.7737,348.5917,407.791 M,0,169251,169273,348.5917,407.791,343.0941,401.8083 M,0,169273,169295,343.0941,401.8083,337.5966,395.8257 M,0,169295,169317,337.5966,395.8257 M,0,169295,169384,337.5966,395.8257,310,359 M,0,169384,169406,310,359,302.0458,360.6571 M,0,169406,169428,302.0458,360.6571,294.0916,362.3143 M,0,169428,169450,294.0916,362.3143,286.1374,363.9714 M,0,169450,169472,286.1374,363.9714,278.1831,365.6285 M,0,169472,169494,278.1831,365.6285,270.2289,367.2856 M,0,169494,169516,270.2289,367.2856,262.2747,368.9428 M,0,169516,169538,262.2747,368.9428,254.3205,370.5999 M,0,169538,169560,254.3205,370.5999,246.3663,372.257 M,0,169560,169582,246.3663,372.257,238.412,373.9142 M,0,169582,169604,238.412,373.9142,230.4578,375.5713 M,0,169604,169626,230.4578,375.5713,222.5036,377.2284 M,0,169626,169648,222.5036,377.2284,214.5494,378.8855 M,0,169648,169670,214.5494,378.8855,222.5036,377.2284 M,0,169670,169692,222.5036,377.2284,230.4578,375.5713 M,0,169692,169714,230.4578,375.5713,238.412,373.9142 M,0,169714,169736,238.412,373.9142,246.3663,372.257 M,0,169736,169758,246.3663,372.257,254.3205,370.5999 M,0,169758,169781,254.3205,370.5999,262.2747,368.9428 M,0,169781,169803,262.2747,368.9428,270.2289,367.2856 M,0,169803,169825,270.2289,367.2856,278.1831,365.6285 M,0,169825,169847,278.1831,365.6285,286.1374,363.9714 M,0,169847,169869,286.1374,363.9714,294.0916,362.3143 M,0,169869,169891,294.0916,362.3143,302.0458,360.6571 M,0,169891,169913,302.0458,360.6571,310,359 M,0,169913,169935,310,359 M,0,169913,170090,310,359,370,290 M,0,170090,170112,370,290,369.3768,281.8989 M,0,170112,170134,369.3768,281.8989,368.7537,273.7979 M,0,170134,170156,368.7537,273.7979,368.1305,265.6968 M,0,170156,170178,368.1305,265.6968,367.5074,257.5957 M,0,170178,170200,367.5074,257.5957,366.8842,249.4947 M,0,170200,170222,366.8842,249.4947,366.261,241.3936 M,0,170222,170244,366.261,241.3936,365.6379,233.2925 M,0,170244,170266,365.6379,233.2925,365.0147,225.1915 M,0,170266,170288,365.0147,225.1915 M,0,170266,170443,365.0147,225.1915,354,134 M,0,170443,170972,354,134,110,256 M,0,170972,170994,110,256,108.8856,247.9518 M,0,170994,171016,108.8856,247.9518,107.7713,239.9036 M,0,171016,171038,107.7713,239.9036,106.6569,231.8553 M,0,171038,171060,106.6569,231.8553,105.5425,223.8071 M,0,171060,171082,105.5425,223.8071,104.4282,215.7589 M,0,171082,171104,104.4282,215.7589,103.3138,207.7107 M,0,171104,171126,103.3138,207.7107,102.1994,199.6625 M,0,171126,171148,102.1994,199.6625,101.0851,191.6143 M,0,171148,171170,101.0851,191.6143,102.1994,199.6625 M,0,171170,171192,102.1994,199.6625,103.3138,207.7107 M,0,171192,171214,103.3138,207.7107,104.4282,215.7589 M,0,171214,171236,104.4282,215.7589,105.5425,223.8071 M,0,171236,171258,105.5425,223.8071,106.6569,231.8553 M,0,171258,171280,106.6569,231.8553,107.7713,239.9036 M,0,171280,171302,107.7713,239.9036,108.8856,247.9518 M,0,171302,171324,108.8856,247.9518,110,256 M,0,171324,171346,110,256 M,0,171324,171501,110,256,175,319 M,0,171501,171678,175,319,264,302 M,0,171678,171854,264,302,353,286 M,0,171854,171876,353,286,358.3979,292.0727 M,0,171876,171898,358.3979,292.0727,363.7959,298.1454 M,0,171898,171920,363.7959,298.1454,369.1939,304.2181 M,0,171920,171942,369.1939,304.2181,374.5918,310.2908 M,0,171942,171964,374.5918,310.2908,377.2945,317.4906 M,0,171964,171986,377.2945,317.4906,377.8261,325.5982 M,0,171986,172008,377.8261,325.5982,378.3578,333.7057 M,0,172008,172030,378.3578,333.7057,378.8894,341.8133 M,0,172030,172052,378.8894,341.8133,379.4211,349.9209 M,0,172052,172074,379.4211,349.9209,379.9527,358.0285 M,0,172074,172096,379.9527,358.0285,380.4843,366.1361 M,0,172096,172118,380.4843,366.1361,381,374 M,0,172118,172140,381,374 M,0,172118,172207,381,374,365,417 M,0,172207,172229,365,417,357.6702,413.4944 M,0,172229,172251,357.6702,413.4944,350.3403,409.9889 M,0,172251,172273,350.3403,409.9889,343.0105,406.4833 M,0,172273,172295,343.0105,406.4833,335.6806,402.9777 M,0,172295,172317,335.6806,402.9777,328.3508,399.4721 M,0,172317,172339,328.3508,399.4721,321.021,395.9666 M,0,172339,172361,321.021,395.9666,313.1822,395.8853 M,0,172361,172383,313.1822,395.8853,305.1497,397.1077 M,0,172383,172405,305.1497,397.1077,297.1171,398.33 M,0,172405,172427,297.1171,398.33,289.0846,399.5523 M,0,172427,172449,289.0846,399.5523,281.0521,400.7747 M,0,172449,172471,281.0521,400.7747,273.0195,401.997 M,0,172471,172493,273.0195,401.997,281.0521,400.7747 M,0,172493,172515,281.0521,400.7747,289.0846,399.5523 M,0,172515,172537,289.0846,399.5523,297.1171,398.33 M,0,172537,172559,297.1171,398.33,305.1497,397.1077 M,0,172559,172581,305.1497,397.1077,313.1822,395.8853 M,0,172581,172604,313.1822,395.8853,321.021,395.9666 M,0,172604,172626,321.021,395.9666,328.3508,399.4721 M,0,172626,172648,328.3508,399.4721,335.6806,402.9777 M,0,172648,172670,335.6806,402.9777,343.0105,406.4833 M,0,172670,172692,343.0105,406.4833,350.3403,409.9889 M,0,172692,172714,350.3403,409.9889,357.6702,413.4944 M,0,172714,172736,357.6702,413.4944,365,417 M,0,172736,172758,365,417 M,0,172736,172913,365,417,456,410 M,0,172913,172935,456,410,457.7363,402.0627 M,0,172935,172957,457.7363,402.0627,459.4726,394.1254 M,0,172957,172979,459.4726,394.1254,461.2089,386.188 M,0,172979,173001,461.2089,386.188,462.9452,378.2508 M,0,173001,173023,462.9452,378.2508,464.6814,370.3134 M,0,173023,173045,464.6814,370.3134,466.4177,362.3761 M,0,173045,173067,466.4177,362.3761,468.154,354.4388 M,0,173067,173089,468.154,354.4388,469.8903,346.5015 M,0,173089,173111,469.8903,346.5015 M,0,173089,173266,469.8903,346.5015,492,258 M,0,173266,173972,492,258,249,133 M,0,173972,173994,249,133,241.0376,131.3826 M,0,173994,174016,241.0376,131.3826,233.0752,129.7653 M,0,174016,174038,233.0752,129.7653,225.1128,128.1479 M,0,174038,174060,225.1128,128.1479,217.1504,126.5306 M,0,174060,174082,217.1504,126.5306,209.188,124.9132 M,0,174082,174104,209.188,124.9132,201.2256,123.2958 M,0,174104,174126,201.2256,123.2958,193.2632,121.6785 M,0,174126,174148,193.2632,121.6785,185.3008,120.0611 M,0,174148,174170,185.3008,120.0611,193.2632,121.6785 M,0,174170,174192,193.2632,121.6785,201.2256,123.2958 M,0,174192,174214,201.2256,123.2958,209.188,124.9132 M,0,174214,174236,209.188,124.9132,217.1504,126.5306 M,0,174236,174258,217.1504,126.5306,225.1128,128.1479 M,0,174258,174280,225.1128,128.1479,233.0752,129.7653 M,0,174280,174302,233.0752,129.7653,241.0376,131.3826 M,0,174302,174324,241.0376,131.3826,249,133 M,0,174324,174346,249,133 M,0,174324,174501,249,133,334,99 M,0,174501,174678,334,99 M,0,174678,174700,334,99,341.9169,97.17302 M,0,174700,174722,341.9169,97.17302,349.8339,95.34603 M,0,174722,174744,349.8339,95.34603,357.7508,93.51905 M,0,174744,174766,357.7508,93.51905,365.6677,91.69206 M,0,174766,174788,365.6677,91.69206,373.5614,90.21184 M,0,174788,174810,373.5614,90.21184,381.1631,93.08043 M,0,174810,174832,381.1631,93.08043,388.7649,95.94902 M,0,174832,174854,388.7649,95.94902,396.3667,98.81761 M,0,174854,174876,396.3667,98.81761,403.9684,101.6862 M,0,174876,174898,403.9684,101.6862,411.5702,104.5548 M,0,174898,174920,411.5702,104.5548,419.1719,107.4234 M,0,174920,174942,419.1719,107.4234,426,110 M,0,174942,174964,426,110 M,0,174942,175031,426,110,453,147 M,0,175031,175053,453,147,460.983,145.4874 M,0,175053,175075,460.983,145.4874,468.9659,143.9749 M,0,175075,175097,468.9659,143.9749,476.9489,142.4623 M,0,175097,175119,476.9489,142.4623,484.9319,140.9498 M,0,175119,175141,484.9319,140.9498,492.9149,139.4372 M,0,175141,175163,492.9149,139.4372,500.8978,137.9246 M,0,175163,175185,500.8978,137.9246,508.8808,136.4121 M,0,175185,175207,508.8808,136.4121,516.8638,134.8995 M,0,175207,175229,516.8638,134.8995,524.8467,133.3869 M,0,175229,175251,524.8467,133.3869,532.8297,131.8744 M,0,175251,175273,532.8297,131.8744,540.8126,130.3618 M,0,175273,175295,540.8126,130.3618,548,129 M,0,175295,175317,548,129,540.8126,130.3618 M,0,175317,175339,540.8126,130.3618,532.8297,131.8744 M,0,175339,175361,532.8297,131.8744,524.8467,133.3869 M,0,175361,175383,524.8467,133.3869,516.8638,134.8995 M,0,175383,175405,516.8638,134.8995,508.8808,136.4121 M,0,175405,175428,508.8808,136.4121,500.8978,137.9246 M,0,175428,175450,500.8978,137.9246,492.9149,139.4372 M,0,175450,175472,492.9149,139.4372,484.9319,140.9498 M,0,175472,175494,484.9319,140.9498,476.9489,142.4623 M,0,175494,175516,476.9489,142.4623,468.9659,143.9749 M,0,175516,175538,468.9659,143.9749,460.983,145.4874 M,0,175538,175560,460.983,145.4874,453,147 M,0,175560,175582,453,147 M,0,175560,175737,453,147,403,223 M,0,175737,175759,403,223,403.9925,231.0641 M,0,175759,175781,403.9925,231.0641,404.985,239.1283 M,0,175781,175803,404.985,239.1283,405.9775,247.1925 M,0,175803,175825,405.9775,247.1925,406.97,255.2566 M,0,175825,175847,406.97,255.2566,407.9626,263.3208 M,0,175847,175869,407.9626,263.3208,408.9551,271.3849 M,0,175869,175891,408.9551,271.3849,409.9476,279.4491 M,0,175891,175913,409.9476,279.4491,410.9401,287.5132 M,0,175913,175935,410.9401,287.5132 M,0,175913,176090,410.9401,287.5132,431,376 M,0,176090,176619,431,376,164,433 M,0,176619,176641,164,433,165.4973,425.0142 M,0,176641,176663,165.4973,425.0142,166.9947,417.0283 M,0,176663,176685,166.9947,417.0283,168.492,409.0425 M,0,176685,176707,168.492,409.0425,169.9894,401.0566 M,0,176707,176729,169.9894,401.0566,171.4867,393.0708 M,0,176729,176751,171.4867,393.0708,172.9841,385.085 M,0,176751,176773,172.9841,385.085,174.4814,377.0992 M,0,176773,176795,174.4814,377.0992,175.9788,369.1133 M,0,176795,176817,175.9788,369.1133,174.4814,377.0992 M,0,176817,176839,174.4814,377.0992,172.9841,385.085 M,0,176839,176861,172.9841,385.085,171.4867,393.0708 M,0,176861,176883,171.4867,393.0708,169.9894,401.0566 M,0,176883,176905,169.9894,401.0566,168.492,409.0425 M,0,176905,176927,168.492,409.0425,166.9947,417.0283 M,0,176927,176949,166.9947,417.0283,165.4973,425.0142 M,0,176949,176971,165.4973,425.0142,164,433 M,0,176971,176993,164,433 M,0,176971,177148,164,433,85,387 M,0,177148,177325,85,387,122,303 M,0,177325,177501,122,303 M,0,177501,177523,122,303,124.2995,295.2072 M,0,177523,177545,124.2995,295.2072,126.599,287.4144 M,0,177545,177567,126.599,287.4144,128.8986,279.6216 M,0,177567,177589,128.8986,279.6216,131.1981,271.8288 M,0,177589,177611,131.1981,271.8288,133.4976,264.0359 M,0,177611,177633,133.4976,264.0359,135.7971,256.2432 M,0,177633,177655,135.7971,256.2432,138.0966,248.4503 M,0,177655,177677,138.0966,248.4503,139.6317,240.6496 M,0,177677,177699,139.6317,240.6496,137.4939,232.8109 M,0,177699,177721,137.4939,232.8109,135.3561,224.9722 M,0,177721,177743,135.3561,224.9722,133.2182,217.1335 M,0,177743,177765,133.2182,217.1335,131.0804,209.2948 M,0,177765,177787,131.0804,209.2948 M,0,177765,177854,131.0804,209.2948,103,173 M,0,177854,177876,103,173,103.743,164.9091 M,0,177876,177898,103.743,164.9091,104.4861,156.8181 M,0,177898,177920,104.4861,156.8181,105.2291,148.7271 M,0,177920,177942,105.2291,148.7271,105.9722,140.6362 M,0,177942,177964,105.9722,140.6362,106.7152,132.5452 M,0,177964,177986,106.7152,132.5452,107.4583,124.4543 M,0,177986,178008,107.4583,124.4543,108.2013,116.3633 M,0,178008,178030,108.2013,116.3633,108.9444,108.2724 M,0,178030,178052,108.9444,108.2724,109.6874,100.1814 M,0,178052,178074,109.6874,100.1814,110.4305,92.09048 M,0,178074,178096,110.4305,92.09048,111.1735,83.99953 M,0,178096,178118,111.1735,83.99953,111.9166,75.90858 M,0,178118,178140,111.9166,75.90858,111.1735,83.99953 M,0,178140,178162,111.1735,83.99953,110.4305,92.09048 M,0,178162,178184,110.4305,92.09048,109.6874,100.1814 M,0,178184,178206,109.6874,100.1814,108.9444,108.2724 M,0,178206,178228,108.9444,108.2724,108.2013,116.3633 M,0,178228,178251,108.2013,116.3633,107.4583,124.4543 M,0,178251,178273,107.4583,124.4543,106.7152,132.5452 M,0,178273,178295,106.7152,132.5452,105.9722,140.6362 M,0,178295,178317,105.9722,140.6362,105.2291,148.7271 M,0,178317,178339,105.2291,148.7271,104.4861,156.8181 M,0,178339,178361,104.4861,156.8181,103.743,164.9091 M,0,178361,178383,103.743,164.9091,103,173 M,0,178383,178405,103,173 M,0,178383,178560,103,173,160,244 M,0,178560,178582,160,244,167.7684,241.6194 M,0,178582,178604,167.7684,241.6194,175.5368,239.2387 M,0,178604,178626,175.5368,239.2387,183.3052,236.8581 M,0,178626,178648,183.3052,236.8581,191.0736,234.4774 M,0,178648,178670,191.0736,234.4774,198.842,232.0968 M,0,178670,178692,198.842,232.0968,206.6104,229.7162 M,0,178692,178714,206.6104,229.7162,214.3789,227.3355 M,0,178714,178736,214.3789,227.3355,222,225 M,0,178736,178758,222,225 M,0,178736,178913,222,225,305,188 M,0,178913,179443,305,188,547,313 M,0,179443,179619,547,313,485,246 M,0,179619,179795,485,246 M,0,179795,179972,485,246,538,172 M,0,179972,179994,538,172,537.2532,163.9094 M,0,179994,180016,537.2532,163.9094,536.5063,155.8188 M,0,180016,180038,536.5063,155.8188,535.7595,147.7282 M,0,180038,180060,535.7595,147.7282,535.0127,139.6376 M,0,180060,180082,535.0127,139.6376,534.2659,131.547 M,0,180082,180104,534.2659,131.547,533.519,123.4564 M,0,180104,180126,533.519,123.4564,532.7722,115.3658 M,0,180126,180148,532.7722,115.3658,532.0254,107.2752 M,0,180148,180170,532.0254,107.2752 M,0,180148,180325,532.0254,107.2752,450,67 M,0,180325,180347,450,67,441.9022,67.66376 M,0,180347,180369,441.9022,67.66376,433.8043,68.32751 M,0,180369,180391,433.8043,68.32751,425.7065,68.99127 M,0,180391,180413,425.7065,68.99127,417.6086,69.65503 M,0,180413,180435,417.6086,69.65503,409.5108,70.31879 M,0,180435,180457,409.5108,70.31879,401.4129,70.98254 M,0,180457,180479,401.4129,70.98254,393.3151,71.6463 M,0,180479,180501,393.3151,71.6463,386.4785,74.83674 M,0,180501,180523,386.4785,74.83674,381.0805,80.90944 M,0,180523,180545,381.0805,80.90944,375.6826,86.98214 M,0,180545,180567,375.6826,86.98214,370.2846,93.05484 M,0,180567,180589,370.2846,93.05484,365,99 M,0,180589,180611,365,99 M,0,180589,180678,365,99,350,143 M,0,180678,180700,350,143,354.2583,149.9197 M,0,180700,180722,354.2583,149.9197,358.5166,156.8394 M,0,180722,180744,358.5166,156.8394,362.7749,163.7592 M,0,180744,180766,362.7749,163.7592,367.0332,170.6789 M,0,180766,180788,367.0332,170.6789,371.2914,177.5986 M,0,180788,180810,371.2914,177.5986,374.058,184.9564 M,0,180810,180832,374.058,184.9564,374.2173,193.0799 M,0,180832,180854,374.2173,193.0799,374.3765,201.2033 M,0,180854,180876,374.3765,201.2033,374.5358,209.3267 M,0,180876,180898,374.5358,209.3267,374.6951,217.4502 M,0,180898,180920,374.6951,217.4502,374.8544,225.5736 M,0,180920,180942,374.8544,225.5736,375,233 M,0,180942,180964,375,233,374.8544,225.5736 M,0,180964,180986,374.8544,225.5736,374.6951,217.4502 M,0,180986,181008,374.6951,217.4502,374.5358,209.3267 M,0,181008,181030,374.5358,209.3267,374.3765,201.2033 M,0,181030,181052,374.3765,201.2033,374.2173,193.0799 M,0,181052,181075,374.2173,193.0799,374.058,184.9564 M,0,181075,181097,374.058,184.9564,371.2914,177.5986 M,0,181097,181119,371.2914,177.5986,367.0332,170.6789 M,0,181119,181141,367.0332,170.6789,362.7749,163.7592 M,0,181141,181163,362.7749,163.7592,358.5166,156.8394 M,0,181163,181185,358.5166,156.8394,354.2583,149.9197 M,0,181185,181207,354.2583,149.9197,350,143 M,0,181207,181229,350,143 M,0,181207,181384,350,143,279,85 M,0,181384,181406,279,85,270.9359,85.99251 M,0,181406,181428,270.9359,85.99251,262.8717,86.98502 M,0,181428,181450,262.8717,86.98502,254.8075,87.97753 M,0,181450,181472,254.8075,87.97753,246.7434,88.97005 M,0,181472,181494,246.7434,88.97005,238.6792,89.96255 M,0,181494,181516,238.6792,89.96255,230.6151,90.95506 M,0,181516,181538,230.6151,90.95506,222.5509,91.94758 M,0,181538,181560,222.5509,91.94758,214.4868,92.94009 M,0,181560,181582,214.4868,92.94009 M,0,181560,181737,214.4868,92.94009,155,162 M,0,181737,182443,155,162 M,0,182443,182619,155,162 M,0,182619,182795,155,162,200,240 M,0,182795,182972,200,240,172,327 M,0,182972,183148,172,327 M,0,183148,183170,172,327,179.9672,325.4066 M,0,183170,183192,179.9672,325.4066,187.9344,323.8131 M,0,183192,183214,187.9344,323.8131,195.9017,322.2197 M,0,183214,183236,195.9017,322.2197,203.8689,320.6262 M,0,183236,183258,203.8689,320.6262,211.8361,319.0328 M,0,183258,183280,211.8361,319.0328,219.8033,317.4393 M,0,183280,183302,219.8033,317.4393,227.7705,315.8459 M,0,183302,183324,227.7705,315.8459,235.7377,314.2524 M,0,183324,183346,235.7377,314.2524,243.705,312.659 M,0,183346,183368,243.705,312.659,251.6722,311.0656 M,0,183368,183390,251.6722,311.0656,259.6394,309.4721 M,0,183390,183412,259.6394,309.4721,267,308 M,0,183412,183434,267,308 M,0,183412,183501,267,308,309,327 M,0,183501,183678,309,327,363,253 M,0,183678,183700,363,253,361.3826,245.0376 M,0,183700,183722,361.3826,245.0376,359.7653,237.0752 M,0,183722,183744,359.7653,237.0752,358.1479,229.1128 M,0,183744,183766,358.1479,229.1128,356.5305,221.1504 M,0,183766,183788,356.5305,221.1504,354.9132,213.188 M,0,183788,183810,354.9132,213.188,353.2958,205.2256 M,0,183810,183832,353.2958,205.2256,351.6785,197.2632 M,0,183832,183854,351.6785,197.2632,350.0611,189.3008 M,0,183854,183876,350.0611,189.3008,351.6785,197.2632 M,0,183876,183898,351.6785,197.2632,353.2958,205.2256 M,0,183898,183920,353.2958,205.2256,354.9132,213.188 M,0,183920,183942,354.9132,213.188,356.5305,221.1504 M,0,183942,183964,356.5305,221.1504,358.1479,229.1128 M,0,183964,183986,358.1479,229.1128,359.7653,237.0752 M,0,183986,184008,359.7653,237.0752,361.3826,245.0376 M,0,184008,184030,361.3826,245.0376,363,253 M,0,184030,184052,363,253 M,0,184030,184207,363,253,433,310 M,0,184207,184384,433,310,503,367 M,0,184384,184406,503,367,501.358,374.9574 M,0,184406,184428,501.358,374.9574,499.716,382.9147 M,0,184428,184450,499.716,382.9147,498.074,390.8721 M,0,184450,184472,498.074,390.8721,496.432,398.8294 M,0,184472,184494,496.432,398.8294,494.79,406.7868 M,0,184494,184516,494.79,406.7868,493.148,414.7441 M,0,184516,184538,493.148,414.7441,491.506,422.7015 M,0,184538,184560,491.506,422.7015,490,430 M,0,184560,184582,490,430 M,0,184560,185266,490,430,332,103 M,0,185266,185443,332,103 M,0,185443,185619,332,103,278,176 M,0,185619,185641,278,176,269.9695,174.7645 M,0,185641,185663,269.9695,174.7645,261.939,173.5291 M,0,185663,185685,261.939,173.5291,253.9084,172.2936 M,0,185685,185707,253.9084,172.2936,245.8779,171.0581 M,0,185707,185729,245.8779,171.0581,237.8474,169.8227 M,0,185729,185751,237.8474,169.8227,229.8169,168.5872 M,0,185751,185773,229.8169,168.5872,221.7864,167.3517 M,0,185773,185795,221.7864,167.3517,213.7558,166.1163 M,0,185795,185817,213.7558,166.1163 M,0,185795,185972,213.7558,166.1163,149,231 M,0,185972,185994,149,231,149.3348,239.1181 M,0,185994,186016,149.3348,239.1181,149.6695,247.2362 M,0,186016,186038,149.6695,247.2362,150.0043,255.3543 M,0,186038,186060,150.0043,255.3543,150.3391,263.4724 M,0,186060,186082,150.3391,263.4724,150.6738,271.5905 M,0,186082,186104,150.6738,271.5905,151.0086,279.7086 M,0,186104,186126,151.0086,279.7086,151.3434,287.8267 M,0,186126,186148,151.3434,287.8267,151.6781,295.9448 M,0,186148,186170,151.6781,295.9448,152.0129,304.0629 M,0,186170,186192,152.0129,304.0629,152.3477,312.181 M,0,186192,186214,152.3477,312.181,152.6824,320.2991 M,0,186214,186236,152.6824,320.2991,153,328 M,0,186236,186258,153,328 M,0,186236,186325,153,328,157,374 M,0,186325,186347,157,374,149.9357,369.9862 M,0,186347,186369,149.9357,369.9862,142.8713,365.9724 M,0,186369,186391,142.8713,365.9724,135.807,361.9585 M,0,186391,186413,135.807,361.9585,128.7427,357.9447 M,0,186413,186435,128.7427,357.9447,121.6783,353.9309 M,0,186435,186457,121.6783,353.9309,114.614,349.9171 M,0,186457,186479,114.614,349.9171,106.737,349.2665 M,0,186479,186501,106.737,349.2665,98.61934,349.6119 M,0,186501,186523,98.61934,349.6119,90.50169,349.9574 M,0,186523,186545,90.50169,349.9574,82.38403,350.3028 M,0,186545,186567,82.38403,350.3028,74.26637,350.6483 M,0,186567,186589,74.26637,350.6483,66.14872,350.9937 M,0,186589,186611,66.14872,350.9937,74.26637,350.6483 M,0,186611,186633,74.26637,350.6483,82.38403,350.3028 M,0,186633,186655,82.38403,350.3028,90.50169,349.9574 M,0,186655,186677,90.50169,349.9574,98.61934,349.6119 M,0,186677,186699,98.61934,349.6119,106.737,349.2665 M,0,186699,186722,106.737,349.2665,114.614,349.9171 M,0,186722,186744,114.614,349.9171,121.6783,353.9309 M,0,186744,186766,121.6783,353.9309,128.7427,357.9447 M,0,186766,186788,128.7427,357.9447,135.807,361.9585 M,0,186788,186810,135.807,361.9585,142.8713,365.9724 M,0,186810,186832,142.8713,365.9724,149.9357,369.9862 M,0,186832,186854,149.9357,369.9862,157,374 M,0,186854,186876,157,374 M,0,186854,187031,157,374,230,427 M,0,187031,187207,230,427,305,377 M,0,187207,187229,305,377,313.0768,377.8834 M,0,187229,187251,313.0768,377.8834,321.1537,378.7668 M,0,187251,187273,321.1537,378.7668,329.2305,379.6502 M,0,187273,187295,329.2305,379.6502,337.3073,380.5336 M,0,187295,187317,337.3073,380.5336,345.3842,381.417 M,0,187317,187339,345.3842,381.417,353.461,382.3004 M,0,187339,187361,353.461,382.3004,361.5378,383.1838 M,0,187361,187383,361.5378,383.1838,369,384 M,0,187383,187405,369,384 M,0,187383,187913,369,384,527,161 M,0,187913,187935,527,161,528.1144,152.9518 M,0,187935,187957,528.1144,152.9518,529.2288,144.9036 M,0,187957,187979,529.2288,144.9036,530.3431,136.8553 M,0,187979,188001,530.3431,136.8553,531.4575,128.8071 M,0,188001,188023,531.4575,128.8071,532.5718,120.7589 M,0,188023,188045,532.5718,120.7589,533.6862,112.7107 M,0,188045,188067,533.6862,112.7107,534.8005,104.6625 M,0,188067,188089,534.8005,104.6625,535.9149,96.61426 M,0,188089,188111,535.9149,96.61426,534.8005,104.6625 M,0,188111,188133,534.8005,104.6625,533.6862,112.7107 M,0,188133,188155,533.6862,112.7107,532.5718,120.7589 M,0,188155,188177,532.5718,120.7589,531.4575,128.8071 M,0,188177,188199,531.4575,128.8071,530.3431,136.8553 M,0,188199,188221,530.3431,136.8553,529.2288,144.9036 M,0,188221,188243,529.2288,144.9036,528.1144,152.9518 M,0,188243,188265,528.1144,152.9518,527,161 M,0,188265,188287,527,161 M,0,188265,188443,527,161,455,218 M,0,188443,188619,455,218,387,157 M,0,188619,188795,387,157 M,0,188795,188817,387,157,378.9365,157.9976 M,0,188817,188839,378.9365,157.9976,370.8729,158.9951 M,0,188839,188861,370.8729,158.9951,362.8094,159.9926 M,0,188861,188883,362.8094,159.9926,354.7459,160.9902 M,0,188883,188905,354.7459,160.9902,346.6823,161.9877 M,0,188905,188927,346.6823,161.9877,338.6188,162.9853 M,0,188927,188949,338.6188,162.9853,330.5553,163.9828 M,0,188949,188971,330.5553,163.9828,322.4918,164.9804 M,0,188971,188993,322.4918,164.9804,314.4282,165.978 M,0,188993,189015,314.4282,165.978,306.3647,166.9755 M,0,189015,189037,306.3647,166.9755,298.3012,167.9731 M,0,189037,189059,298.3012,167.9731,290.2376,168.9706 M,0,189059,189081,290.2376,168.9706 M,0,189059,189148,290.2376,168.9706,250,147 M,0,189148,189170,250,147,251.3578,138.9893 M,0,189170,189192,251.3578,138.9893,252.7155,130.9785 M,0,189192,189214,252.7155,130.9785,254.0733,122.9677 M,0,189214,189236,254.0733,122.9677,255.431,114.957 M,0,189236,189258,255.431,114.957,256.7888,106.9462 M,0,189258,189280,256.7888,106.9462,258.1465,98.93549 M,0,189280,189302,258.1465,98.93549,259.5043,90.92474 M,0,189302,189324,259.5043,90.92474,257.5298,83.47134 M,0,189324,189346,257.5298,83.47134,253.6391,76.33844 M,0,189346,189368,253.6391,76.33844,249.7485,69.20554 M,0,189368,189390,249.7485,69.20554,245.8578,62.07264 M,0,189390,189412,245.8578,62.07264,242,55 M,0,189412,189434,242,55,245.8578,62.07264 M,0,189434,189456,245.8578,62.07264,249.7485,69.20554 M,0,189456,189478,249.7485,69.20554,253.6391,76.33844 M,0,189478,189500,253.6391,76.33844,257.5298,83.47134 M,0,189500,189522,257.5298,83.47134,259.5043,90.92474 M,0,189522,189545,259.5043,90.92474,258.1465,98.93549 M,0,189545,189567,258.1465,98.93549,256.7888,106.9462 M,0,189567,189589,256.7888,106.9462,255.431,114.957 M,0,189589,189611,255.431,114.957,254.0733,122.9677 M,0,189611,189633,254.0733,122.9677,252.7155,130.9785 M,0,189633,189655,252.7155,130.9785,251.3578,138.9893 M,0,189655,189677,251.3578,138.9893,250,147 M,0,189677,189699,250,147 M,0,189677,189854,250,147,232,237 M,0,189854,190031,232,237,307,288 M,0,190031,190053,307,288,314.9041,286.1181 M,0,190053,190075,314.9041,286.1181,322.8081,284.2361 M,0,190075,190097,322.8081,284.2361,330.7122,282.3542 M,0,190097,190119,330.7122,282.3542,338.6162,280.4724 M,0,190119,190141,338.6162,280.4724,346.5203,278.5904 M,0,190141,190163,346.5203,278.5904,354.4243,276.7085 M,0,190163,190185,354.4243,276.7085,362.3284,274.8266 M,0,190185,190207,362.3284,274.8266,370,273 M,0,190207,190229,370,273 M,0,190207,190737,370,273,567,84 M,0,190737,190913,567,84,502,148 M,0,190913,191090,502,148 M,0,191090,191266,502,148,555,221 M,0,191266,191288,555,221,553.7457,229.0276 M,0,191288,191310,553.7457,229.0276,552.4913,237.0552 M,0,191310,191332,552.4913,237.0552,551.2371,245.0828 M,0,191332,191354,551.2371,245.0828,549.9828,253.1104 M,0,191354,191376,549.9828,253.1104,548.7285,261.138 M,0,191376,191398,548.7285,261.138,547.4741,269.1656 M,0,191398,191420,547.4741,269.1656,546.2198,277.1932 M,0,191420,191442,546.2198,277.1932,545,285 M,0,191442,191464,545,285 M,0,191442,191619,545,285,479,347 M,0,191619,191641,479,347,471.0458,348.6571 M,0,191641,191663,471.0458,348.6571,463.0916,350.3143 M,0,191663,191685,463.0916,350.3143,455.1374,351.9714 M,0,191685,191707,455.1374,351.9714,447.1831,353.6285 M,0,191707,191729,447.1831,353.6285,439.2289,355.2856 M,0,191729,191751,439.2289,355.2856,431.2747,356.9428 M,0,191751,191773,431.2747,356.9428,424.0481,353.3661 M,0,191773,191795,424.0481,353.3661,416.8475,349.6021 M,0,191795,191817,416.8475,349.6021,409.6469,345.8382 M,0,191817,191839,409.6469,345.8382,402.4464,342.0742 M,0,191839,191861,402.4464,342.0742,395.2458,338.3103 M,0,191861,191883,395.2458,338.3103,388.0452,334.5464 M,0,191883,191905,388.0452,334.5464 M,0,191883,191972,388.0452,334.5464,346,314 M,0,191972,191994,346,314,338.0845,315.8331 M,0,191994,192016,338.0845,315.8331,330.1689,317.6661 M,0,192016,192038,330.1689,317.6661,322.2534,319.4992 M,0,192038,192060,322.2534,319.4992,314.3379,321.3323 M,0,192060,192082,314.3379,321.3323,306.4224,323.1653 M,0,192082,192104,306.4224,323.1653,298.5069,324.9984 M,0,192104,192126,298.5069,324.9984,290.5913,326.8315 M,0,192126,192148,290.5913,326.8315,282.6758,328.6646 M,0,192148,192170,282.6758,328.6646,274.7603,330.4976 M,0,192170,192192,274.7603,330.4976,266.8448,332.3307 M,0,192192,192214,266.8448,332.3307,258.9293,334.1638 M,0,192214,192236,258.9293,334.1638,251.0137,335.9968 M,0,192236,192258,251.0137,335.9968,258.9293,334.1638 M,0,192258,192280,258.9293,334.1638,266.8448,332.3307 M,0,192280,192302,266.8448,332.3307,274.7603,330.4976 M,0,192302,192324,274.7603,330.4976,282.6758,328.6646 M,0,192324,192346,282.6758,328.6646,290.5913,326.8315 M,0,192346,192369,290.5913,326.8315,298.5069,324.9984 M,0,192369,192391,298.5069,324.9984,306.4224,323.1653 M,0,192391,192413,306.4224,323.1653,314.3379,321.3323 M,0,192413,192435,314.3379,321.3323,322.2534,319.4992 M,0,192435,192457,322.2534,319.4992,330.1689,317.6661 M,0,192457,192479,330.1689,317.6661,338.0845,315.8331 M,0,192479,192501,338.0845,315.8331,346,314 M,0,192501,192523,346,314 M,0,192501,192678,346,314,406,245 M,0,192678,192854,406,245,338,184 M,0,192854,192876,338,184,330.0894,182.1459 M,0,192876,192898,330.0894,182.1459,322.1787,180.2919 M,0,192898,192920,322.1787,180.2919,314.2681,178.4378 M,0,192920,192942,314.2681,178.4378,306.3575,176.5838 M,0,192942,192964,306.3575,176.5838,298.4468,174.7297 M,0,192964,192986,298.4468,174.7297,290.5362,172.8757 M,0,192986,193008,290.5362,172.8757,282.6256,171.0216 M,0,193008,193030,282.6256,171.0216,274.7149,169.1676 M,0,193030,193052,274.7149,169.1676 M,0,193030,193560,274.7149,169.1676,103,382 M,0,193560,193582,103,382,101.5249,374.01 M,0,193582,193604,101.5249,374.01,100.0499,366.0201 M,0,193604,193626,100.0499,366.0201,98.57478,358.0301 M,0,193626,193648,98.57478,358.0301,97.09971,350.0401 M,0,193648,193670,97.09971,350.0401,95.62463,342.0501 M,0,193670,193692,95.62463,342.0501,94.14956,334.0601 M,0,193692,193714,94.14956,334.0601,92.67448,326.0701 M,0,193714,193736,92.67448,326.0701,91.19942,318.0802 M,0,193736,193758,91.19942,318.0802,92.67448,326.0701 M,0,193758,193780,92.67448,326.0701,94.14956,334.0601 M,0,193780,193802,94.14956,334.0601,95.62463,342.0501 M,0,193802,193824,95.62463,342.0501,97.09971,350.0401 M,0,193824,193846,97.09971,350.0401,98.57478,358.0301 M,0,193846,193868,98.57478,358.0301,100.0499,366.0201 M,0,193868,193890,100.0499,366.0201,101.5249,374.01 M,0,193890,193912,101.5249,374.01,103,382 M,0,193912,193934,103,382 M,0,193912,194090,103,382,185,421 M,0,194090,194266,185,421,272,395 M,0,194266,194443,272,395,359,369 M,0,194443,194465,359,369,367.0684,369.9573 M,0,194465,194487,367.0684,369.9573,375.1368,370.9146 M,0,194487,194509,375.1368,370.9146,383.2052,371.8718 M,0,194509,194531,383.2052,371.8718,391.2737,372.8291 M,0,194531,194553,391.2737,372.8291,399.342,373.7863 M,0,194553,194575,399.342,373.7863,407.4105,374.7436 M,0,194575,194597,407.4105,374.7436,415.4789,375.7009 M,0,194597,194619,415.4789,375.7009,422.167,379.7205 M,0,194619,194641,422.167,379.7205,428.2277,385.1319 M,0,194641,194663,428.2277,385.1319,434.2885,390.5432 M,0,194663,194685,434.2885,390.5432,440.3492,395.9546 M,0,194685,194707,440.3492,395.9546,446,401 M,0,194707,194729,446,401 M,0,194707,194795,446,401,485,378 M,0,194795,194817,485,378,486.4973,370.0142 M,0,194817,194839,486.4973,370.0142,487.9947,362.0283 M,0,194839,194861,487.9947,362.0283,489.492,354.0425 M,0,194861,194883,489.492,354.0425,490.9894,346.0566 M,0,194883,194905,490.9894,346.0566,492.4867,338.0708 M,0,194905,194927,492.4867,338.0708,493.9841,330.085 M,0,194927,194949,493.9841,330.085,495.4814,322.0992 M,0,194949,194971,495.4814,322.0992,496.9788,314.1133 M,0,194971,194993,496.9788,314.1133,498.4761,306.1275 M,0,194993,195015,498.4761,306.1275,499.9734,298.1416 M,0,195015,195037,499.9734,298.1416,501.4708,290.1558 M,0,195037,195059,501.4708,290.1558,502.9681,282.17 M,0,195059,195081,502.9681,282.17 M,0,195059,195148,502.9681,282.17,483,240 M,0,195148,195170,483,240,474.8836,240.3746 M,0,195170,195192,474.8836,240.3746,466.7673,240.7492 M,0,195192,195214,466.7673,240.7492,458.6509,241.1238 M,0,195214,195236,458.6509,241.1238,450.5345,241.4984 M,0,195236,195258,450.5345,241.4984,442.4182,241.873 M,0,195258,195280,442.4182,241.873,434.3018,242.2476 M,0,195280,195302,434.3018,242.2476,426.1855,242.6222 M,0,195302,195324,426.1855,242.6222,418.0691,242.9968 M,0,195324,195346,418.0691,242.9968 M,0,195324,195501,418.0691,242.9968,333,277 M,0,195501,195678,333,277,278,203 M,0,195678,195700,278,203,278.87,194.9217 M,0,195700,195722,278.87,194.9217,279.7399,186.8434 M,0,195722,195744,279.7399,186.8434,280.6099,178.7651 M,0,195744,195766,280.6099,178.7651,281.4799,170.6868 M,0,195766,195788,281.4799,170.6868,282.3499,162.6086 M,0,195788,195810,282.3499,162.6086,283.2198,154.5303 M,0,195810,195832,283.2198,154.5303,284.0898,146.452 M,0,195832,195854,284.0898,146.452,284.9598,138.3737 M,0,195854,195876,284.9598,138.3737 M,0,195854,196560,284.9598,138.3737,539,239 M,0,196560,196582,539,239,540.5203,246.9815 M,0,196582,196604,540.5203,246.9815,542.0405,254.963 M,0,196604,196626,542.0405,254.963,543.5609,262.9445 M,0,196626,196648,543.5609,262.9445,545.0812,270.926 M,0,196648,196670,545.0812,270.926,546.6014,278.9075 M,0,196670,196692,546.6014,278.9075,548.1217,286.889 M,0,196692,196714,548.1217,286.889,549.642,294.8705 M,0,196714,196736,549.642,294.8705,551,302 M,0,196736,196758,551,302,549.642,294.8705 M,0,196758,196780,549.642,294.8705,548.1217,286.889 M,0,196780,196802,548.1217,286.889,546.6014,278.9075 M,0,196802,196824,546.6014,278.9075,545.0812,270.926 M,0,196824,196846,545.0812,270.926,543.5609,262.9445 M,0,196846,196868,543.5609,262.9445,542.0405,254.963 M,0,196868,196890,542.0405,254.963,540.5203,246.9815 M,0,196890,196912,540.5203,246.9815,539,239 M,0,196912,196934,539,239 M,0,196912,197089,539,239,463,187 M,0,197089,197266,463,187 M,0,197266,197288,463,187,454.9268,187.9155 M,0,197288,197310,454.9268,187.9155,446.8535,188.8311 M,0,197310,197332,446.8535,188.8311,438.7802,189.7466 M,0,197332,197354,438.7802,189.7466,430.707,190.6621 M,0,197354,197376,430.707,190.6621,422.6337,191.5776 M,0,197376,197398,422.6337,191.5776,414.5605,192.4931 M,0,197398,197420,414.5605,192.4931,406.4872,193.4087 M,0,197420,197442,406.4872,193.4087,398.414,194.3242 M,0,197442,197464,398.414,194.3242,390.3407,195.2397 M,0,197464,197486,390.3407,195.2397,382.2675,196.1552 M,0,197486,197508,382.2675,196.1552,374.1942,197.0708 M,0,197508,197530,374.1942,197.0708,366.1209,197.9863 M,0,197530,197552,366.1209,197.9863 M,0,197530,197619,366.1209,197.9863,329,225 M,0,197619,197641,329,225,331.722,232.6555 M,0,197641,197663,331.722,232.6555,334.4439,240.311 M,0,197663,197685,334.4439,240.311,337.1659,247.9665 M,0,197685,197707,337.1659,247.9665,339.8878,255.622 M,0,197707,197729,339.8878,255.622,342.6098,263.2775 M,0,197729,197751,342.6098,263.2775,344.7599,270.9606 M,0,197751,197773,344.7599,270.9606,342.7892,278.843 M,0,197773,197795,342.7892,278.843,340.8186,286.7254 M,0,197795,197817,340.8186,286.7254,338.8481,294.6078 M,0,197817,197839,338.8481,294.6078,336.8774,302.4902 M,0,197839,197861,336.8774,302.4902,334.9068,310.3727 M,0,197861,197883,334.9068,310.3727,333,318 M,0,197883,197905,333,318,334.9068,310.3727 M,0,197905,197927,334.9068,310.3727,336.8774,302.4902 M,0,197927,197949,336.8774,302.4902,338.8481,294.6078 M,0,197949,197971,338.8481,294.6078,340.8186,286.7254 M,0,197971,197993,340.8186,286.7254,342.7892,278.843 M,0,197993,198016,342.7892,278.843,344.7599,270.9606 M,0,198016,198038,344.7599,270.9606,342.6098,263.2775 M,0,198038,198060,342.6098,263.2775,339.8878,255.622 M,0,198060,198082,339.8878,255.622,337.1659,247.9665 M,0,198082,198104,337.1659,247.9665,334.4439,240.311 M,0,198104,198126,334.4439,240.311,331.722,232.6555 M,0,198126,198148,331.722,232.6555,329,225 M,0,198148,198170,329,225 M,0,198148,198325,329,225,278,149 M,0,198325,198501,278,149,337,80 M,0,198501,198523,337,80,344.9815,81.52029 M,0,198523,198545,344.9815,81.52029,352.963,83.04057 M,0,198545,198567,352.963,83.04057,360.9445,84.56086 M,0,198567,198589,360.9445,84.56086,368.926,86.08115 M,0,198589,198611,368.926,86.08115,376.9075,87.60143 M,0,198611,198633,376.9075,87.60143,384.889,89.12172 M,0,198633,198655,384.889,89.12172,392.8705,90.642 M,0,198655,198677,392.8705,90.642,400,92 M,0,198677,198699,400,92 M,0,198677,199207,400,92,513,341 M,0,199207,199229,513,341,514.6174,333.0376 M,0,199229,199251,514.6174,333.0376,516.2347,325.0752 M,0,199251,199273,516.2347,325.0752,517.8521,317.1128 M,0,199273,199295,517.8521,317.1128,519.4695,309.1504 M,0,199295,199317,519.4695,309.1504,521.0868,301.188 M,0,199317,199339,521.0868,301.188,522.7042,293.2256 M,0,199339,199361,522.7042,293.2256,524.3215,285.2632 M,0,199361,199383,524.3215,285.2632,525.9389,277.3008 M,0,199383,199405,525.9389,277.3008,524.3215,285.2632 M,0,199405,199427,524.3215,285.2632,522.7042,293.2256 M,0,199427,199449,522.7042,293.2256,521.0868,301.188 M,0,199449,199471,521.0868,301.188,519.4695,309.1504 M,0,199471,199493,519.4695,309.1504,517.8521,317.1128 M,0,199493,199515,517.8521,317.1128,516.2347,325.0752 M,0,199515,199537,516.2347,325.0752,514.6174,333.0376 M,0,199537,199559,514.6174,333.0376,513,341 M,0,199559,199581,513,341 M,0,199559,199737,513,341,446,403 M,0,199737,199913,446,403,378,341 M,0,199913,200090,378,341 M,0,200090,200112,378,341,370.0173,339.4861 M,0,200112,200134,370.0173,339.4861,362.0346,337.9721 M,0,200134,200156,362.0346,337.9721,354.0519,336.4581 M,0,200156,200178,354.0519,336.4581,346.0692,334.9442 M,0,200178,200200,346.0692,334.9442,338.0865,333.4302 M,0,200200,200222,338.0865,333.4302,330.1038,331.9162 M,0,200222,200244,330.1038,331.9162,322.1211,330.4023 M,0,200244,200266,322.1211,330.4023,314.4396,332.1624 M,0,200266,200288,314.4396,332.1624,306.867,335.1073 M,0,200288,200310,306.867,335.1073,299.2945,338.0522 M,0,200310,200332,299.2945,338.0522,291.7219,340.997 M,0,200332,200354,291.7219,340.997,284.1494,343.9419 M,0,200354,200376,284.1494,343.9419 M,0,200354,200443,284.1494,343.9419,243,364 M,0,200443,200465,243,364,243.9155,355.9268 M,0,200465,200487,243.9155,355.9268,244.8311,347.8535 M,0,200487,200509,244.8311,347.8535,245.7466,339.7802 M,0,200509,200531,245.7466,339.7802,246.6621,331.707 M,0,200531,200553,246.6621,331.707,247.5776,323.6337 M,0,200553,200575,247.5776,323.6337,248.4931,315.5605 M,0,200575,200597,248.4931,315.5605,249.4087,307.4872 M,0,200597,200619,249.4087,307.4872,250.3242,299.414 M,0,200619,200641,250.3242,299.414,251.2397,291.3407 M,0,200641,200663,251.2397,291.3407,252.1552,283.2675 M,0,200663,200685,252.1552,283.2675,253.0708,275.1942 M,0,200685,200707,253.0708,275.1942,253.9863,267.1209 M,0,200707,200729,253.9863,267.1209,253.0708,275.1942 M,0,200729,200751,253.0708,275.1942,252.1552,283.2675 M,0,200751,200773,252.1552,283.2675,251.2397,291.3407 M,0,200773,200795,251.2397,291.3407,250.3242,299.414 M,0,200795,200817,250.3242,299.414,249.4087,307.4872 M,0,200817,200840,249.4087,307.4872,248.4931,315.5605 M,0,200840,200862,248.4931,315.5605,247.5776,323.6337 M,0,200862,200884,247.5776,323.6337,246.6621,331.707 M,0,200884,200906,246.6621,331.707,245.7466,339.7802 M,0,200906,200928,245.7466,339.7802,244.8311,347.8535 M,0,200928,200950,244.8311,347.8535,243.9155,355.9268 M,0,200950,200972,243.9155,355.9268,243,364 M,0,200972,200994,243,364 M,0,200972,201148,243,364,178,428 M,0,201148,201325,178,428,105,372 M,0,201325,201347,105,372,104.0075,363.9359 M,0,201347,201369,104.0075,363.9359,103.015,355.8717 M,0,201369,201391,103.015,355.8717,102.0225,347.8076 M,0,201391,201413,102.0225,347.8076,101.03,339.7434 M,0,201413,201435,101.03,339.7434,100.0374,331.6792 M,0,201435,201457,100.0374,331.6792,99.04494,323.6151 M,0,201457,201479,99.04494,323.6151,98.05242,315.5509 M,0,201479,201501,98.05242,315.5509,97.05991,307.4868 M,0,201501,201523,97.05991,307.4868 M,0,201501,202031,97.05991,307.4868,236,72 M,0,202031,202207,236,72,186,148 M,0,202207,202384,186,148 M,0,202384,202560,186,148,250,211 M,0,202560,202582,250,211,257.9573,209.358 M,0,202582,202604,257.9573,209.358,265.9147,207.716 M,0,202604,202626,265.9147,207.716,273.8721,206.074 M,0,202626,202648,273.8721,206.074,281.8294,204.432 M,0,202648,202670,281.8294,204.432,289.7868,202.79 M,0,202670,202692,289.7868,202.79,297.7441,201.148 M,0,202692,202714,297.7441,201.148,305.7015,199.506 M,0,202714,202736,305.7015,199.506,313,198 M,0,202736,202758,313,198 M,0,202736,202913,313,198,387,143 M,0,202913,202935,387,143,395.1092,143.5068 M,0,202935,202957,395.1092,143.5068,403.2184,144.0136 M,0,202957,202979,403.2184,144.0136,411.3275,144.5205 M,0,202979,203001,411.3275,144.5205,419.4367,145.0273 M,0,203001,203023,419.4367,145.0273,427.5459,145.5341 M,0,203023,203045,427.5459,145.5341,435.6551,146.0409 M,0,203045,203067,435.6551,146.0409,443.7643,146.5478 M,0,203067,203089,443.7643,146.5478,451.7361,147.4732 M,0,203089,203111,451.7361,147.4732,458.5707,151.8669 M,0,203111,203133,458.5707,151.8669,465.4053,156.2605 M,0,203133,203155,465.4053,156.2605,472.2399,160.6542 M,0,203155,203177,472.2399,160.6542,479,165 M,0,203177,203199,479,165 M,0,203177,203266,479,165,515,193 M,0,203266,203288,515,193,515.9976,184.9365 M,0,203288,203310,515.9976,184.9365,516.9951,176.8729 M,0,203310,203332,516.9951,176.8729,517.9927,168.8094 M,0,203332,203354,517.9927,168.8094,518.9902,160.7459 M,0,203354,203376,518.9902,160.7459,519.9878,152.6823 M,0,203376,203398,519.9878,152.6823,520.9853,144.6188 M,0,203398,203420,520.9853,144.6188,521.9828,136.5553 M,0,203420,203442,521.9828,136.5553,522.9804,128.4918 M,0,203442,203464,522.9804,128.4918,523.978,120.4282 M,0,203464,203486,523.978,120.4282,524.9755,112.3647 M,0,203486,203508,524.9755,112.3647,525.973,104.3012 M,0,203508,203530,525.973,104.3012,526.9706,96.23764 M,0,203530,203552,526.9706,96.23764,525.973,104.3012 M,0,203552,203574,525.973,104.3012,524.9755,112.3647 M,0,203574,203596,524.9755,112.3647,523.978,120.4282 M,0,203596,203618,523.978,120.4282,522.9804,128.4918 M,0,203618,203640,522.9804,128.4918,521.9828,136.5553 M,0,203640,203663,521.9828,136.5553,520.9853,144.6188 M,0,203663,203685,520.9853,144.6188,519.9878,152.6823 M,0,203685,203707,519.9878,152.6823,518.9902,160.7459 M,0,203707,203729,518.9902,160.7459,517.9927,168.8094 M,0,203729,203751,517.9927,168.8094,516.9951,176.8729 M,0,203751,203773,516.9951,176.8729,515.9976,184.9365 M,0,203773,203795,515.9976,184.9365,515,193 M,0,203795,203817,515,193 M,0,203795,203972,515,193,559,272 M,0,203972,204148,559,272,490,331 M,0,204148,204170,490,331,482.0142,329.5027 M,0,204170,204192,482.0142,329.5027,474.0283,328.0053 M,0,204192,204214,474.0283,328.0053,466.0425,326.508 M,0,204214,204236,466.0425,326.508,458.0566,325.0106 M,0,204236,204258,458.0566,325.0106,450.0708,323.5133 M,0,204258,204280,450.0708,323.5133,442.085,322.0159 M,0,204280,204302,442.085,322.0159,434.0992,320.5186 M,0,204302,204324,434.0992,320.5186,426.1133,319.0212 M,0,204324,204346,426.1133,319.0212 M,0,204324,204854,426.1133,319.0212,249,271 M,0,204854,205031,249,271,314,206 M,0,205031,205119,314,206 M,0,205119,205207,314,206 M,0,205207,205229,314,206,315.6174,198.0376 M,0,205229,205251,315.6174,198.0376,317.2347,190.0752 M,0,205251,205273,317.2347,190.0752,318.8521,182.1128 M,0,205273,205295,318.8521,182.1128,320.4695,174.1504 M,0,205295,205317,320.4695,174.1504,322.0868,166.188 M,0,205317,205339,322.0868,166.188,323.7042,158.2256 M,0,205339,205361,323.7042,158.2256,325.3215,150.2632 M,0,205361,205383,325.3215,150.2632,326.9389,142.3008 M,0,205383,205405,326.9389,142.3008 M,0,205383,205560,326.9389,142.3008,259,81 M,0,205560,205737,259,81,180,128 M,0,205737,205759,180,128,172.1018,129.9065 M,0,205759,205781,172.1018,129.9065,164.2037,131.8129 M,0,205781,205803,164.2037,131.8129,156.3055,133.7194 M,0,205803,205825,156.3055,133.7194,148.4073,135.6258 M,0,205825,205847,148.4073,135.6258,140.5092,137.5323 M,0,205847,205869,140.5092,137.5323,132.611,139.4387 M,0,205869,205891,132.611,139.4387,124.7128,141.3452 M,0,205891,205913,124.7128,141.3452,117.2599,139.5535 M,0,205913,205935,117.2599,139.5535,110.0398,135.827 M,0,205935,205957,110.0398,135.827,102.8198,132.1005 M,0,205957,205979,102.8198,132.1005,95.59974,128.3741 M,0,205979,206001,95.59974,128.3741,88.37969,124.6476 M,0,206001,206023,88.37969,124.6476,81.15965,120.9211 M,0,206023,206045,81.15965,120.9211,73.93961,117.1946 M,0,206045,206067,73.93961,117.1946,66.71957,113.4682 M,0,206067,206089,66.71957,113.4682,60,110 M,0,206089,206111,60,110
Sprite,Background,Centre,"sb/pixel.png",0,0 C,0,161972,,86,191,237 R,0,161972,,6.031493 S,0,161972,,16 M,19,161972,162572,413,307,386.3524,203.3713 F,19,161972,164795,1,0
Sprite,Background,Centre,"sb/pixel.png",0,0 C,0,161972,,86,191,237 R,0,161972,,9.173086 S,0,161972,,16 M,19,161972,162572,413,307,439.6476,410.6287 F,19,161972,164795,1,0
Sprite,Background,Centre,"sb/pixel.png",0,0 C,0,161972,,119,214,244 R,0,161972,,3.490331 S,0,161972,,18 M,19,161972,162572,413,307,369.2608,427.295 F,19,161972,164795,1,0
Sprite,Background,Centre,"sb/pixel.png",0,0 C,0,161972,,119,214,244 R,0,161972,,6.631924 S,0,161972,,15 M,19,161972,162572,413,307,456.7392,186.705 F,19,161972,164795,1,0
Sprite,Background,Centre,"sb/pixel.png",0,0 C,0,161972,,86,191,237 R,0,161972,,5.829521 S,0,161972,,15 M,19,161972,162572,413,307,363.9147,206.3291 F,19,161972,164795,1,0
Sprite,Background,Centre,"sb/pixel.png",0,0 C,0,161972,,86,191,237 R,0,161972,,8.971114 S,0,161972,,18 M,19,161972,162572,413,307,462.0853,407.6709 F,19,161972,164795,1,0
Sprite,Background,Centre,"sb/pixel.png",0,0 C,0,161972,,119,214,244 R,0,161972,,5.727766 S,0,161972,,18 M,19,161972,162572,413,307,359.7427,221.1824 F,19,161972,164795,1,0
Sprite,Background,Centre,"sb/pixel.png",0,0 C,0,161972,,119,214,244 R,0,161972,,8.869359 S,0,161972,,19 M,19,161972,162572,413,307,466.2573,392.8176 F,19,161972,164795,1,0
Sprite,Background,Centre,"sb/pixel.png",0,0 C,0,161972,,86,191,237 R,0,161972,,3.341813 S,0,161972,,19 M,19,161972,162572,413,307,384.5594,447.1432 F,19,161972,164795,1,0
Sprite,Background,Centre,"sb/pixel.png",0,0 C,0,161972,,119,214,244 R,0,161972,,6.483406 S,0,161972,,17 M,19,161972,162572,413,307,441.4406,166.8568 F,19,161972,164795,1,0
Sprite,Background,Centre,"sb/pixel.png",0,0 C,0,161972,,86,191,237 R,0,161972,,5.840604 S,0,161972,,16 M,19,161972,162572,413,307,362.0355,199.4657 F,19,161972,164795,1,0
Sprite,Background,Centre,"sb/pixel.png",0,0 C,0,161972,,119,214,244 R,0,161972,,8.982197 S,0,161972,,18 M,19,161972,162572,413,307,463.9645,414.5342 F,19,161972,164795,1,0
Sprite,Background,Centre,"sb/pixel.png",0,0 C,0,164795,,119,214,244 R,0,164795,,3.156472 S,0,164795,,17 M,19,164795,165395,500,339,498.0657,468.9856 F,19,164795,167618,1,0
Sprite,Background,Centre,"sb/pixel.png",0,0 C,0,164795,,86,191,237 R,0,164795,,6.298065 S,0,164795,,15 M,19,164795,165395,500,339,501.9343,209.0144 F,19,164795,167618,1,0
Sprite,Background,Centre,"sb/pixel.png",0,0 C,0,164795,,119,214,244 R,0,164795,,3.858352 S,0,164795,,18 M,19,164795,165395,500,339,415.911,435.5041 F,19,164795,167618,1,0
Sprite,Background,Centre,"sb/pixel.png",0,0 C,0,164795,,86,191,237 R,0,164795,,6.999945 S,0,164795,,17 M,19,164795,165395,500,339,584.089,242.4959 F,19,164795,167618,1,0
Sprite,Background,Centre,"sb/pixel.png",0,0 C,0,164795,,86,191,237 R,0,164795,,4.543549 S,0,164795,,19 M,19,164795,165395,500,339,355.0903,363.7017 F,19,164795,167618,1,0
Sprite,Background,Centre,"sb/pixel.png",0,0 C,0,164795,,86,191,237 R,0,164795,,7.685142 S,0,164795,,18 M,19,164795,165395,500,339,644.9097,314.2983 F,19,164795,167618,1,0
Sprite,Background,Centre,"sb/pixel.png",0,0 C,0,164795,,86,191,237 R,0,164795,,4.908036 S,0,164795,,19 M,19,164795,165395,500,339,390.1367,317.227 F,19,164795,167618,1,0
Sprite,Background,Centre,"sb/pixel.png",0,0 C,0,164795,,119,214,244 R,0,164795,,8.049629 S,0,164795,,18 M,19,164795,165395,500,339,609.8633,360.773 F,19,164795,167618,1,0
Sprite,Background,Centre,"sb/pixel.png",0,0 C,0,164795,,119,214,244 R,0,164795,,4.769594 S,0,164795,,19 M,19,164795,165395,500,339,394.1734,332.9396 F,19,164795,167618,1,0
Sprite,Background,Centre,"sb/pixel.png",0,0 C,0,164795,,86,191,237 R,0,164795,,7.911186 S,0,164795,,19 M,19,164795,165395,500,339,605.8266,345.0604 F,19,164795,167618,1,0
Sprite,Background,Centre,"sb/pixel.png",0,0 C,0,164795,,86,191,237 R,0,164795,,4.570094 S,0,164795,,16 M,19,164795,165395,500,339,371.3139,357.436 F,19,164795,167618,1,0
Sprite,Background,Centre,"sb/pixel.png",0,0 C,0,164795,,119,214,244 R,0,164795,,7.711686 S,0,164795,,16 M,19,164795,165395,500,339,628.6861,320.564 F,19,164795,167618,1,0
Sprite,Background,Centre,"sb/pixel.png",0,0 C,0,167618,,119,214,244 R,0,167619,,5.309979 S,0,167619,,16 M,19,167619,168219,338,387,242.1035,321.7324 F,19,167619,170442,1,0
Sprite,Background,Centre,"sb/pixel.png",0,0 C,0,167618,,119,214,244 R,0,167619,,8.451571 S,0,167619,,18 M,19,167619,168219,338,387,433.8965,452.2676 F,19,167619,170442,1,0
Sprite,Background,Centre,"sb/pixel.png",0,0 C,0,167618,,119,214,244 R,0,167619,,4.669948 S,0,167619,,16 M,19,167619,168219,338,387,222.1045,391.9217 F,19,167619,170442,1,0
Sprite,Background,Centre,"sb/pixel.png",0,0 C,0,167618,,86,191,237 R,0,167619,,7.811541 S,0,167619,,17 M,19,167619,168219,338,387,453.8955,382.0783 F,19,167619,170442,1,0
Sprite,Background,Centre,"sb/pixel.png",0,0 C,0,167618,,86,191,237 R,0,167619,,5.750147 S,0,167619,,15 M,19,167619,168219,338,387,264.826,262.9776 F,19,167619,170442,1,0
Sprite,Background,Centre,"sb/pixel.png",0,0 C,0,167618,,86,191,237 R,0,167619,,8.891739 S,0,167619,,15 M,19,167619,168219,338,387,411.174,511.0224 F,19,167619,170442,1,0
Sprite,Background,Centre,"sb/pixel.png",0,0 C,0,167618,,119,214,244 R,0,167619,,5.721422 S,0,167619,,16 M,19,167619,168219,338,387,279.938,294.7514 F,19,167619,170442,1,0
Sprite,Background,Centre,"sb/pixel.png",0,0 C,0,167618,,86,191,237 R,0,167619,,8.863015 S,0,167619,,18 M,19,167619,168219,338,387,396.062,479.2486 F,19,167619,170442,1,0
Sprite,Background,Centre,"sb/pixel.png",0,0 C,0,167618,,86,191,237 R,0,167619,,3.471648 S,0,167619,,17 M,19,167619,168219,338,387,299.7567,498.6309 F,19,167619,170442,1,0
Sprite,Background,Centre,"sb/pixel.png",0,0 C,0,167618,,119,214,244 R,0,167619,,6.613241 S,0,167619,,16 M,19,167619,168219,338,387,376.2433,275.3691 F,19,167619,170442,1,0
Sprite,Background,Centre,"sb/pixel.png",0,0 C,0,167618,,86,191,237 R,0,167619,,5.568213 S,0,167619,,17 M,19,167619,168219,338,387,267.8512,306.2031 F,19,167619,170442,1,0
Sprite,Background,Centre,"sb/pixel.png",0,0 C,0,167618,,119,214,244 R,0,167619,,8.709805 S,0,167619,,16 M,19,167619,168219,338,387,408.1488,467.7969 F,19,167619,170442,1,0
Sprite,Background,Centre,"sb/pixel.png",0,0 C,0,170441,,86,191,237 R,0,170443,,4.622468 S,0,170443,,15 M,19,170443,171043,354,134,238.4687,144.4168 F,19,170443,173266,1,0
Sprite,Background,Centre,"sb/pixel.png",0,0 C,0,170441,,119,214,244 R,0,170443,,7.76406 S,0,170443,,19 M,19,170443,171043,354,134,469.5313,123.5832 F,19,170443,173266,1,0
Sprite,Background,Centre,"sb/pixel.png",0,0 C,0,170441,,86,191,237 R,0,170443,,5.536976 S,0,170443,,17 M,19,170443,171043,354,134,278.6465,52.49628 F,19,170443,173266,1,0
Sprite,Background,Centre,"sb/pixel.png",0,0 C,0,170441,,119,214,244 R,0,170443,,8.678569 S,0,170443,,15 M,19,170443,171043,354,134,429.3535,215.5037 F,19,170443,173266,1,0
Sprite,Background,Centre,"sb/pixel.png",0,0 C,0,170441,,86,191,237 R,0,170443,,3.370837 S,0,170443,,18 M,19,170443,171043,354,134,326.5038,251.8344 F,19,170443,173266,1,0
Sprite,Background,Centre,"sb/pixel.png",0,0 C,0,170441,,119,214,244 R,0,170443,,6.51243 S,0,170443,,19 M,19,170443,171043,354,134,381.4962,16.16555 F,19,170443,173266,1,0
Sprite,Background,Centre,"sb/pixel.png",0,0 C,0,170441,,119,214,244 R,0,170443,,6.155348 S,0,170443,,17 M,19,170443,171043,354,134,338.3188,12.00368 F,19,170443,173266,1,0
Sprite,Background,Centre,"sb/pixel.png",0,0 C,0,170441,,119,214,244 R,0,170443,,9.296941 S,0,170443,,15 M,19,170443,171043,354,134,369.6812,255.9963 F,19,170443,173266,1,0
Sprite,Background,Centre,"sb/pixel.png",0,0 C,0,170441,,119,214,244 R,0,170443,,3.528773 S,0,170443,,18 M,19,170443,171043,354,134,298.4958,270.1187 F,19,170443,173266,1,0
Sprite,Background,Centre,"sb/pixel.png",0,0 C,0,170441,,86,191,237 R,0,170443,,6.670366 S,0,170443,,16 M,19,170443,171043,354,134,409.5042,-2.118657 F,19,170443,173266,1,0
Sprite,Background,Centre,"sb/pixel.png",0,0 C,0,170441,,86,191,237 R,0,170443,,5.354685 S,0,170443,,18 M,19,170443,171043,354,134,257.1125,61.51673 F,19,170443,173266,1,0
Sprite,Background,Centre,"sb/pixel.png",0,0 C,0,170441,,86,191,237 R,0,170443,,8.496278 S,0,170443,,16 M,19,170443,171043,354,134,450.8875,206.4833 F,19,170443,173266,1,0
Sprite,Background,Centre,"sb/pixel.png",0,0 C,0,173264,,86,191,237 R,0,173266,,4.382917 S,0,173266,,16 M,19,173266,173866,492,258,361.4226,302.649 F,19,173266,176089,1,0
Sprite,Background,Centre,"sb/pixel.png",0,0 C,0,173264,,119,214,244 R,0,173266,,7.524509 S,0,173266,,18 M,19,173266,173866,492,258,622.5775,213.351 F,19,173266,176089,1,0
Sprite,Background,Centre,"sb/pixel.png",0,0 C,0,173264,,119,214,244 R,0,173266,,3.546191 S,0,173266,,17 M,19,173266,173866,492,258,441.6129,375.6654 F,19,173266,176089,1,0
Sprite,Background,Centre,"sb/pixel.png",0,0 C,0,173264,,119,214,244 R,0,173266,,6.687783 S,0,173266,,19 M,19,173266,173866,492,258,542.3871,140.3346 F,19,173266,176089,1,0
Sprite,Background,Centre,"sb/pixel.png",0,0 C,0,173264,,86,191,237 R,0,173266,,4.160719 S,0,173266,,19 M,19,173266,173866,492,258,400.8734,314.0797 F,19,173266,176089,1,0
Sprite,Background,Centre,"sb/pixel.png",0,0 C,0,173264,,119,214,244 R,0,173266,,7.302312 S,0,173266,,19 M,19,173266,173866,492,258,583.1266,201.9202 F,19,173266,176089,1,0
Sprite,Background,Centre,"sb/pixel.png",0,0 C,0,173264,,119,214,244 R,0,173266,,5.808218 S,0,173266,,18 M,19,173266,173866,492,258,445.8118,168.1799 F,19,173266,176089,1,0
Sprite,Background,Centre,"sb/pixel.png",0,0 C,0,173264,,86,191,237 R,0,173266,,8.949811 S,0,173266,,16 M,19,173266,173866,492,258,538.1882,347.8201 F,19,173266,176089,1,0
Sprite,Background,Centre,"sb/pixel.png",0,0 C,0,173264,,86,191,237 R,0,173266,,6.101523 S,0,173266,,16 M,19,173266,173866,492,258,465.2616,112.4354 F,19,173266,176089,1,0
Sprite,Background,Centre,"sb/pixel.png",0,0 C,0,173264,,86,191,237 R,0,173266,,9.243115 S,0,173266,,17 M,19,173266,173866,492,258,518.7384,403.5646 F,19,173266,176089,1,0
Sprite,Background,Centre,"sb/pixel.png",0,0 C,0,173264,,86,191,237 R,0,173266,,4.57097 S,0,173266,,17 M,19,173266,173866,492,258,372.2079,275.0548 F,19,173266,176089,1,0
Sprite,Background,Centre,"sb/pixel.png",0,0 C,0,173264,,119,214,244 R,0,173266,,7.712562 S,0,173266,,18 M,19,173266,173866,492,258,611.7921,240.9452 F,19,173266,176089,1,0
Sprite,Background,Centre,"sb/pixel.png",0,0 C,0,176087,,86,191,237 R,0,176090,,3.384054 S,0,176090,,18 M,19,176090,176690,431,376,399.5478,503.1682 F,19,176090,178913,1,0
Sprite,Background,Centre,"sb/pixel.png",0,0 C,0,176087,,119,214,244 R,0,176090,,6.525647 S,0,176090,,17 M,19,176090,176690,431,376,462.4522,248.8318 F,19,176090,178913,1,0
Sprite,Background,Centre,"sb/pixel.png",0,0 C,0,176087,,119,214,244 R,0,176090,,5.36767 S,0,176090,,15 M,19,176090,176690,431,376,331.0975,299.2179 F,19,176090,178913,1,0
Sprite,Background,Centre,"sb/pixel.png",0,0 C,0,176087,,119,214,244 R,0,176090,,8.509262 S,0,176090,,16 M,19,176090,176690,431,376,530.9025,452.7821 F,19,176090,178913,1,0
Sprite,Background,Centre,"sb/pixel.png",0,0 C,0,176087,,86,191,237 R,0,176090,,5.339377 S,0,176090,,18 M,19,176090,176690,431,376,318.438,294.4476 F,19,176090,178913,1,0
Sprite,Background,Centre,"sb/pixel.png",0,0 C,0,176087,,86,191,237 R,0,176090,,8.480969 S,0,176090,,17 M,19,176090,176690,431,376,543.562,457.5524 F,19,176090,178913,1,0
Sprite,Background,Centre,"sb/pixel.png",0,0 C,0,176087,,86,191,237 R,0,176090,,3.707841 S,0,176090,,17 M,19,176090,176690,431,376,359.6495,488.2413 F,19,176090,178913,1,0
Sprite,Background,Centre,"sb/pixel.png",0,0 C,0,176087,,119,214,244 R,0,176090,,6.849433 S,0,176090,,17 M,19,176090,176690,431,376,502.3505,263.7587 F,19,176090,178913,1,0
Sprite,Background,Centre,"sb/pixel.png",0,0 C,0,176087,,86,191,237 R,0,176090,,3.299456 S,0,176090,,18 M,19,176090,176690,431,376,408.2048,519.197 F,19,176090,178913,1,0
Sprite,Background,Centre,"sb/pixel.png",0,0 C,0,176087,,119,214,244 R,0,176090,,6.441049 S,0,176090,,15 M,19,176090,176690,431,376,453.7952,232.803 F,19,176090,178913,1,0
Sprite,Background,Centre,"sb/pixel.png",0,0 C,0,176087,,86,191,237 R,0,176090,,6.142984 S,0,176090,,19 M,19,176090,176690,431,376,411.7155,239.3541 F,19,176090,178913,1,0
Sprite,Background,Centre,"sb/pixel.png",0,0 C,0,176087,,86,191,237 R,0,176090,,9.284576 S,0,176090,,19 M,19,176090,176690,431,376,450.2845,512.6459 F,19,176090,178913,1,0
Sprite,Background,Centre,"sb/pixel.png",0,0 C,0,178910,,86,191,237 R,0,178913,,5.764911 S,0,178913,,18 M,19,178913,179513,305,188,250.0126,91.57706 F,19,178913,181736,1,0
Sprite,Background,Centre,"sb/pixel.png",0,0 C,0,178910,,119,214,244 R,0,178913,,8.906504 S,0,178913,,16 M,19,178913,179513,305,188,359.9874,284.4229 F,19,178913,181736,1,0
Sprite,Background,Centre,"sb/pixel.png",0,0 C,0,178910,,119,214,244 R,0,178913,,5.922109 S,0,178913,,16 M,19,178913,179513,305,188,256.6005,59.83414 F,19,178913,181736,1,0
Sprite,Background,Centre,"sb/pixel.png",0,0 C,0,178910,,86,191,237 R,0,178913,,9.063702 S,0,178913,,15 M,19,178913,179513,305,188,353.3995,316.1659 F,19,178913,181736,1,0
Sprite,Background,Centre,"sb/pixel.png",0,0 C,0,178910,,86,191,237 R,0,178913,,5.117758 S,0,178913,,16 M,19,178913,179513,305,188,181.8598,135.156 F,19,178913,181736,1,0
Sprite,Background,Centre,"sb/pixel.png",0,0 C,0,178910,,119,214,244 R,0,178913,,8.259351 S,0,178913,,17 M,19,178913,179513,305,188,428.1402,240.844 F,19,178913,181736,1,0
Sprite,Background,Centre,"sb/pixel.png",0,0 C,0,178910,,119,214,244 R,0,178913,,5.823793 S,0,178913,,17 M,19,178913,179513,305,188,247.3575,71.47814 F,19,178913,181736,1,0
Sprite,Background,Centre,"sb/pixel.png",0,0 C,0,178910,,86,191,237 R,0,178913,,8.965385 S,0,178913,,17 M,19,178913,179513,305,188,362.6425,304.5219 F,19,178913,181736,1,0
Sprite,Background,Centre,"sb/pixel.png",0,0 C,0,178910,,119,214,244 R,0,178913,,5.713826 S,0,178913,,17 M,19,178913,179513,305,188,225.7534,64.18973 F,19,178913,181736,1,0
Sprite,Background,Centre,"sb/pixel.png",0,0 C,0,178910,,119,214,244 R,0,178913,,8.855419 S,0,178913,,18 M,19,178913,179513,305,188,384.2466,311.8103 F,19,178913,181736,1,0
Sprite,Background,Centre,"sb/pixel.png",0,0 C,0,178910,,86,191,237 R,0,178913,,4.525159 S,0,178913,,15 M,19,178913,179513,305,188,172.3593,213.1286 F,19,178913,181736,1,0
Sprite,Background,Centre,"sb/pixel.png",0,0 C,0,178910,,86,191,237 R,0,178913,,7.666752 S,0,178913,,17 M,19,178913,179513,305,188,437.6407,162.8714 F,19,178913,181736,1,0
Sprite,Background,Centre,"sb/pixel.png",0,0 C,0,181733,,86,191,237 R,0,181737,,5.627578 S,0,181737,,17 M,19,181737,182337,155,162,77.57561,61.32992 F,19,181737,184560,1,0
Sprite,Background,Centre,"sb/pixel.png",0,0 C,0,181733,,86,191,237 R,0,181737,,8.769171 S,0,181737,,18 M,19,181737,182337,155,162,232.4244,262.6701 F,19,181737,184560,1,0
Sprite,Background,Centre,"sb/pixel.png",0,0 C,0,181733,,119,214,244 R,0,181737,,6.24592 S,0,181737,,18 M,19,181737,182337,155,162,149.9331,26.09442 F,19,181737,184560,1,0
Sprite,Background,Centre,"sb/pixel.png",0,0 C,0,181733,,119,214,244 R,0,181737,,9.387513 S,0,181737,,17 M,19,181737,182337,155,162,160.0669,297.9056 F,19,181737,184560,1,0
Sprite,Background,Centre,"sb/pixel.png",0,0 C,0,181733,,119,214,244 R,0,181737,,4.324442 S,0,181737,,16 M,19,181737,182337,155,162,36.51196,210.4209 F,19,181737,184560,1,0
Sprite,Background,Centre,"sb/pixel.png",0,0 C,0,181733,,119,214,244 R,0,181737,,7.466035 S,0,181737,,16 M,19,181737,182337,155,162,273.488,113.5791 F,19,181737,184560,1,0
Sprite,Background,Centre,"sb/pixel.png",0,0 C,0,181733,,86,191,237 R,0,181737,,5.045177 S,0,181737,,16 M,19,181737,182337,155,162,45.36433,124.1051 F,19,181737,184560,1,0
Sprite,Background,Centre,"sb/pixel.png",0,0 C,0,181733,,86,191,237 R,0,181737,,8.18677 S,0,181737,,15 M,19,181737,182337,155,162,264.6357,199.8949 F,19,181737,184560,1,0
Sprite,Background,Centre,"sb/pixel.png",0,0 C,0,181733,,86,191,237 R,0,181737,,3.17144 S,0,181737,,19 M,19,181737,182337,155,162,151.4189,281.9466 F,19,181737,184560,1,0
Sprite,Background,Centre,"sb/pixel.png",0,0 C,0,181733,,86,191,237 R,0,181737,,6.313033 S,0,181737,,19 M,19,181737,182337,155,162,158.5811,42.05345 F,19,181737,184560,1,0
Sprite,Background,Centre,"sb/pixel.png",0,0 C,0,181733,,86,191,237 R,0,181737,,3.458555 S,0,181737,,15 M,19,181737,182337,155,162,116.3514,279.8231 F,19,181737,184560,1,0
Sprite,Background,Centre,"sb/pixel.png",0,0 C,0,181733,,86,191,237 R,0,181737,,6.600148 S,0,181737,,19 M,19,181737,182337,155,162,193.6486,44.17688 F,19,181737,184560,1,0
Sprite,Background,Centre,"sb/pixel.png",0,0 M,0,208913,210913,676,520,676,-40 F,0,208913,210913,1 F,0,107266,114325,0.8 L,208913,4 V,0,0,1200,4,4,4,-4 R,0,0,1200,0,6.283185 C,0,208913,,119,214,244
Sprite,Background,Centre,"sb/pixel.png",0,0 M,0,208957,210957,-81,520,-81,-40 F,0,208957,210957,1 F,0,107266,114325,0.8 L,208957,4 V,0,0,1200,4,4,4,-4 R,0,0,1200,0,6.283185 C,0,208957,,86,191,237
Sprite,Background,Centre,"sb/pixel.png",0,0 M,0,209001,211001,327,520,327,-40 F,0,209001,211001,1 F,0,107266,114325,0.8 L,209001,4 V,0,0,1200,4,4,4,-4 R,0,0,1200,0,6.283185 C,0,209001,,86,191,237
Sprite,Background,Centre,"sb/pixel.png",0,0 M,0,209045,211045,-95,520,-95,-40 F,0,209045,211045,1 F,0,107266,114325,0.8 L,209045,4 V,0,0,1200,4,4,4,-4 R,0,0,1200,0,6.283185 C,0,209045,,119,214,244
Sprite,Background,Centre,"sb/pixel.png",0,0 M,0,209089,211089,590,520,590,-40 F,0,209089,211089,1 F,0,107266,114325,0.8 L,209089,4 V,0,0,1200,4,4,4,-4 R,0,0,1200,0,6.283185 C,0,209089,,86,191,237
Sprite,Background,Centre,"sb/pixel.png",0,0 M,0,209133,211133,-25,520,-25,-40 F,0,209133,211133,1 F,0,107266,114325,0.8 L,209133,4 V,0,0,1200,4,4,4,-4 R,0,0,1200,0,6.283185 C,0,209133,,86,191,237
Sprite,Background,Centre,"sb/pixel.png",0,0 M,0,209177,211177,125,520,125,-40 F,0,209177,211177,1 F,0,107266,114325,0.8 L,209177,4 V,0,0,1200,4,4,4,-4 R,0,0,1200,0,6.283185 C,0,209177,,119,214,244
Sprite,Background,Centre,"sb/pixel.png",0,0 M,0,209221,211221,400,520,400,-40 F,0,209221,211221,1 F,0,107266,114325,0.8 L,209221,4 V,0,0,1200,4,4,4,-4 R,0,0,1200,0,6.283185 C,0,209221,,86,191,237
Sprite,Background,Centre,"sb/pixel.png",0,0 M,0,209265,211265,348,520,348,-40 F,0,209265,211265,1 F,0,107266,114325,0.8 L,209265,4 V,0,0,1200,4,4,4,-4 R,0,0,1200,0,6.283185 C,0,209265,,86,191,237
Sprite,Background,Centre,"sb/pixel.png",0,0 M,0,209310,211310,634,520,634,-40 F,0,209310,211310,1 F,0,107266,114325,0.8 L,209310,4 V,0,0,1200,4,4,4,-4 R,0,0,1200,0,6.283185 C,0,209310,,119,214,244
Sprite,Background,Centre,"sb/pixel.png",0,0 M,0,209354,211354,532,520,532,-40 F,0,209354,211354,1 F,0,107266,114325,0.8 L,209354,4 V,0,0,1200,4,4,4,-4 R,0,0,1200,0,6.283185 C,0,209354,,86,191,237
Sprite,Background,Centre,"sb/pixel.png",0,0 M,0,209398,211398,268,520,268,-40 F,0,209398,211398,1 F,0,107266,114325,0.8 L,209398,4 V,0,0,1200,4,4,4,-4 R,0,0,1200,0,6.283185 C,0,209398,,119,214,244
Sprite,Background,Centre,"sb/pixel.png",0,0 M,0,209442,211442,-3,520,-3,-40 F,0,209442,211442,1 F,0,107266,114325,0.8 L,209442,4 V,0,0,1200,4,4,4,-4 R,0,0,1200,0,6.283185 C,0,209442,,119,214,244
Sprite,Background,Centre,"sb/pixel.png",0,0 M,0,209486,211486,602,520,602,-40 F,0,209486,211486,1 F,0,107266,114325,0.8 L,209486,4 V,0,0,1200,4,4,4,-4 R,0,0,1200,0,6.283185 C,0,209486,,86,191,237
Sprite,Background,Centre,"sb/pixel.png",0,0 M,0,209530,211530,404,520,404,-40 F,0,209530,211530,1 F,0,107266,114325,0.8 L,209530,4 V,0,0,1200,4,4,4,-4 R,0,0,1200,0,6.283185 C,0,209530,,86,191,237
Sprite,Background,Centre,"sb/pixel.png",0,0 M,0,209574,211574,485,520,485,-40 F,0,209574,211574,1 F,0,107266,114325,0.8 L,209574,4 V,0,0,1200,4,4,4,-4 R,0,0,1200,0,6.283185 C,0,209574,,119,214,244
Sprite,Background,Centre,"sb/pixel.png",0,0 M,0,209618,211618,736,520,736,-40 F,0,209618,211618,1 F,0,107266,114325,0.8 L,209618,4 V,0,0,1200,4,4,4,-4 R,0,0,1200,0,6.283185 C,0,209618,,86,191,237
Sprite,Background,Centre,"sb/pixel.png",0,0 M,0,209663,211663,278,520,278,-40 F,0,209663,211663,1 F,0,107266,114325,0.8 L,209663,4 V,0,0,1200,4,4,4,-4 R,0,0,1200,0,6.283185 C,0,209663,,86,191,237
Sprite,Background,Centre,"sb/pixel.png",0,0 M,0,209707,211707,63,520,63,-40 F,0,209707,211707,1 F,0,107266,114325,0.8 L,209707,4 V,0,0,1200,4,4,4,-4 R,0,0,1200,0,6.283185 C,0,209707,,119,214,244
Sprite,Background,Centre,"sb/pixel.png",0,0 M,0,209751,211751,600,520,600,-40 F,0,209751,211751,1 F,0,107266,114325,0.8 L,209751,4 V,0,0,1200,4,4,4,-4 R,0,0,1200,0,6.283185 C,0,209751,,86,191,237
Sprite,Background,Centre,"sb/pixel.png",0,0 M,0,209795,211795,153,520,153,-40 F,0,209795,211795,1 F,0,107266,114325,0.8 L,209795,4 V,0,0,1200,4,4,4,-4 R,0,0,1200,0,6.283185 C,0,209795,,86,191,237
Sprite,Background,Centre,"sb/pixel.png",0,0 M,0,209839,211839,112,520,112,-40 F,0,209839,211839,1 F,0,107266,114325,0.8 L,209839,4 V,0,0,1200,4,4,4,-4 R,0,0,1200,0,6.283185 C,0,209839,,119,214,244
Sprite,Background,Centre,"sb/pixel.png",0,0 M,0,209883,211883,163,520,163,-40 F,0,209883,211883,1 F,0,107266,114325,0.8 L,209883,4 V,0,0,1200,4,4,4,-4 R,0,0,1200,0,6.283185 C,0,209883,,86,191,237
Sprite,Background,Centre,"sb/pixel.png",0,0 M,0,209927,211927,361,520,361,-40 F,0,209927,211927,1 F,0,107266,114325,0.8 L,209927,4 V,0,0,1200,4,4,4,-4 R,0,0,1200,0,6.283185 C,0,209927,,86,191,237
Sprite,Background,Centre,"sb/pixel.png",0,0 M,0,209971,211971,70,520,70,-40 F,0,209971,211971,1 F,0,107266,114325,0.8 L,209971,4 V,0,0,1200,4,4,4,-4 R,0,0,1200,0,6.283185 C,0,209971,,119,214,244
Sprite,Background,Centre,"sb/pixel.png",0,0 M,0,210015,212015,708,520,708,-40 F,0,210015,212015,1 F,0,107266,114325,0.8 L,210015,4 V,0,0,1200,4,4,4,-4 R,0,0,1200,0,6.283185 C,0,210015,,119,214,244
Sprite,Background,Centre,"sb/pixel.png",0,0 M,0,210060,212060,88,520,88,-40 F,0,210060,212060,1 F,0,107266,114325,0.8 L,210060,4 V,0,0,1200,4,4,4,-4 R,0,0,1200,0,6.283185 C,0,210060,,119,214,244
Sprite,Background,Centre,"sb/pixel.png",0,0 M,0,210104,212104,-56,520,-56,-40 F,0,210104,212104,1 F,0,107266,114325,0.8 L,210104,4 V,0,0,1200,4,4,4,-4 R,0,0,1200,0,6.283185 C,0,210104,,119,214,244
Sprite,Background,Centre,"sb/pixel.png",0,0 M,0,210148,212148,717,520,717,-40 F,0,210148,212148,1 F,0,107266,114325,0.8 L,210148,4 V,0,0,1200,4,4,4,-4 R,0,0,1200,0,6.283185 C,0,210148,,86,191,237
Sprite,Background,Centre,"sb/pixel.png",0,0 M,0,210192,212192,284,520,284,-40 F,0,210192,212192,1 F,0,107266,114325,0.8 L,210192,4 V,0,0,1200,4,4,4,-4 R,0,0,1200,0,6.283185 C,0,210192,,119,214,244
Sprite,Background,Centre,"sb/pixel.png",0,0 M,0,210236,212236,-100,520,-100,-40 F,0,210236,212236,1 F,0,107266,114325,0.8 L,210236,4 V,0,0,1200,4,4,4,-4 R,0,0,1200,0,6.283185 C,0,210236,,119,214,244
Sprite,Background,Centre,"sb/pixel.png",0,0 M,0,210280,212280,336,520,336,-40 F,0,210280,212280,1 F,0,107266,114325,0.8 L,210280,4 V,0,0,1200,4,4,4,-4 R,0,0,1200,0,6.283185 C,0,210280,,119,214,244
Sprite,Background,Centre,"sb/pixel.png",0,0 M,0,210324,212324,101,520,101,-40 F,0,210324,212324,1 F,0,107266,114325,0.8 L,210324,4 V,0,0,1200,4,4,4,-4 R,0,0,1200,0,6.283185 C,0,210324,,86,191,237
Sprite,Background,Centre,"sb/pixel.png",0,0 M,0,210368,212368,465,520,465,-40 F,0,210368,212368,1 F,0,107266,114325,0.8 L,210368,4 V,0,0,1200,4,4,4,-4 R,0,0,1200,0,6.283185 C,0,210368,,86,191,237
Sprite,Background,Centre,"sb/pixel.png",0,0 M,0,210413,212413,421,520,421,-40 F,0,210413,212413,1 F,0,107266,114325,0.8 L,210413,4 V,0,0,1200,4,4,4,-4 R,0,0,1200,0,6.283185 C,0,210413,,86,191,237
Sprite,Background,Centre,"sb/pixel.png",0,0 M,0,210457,212457,330,520,330,-40 F,0,210457,212457,1 F,0,107266,114325,0.8 L,210457,4 V,0,0,1200,4,4,4,-4 R,0,0,1200,0,6.283185 C,0,210457,,119,214,244
Sprite,Background,Centre,"sb/pixel.png",0,0 M,0,210501,212501,546,520,546,-40 F,0,210501,212501,1 F,0,107266,114325,0.8 L,210501,4 V,0,0,1200,4,4,4,-4 R,0,0,1200,0,6.283185 C,0,210501,,119,214,244
Sprite,Background,Centre,"sb/pixel.png",0,0 M,0,210545,212545,35,520,35,-40 F,0,210545,212545,1 F,0,107266,114325,0.8 L,210545,4 V,0,0,1200,4,4,4,-4 R,0,0,1200,0,6.283185 C,0,210545,,119,214,244
Sprite,Background,Centre,"sb/pixel.png",0,0 M,0,210589,212589,157,520,157,-40 F,0,210589,212589,1 F,0,107266,114325,0.8 L,210589,4 V,0,0,1200,4,4,4,-4 R,0,0,1200,0,6.283185 C,0,210589,,119,214,244
Sprite,Background,Centre,"sb/pixel.png",0,0 M,0,210633,212633,620,520,620,-40 F,0,210633,212633,1 F,0,107266,114325,0.8 L,210633,4 V,0,0,1200,4,4,4,-4 R,0,0,1200,0,6.283185 C,0,210633,,119,214,244
Sprite,Background,Centre,"sb/pixel.png",0,0 M,0,210677,212677,421,520,421,-40 F,0,210677,212677,1 F,0,107266,114325,0.8 L,210677,4 V,0,0,1200,4,4,4,-4 R,0,0,1200,0,6.283185 C,0,210677,,119,214,244
Sprite,Background,Centre,"sb/pixel.png",0,0 M,0,210721,212721,216,520,216,-40 F,0,210721,212721,1 F,0,107266,114325,0.8 L,210721,4 V,0,0,1200,4,4,4,-4 R,0,0,1200,0,6.283185 C,0,210721,,119,214,244
Sprite,Background,Centre,"sb/pixel.png",0,0 M,0,210765,212765,479,520,479,-40 F,0,210765,212765,1 F,0,107266,114325,0.8 L,210765,4 V,0,0,1200,4,4,4,-4 R,0,0,1200,0,6.283185 C,0,210765,,86,191,237
Sprite,Background,Centre,"sb/pixel.png",0,0 M,0,210810,212810,-65,520,-65,-40 F,0,210810,212810,1 F,0,107266,114325,0.8 L,210810,4 V,0,0,1200,4,4,4,-4 R,0,0,1200,0,6.283185 C,0,210810,,86,191,237
Sprite,Background,Centre,"sb/pixel.png",0,0 M,0,210854,212854,357,520,357,-40 F,0,210854,212854,1 F,0,107266,114325,0.8 L,210854,4 V,0,0,1200,4,4,4,-4 R,0,0,1200,0,6.283185 C,0,210854,,119,214,244
Sprite,Background,Centre,"sb/pixel.png",0,0 M,0,210898,212898,538,520,538,-40 F,0,210898,212898,1 F,0,107266,114325,0.8 L,210898,4 V,0,0,1200,4,4,4,-4 R,0,0,1200,0,6.283185 C,0,210898,,119,214,244
Sprite,Background,Centre,"sb/pixel.png",0,0 M,0,210942,212942,376,520,376,-40 F,0,210942,212942,1 F,0,107266,114325,0.8 L,210942,4 V,0,0,1200,4,4,4,-4 R,0,0,1200,0,6.283185 C,0,210942,,119,214,244
Sprite,Background,Centre,"sb/pixel.png",0,0 M,0,210986,212986,604,520,604,-40 F,0,210986,212986,1 F,0,107266,114325,0.8 L,210986,4 V,0,0,1200,4,4,4,-4 R,0,0,1200,0,6.283185 C,0,210986,,86,191,237
Sprite,Background,Centre,"sb/pixel.png",0,0 M,0,211030,213030,37,520,37,-40 F,0,211030,213030,1 F,0,107266,114325,0.8 L,211030,4 V,0,0,1200,4,4,4,-4 R,0,0,1200,0,6.283185 C,0,211030,,119,214,244
Sprite,Background,Centre,"sb/pixel.png",0,0 M,0,211074,213074,600,520,600,-40 F,0,211074,213074,1 F,0,107266,114325,0.8 L,211074,4 V,0,0,1200,4,4,4,-4 R,0,0,1200,0,6.283185 C,0,211074,,119,214,244
Sprite,Background,Centre,"sb/pixel.png",0,0 M,0,211118,213118,57,520,57,-40 F,0,211118,213118,1 F,0,107266,114325,0.8 L,211118,4 V,0,0,1200,4,4,4,-4 R,0,0,1200,0,6.283185 C,0,211118,,86,191,237
Sprite,Background,Centre,"sb/pixel.png",0,0 M,0,211163,213163,63,520,63,-40 F,0,211163,213163,1 F,0,107266,114325,0.8 L,211163,4 V,0,0,1200,4,4,4,-4 R,0,0,1200,0,6.283185 C,0,211163,,119,214,244
Sprite,Background,Centre,"sb/pixel.png",0,0 M,0,211207,213207,642,520,642,-40 F,0,211207,213207,1 F,0,107266,114325,0.8 L,211207,4 V,0,0,1200,4,4,4,-4 R,0,0,1200,0,6.283185 C,0,211207,,119,214,244
Sprite,Background,Centre,"sb/pixel.png",0,0 M,0,211251,213251,234,520,234,-40 F,0,211251,213251,1 F,0,107266,114325,0.8 L,211251,4 V,0,0,1200,4,4,4,-4 R,0,0,1200,0,6.283185 C,0,211251,,119,214,244
Sprite,Background,Centre,"sb/pixel.png",0,0 M,0,211295,213295,703,520,703,-40 F,0,211295,213295,1 F,0,107266,114325,0.8 L,211295,4 V,0,0,1200,4,4,4,-4 R,0,0,1200,0,6.283185 C,0,211295,,86,191,237
Sprite,Background,Centre,"sb/pixel.png",0,0 M,0,211339,213339,-73,520,-73,-40 F,0,211339,213339,1 F,0,107266,114325,0.8 L,211339,4 V,0,0,1200,4,4,4,-4 R,0,0,1200,0,6.283185 C,0,211339,,86,191,237
Sprite,Background,Centre,"sb/pixel.png",0,0 M,0,211383,213383,-98,520,-98,-40 F,0,211383,213383,1 F,0,107266,114325,0.8 L,211383,4 V,0,0,1200,4,4,4,-4 R,0,0,1200,0,6.283185 C,0,211383,,119,214,244
Sprite,Background,Centre,"sb/pixel.png",0,0 M,0,211427,213427,510,520,510,-40 F,0,211427,213427,1 F,0,107266,114325,0.8 L,211427,4 V,0,0,1200,4,4,4,-4 R,0,0,1200,0,6.283185 C,0,211427,,86,191,237
Sprite,Background,Centre,"sb/pixel.png",0,0 M,0,211471,213471,-64,520,-64,-40 F,0,211471,213471,1 F,0,107266,114325,0.8 L,211471,4 V,0,0,1200,4,4,4,-4 R,0,0,1200,0,6.283185 C,0,211471,,119,214,244
Sprite,Background,Centre,"sb/pixel.png",0,0 M,0,211515,213515,309,520,309,-40 F,0,211515,213515,1 F,0,107266,114325,0.8 L,211515,4 V,0,0,1200,4,4,4,-4 R,0,0,1200,0,6.283185 C,0,211515,,86,191,237
Sprite,Background,Centre,"sb/pixel.png",0,0 M,0,211560,213560,548,520,548,-40 F,0,211560,213560,1 F,0,107266,114325,0.8 L,211560,4 V,0,0,1200,4,4,4,-4 R,0,0,1200,0,6.283185 C,0,211560,,86,191,237
Sprite,Background,Centre,"sb/pixel.png",0,0 M,0,211604,213604,-3,520,-3,-40 F,0,211604,213604,1 F,0,107266,114325,0.8 L,211604,4 V,0,0,1200,4,4,4,-4 R,0,0,1200,0,6.283185 C,0,211604,,86,191,237
Sprite,Background,Centre,"sb/pixel.png",0,0 M,0,211648,213648,-8,520,-8,-40 F,0,211648,213648,1 F,0,107266,114325,0.8 L,211648,4 V,0,0,1200,4,4,4,-4 R,0,0,1200,0,6.283185 C,0,211648,,119,214,244
Sprite,Background,Centre,"sb/pixel.png",0,0 M,0,211692,213692,698,520,698,-40 F,0,211692,213692,1 F,0,107266,114325,0.8 L,211692,4 V,0,0,1200,4,4,4,-4 R,0,0,1200,0,6.283185 C,0,211692,,119,214,244
Sprite,Background,Centre,"sb/pixel.png",0,0 M,0,211736,213736,57,520,57,-40 F,0,211736,213736,1 F,0,107266,114325,0.8 L,211736,4 V,0,0,1200,4,4,4,-4 R,0,0,1200,0,6.283185 C,0,211736,,119,214,244
Sprite,Background,Centre,"sb/pixel.png",0,0 M,0,211780,213780,655,520,655,-40 F,0,211780,213780,1 F,0,107266,114325,0.8 L,211780,4 V,0,0,1200,4,4,4,-4 R,0,0,1200,0,6.283185 C,0,211780,,119,214,244
Sprite,Background,Centre,"sb/pixel.png",0,0 M,0,211824,213824,352,520,352,-40 F,0,211824,213824,1 F,0,107266,114325,0.8 L,211824,4 V,0,0,1200,4,4,4,-4 R,0,0,1200,0,6.283185 C,0,211824,,119,214,244
Sprite,Background,Centre,"sb/pixel.png",0,0 M,0,211868,213868,-51,520,-51,-40 F,0,211868,213868,1 F,0,107266,114325,0.8 L,211868,4 V,0,0,1200,4,4,4,-4 R,0,0,1200,0,6.283185 C,0,211868,,86,191,237
Sprite,Background,Centre,"sb/pixel.png",0,0 M,0,211913,213913,586,520,586,-40 F,0,211913,213913,1 F,0,107266,114325,0.8 L,211913,4 V,0,0,1200,4,4,4,-4 R,0,0,1200,0,6.283185 C,0,211913,,119,214,244
Sprite,Background,Centre,"sb/pixel.png",0,0 M,0,211957,213957,177,520,177,-40 F,0,211957,213957,1 F,0,107266,114325,0.8 L,211957,4 V,0,0,1200,4,4,4,-4 R,0,0,1200,0,6.283185 C,0,211957,,119,214,244
Sprite,Background,Centre,"sb/pixel.png",0,0 M,0,212001,214001,3,520,3,-40 F,0,212001,214001,1 F,0,107266,114325,0.8 L,212001,4 V,0,0,1200,4,4,4,-4 R,0,0,1200,0,6.283185 C,0,212001,,86,191,237
Sprite,Background,Centre,"sb/pixel.png",0,0 M,0,212045,214045,679,520,679,-40 F,0,212045,214045,1 F,0,107266,114325,0.8 L,212045,4 V,0,0,1200,4,4,4,-4 R,0,0,1200,0,6.283185 C,0,212045,,86,191,237
Sprite,Background,Centre,"sb/pixel.png",0,0 M,0,212089,214089,-55,520,-55,-40 F,0,212089,214089,1 F,0,107266,114325,0.8 L,212089,4 V,0,0,1200,4,4,4,-4 R,0,0,1200,0,6.283185 C,0,212089,,119,214,244
Sprite,Background,Centre,"sb/pixel.png",0,0 M,0,212133,214133,171,520,171,-40 F,0,212133,214133,1 F,0,107266,114325,0.8 L,212133,4 V,0,0,1200,4,4,4,-4 R,0,0,1200,0,6.283185 C,0,212133,,119,214,244
Sprite,Background,Centre,"sb/pixel.png",0,0 M,0,212177,214177,544,520,544,-40 F,0,212177,214177,1 F,0,107266,114325,0.8 L,212177,4 V,0,0,1200,4,4,4,-4 R,0,0,1200,0,6.283185 C,0,212177,,86,191,237
Sprite,Background,Centre,"sb/pixel.png",0,0 M,0,212221,214221,597,520,597,-40 F,0,212221,214221,1 F,0,107266,114325,0.8 L,212221,4 V,0,0,1200,4,4,4,-4 R,0,0,1200,0,6.283185 C,0,212221,,86,191,237
Sprite,Background,Centre,"sb/pixel.png",0,0 M,0,212265,214265,401,520,401,-40 F,0,212265,214265,1 F,0,107266,114325,0.8 L,212265,4 V,0,0,1200,4,4,4,-4 R,0,0,1200,0,6.283185 C,0,212265,,119,214,244
Sprite,Background,Centre,"sb/pixel.png",0,0 M,0,212310,214310,517,520,517,-40 F,0,212310,214310,1 F,0,107266,114325,0.8 L,212310,4 V,0,0,1200,4,4,4,-4 R,0,0,1200,0,6.283185 C,0,212310,,119,214,244
Sprite,Background,Centre,"sb/pixel.png",0,0 M,0,212354,214354,541,520,541,-40 F,0,212354,214354,1 F,0,107266,114325,0.8 L,212354,4 V,0,0,1200,4,4,4,-4 R,0,0,1200,0,6.283185 C,0,212354,,86,191,237
Sprite,Background,Centre,"sb/pixel.png",0,0 M,0,212398,214398,79,520,79,-40 F,0,212398,214398,1 F,0,107266,114325,0.8 L,212398,4 V,0,0,1200,4,4,4,-4 R,0,0,1200,0,6.283185 C,0,212398,,86,191,237
Sprite,Background,Centre,"sb/pixel.png",0,0 M,0,212442,214442,322,520,322,-40 F,0,212442,214442,1 F,0,107266,114325,0.8 L,212442,4 V,0,0,1200,4,4,4,-4 R,0,0,1200,0,6.283185 C,0,212442,,119,214,244
Sprite,Background,Centre,"sb/pixel.png",0,0 M,0,212486,214486,-99,520,-99,-40 F,0,212486,214486,1 F,0,107266,114325,0.8 L,212486,4 V,0,0,1200,4,4,4,-4 R,0,0,1200,0,6.283185 C,0,212486,,86,191,237
Sprite,Background,Centre,"sb/pixel.png",0,0 M,0,212530,214530,-16,520,-16,-40 F,0,212530,214530,1 F,0,107266,114325,0.8 L,212530,4 V,0,0,1200,4,4,4,-4 R,0,0,1200,0,6.283185 C,0,212530,,86,191,237
Sprite,Background,Centre,"sb/pixel.png",0,0 M,0,212574,214574,-56,520,-56,-40 F,0,212574,214574,1 F,0,107266,114325,0.8 L,212574,4 V,0,0,1200,4,4,4,-4 R,0,0,1200,0,6.283185 C,0,212574,,86,191,237
Sprite,Background,Centre,"sb/pixel.png",0,0 M,0,212618,214618,6,520,6,-40 F,0,212618,214618,1 F,0,107266,114325,0.8 L,212618,4 V,0,0,1200,4,4,4,-4 R,0,0,1200,0,6.283185 C,0,212618,,86,191,237
Sprite,Background,Centre,"sb/pixel.png",0,0 M,0,212663,214663,50,520,50,-40 F,0,212663,214663,1 F,0,107266,114325,0.8 L,212663,4 V,0,0,1200,4,4,4,-4 R,0,0,1200,0,6.283185 C,0,212663,,119,214,244
Sprite,Background,Centre,"sb/pixel.png",0,0 M,0,212707,214707,725,520,725,-40 F,0,212707,214707,1 F,0,107266,114325,0.8 L,212707,4 V,0,0,1200,4,4,4,-4 R,0,0,1200,0,6.283185 C,0,212707,,119,214,244
Sprite,Background,Centre,"sb/pixel.png",0,0 M,0,212751,214751,393,520,393,-40 F,0,212751,214751,1 F,0,107266,114325,0.8 L,212751,4 V,0,0,1200,4,4,4,-4 R,0,0,1200,0,6.283185 C,0,212751,,86,191,237
Sprite,Background,Centre,"sb/pixel.png",0,0 M,0,212795,214795,643,520,643,-40 F,0,212795,214795,1 F,0,107266,114325,0.8 L,212795,4 V,0,0,1200,4,4,4,-4 R,0,0,1200,0,6.283185 C,0,212795,,86,191,237
Sprite,Background,Centre,"sb/pixel.png",0,0 M,0,212839,214839,282,520,282,-40 F,0,212839,214839,1 F,0,107266,114325,0.8 L,212839,4 V,0,0,1200,4,4,4,-4 R,0,0,1200,0,6.283185 C,0,212839,,86,191,237
Sprite,Background,Centre,"sb/pixel.png",0,0 M,0,212883,214883,618,520,618,-40 F,0,212883,214883,1 F,0,107266,114325,0.8 L,212883,4 V,0,0,1200,4,4,4,-4 R,0,0,1200,0,6.283185 C,0,212883,,86,191,237
Sprite,Background,Centre,"sb/pixel.png",0,0 M,0,212927,214927,332,520,332,-40 F,0,212927,214927,1 F,0,107266,114325,0.8 L,212927,4 V,0,0,1200,4,4,4,-4 R,0,0,1200,0,6.283185 C,0,212927,,119,214,244
Sprite,Background,Centre,"sb/pixel.png",0,0 M,0,212971,214971,290,520,290,-40 F,0,212971,214971,1 F,0,107266,114325,0.8 L,212971,4 V,0,0,1200,4,4,4,-4 R,0,0,1200,0,6.283185 C,0,212971,,119,214,244
Sprite,Background,Centre,"sb/pixel.png",0,0 M,0,213015,215015,432,520,432,-40 F,0,213015,215015,1 F,0,107266,114325,0.8 L,213015,4 V,0,0,1200,4,4,4,-4 R,0,0,1200,0,6.283185 C,0,213015,,119,214,244
Sprite,Background,Centre,"sb/pixel.png",0,0 M,0,213060,215060,424,520,424,-40 F,0,213060,215060,1 F,0,107266,114325,0.8 L,213060,4 V,0,0,1200,4,4,4,-4 R,0,0,1200,0,6.283185 C,0,213060,,86,191,237
Sprite,Background,Centre,"sb/pixel.png",0,0 M,0,213104,215104,727,520,727,-40 F,0,213104,215104,1 F,0,107266,114325,0.8 L,213104,4 V,0,0,1200,4,4,4,-4 R,0,0,1200,0,6.283185 C,0,213104,,119,214,244
Sprite,Background,Centre,"sb/pixel.png",0,0 M,0,213148,215148,597,520,597,-40 F,0,213148,215148,1 F,0,107266,114325,0.8 L,213148,4 V,0,0,1200,4,4,4,-4 R,0,0,1200,0,6.283185 C,0,213148,,86,191,237
Sprite,Background,Centre,"sb/pixel.png",0,0 M,0,213192,215192,523,520,523,-40 F,0,213192,215192,1 F,0,107266,114325,0.8 L,213192,4 V,0,0,1200,4,4,4,-4 R,0,0,1200,0,6.283185 C,0,213192,,119,214,244
Sprite,Background,Centre,"sb/pixel.png",0,0 M,0,213236,215236,607,520,607,-40 F,0,213236,215236,1 F,0,107266,114325,0.8 L,213236,4 V,0,0,1200,4,4,4,-4 R,0,0,1200,0,6.283185 C,0,213236,,119,214,244
Sprite,Background,Centre,"sb/pixel.png",0,0 M,0,213280,215280,267,520,267,-40 F,0,213280,215280,1 F,0,107266,114325,0.8 L,213280,4 V,0,0,1200,4,4,4,-4 R,0,0,1200,0,6.283185 C,0,213280,,119,214,244
Sprite,Background,Centre,"sb/pixel.png",0,0 M,0,213324,215324,-25,520,-25,-40 F,0,213324,215324,1 F,0,107266,114325,0.8 L,213324,4 V,0,0,1200,4,4,4,-4 R,0,0,1200,0,6.283185 C,0,213324,,86,191,237
Sprite,Background,Centre,"sb/pixel.png",0,0 M,0,213368,215368,91,520,91,-40 F,0,213368,215368,1 F,0,107266,114325,0.8 L,213368,4 V,0,0,1200,4,4,4,-4 R,0,0,1200,0,6.283185 C,0,213368,,86,191,237
Sprite,Background,Centre,"sb/pixel.png",0,0 M,0,213413,215413,449,520,449,-40 F,0,213413,215413,1 F,0,107266,114325,0.8 L,213413,4 V,0,0,1200,4,4,4,-4 R,0,0,1200,0,6.283185 C,0,213413,,86,191,237
Sprite,Background,Centre,"sb/pixel.png",0,0 M,0,213457,215457,648,520,648,-40 F,0,213457,215457,1 F,0,107266,114325,0.8 L,213457,4 V,0,0,1200,4,4,4,-4 R,0,0,1200,0,6.283185 C,0,213457,,119,214,244
Sprite,Background,Centre,"sb/pixel.png",0,0 M,0,213501,215501,344,520,344,-40 F,0,213501,215501,1 F,0,107266,114325,0.8 L,213501,4 V,0,0,1200,4,4,4,-4 R,0,0,1200,0,6.283185 C,0,213501,,86,191,237
Sprite,Background,Centre,"sb/pixel.png",0,0 M,0,213545,215545,333,520,333,-40 F,0,213545,215545,1 F,0,107266,114325,0.8 L,213545,4 V,0,0,1200,4,4,4,-4 R,0,0,1200,0,6.283185 C,0,213545,,119,214,244
Sprite,Background,Centre,"sb/pixel.png",0,0 M,0,213589,215589,85,520,85,-40 F,0,213589,215589,1 F,0,107266,114325,0.8 L,213589,4 V,0,0,1200,4,4,4,-4 R,0,0,1200,0,6.283185 C,0,213589,,119,214,244
Sprite,Background,Centre,"sb/pixel.png",0,0 M,0,213633,215633,621,520,621,-40 F,0,213633,215633,1 F,0,107266,114325,0.8 L,213633,4 V,0,0,1200,4,4,4,-4 R,0,0,1200,0,6.283185 C,0,213633,,86,191,237
Sprite,Background,Centre,"sb/pixel.png",0,0 M,0,213677,215677,410,520,410,-40 F,0,213677,215677,1 F,0,107266,114325,0.8 L,213677,4 V,0,0,1200,4,4,4,-4 R,0,0,1200,0,6.283185 C,0,213677,,86,191,237
Sprite,Background,Centre,"sb/pixel.png",0,0 M,0,213721,215721,57,520,57,-40 F,0,213721,215721,1 F,0,107266,114325,0.8 L,213721,4 V,0,0,1200,4,4,4,-4 R,0,0,1200,0,6.283185 C,0,213721,,119,214,244
Sprite,Background,Centre,"sb/pixel.png",0,0 M,0,213765,215765,47,520,47,-40 F,0,213765,215765,1 F,0,107266,114325,0.8 L,213765,4 V,0,0,1200,4,4,4,-4 R,0,0,1200,0,6.283185 C,0,213765,,86,191,237
Sprite,Background,Centre,"sb/pixel.png",0,0 M,0,213810,215810,-77,520,-77,-40 F,0,213810,215810,1 F,0,107266,114325,0.8 L,213810,4 V,0,0,1200,4,4,4,-4 R,0,0,1200,0,6.283185 C,0,213810,,119,214,244
Sprite,Background,Centre,"sb/pixel.png",0,0 M,0,213854,215854,-100,520,-100,-40 F,0,213854,215854,1 F,0,107266,114325,0.8 L,213854,4 V,0,0,1200,4,4,4,-4 R,0,0,1200,0,6.283185 C,0,213854,,119,214,244
Sprite,Background,Centre,"sb/pixel.png",0,0 M,0,213898,215898,48,520,48,-40 F,0,213898,215898,1 F,0,107266,114325,0.8 L,213898,4 V,0,0,1200,4,4,4,-4 R,0,0,1200,0,6.283185 C,0,213898,,119,214,244
Sprite,Background,Centre,"sb/pixel.png",0,0 M,0,213942,215942,327,520,327,-40 F,0,213942,215942,1 F,0,107266,114325,0.8 L,213942,4 V,0,0,1200,4,4,4,-4 R,0,0,1200,0,6.283185 C,0,213942,,86,191,237
Sprite,Background,Centre,"sb/pixel.png",0,0 M,0,213986,215986,-35,520,-35,-40 F,0,213986,215986,1 F,0,107266,114325,0.8 L,213986,4 V,0,0,1200,4,4,4,-4 R,0,0,1200,0,6.283185 C,0,213986,,86,191,237
Sprite,Background,Centre,"sb/pixel.png",0,0 M,0,214030,216030,11,520,11,-40 F,0,214030,216030,1 F,0,107266,114325,0.8 L,214030,4 V,0,0,1200,4,4,4,-4 R,0,0,1200,0,6.283185 C,0,214030,,119,214,244
Sprite,Background,Centre,"sb/pixel.png",0,0 M,0,214074,216074,629,520,629,-40 F,0,214074,216074,1 F,0,107266,114325,0.8 L,214074,4 V,0,0,1200,4,4,4,-4 R,0,0,1200,0,6.283185 C,0,214074,,119,214,244
Sprite,Background,Centre,"sb/pixel.png",0,0 M,0,214118,216118,187,520,187,-40 F,0,214118,216118,1 F,0,107266,114325,0.8 L,214118,4 V,0,0,1200,4,4,4,-4 R,0,0,1200,0,6.283185 C,0,214118,,86,191,237
Sprite,Background,Centre,"sb/pixel.png",0,0 M,0,214163,216163,494,520,494,-40 F,0,214163,216163,1 F,0,107266,114325,0.8 L,214163,4 V,0,0,1200,4,4,4,-4 R,0,0,1200,0,6.283185 C,0,214163,,86,191,237
Sprite,Background,Centre,"sb/pixel.png",0,0 M,0,214207,216207,18,520,18,-40 F,0,214207,216207,1 F,0,107266,114325,0.8 L,214207,4 V,0,0,1200,4,4,4,-4 R,0,0,1200,0,6.283185 C,0,214207,,119,214,244
Sprite,Background,Centre,"sb/pixel.png",0,0 M,0,214251,216251,657,520,657,-40 F,0,214251,216251,1 F,0,107266,114325,0.8 L,214251,4 V,0,0,1200,4,4,4,-4 R,0,0,1200,0,6.283185 C,0,214251,,86,191,237
Sprite,Background,Centre,"sb/pixel.png",0,0 M,0,214295,216295,27,520,27,-40 F,0,214295,216295,1 F,0,107266,114325,0.8 L,214295,4 V,0,0,1200,4,4,4,-4 R,0,0,1200,0,6.283185 C,0,214295,,86,191,237
Sprite,Background,Centre,"sb/pixel.png",0,0 M,0,214339,216339,665,520,665,-40 F,0,214339,216339,1 F,0,107266,114325,0.8 L,214339,4 V,0,0,1200,4,4,4,-4 R,0,0,1200,0,6.283185 C,0,214339,,86,191,237
Sprite,Background,Centre,"sb/pixel.png",0,0 M,0,214383,216383,558,520,558,-40 F,0,214383,216383,1 F,0,107266,114325,0.8 L,214383,4 V,0,0,1200,4,4,4,-4 R,0,0,1200,0,6.283185 C,0,214383,,86,191,237
Sprite,Background,Centre,"sb/pixel.png",0,0 M,0,214427,216427,236,520,236,-40 F,0,214427,216427,1 F,0,107266,114325,0.8 L,214427,4 V,0,0,1200,4,4,4,-4 R,0,0,1200,0,6.283185 C,0,214427,,119,214,244
Sprite,Background,Centre,"sb/pixel.png",0,0 M,0,214471,216471,-47,520,-47,-40 F,0,214471,216471,1 F,0,107266,114325,0.8 L,214471,4 V,0,0,1200,4,4,4,-4 R,0,0,1200,0,6.283185 C,0,214471,,119,214,244
Sprite,Background,Centre,"sb/pixel.png",0,0 M,0,214515,216515,-50,520,-50,-40 F,0,214515,216515,1 F,0,107266,114325,0.8 L,214515,4 V,0,0,1200,4,4,4,-4 R,0,0,1200,0,6.283185 C,0,214515,,119,214,244
Sprite,Background,Centre,"sb/pixel.png",0,0 M,0,221619,223619,433,520,433,-40 F,0,221619,223619,1 F,0,107266,114325,0.8 L,221619,4 V,0,0,1200,4,4,4,-4 R,0,0,1200,0,6.283185 C,0,221619,,86,191,237
Sprite,Background,Centre,"sb/pixel.png",0,0 M,0,221663,223663,549,520,549,-40 F,0,221663,223663,1 F,0,107266,114325,0.8 L,221663,4 V,0,0,1200,4,4,4,-4 R,0,0,1200,0,6.283185 C,0,221663,,86,191,237
Sprite,Background,Centre,"sb/pixel.png",0,0 M,0,221707,223707,436,520,436,-40 F,0,221707,223707,1 F,0,107266,114325,0.8 L,221707,4 V,0,0,1200,4,4,4,-4 R,0,0,1200,0,6.283185 C,0,221707,,86,191,237
Sprite,Background,Centre,"sb/pixel.png",0,0 M,0,221751,223751,609,520,609,-40 F,0,221751,223751,1 F,0,107266,114325,0.8 L,221751,4 V,0,0,1200,4,4,4,-4 R,0,0,1200,0,6.283185 C,0,221751,,86,191,237
Sprite,Background,Centre,"sb/pixel.png",0,0 M,0,221795,223795,511,520,511,-40 F,0,221795,223795,1 F,0,107266,114325,0.8 L,221795,4 V,0,0,1200,4,4,4,-4 R,0,0,1200,0,6.283185 C,0,221795,,86,191,237
Sprite,Background,Centre,"sb/pixel.png",0,0 M,0,221839,223839,-71,520,-71,-40 F,0,221839,223839,1 F,0,107266,114325,0.8 L,221839,4 V,0,0,1200,4,4,4,-4 R,0,0,1200,0,6.283185 C,0,221839,,119,214,244
Sprite,Background,Centre,"sb/pixel.png",0,0 M,0,221883,223883,231,520,231,-40 F,0,221883,223883,1 F,0,107266,114325,0.8 L,221883,4 V,0,0,1200,4,4,4,-4 R,0,0,1200,0,6.283185 C,0,221883,,86,191,237
Sprite,Background,Centre,"sb/pixel.png",0,0 M,0,221927,223927,389,520,389,-40 F,0,221927,223927,1 F,0,107266,114325,0.8 L,221927,4 V,0,0,1200,4,4,4,-4 R,0,0,1200,0,6.283185 C,0,221927,,86,191,237
Sprite,Background,Centre,"sb/pixel.png",0,0 M,0,221971,223971,703,520,703,-40 F,0,221971,223971,1 F,0,107266,114325,0.8 L,221971,4 V,0,0,1200,4,4,4,-4 R,0,0,1200,0,6.283185 C,0,221971,,86,191,237
Sprite,Background,Centre,"sb/pixel.png",0,0 M,0,222016,224016,685,520,685,-40 F,0,222016,224016,1 F,0,107266,114325,0.8 L,222016,4 V,0,0,1200,4,4,4,-4 R,0,0,1200,0,6.283185 C,0,222016,,86,191,237
Sprite,Background,Centre,"sb/pixel.png",0,0 M,0,222060,224060,525,520,525,-40 F,0,222060,224060,1 F,0,107266,114325,0.8 L,222060,4 V,0,0,1200,4,4,4,-4 R,0,0,1200,0,6.283185 C,0,222060,,119,214,244
Sprite,Background,Centre,"sb/pixel.png",0,0 M,0,222104,224104,152,520,152,-40 F,0,222104,224104,1 F,0,107266,114325,0.8 L,222104,4 V,0,0,1200,4,4,4,-4 R,0,0,1200,0,6.283185 C,0,222104,,119,214,244
Sprite,Background,Centre,"sb/pixel.png",0,0 M,0,222148,224148,20,520,20,-40 F,0,222148,224148,1 F,0,107266,114325,0.8 L,222148,4 V,0,0,1200,4,4,4,-4 R,0,0,1200,0,6.283185 C,0,222148,,86,191,237
Sprite,Background,Centre,"sb/pixel.png",0,0 M,0,222192,224192,375,520,375,-40 F,0,222192,224192,1 F,0,107266,114325,0.8 L,222192,4 V,0,0,1200,4,4,4,-4 R,0,0,1200,0,6.283185 C,0,222192,,86,191,237
Sprite,Background,Centre,"sb/pixel.png",0,0 M,0,222236,224236,42,520,42,-40 F,0,222236,224236,1 F,0,107266,114325,0.8 L,222236,4 V,0,0,1200,4,4,4,-4 R,0,0,1200,0,6.283185 C,0,222236,,86,191,237
Sprite,Background,Centre,"sb/pixel.png",0,0 M,0,222280,224280,358,520,358,-40 F,0,222280,224280,1 F,0,107266,114325,0.8 L,222280,4 V,0,0,1200,4,4,4,-4 R,0,0,1200,0,6.283185 C,0,222280,,86,191,237
Sprite,Background,Centre,"sb/pixel.png",0,0 M,0,222324,224324,13,520,13,-40 F,0,222324,224324,1 F,0,107266,114325,0.8 L,222324,4 V,0,0,1200,4,4,4,-4 R,0,0,1200,0,6.283185 C,0,222324,,119,214,244
Sprite,Background,Centre,"sb/pixel.png",0,0 M,0,222369,224369,361,520,361,-40 F,0,222369,224369,1 F,0,107266,114325,0.8 L,222369,4 V,0,0,1200,4,4,4,-4 R,0,0,1200,0,6.283185 C,0,222369,,86,191,237
Sprite,Background,Centre,"sb/pixel.png",0,0 M,0,222413,224413,721,520,721,-40 F,0,222413,224413,1 F,0,107266,114325,0.8 L,222413,4 V,0,0,1200,4,4,4,-4 R,0,0,1200,0,6.283185 C,0,222413,,119,214,244
Sprite,Background,Centre,"sb/pixel.png",0,0 M,0,222457,224457,-98,520,-98,-40 F,0,222457,224457,1 F,0,107266,114325,0.8 L,222457,4 V,0,0,1200,4,4,4,-4 R,0,0,1200,0,6.283185 C,0,222457,,86,191,237
Sprite,Background,Centre,"sb/pixel.png",0,0 M,0,222501,224501,271,520,271,-40 F,0,222501,224501,1 F,0,107266,114325,0.8 L,222501,4 V,0,0,1200,4,4,4,-4 R,0,0,1200,0,6.283185 C,0,222501,,86,191,237
Sprite,Background,Centre,"sb/pixel.png",0,0 M,0,222545,224545,-32,520,-32,-40 F,0,222545,224545,1 F,0,107266,114325,0.8 L,222545,4 V,0,0,1200,4,4,4,-4 R,0,0,1200,0,6.283185 C,0,222545,,119,214,244
Sprite,Background,Centre,"sb/pixel.png",0,0 M,0,222589,224589,536,520,536,-40 F,0,222589,224589,1 F,0,107266,114325,0.8 L,222589,4 V,0,0,1200,4,4,4,-4 R,0,0,1200,0,6.283185 C,0,222589,,86,191,237
Sprite,Background,Centre,"sb/pixel.png",0,0 M,0,222633,224633,37,520,37,-40 F,0,222633,224633,1 F,0,107266,114325,0.8 L,222633,4 V,0,0,1200,4,4,4,-4 R,0,0,1200,0,6.283185 C,0,222633,,119,214,244
Sprite,Background,Centre,"sb/pixel.png",0,0 M,0,222677,224677,90,520,90,-40 F,0,222677,224677,1 F,0,107266,114325,0.8 L,222677,4 V,0,0,1200,4,4,4,-4 R,0,0,1200,0,6.283185 C,0,222677,,86,191,237
Sprite,Background,Centre,"sb/pixel.png",0,0 M,0,222721,224721,92,520,92,-40 F,0,222721,224721,1 F,0,107266,114325,0.8 L,222721,4 V,0,0,1200,4,4,4,-4 R,0,0,1200,0,6.283185 C,0,222721,,86,191,237
Sprite,Background,Centre,"sb/pixel.png",0,0 M,0,222766,224766,265,520,265,-40 F,0,222766,224766,1 F,0,107266,114325,0.8 L,222766,4 V,0,0,1200,4,4,4,-4 R,0,0,1200,0,6.283185 C,0,222766,,119,214,244
Sprite,Background,Centre,"sb/pixel.png",0,0 M,0,222810,224810,506,520,506,-40 F,0,222810,224810,1 F,0,107266,114325,0.8 L,222810,4 V,0,0,1200,4,4,4,-4 R,0,0,1200,0,6.283185 C,0,222810,,119,214,244
Sprite,Background,Centre,"sb/pixel.png",0,0 M,0,222854,224854,292,520,292,-40 F,0,222854,224854,1 F,0,107266,114325,0.8 L,222854,4 V,0,0,1200,4,4,4,-4 R,0,0,1200,0,6.283185 C,0,222854,,86,191,237
Sprite,Background,Centre,"sb/pixel.png",0,0 M,0,222898,224898,275,520,275,-40 F,0,222898,224898,1 F,0,107266,114325,0.8 L,222898,4 V,0,0,1200,4,4,4,-4 R,0,0,1200,0,6.283185 C,0,222898,,119,214,244
Sprite,Background,Centre,"sb/pixel.png",0,0 M,0,222942,224942,726,520,726,-40 F,0,222942,224942,1 F,0,107266,114325,0.8 L,222942,4 V,0,0,1200,4,4,4,-4 R,0,0,1200,0,6.283185 C,0,222942,,119,214,244
Sprite,Background,Centre,"sb/pixel.png",0,0 M,0,222986,224986,555,520,555,-40 F,0,222986,224986,1 F,0,107266,114325,0.8 L,222986,4 V,0,0,1200,4,4,4,-4 R,0,0,1200,0,6.283185 C,0,222986,,86,191,237
Sprite,Background,Centre,"sb/pixel.png",0,0 M,0,223030,225030,195,520,195,-40 F,0,223030,225030,1 F,0,107266,114325,0.8 L,223030,4 V,0,0,1200,4,4,4,-4 R,0,0,1200,0,6.283185 C,0,223030,,119,214,244
Sprite,Background,Centre,"sb/pixel.png",0,0 M,0,223074,225074,641,520,641,-40 F,0,223074,225074,1 F,0,107266,114325,0.8 L,223074,4 V,0,0,1200,4,4,4,-4 R,0,0,1200,0,6.283185 C,0,223074,,86,191,237
Sprite,Background,Centre,"sb/pixel.png",0,0 M,0,223119,225119,-2,520,-2,-40 F,0,223119,225119,1 F,0,107266,114325,0.8 L,223119,4 V,0,0,1200,4,4,4,-4 R,0,0,1200,0,6.283185 C,0,223119,,119,214,244
Sprite,Background,Centre,"sb/pixel.png",0,0 M,0,223163,225163,659,520,659,-40 F,0,223163,225163,1 F,0,107266,114325,0.8 L,223163,4 V,0,0,1200,4,4,4,-4 R,0,0,1200,0,6.283185 C,0,223163,,86,191,237
Sprite,Background,Centre,"sb/pixel.png",0,0 M,0,223207,225207,348,520,348,-40 F,0,223207,225207,1 F,0,107266,114325,0.8 L,223207,4 V,0,0,1200,4,4,4,-4 R,0,0,1200,0,6.283185 C,0,223207,,119,214,244
Sprite,Background,Centre,"sb/pixel.png",0,0 M,0,223251,225251,281,520,281,-40 F,0,223251,225251,1 F,0,107266,114325,0.8 L,223251,4 V,0,0,1200,4,4,4,-4 R,0,0,1200,0,6.283185 C,0,223251,,86,191,237
Sprite,Background,Centre,"sb/pixel.png",0,0 M,0,223295,225295,7,520,7,-40 F,0,223295,225295,1 F,0,107266,114325,0.8 L,223295,4 V,0,0,1200,4,4,4,-4 R,0,0,1200,0,6.283185 C,0,223295,,119,214,244
Sprite,Background,Centre,"sb/pixel.png",0,0 M,0,223339,225339,284,520,284,-40 F,0,223339,225339,1 F,0,107266,114325,0.8 L,223339,4 V,0,0,1200,4,4,4,-4 R,0,0,1200,0,6.283185 C,0,223339,,119,214,244
Sprite,Background,Centre,"sb/pixel.png",0,0 M,0,223383,225383,274,520,274,-40 F,0,223383,225383,1 F,0,107266,114325,0.8 L,223383,4 V,0,0,1200,4,4,4,-4 R,0,0,1200,0,6.283185 C,0,223383,,119,214,244
Sprite,Background,Centre,"sb/pixel.png",0,0 M,0,223427,225427,290,520,290,-40 F,0,223427,225427,1 F,0,107266,114325,0.8 L,223427,4 V,0,0,1200,4,4,4,-4 R,0,0,1200,0,6.283185 C,0,223427,,86,191,237
Sprite,Background,Centre,"sb/pixel.png",0,0 M,0,223471,225471,463,520,463,-40 F,0,223471,225471,1 F,0,107266,114325,0.8 L,223471,4 V,0,0,1200,4,4,4,-4 R,0,0,1200,0,6.283185 C,0,223471,,119,214,244
Sprite,Background,Centre,"sb/pixel.png",0,0 M,0,223516,225516,183,520,183,-40 F,0,223516,225516,1 F,0,107266,114325,0.8 L,223516,4 V,0,0,1200,4,4,4,-4 R,0,0,1200,0,6.283185 C,0,223516,,86,191,237
Sprite,Background,Centre,"sb/pixel.png",0,0 M,0,223560,225560,477,520,477,-40 F,0,223560,225560,1 F,0,107266,114325,0.8 L,223560,4 V,0,0,1200,4,4,4,-4 R,0,0,1200,0,6.283185 C,0,223560,,119,214,244
Sprite,Background,Centre,"sb/pixel.png",0,0 M,0,223604,225604,-18,520,-18,-40 F,0,223604,225604,1 F,0,107266,114325,0.8 L,223604,4 V,0,0,1200,4,4,4,-4 R,0,0,1200,0,6.283185 C,0,223604,,119,214,244
Sprite,Background,Centre,"sb/pixel.png",0,0 M,0,223648,225648,456,520,456,-40 F,0,223648,225648,1 F,0,107266,114325,0.8 L,223648,4 V,0,0,1200,4,4,4,-4 R,0,0,1200,0,6.283185 C,0,223648,,86,191,237
Sprite,Background,Centre,"sb/pixel.png",0,0 M,0,223692,225692,430,520,430,-40 F,0,223692,225692,1 F,0,107266,114325,0.8 L,223692,4 V,0,0,1200,4,4,4,-4 R,0,0,1200,0,6.283185 C,0,223692,,119,214,244
Sprite,Background,Centre,"sb/pixel.png",0,0 M,0,223736,225736,37,520,37,-40 F,0,223736,225736,1 F,0,107266,114325,0.8 L,223736,4 V,0,0,1200,4,4,4,-4 R,0,0,1200,0,6.283185 C,0,223736,,119,214,244
Sprite,Background,Centre,"sb/pixel.png",0,0 M,0,223780,225780,664,520,664,-40 F,0,223780,225780,1 F,0,107266,114325,0.8 L,223780,4 V,0,0,1200,4,4,4,-4 R,0,0,1200,0,6.283185 C,0,223780,,119,214,244
Sprite,Background,Centre,"sb/pixel.png",0,0 M,0,223824,225824,-98,520,-98,-40 F,0,223824,225824,1 F,0,107266,114325,0.8 L,223824,4 V,0,0,1200,4,4,4,-4 R,0,0,1200,0,6.283185 C,0,223824,,119,214,244
Sprite,Background,Centre,"sb/pixel.png",0,0 M,0,223869,225869,733,520,733,-40 F,0,223869,225869,1 F,0,107266,114325,0.8 L,223869,4 V,0,0,1200,4,4,4,-4 R,0,0,1200,0,6.283185 C,0,223869,,119,214,244
Sprite,Background,Centre,"sb/pixel.png",0,0 M,0,223913,225913,437,520,437,-40 F,0,223913,225913,1 F,0,107266,114325,0.8 L,223913,4 V,0,0,1200,4,4,4,-4 R,0,0,1200,0,6.283185 C,0,223913,,119,214,244
Sprite,Background,Centre,"sb/pixel.png",0,0 M,0,223957,225957,740,520,740,-40 F,0,223957,225957,1 F,0,107266,114325,0.8 L,223957,4 V,0,0,1200,4,4,4,-4 R,0,0,1200,0,6.283185 C,0,223957,,119,214,244
Sprite,Background,Centre,"sb/pixel.png",0,0 M,0,224001,226001,502,520,502,-40 F,0,224001,226001,1 F,0,107266,114325,0.8 L,224001,4 V,0,0,1200,4,4,4,-4 R,0,0,1200,0,6.283185 C,0,224001,,86,191,237
Sprite,Background,Centre,"sb/pixel.png",0,0 M,0,224045,226045,128,520,128,-40 F,0,224045,226045,1 F,0,107266,114325,0.8 L,224045,4 V,0,0,1200,4,4,4,-4 R,0,0,1200,0,6.283185 C,0,224045,,119,214,244
Sprite,Background,Centre,"sb/pixel.png",0,0 M,0,224089,226089,-25,520,-25,-40 F,0,224089,226089,1 F,0,107266,114325,0.8 L,224089,4 V,0,0,1200,4,4,4,-4 R,0,0,1200,0,6.283185 C,0,224089,,119,214,244
Sprite,Background,Centre,"sb/pixel.png",0,0 M,0,224133,226133,382,520,382,-40 F,0,224133,226133,1 F,0,107266,114325,0.8 L,224133,4 V,0,0,1200,4,4,4,-4 R,0,0,1200,0,6.283185 C,0,224133,,86,191,237
Sprite,Background,Centre,"sb/pixel.png",0,0 M,0,224177,226177,470,520,470,-40 F,0,224177,226177,1 F,0,107266,114325,0.8 L,224177,4 V,0,0,1200,4,4,4,-4 R,0,0,1200,0,6.283185 C,0,224177,,119,214,244
Sprite,Background,Centre,"sb/pixel.png",0,0 M,0,224221,226221,25,520,25,-40 F,0,224221,226221,1 F,0,107266,114325,0.8 L,224221,4 V,0,0,1200,4,4,4,-4 R,0,0,1200,0,6.283185 C,0,224221,,119,214,244
Sprite,Background,Centre,"sb/pixel.png",0,0 M,0,224266,226266,684,520,684,-40 F,0,224266,226266,1 F,0,107266,114325,0.8 L,224266,4 V,0,0,1200,4,4,4,-4 R,0,0,1200,0,6.283185 C,0,224266,,86,191,237
Sprite,Background,Centre,"sb/pixel.png",0,0 M,0,224310,226310,156,520,156,-40 F,0,224310,226310,1 F,0,107266,114325,0.8 L,224310,4 V,0,0,1200,4,4,4,-4 R,0,0,1200,0,6.283185 C,0,224310,,86,191,237
Sprite,Background,Centre,"sb/pixel.png",0,0 M,0,224354,226354,664,520,664,-40 F,0,224354,226354,1 F,0,107266,114325,0.8 L,224354,4 V,0,0,1200,4,4,4,-4 R,0,0,1200,0,6.283185 C,0,224354,,119,214,244
Sprite,Background,Centre,"sb/pixel.png",0,0 M,0,224398,226398,48,520,48,-40 F,0,224398,226398,1 F,0,107266,114325,0.8 L,224398,4 V,0,0,1200,4,4,4,-4 R,0,0,1200,0,6.283185 C,0,224398,,86,191,237
Sprite,Background,Centre,"sb/pixel.png",0,0 M,0,224442,226442,484,520,484,-40 F,0,224442,226442,1 F,0,107266,114325,0.8 L,224442,4 V,0,0,1200,4,4,4,-4 R,0,0,1200,0,6.283185 C,0,224442,,119,214,244
Sprite,Background,Centre,"sb/pixel.png",0,0 M,0,224486,226486,428,520,428,-40 F,0,224486,226486,1 F,0,107266,114325,0.8 L,224486,4 V,0,0,1200,4,4,4,-4 R,0,0,1200,0,6.283185 C,0,224486,,86,191,237
Sprite,Background,Centre,"sb/pixel.png",0,0 M,0,224530,226530,14,520,14,-40 F,0,224530,226530,1 F,0,107266,114325,0.8 L,224530,4 V,0,0,1200,4,4,4,-4 R,0,0,1200,0,6.283185 C,0,224530,,86,191,237
Sprite,Background,Centre,"sb/pixel.png",0,0 M,0,224574,226574,107,520,107,-40 F,0,224574,226574,1 F,0,107266,114325,0.8 L,224574,4 V,0,0,1200,4,4,4,-4 R,0,0,1200,0,6.283185 C,0,224574,,119,214,244
Sprite,Background,Centre,"sb/pixel.png",0,0 M,0,224619,226619,298,520,298,-40 F,0,224619,226619,1 F,0,107266,114325,0.8 L,224619,4 V,0,0,1200,4,4,4,-4 R,0,0,1200,0,6.283185 C,0,224619,,119,214,244
Sprite,Background,Centre,"sb/pixel.png",0,0 M,0,224663,226663,-106,520,-106,-40 F,0,224663,226663,1 F,0,107266,114325,0.8 L,224663,4 V,0,0,1200,4,4,4,-4 R,0,0,1200,0,6.283185 C,0,224663,,119,214,244
Sprite,Background,Centre,"sb/pixel.png",0,0 M,0,224707,226707,-84,520,-84,-40 F,0,224707,226707,1 F,0,107266,114325,0.8 L,224707,4 V,0,0,1200,4,4,4,-4 R,0,0,1200,0,6.283185 C,0,224707,,119,214,244
Sprite,Background,Centre,"sb/pixel.png",0,0 M,0,224751,226751,114,520,114,-40 F,0,224751,226751,1 F,0,107266,114325,0.8 L,224751,4 V,0,0,1200,4,4,4,-4 R,0,0,1200,0,6.283185 C,0,224751,,86,191,237
Sprite,Background,Centre,"sb/pixel.png",0,0 M,0,224795,226795,630,520,630,-40 F,0,224795,226795,1 F,0,107266,114325,0.8 L,224795,4 V,0,0,1200,4,4,4,-4 R,0,0,1200,0,6.283185 C,0,224795,,86,191,237
Sprite,Background,Centre,"sb/pixel.png",0,0 M,0,224839,226839,163,520,163,-40 F,0,224839,226839,1 F,0,107266,114325,0.8 L,224839,4 V,0,0,1200,4,4,4,-4 R,0,0,1200,0,6.283185 C,0,224839,,119,214,244
Sprite,Background,Centre,"sb/pixel.png",0,0 M,0,224883,226883,250,520,250,-40 F,0,224883,226883,1 F,0,107266,114325,0.8 L,224883,4 V,0,0,1200,4,4,4,-4 R,0,0,1200,0,6.283185 C,0,224883,,119,214,244
Sprite,Background,Centre,"sb/pixel.png",0,0 M,0,224927,226927,426,520,426,-40 F,0,224927,226927,1 F,0,107266,114325,0.8 L,224927,4 V,0,0,1200,4,4,4,-4 R,0,0,1200,0,6.283185 C,0,224927,,119,214,244
Sprite,Background,Centre,"sb/pixel.png",0,0 M,0,224971,226971,-13,520,-13,-40 F,0,224971,226971,1 F,0,107266,114325,0.8 L,224971,4 V,0,0,1200,4,4,4,-4 R,0,0,1200,0,6.283185 C,0,224971,,86,191,237
Sprite,Background,Centre,"sb/pixel.png",0,0 M,0,225016,227016,372,520,372,-40 F,0,225016,227016,1 F,0,107266,114325,0.8 L,225016,4 V,0,0,1200,4,4,4,-4 R,0,0,1200,0,6.283185 C,0,225016,,119,214,244
Sprite,Background,Centre,"sb/pixel.png",0,0 M,0,225060,227060,633,520,633,-40 F,0,225060,227060,1 F,0,107266,114325,0.8 L,225060,4 V,0,0,1200,4,4,4,-4 R,0,0,1200,0,6.283185 C,0,225060,,86,191,237
Sprite,Background,Centre,"sb/pixel.png",0,0 M,0,225104,227104,165,520,165,-40 F,0,225104,227104,1 F,0,107266,114325,0.8 L,225104,4 V,0,0,1200,4,4,4,-4 R,0,0,1200,0,6.283185 C,0,225104,,119,214,244
Sprite,Background,Centre,"sb/pixel.png",0,0 M,0,225148,227148,72,520,72,-40 F,0,225148,227148,1 F,0,107266,114325,0.8 L,225148,4 V,0,0,1200,4,4,4,-4 R,0,0,1200,0,6.283185 C,0,225148,,119,214,244
Sprite,Background,Centre,"sb/pixel.png",0,0 M,0,225192,227192,252,520,252,-40 F,0,225192,227192,1 F,0,107266,114325,0.8 L,225192,4 V,0,0,1200,4,4,4,-4 R,0,0,1200,0,6.283185 C,0,225192,,86,191,237
Sprite,Background,Centre,"sb/pixel.png",0,0 M,0,225236,227236,145,520,145,-40 F,0,225236,227236,1 F,0,107266,114325,0.8 L,225236,4 V,0,0,1200,4,4,4,-4 R,0,0,1200,0,6.283185 C,0,225236,,119,214,244
Sprite,Background,Centre,"sb/pixel.png",0,0 M,0,225280,227280,132,520,132,-40 F,0,225280,227280,1 F,0,107266,114325,0.8 L,225280,4 V,0,0,1200,4,4,4,-4 R,0,0,1200,0,6.283185 C,0,225280,,119,214,244
Sprite,Background,Centre,"sb/pixel.png",0,0 M,0,225324,227324,690,520,690,-40 F,0,225324,227324,1 F,0,107266,114325,0.8 L,225324,4 V,0,0,1200,4,4,4,-4 R,0,0,1200,0,6.283185 C,0,225324,,119,214,244
Sprite,Background,Centre,"sb/pixel.png",0,0 M,0,225369,227369,-70,520,-70,-40 F,0,225369,227369,1 F,0,107266,114325,0.8 L,225369,4 V,0,0,1200,4,4,4,-4 R,0,0,1200,0,6.283185 C,0,225369,,119,214,244
Sprite,Background,Centre,"sb/pixel.png",0,0 M,0,225413,227413,7,520,7,-40 F,0,225413,227413,1 F,0,107266,114325,0.8 L,225413,4 V,0,0,1200,4,4,4,-4 R,0,0,1200,0,6.283185 C,0,225413,,86,191,237
Sprite,Background,Centre,"sb/pixel.png",0,0 M,0,225457,227457,155,520,155,-40 F,0,225457,227457,1 F,0,107266,114325,0.8 L,225457,4 V,0,0,1200,4,4,4,-4 R,0,0,1200,0,6.283185 C,0,225457,,86,191,237
Sprite,Background,Centre,"sb/pixel.png",0,0 M,0,225501,227501,443,520,443,-40 F,0,225501,227501,1 F,0,107266,114325,0.8 L,225501,4 V,0,0,1200,4,4,4,-4 R,0,0,1200,0,6.283185 C,0,225501,,86,191,237
Sprite,Background,Centre,"sb/pixel.png",0,0 M,0,225545,227545,-4,520,-4,-40 F,0,225545,227545,1 F,0,107266,114325,0.8 L,225545,4 V,0,0,1200,4,4,4,-4 R,0,0,1200,0,6.283185 C,0,225545,,119,214,244
Sprite,Background,Centre,"sb/pixel.png",0,0 M,0,225589,227589,34,520,34,-40 F,0,225589,227589,1 F,0,107266,114325,0.8 L,225589,4 V,0,0,1200,4,4,4,-4 R,0,0,1200,0,6.283185 C,0,225589,,86,191,237
Sprite,Background,Centre,"sb/pixel.png",0,0 M,0,225633,227633,-3,520,-3,-40 F,0,225633,227633,1 F,0,107266,114325,0.8 L,225633,4 V,0,0,1200,4,4,4,-4 R,0,0,1200,0,6.283185 C,0,225633,,86,191,237
Sprite,Background,Centre,"sb/pixel.png",0,0 M,0,225677,227677,344,520,344,-40 F,0,225677,227677,1 F,0,107266,114325,0.8 L,225677,4 V,0,0,1200,4,4,4,-4 R,0,0,1200,0,6.283185 C,0,225677,,86,191,237
Sprite,Background,Centre,"sb/pixel.png",0,0 M,0,225721,227721,541,520,541,-40 F,0,225721,227721,1 F,0,107266,114325,0.8 L,225721,4 V,0,0,1200,4,4,4,-4 R,0,0,1200,0,6.283185 C,0,225721,,86,191,237
Sprite,Background,Centre,"sb/pixel.png",0,0 M,0,225766,227766,242,520,242,-40 F,0,225766,227766,1 F,0,107266,114325,0.8 L,225766,4 V,0,0,1200,4,4,4,-4 R,0,0,1200,0,6.283185 C,0,225766,,119,214,244
Sprite,Background,Centre,"sb/pixel.png",0,0 M,0,225810,227810,237,520,237,-40 F,0,225810,227810,1 F,0,107266,114325,0.8 L,225810,4 V,0,0,1200,4,4,4,-4 R,0,0,1200,0,6.283185 C,0,225810,,119,214,244
Sprite,Background,Centre,"sb/pixel.png",0,0 M,0,225854,227854,682,520,682,-40 F,0,225854,227854,1 F,0,107266,114325,0.8 L,225854,4 V,0,0,1200,4,4,4,-4 R,0,0,1200,0,6.283185 C,0,225854,,86,191,237
Sprite,Background,Centre,"sb/pixel.png",0,0 M,0,225898,227898,-52,520,-52,-40 F,0,225898,227898,1 F,0,107266,114325,0.8 L,225898,4 V,0,0,1200,4,4,4,-4 R,0,0,1200,0,6.283185 C,0,225898,,86,191,237
Sprite,Background,Centre,"sb/pixel.png",0,0 M,0,225942,227942,580,520,580,-40 F,0,225942,227942,1 F,0,107266,114325,0.8 L,225942,4 V,0,0,1200,4,4,4,-4 R,0,0,1200,0,6.283185 C,0,225942,,86,191,237
Sprite,Background,Centre,"sb/pixel.png",0,0 M,0,225986,227986,291,520,291,-40 F,0,225986,227986,1 F,0,107266,114325,0.8 L,225986,4 V,0,0,1200,4,4,4,-4 R,0,0,1200,0,6.283185 C,0,225986,,119,214,244
Sprite,Background,Centre,"sb/pixel.png",0,0 M,0,226030,228030,236,520,236,-40 F,0,226030,228030,1 F,0,107266,114325,0.8 L,226030,4 V,0,0,1200,4,4,4,-4 R,0,0,1200,0,6.283185 C,0,226030,,119,214,244
Sprite,Background,Centre,"sb/pixel.png",0,0 M,0,226074,228074,355,520,355,-40 F,0,226074,228074,1 F,0,107266,114325,0.8 L,226074,4 V,0,0,1200,4,4,4,-4 R,0,0,1200,0,6.283185 C,0,226074,,119,214,244
Sprite,Background,Centre,"sb/pixel.png",0,0 M,0,226119,228119,-50,520,-50,-40 F,0,226119,228119,1 F,0,107266,114325,0.8 L,226119,4 V,0,0,1200,4,4,4,-4 R,0,0,1200,0,6.283185 C,0,226119,,119,214,244
Sprite,Background,Centre,"sb/pixel.png",0,0 M,0,226163,228163,660,520,660,-40 F,0,226163,228163,1 F,0,107266,114325,0.8 L,226163,4 V,0,0,1200,4,4,4,-4 R,0,0,1200,0,6.283185 C,0,226163,,119,214,244
Sprite,Background,Centre,"sb/pixel.png",0,0 M,0,226207,228207,116,520,116,-40 F,0,226207,228207,1 F,0,107266,114325,0.8 L,226207,4 V,0,0,1200,4,4,4,-4 R,0,0,1200,0,6.283185 C,0,226207,,86,191,237
Sprite,Background,Centre,"sb/pixel.png",0,0 M,0,226251,228251,287,520,287,-40 F,0,226251,228251,1 F,0,107266,114325,0.8 L,226251,4 V,0,0,1200,4,4,4,-4 R,0,0,1200,0,6.283185 C,0,226251,,119,214,244
Sprite,Background,Centre,"sb/pixel.png",0,0 M,0,226295,228295,642,520,642,-40 F,0,226295,228295,1 F,0,107266,114325,0.8 L,226295,4 V,0,0,1200,4,4,4,-4 R,0,0,1200,0,6.283185 C,0,226295,,119,214,244
Sprite,Background,Centre,"sb/pixel.png",0,0 M,0,226339,228339,737,520,737,-40 F,0,226339,228339,1 F,0,107266,114325,0.8 L,226339,4 V,0,0,1200,4,4,4,-4 R,0,0,1200,0,6.283185 C,0,226339,,119,214,244
Sprite,Background,Centre,"sb/pixel.png",0,0 M,0,226383,228383,174,520,174,-40 F,0,226383,228383,1 F,0,107266,114325,0.8 L,226383,4 V,0,0,1200,4,4,4,-4 R,0,0,1200,0,6.283185 C,0,226383,,86,191,237
Sprite,Background,Centre,"sb/pixel.png",0,0 M,0,226427,228427,-81,520,-81,-40 F,0,226427,228427,1 F,0,107266,114325,0.8 L,226427,4 V,0,0,1200,4,4,4,-4 R,0,0,1200,0,6.283185 C,0,226427,,86,191,237
Sprite,Background,Centre,"sb/pixel.png",0,0 M,0,226471,228471,445,520,445,-40 F,0,226471,228471,1 F,0,107266,114325,0.8 L,226471,4 V,0,0,1200,4,4,4,-4 R,0,0,1200,0,6.283185 C,0,226471,,86,191,237
Sprite,Background,Centre,"sb/pixel.png",0,0 M,0,226516,228516,504,520,504,-40 F,0,226516,228516,1 F,0,107266,114325,0.8 L,226516,4 V,0,0,1200,4,4,4,-4 R,0,0,1200,0,6.283185 C,0,226516,,86,191,237
Sprite,Background,Centre,"sb/pixel.png",0,0 M,0,226560,228560,661,520,661,-40 F,0,226560,228560,1 F,0,107266,114325,0.8 L,226560,4 V,0,0,1200,4,4,4,-4 R,0,0,1200,0,6.283185 C,0,226560,,86,191,237
Sprite,Background,Centre,"sb/pixel.png",0,0 M,0,226604,228604,327,520,327,-40 F,0,226604,228604,1 F,0,107266,114325,0.8 L,226604,4 V,0,0,1200,4,4,4,-4 R,0,0,1200,0,6.283185 C,0,226604,,119,214,244
Sprite,Background,Centre,"sb/pixel.png",0,0 M,0,226648,228648,588,520,588,-40 F,0,226648,228648,1 F,0,107266,114325,0.8 L,226648,4 V,0,0,1200,4,4,4,-4 R,0,0,1200,0,6.283185 C,0,226648,,86,191,237
Sprite,Background,Centre,"sb/pixel.png",0,0 M,0,226692,228692,657,520,657,-40 F,0,226692,228692,1 F,0,107266,114325,0.8 L,226692,4 V,0,0,1200,4,4,4,-4 R,0,0,1200,0,6.283185 C,0,226692,,86,191,237
Sprite,Background,Centre,"sb/pixel.png",0,0 M,0,226736,228736,-38,520,-38,-40 F,0,226736,228736,1 F,0,107266,114325,0.8 L,226736,4 V,0,0,1200,4,4,4,-4 R,0,0,1200,0,6.283185 C,0,226736,,86,191,237
Sprite,Background,Centre,"sb/pixel.png",0,0 M,0,226780,228780,593,520,593,-40 F,0,226780,228780,1 F,0,107266,114325,0.8 L,226780,4 V,0,0,1200,4,4,4,-4 R,0,0,1200,0,6.283185 C,0,226780,,86,191,237
Sprite,Background,Centre,"sb/pixel.png",0,0 M,0,226824,228824,34,520,34,-40 F,0,226824,228824,1 F,0,107266,114325,0.8 L,226824,4 V,0,0,1200,4,4,4,-4 R,0,0,1200,0,6.283185 C,0,226824,,119,214,244
Sprite,Background,Centre,"sb/pixel.png",0,0 M,0,226869,228869,331,520,331,-40 F,0,226869,228869,1 F,0,107266,114325,0.8 L,226869,4 V,0,0,1200,4,4,4,-4 R,0,0,1200,0,6.283185 C,0,226869,,119,214,244
Sprite,Background,Centre,"sb/pixel.png",0,0 M,0,226913,228913,486,520,486,-40 F,0,226913,228913,1 F,0,107266,114325,0.8 L,226913,4 V,0,0,1200,4,4,4,-4 R,0,0,1200,0,6.283185 C,0,226913,,86,191,237
Sprite,Background,Centre,"sb/pixel.png",0,0 M,0,226957,228957,159,520,159,-40 F,0,226957,228957,1 F,0,107266,114325,0.8 L,226957,4 V,0,0,1200,4,4,4,-4 R,0,0,1200,0,6.283185 C,0,226957,,86,191,237
Sprite,Background,Centre,"sb/pixel.png",0,0 M,0,227001,229001,475,520,475,-40 F,0,227001,229001,1 F,0,107266,114325,0.8 L,227001,4 V,0,0,1200,4,4,4,-4 R,0,0,1200,0,6.283185 C,0,227001,,119,214,244
Sprite,Background,Centre,"sb/pixel.png",0,0 M,0,227045,229045,402,520,402,-40 F,0,227045,229045,1 F,0,107266,114325,0.8 L,227045,4 V,0,0,1200,4,4,4,-4 R,0,0,1200,0,6.283185 C,0,227045,,86,191,237
Sprite,Background,Centre,"sb/pixel.png",0,0 M,0,227089,229089,625,520,625,-40 F,0,227089,229089,1 F,0,107266,114325,0.8 L,227089,4 V,0,0,1200,4,4,4,-4 R,0,0,1200,0,6.283185 C,0,227089,,86,191,237
Sprite,Background,Centre,"sb/pixel.png",0,0 M,0,227133,229133,103,520,103,-40 F,0,227133,229133,1 F,0,107266,114325,0.8 L,227133,4 V,0,0,1200,4,4,4,-4 R,0,0,1200,0,6.283185 C,0,227133,,86,191,237
Sprite,Background,Centre,"sb/pixel.png",0,0 M,0,227177,229177,463,520,463,-40 F,0,227177,229177,1 F,0,107266,114325,0.8 L,227177,4 V,0,0,1200,4,4,4,-4 R,0,0,1200,0,6.283185 C,0,227177,,86,191,237
Sprite,Background,Centre,"sb/pixel.png",0,0 M,0,227221,229221,585,520,585,-40 F,0,227221,229221,1 F,0,107266,114325,0.8 L,227221,4 V,0,0,1200,4,4,4,-4 R,0,0,1200,0,6.283185 C,0,227221,,86,191,237
Sprite,Background,Centre,"sb/pixel.png",0,0 M,0,227266,229266,298,520,298,-40 F,0,227266,229266,1 F,0,107266,114325,0.8 L,227266,4 V,0,0,1200,4,4,4,-4 R,0,0,1200,0,6.283185 C,0,227266,,86,191,237
Sprite,Background,Centre,"sb/pixel.png",0,0 M,0,227310,229310,77,520,77,-40 F,0,227310,229310,1 F,0,107266,114325,0.8 L,227310,4 V,0,0,1200,4,4,4,-4 R,0,0,1200,0,6.283185 C,0,227310,,119,214,244
Sprite,Background,Centre,"sb/pixel.png",0,0 M,0,227354,229354,475,520,475,-40 F,0,227354,229354,1 F,0,107266,114325,0.8 L,227354,4 V,0,0,1200,4,4,4,-4 R,0,0,1200,0,6.283185 C,0,227354,,86,191,237
Sprite,Background,Centre,"sb/pixel.png",0,0 M,0,227398,229398,247,520,247,-40 F,0,227398,229398,1 F,0,107266,114325,0.8 L,227398,4 V,0,0,1200,4,4,4,-4 R,0,0,1200,0,6.283185 C,0,227398,,86,191,237
Sprite,Background,Centre,"sb/pixel.png",0,0 M,0,227442,229442,717,520,717,-40 F,0,227442,229442,1 F,0,107266,114325,0.8 L,227442,4 V,0,0,1200,4,4,4,-4 R,0,0,1200,0,6.283185 C,0,227442,,86,191,237
Sprite,Background,Centre,"sb/pixel.png",0,0 M,0,227486,229486,96,520,96,-40 F,0,227486,229486,1 F,0,107266,114325,0.8 L,227486,4 V,0,0,1200,4,4,4,-4 R,0,0,1200,0,6.283185 C,0,227486,,119,214,244
Sprite,Background,Centre,"sb/pixel.png",0,0 M,0,227530,229530,129,520,129,-40 F,0,227530,229530,1 F,0,107266,114325,0.8 L,227530,4 V,0,0,1200,4,4,4,-4 R,0,0,1200,0,6.283185 C,0,227530,,119,214,244
Sprite,Background,Centre,"sb/pixel.png",0,0 M,0,227574,229574,181,520,181,-40 F,0,227574,229574,1 F,0,107266,114325,0.8 L,227574,4 V,0,0,1200,4,4,4,-4 R,0,0,1200,0,6.283185 C,0,227574,,119,214,244
Sprite,Background,Centre,"sb/pixel.png",0,0 M,0,227619,229619,171,520,171,-40 F,0,227619,229619,1 F,0,107266,114325,0.8 L,227619,4 V,0,0,1200,4,4,4,-4 R,0,0,1200,0,6.283185 C,0,227619,,86,191,237
Sprite,Background,Centre,"sb/pixel.png",0,0 M,0,227663,229663,-102,520,-102,-40 F,0,227663,229663,1 F,0,107266,114325,0.8 L,227663,4 V,0,0,1200,4,4,4,-4 R,0,0,1200,0,6.283185 C,0,227663,,119,214,244
Sprite,Background,Centre,"sb/pixel.png",0,0 M,0,227707,229707,229,520,229,-40 F,0,227707,229707,1 F,0,107266,114325,0.8 L,227707,4 V,0,0,1200,4,4,4,-4 R,0,0,1200,0,6.283185 C,0,227707,,119,214,244
Sprite,Background,Centre,"sb/pixel.png",0,0 M,0,227751,229751,-16,520,-16,-40 F,0,227751,229751,1 F,0,107266,114325,0.8 L,227751,4 V,0,0,1200,4,4,4,-4 R,0,0,1200,0,6.283185 C,0,227751,,86,191,237
Sprite,Background,Centre,"sb/pixel.png",0,0 M,0,227795,229795,723,520,723,-40 F,0,227795,229795,1 F,0,107266,114325,0.8 L,227795,4 V,0,0,1200,4,4,4,-4 R,0,0,1200,0,6.283185 C,0,227795,,86,191,237
Sprite,Background,Centre,"sb/pixel.png",0,0 M,0,227839,229839,258,520,258,-40 F,0,227839,229839,1 F,0,107266,114325,0.8 L,227839,4 V,0,0,1200,4,4,4,-4 R,0,0,1200,0,6.283185 C,0,227839,,119,214,244
Sprite,Background,Centre,"sb/pixel.png",0,0 M,0,227883,229883,307,520,307,-40 F,0,227883,229883,1 F,0,107266,114325,0.8 L,227883,4 V,0,0,1200,4,4,4,-4 R,0,0,1200,0,6.283185 C,0,227883,,86,191,237
Sprite,Background,Centre,"sb/pixel.png",0,0 M,0,227927,229927,130,520,130,-40 F,0,227927,229927,1 F,0,107266,114325,0.8 L,227927,4 V,0,0,1200,4,4,4,-4 R,0,0,1200,0,6.283185 C,0,227927,,119,214,244
Sprite,Background,Centre,"sb/pixel.png",0,0 M,0,227971,229971,621,520,621,-40 F,0,227971,229971,1 F,0,107266,114325,0.8 L,227971,4 V,0,0,1200,4,4,4,-4 R,0,0,1200,0,6.283185 C,0,227971,,119,214,244
Sprite,Background,Centre,"sb/pixel.png",0,0 M,0,228016,230016,319,520,319,-40 F,0,228016,230016,1 F,0,107266,114325,0.8 L,228016,4 V,0,0,1200,4,4,4,-4 R,0,0,1200,0,6.283185 C,0,228016,,119,214,244
Sprite,Background,Centre,"sb/pixel.png",0,0 M,0,228060,230060,568,520,568,-40 F,0,228060,230060,1 F,0,107266,114325,0.8 L,228060,4 V,0,0,1200,4,4,4,-4 R,0,0,1200,0,6.283185 C,0,228060,,119,214,244
Sprite,Background,Centre,"sb/pixel.png",0,0 M,0,228104,230104,452,520,452,-40 F,0,228104,230104,1 F,0,107266,114325,0.8 L,228104,4 V,0,0,1200,4,4,4,-4 R,0,0,1200,0,6.283185 C,0,228104,,119,214,244
Sprite,Background,Centre,"sb/pixel.png",0,0 M,0,228148,230148,-11,520,-11,-40 F,0,228148,230148,1 F,0,107266,114325,0.8 L,228148,4 V,0,0,1200,4,4,4,-4 R,0,0,1200,0,6.283185 C,0,228148,,86,191,237
Sprite,Background,Centre,"sb/pixel.png",0,0 M,0,228192,230192,390,520,390,-40 F,0,228192,230192,1 F,0,107266,114325,0.8 L,228192,4 V,0,0,1200,4,4,4,-4 R,0,0,1200,0,6.283185 C,0,228192,,119,214,244
Sprite,Background,Centre,"sb/pixel.png",0,0 M,0,228236,230236,614,520,614,-40 F,0,228236,230236,1 F,0,107266,114325,0.8 L,228236,4 V,0,0,1200,4,4,4,-4 R,0,0,1200,0,6.283185 C,0,228236,,119,214,244
Sprite,Background,Centre,"sb/pixel.png",0,0 M,0,228280,230280,362,520,362,-40 F,0,228280,230280,1 F,0,107266,114325,0.8 L,228280,4 V,0,0,1200,4,4,4,-4 R,0,0,1200,0,6.283185 C,0,228280,,86,191,237
Sprite,Background,Centre,"sb/pixel.png",0,0 M,0,228324,230324,84,520,84,-40 F,0,228324,230324,1 F,0,107266,114325,0.8 L,228324,4 V,0,0,1200,4,4,4,-4 R,0,0,1200,0,6.283185 C,0,228324,,86,191,237
Sprite,Background,Centre,"sb/pixel.png",0,0 M,0,228369,230369,438,520,438,-40 F,0,228369,230369,1 F,0,107266,114325,0.8 L,228369,4 V,0,0,1200,4,4,4,-4 R,0,0,1200,0,6.283185 C,0,228369,,86,191,237
Sprite,Background,Centre,"sb/pixel.png",0,0 M,0,228413,230413,541,520,541,-40 F,0,228413,230413,1 F,0,107266,114325,0.8 L,228413,4 V,0,0,1200,4,4,4,-4 R,0,0,1200,0,6.283185 C,0,228413,,86,191,237
Sprite,Background,Centre,"sb/pixel.png",0,0 M,0,228457,230457,150,520,150,-40 F,0,228457,230457,1 F,0,107266,114325,0.8 L,228457,4 V,0,0,1200,4,4,4,-4 R,0,0,1200,0,6.283185 C,0,228457,,119,214,244
Sprite,Background,Centre,"sb/pixel.png",0,0 M,0,228501,230501,442,520,442,-40 F,0,228501,230501,1 F,0,107266,114325,0.8 L,228501,4 V,0,0,1200,4,4,4,-4 R,0,0,1200,0,6.283185 C,0,228501,,119,214,244
Sprite,Background,Centre,"sb/pixel.png",0,0 M,0,228545,230545,342,520,342,-40 F,0,228545,230545,1 F,0,107266,114325,0.8 L,228545,4 V,0,0,1200,4,4,4,-4 R,0,0,1200,0,6.283185 C,0,228545,,119,214,244
Sprite,Background,Centre,"sb/pixel.png",0,0 M,0,228589,230589,50,520,50,-40 F,0,228589,230589,1 F,0,107266,114325,0.8 L,228589,4 V,0,0,1200,4,4,4,-4 R,0,0,1200,0,6.283185 C,0,228589,,119,214,244
Sprite,Background,Centre,"sb/pixel.png",0,0 M,0,228633,230633,-71,520,-71,-40 F,0,228633,230633,1 F,0,107266,114325,0.8 L,228633,4 V,0,0,1200,4,4,4,-4 R,0,0,1200,0,6.283185 C,0,228633,,119,214,244
Sprite,Background,Centre,"sb/pixel.png",0,0 M,0,228677,230677,96,520,96,-40 F,0,228677,230677,1 F,0,107266,114325,0.8 L,228677,4 V,0,0,1200,4,4,4,-4 R,0,0,1200,0,6.283185 C,0,228677,,86,191,237
//Storyboard Layer 1 (Fail)
//Storyboard Layer 2 (Pass)
//Storyboard Layer 3 (Foreground)
//Storyboard Sound Samples

[TimingPoints]
2796,352.941176470588,4,2,1,70,1,0
25384,-111.111111111111,4,2,1,40,0,0
35619,-111.111111111111,4,2,1,30,0,0
53619,-111.111111111111,4,2,1,35,0,0
55031,-111.111111111111,4,2,1,40,0,0
56443,-111.111111111111,4,2,1,45,0,0
57148,-111.111111111111,4,2,1,50,0,0
57854,-111.111111111111,4,2,1,55,0,0
58207,-111.111111111111,4,2,1,60,0,0
58560,-111.111111111111,4,2,1,65,0,0
58913,-111.111111111111,4,2,1,70,0,0
59266,-100,4,2,1,80,0,0
60590,-100,4,2,1,5,0,0
60854,-100,4,2,1,50,0,0
61031,-100,4,2,1,80,0,0
63413,-100,4,2,1,5,0,0
63678,-100,4,2,1,60,0,0
63854,-100,4,2,1,70,0,0
64207,-100,4,2,1,80,0,0
66237,-100,4,2,1,5,0,0
66501,-100,4,2,1,80,0,0
69325,-100,4,2,1,65,0,0
69501,-100,4,2,1,80,0,0
71884,-100,4,2,1,5,0,0
72148,-100,4,2,1,50,0,0
72325,-100,4,2,1,80,0,0
74707,-100,4,2,1,5,0,0
74972,-100,4,2,1,80,0,0
75148,-100,4,2,1,60,0,0
75325,-100,4,2,1,70,0,0
75501,-100,4,2,1,80,0,0
77531,-100,4,2,1,5,0,0
77795,-100,4,2,1,80,0,0
80354,-100,4,2,1,5,0,0
80795,-100,4,2,1,80,0,0
83178,-100,4,2,1,5,0,0
83442,-100,4,2,1,50,0,0
83619,-100,4,2,1,80,0,0
86001,-100,4,2,1,5,0,0
86266,-100,4,2,1,80,0,0
88825,-100,4,2,1,5,0,0
89090,-100,4,2,1,80,0,0
91913,-100,4,2,1,65,0,0
92089,-100,4,2,1,80,0,0
94472,-100,4,2,1,5,0,0
94736,-100,4,2,1,50,0,0
94913,-100,4,2,1,80,0,0
97295,-100,4,2,1,5,0,0
97560,-100,4,2,1,80,0,0
97736,-100,4,2,1,60,0,0
97913,-100,4,2,1,70,0,0
98089,-100,4,2,1,80,0,0
100119,-100,4,2,1,5,0,0
100384,-100,4,2,1,80,0,0
103031,-100,4,2,1,60,0,0
103207,-100,4,2,1,60,0,0
115737,-111.111111111111,4,2,1,40,0,0
136913,-111.111111111111,4,2,1,30,0,0
137619,-111.111111111111,4,2,1,35,0,0
138325,-111.111111111111,4,2,1,40,0,0
149619,-111.111111111111,4,2,1,30,0,0
155266,-111.111111111111,4,2,1,35,0,0
156678,-111.111111111111,4,2,1,40,0,0
158090,-111.111111111111,4,2,1,45,0,0
158795,-111.111111111111,4,2,1,50,0,0
159501,-111.111111111111,4,2,1,55,0,0
159854,-111.111111111111,4,2,1,60,0,0
160207,-111.111111111111,4,2,1,65,0,0
160560,-111.111111111111,4,2,1,70,0,0
160913,-100,4,2,1,80,0,0
162237,-100,4,2,1,5,0,0
162501,-100,4,2,1,50,0,0
162678,-100,4,2,1,80,0,0
165060,-100,4,2,1,5,0,0
165325,-100,4,2,1,80,0,0
165501,-100,4,2,1,60,0,0
165678,-100,4,2,1,70,0,0
165854,-100,4,2,1,80,0,0
167884,-100,4,2,1,5,0,0
168148,-100,4,2,1,80,0,0
170972,-100,4,2,1,65,0,0
171148,-100,4,2,1,80,0,0
173531,-100,4,2,1,5,0,0
173795,-100,4,2,1,50,0,0
173972,-100,4,2,1,80,0,0
176354,-100,4,2,1,5,0,0
176619,-100,4,2,1,80,0,0
176795,-100,4,2,1,60,0,0
176972,-100,4,2,1,70,0,0
177148,-100,4,2,1,80,0,0
179178,-100,4,2,1,5,0,0
179442,-100,4,2,1,80,0,0
182001,-100,4,2,1,5,0,0
182442,-100,4,2,1,80,0,0
184825,-100,4,2,1,5,0,0
185089,-100,4,2,1,50,0,0
185266,-100,4,2,1,80,0,0
187648,-100,4,2,1,5,0,0
187913,-100,4,2,1,80,0,0
190472,-100,4,2,1,5,0,0
190737,-100,4,2,1,80,0,0
193560,-100,4,2,1,65,0,0
193736,-100,4,2,1,80,0,0
196119,-100,4,2,1,5,0,0
196383,-100,4,2,1,50,0,0
196560,-100,4,2,1,80,0,0
198942,-100,4,2,1,5,0,0
199207,-100,4,2,1,80,0,0
201766,-100,4,2,1,5,0,0
202031,-100,4,2,1,80,0,0
204589,-100,4,2,1,5,0,0
204854,-100,4,2,1,60,0,0

[Colours]
Combo1 : 118,120,192
Combo2 : 143,216,224
Combo3 : 174,179,221
Combo4 : 145,188,191

[HitObjects]
65,97,25384,6,0,L|135:84,1,58.4999982147217,0|0,1:0|0:0,0:0:0:0:
190,30,25737,1,0,0:0:0:0:
190,30,25825,1,0,0:0:0:0:
190,30,25913,1,8,0:0:0:0:
238,103,26090,2,0,L|230:151,3,29.2499991073609,0|0|0|0,0:0|0:0|0:0|0:0,0:0:0:0:
260,166,26443,2,0,L|273:236,1,58.4999982147217,8|0,0:0|0:0,0:0:0:0:
211,288,26795,5,0,1:0:0:0:
211,288,26972,1,0,1:0:0:0:
271,350,27148,2,0,L|328:360,1,58.4999982147217,0|0,3:0|0:0,0:0:0:0:
404,315,27501,2,0,L|408:286,3,29.2499991073609,0|0|0|0,0:0|0:0|0:0|0:0,0:0:0:0:
447,265,27854,2,0,L|436:207,1,58.4999982147217,0|0,3:0|1:0,0:0:0:0:
463,123,28207,6,0,P|419:87|363:98,1,116.999996429443,0|0,1:0|1:0,0:0:0:0:
314,172,28737,1,8,0:0:0:0:
244,119,28913,2,0,L|239:90,3,29.2499991073609,0|0|0|0,0:0|0:0|0:0|0:0,0:0:0:0:
257,49,29266,2,0,L|199:38,1,58.4999982147217,8|0,0:0|0:0,0:0:0:0:
115,65,29619,5,0,1:0:0:0:
115,65,29795,1,0,1:0:0:0:
134,150,29972,2,0,L|123:207,1,58.4999982147217,0|0,3:0|1:0,0:0:0:0:
186,268,30325,2,0,L|190:296,3,29.2499991073609,0|0|0|0,0:0|0:0|0:0|0:0,0:0:0:0:
163,331,30678,2,0,L|220:341,1,58.4999982147217,0|0,0:0|0:0,0:0:0:0:
276,274,31031,6,0,L|333:263,1,58.4999982147217,0|0,1:0|0:0,0:0:0:0:
417,289,31384,1,0,0:0:0:0:
417,289,31472,1,0,0:0:0:0:
417,289,31560,1,8,0:0:0:0:
471,219,31737,2,0,L|479:171,3,29.2499991073609,0|0|0|0,0:0|0:0|0:0|0:0,0:0:0:0:
449,156,32090,2,0,L|436:86,1,58.4999982147217,8|0,0:0|0:0,0:0:0:0:
372,40,32443,5,0,1:0:0:0:
372,40,32619,1,0,1:0:0:0:
361,126,32795,2,0,L|348:196,1,58.4999982147217,0|0,3:0|0:0,0:0:0:0:
275,230,33148,2,0,L|267:182,3,29.2499991073609,0|0|0|0,0:0|0:0|0:0|0:0,0:0:0:0:
230,220,33501,2,0,L|160:207,1,58.4999982147217,0|0,3:0|1:0,0:0:0:0:
85,195,33854,6,0,P|74:139|109:95,1,116.999996429443,0|0,1:0|1:0,0:0:0:0:
196,108,34384,1,8,0:0:0:0:
276,74,34560,2,0,L|305:69,3,29.2499991073609,0|0|0|0,0:0|0:0|0:0|0:0,0:0:0:0:
348,61,34913,2,0,L|359:119,1,58.4999982147217,8|0,0:0|0:0,0:0:0:0:
327,200,35266,5,0,1:0:0:0:
327,200,35443,1,0,1:0:0:0:
384,265,35619,2,0,L|442:276,1,58.4999982147217,0|0,3:0|0:0,0:0:0:0:
484,352,35972,2,0,L|513:347,2,29.2499991073609,0|0|0,0:0|0:0|0:0,0:0:0:0:
396,355,36325,2,0,L|338:344,1,58.4999982147217,0|0,0:0|0:0,0:0:0:0:
279,278,36678,5,4,0:1:0:0:
279,278,47972,6,0,P|253:226|268:171,1,116.999996429443,0|0,1:0|0:0,0:0:0:0:
397,50,48678,1,0,1:0:0:0:
397,50,49384,5,0,1:0:0:0:
397,50,49560,2,0,P|398:94|394:118,1,58.4999982147217,0|0,0:0|0:0,0:0:0:0:
312,81,49913,1,0,0:0:0:0:
312,81,50089,2,0,P|311:37|315:13,1,58.4999982147217,0|0,1:0|0:0,0:0:0:0:
476,229,50795,6,0,P|424:254|369:239,1,116.999996429443,0|0,1:0|0:0,0:0:0:0:
310,172,51325,1,0,0:0:0:0:
310,172,51501,1,0,1:0:0:0:
36,229,52207,6,0,P|87:254|142:239,1,116.999996429443,0|0,1:0|0:0,0:0:0:0:
202,172,52737,1,0,0:0:0:0:
202,172,52913,1,0,1:0:0:0:
256,373,53619,6,0,L|256:256,1,116.999996429443,0|0,1:0|1:0,0:0:0:0:
428,221,54325,2,0,L|428:338,1,116.999996429443,0|0,1:0|1:0,0:0:0:0:
321,197,55031,6,0,L|321:80,1,116.999996429443,0|0,1:0|1:0,0:0:0:0:
407,93,55560,1,0,0:0:0:0:
407,93,55737,2,0,L|407:210,1,116.999996429443,0|0,1:0|1:0,0:0:0:0:
254,298,56443,6,0,P|221:283|180:282,1,58.4999982147217,0|0,1:0|1:0,0:0:0:0:
111,282,56795,2,0,P|126:249|127:208,1,58.4999982147217,0|0,1:0|1:0,0:0:0:0:
127,139,57148,2,0,P|160:154|201:155,1,58.4999982147217,0|0,1:0|1:0,0:0:0:0:
270,155,57501,2,0,P|255:188|254:229,1,58.4999982147217,0|0,1:0|1:0,0:0:0:0:
256,192,57854,12,0,58913,1:0:0:0:
252,209,59266,6,0,B|260:257|260:257|241:302,2,97.5,4|0|0,1:0|1:0|1:0,0:0:0:0:
175,159,59972,2,0,L|96:173,1,65,8|2,0:1|0:0,0:0:0:0:
26,136,60325,1,0,1:0:0:0:
26,136,61031,5,2,1:2:0:0:
26,136,61207,1,2,1:2:0:0:
99,81,61384,2,0,L|163:69,1,65,8|2,0:1|1:2,0:0:0:0:
237,16,61737,2,0,B|258:50|258:50|250:107,1,97.5,0|0,1:0|0:0,0:0:0:0:
247,152,62090,6,0,L|361:171,2,97.5,0|0|0,1:0|1:0|1:0,0:0:0:0:
178,211,62795,2,0,L|189:275,1,65,8|2,0:1|0:0,0:0:0:0:
204,364,63148,1,0,1:0:0:0:
427,206,63678,6,0,L|438:141,2,65,0|0|0,1:0|0:0|1:0,0:0:0:0:
460,291,64207,1,8,0:1:0:0:
370,308,64384,1,2,1:2:0:0:
281,326,64560,2,0,B|260:292|260:292|267:234,1,97.5,0|0,1:0|0:0,0:0:0:0:
275,189,64913,6,0,B|229:170|229:170|181:178,2,97.5,0|0|0,1:0|1:0|1:0,0:0:0:0:
347,134,65619,2,0,L|335:69,1,65,8|2,0:1|0:0,0:0:0:0:
268,8,65972,1,0,1:0:0:0:
99,222,66501,5,0,1:0:0:0:
59,139,66678,1,2,0:0:0:0:
59,139,66854,1,2,1:2:0:0:
126,77,67031,2,0,L|190:88,1,65,8|2,0:1|1:2,0:0:0:0:
280,102,67384,2,0,B|301:136|301:136|293:193,1,97.5,0|0,1:0|0:0,0:0:0:0:
254,218,67737,6,0,L|273:332,2,97.5,0|0|0,1:0|1:0|1:0,0:0:0:0:
173,174,68443,2,0,L|162:238,1,65,8|2,0:1|0:0,0:0:0:0:
144,327,68795,1,0,1:0:0:0:
336,133,69325,6,0,L|325:69,2,65,0|0|0,0:0|1:0|1:0,0:0:0:0:
251,166,69854,1,8,0:1:0:0:
160,153,70031,1,2,1:2:0:0:
69,140,70207,2,0,B|48:174|48:174|56:231,1,97.5,0|0,1:2|0:0,0:0:0:0:
90,261,70560,6,0,B|135:242|135:242|183:250,2,97.5,4|0|0,1:0|1:0|1:0,0:0:0:0:
146,332,71266,2,0,L|210:343,1,65,8|2,0:1|0:0,0:0:0:0:
290,299,71619,1,0,1:0:0:0:
290,299,72325,5,0,1:0:0:0:
290,299,72501,1,0,1:0:0:0:
358,238,72678,2,0,L|369:174,1,65,8|2,0:1|1:2,0:0:0:0:
388,84,73031,2,0,B|354:63|354:63|297:71,1,97.5,0|0,1:0|0:0,0:0:0:0:
270,108,73384,6,0,L|156:89,2,97.5,0|0|0,1:0|1:0|1:0,0:0:0:0:
235,192,74090,2,0,L|171:181,1,65,8|2,0:1|0:0,0:0:0:0:
93,132,74443,1,0,1:0:0:0:
244,358,74972,6,0,L|308:347,2,65,0|0|0,1:0|0:0|1:0,0:0:0:0:
153,347,75501,1,8,0:1:0:0:
62,337,75678,1,2,1:2:0:0:
69,246,75854,2,0,B|90:212|90:212|82:155,1,97.5,0|0,1:0|0:0,0:0:0:0:
50,122,76207,6,0,B|31:76|31:76|39:28,2,97.5,0|0|0,1:0|1:0|1:0,0:0:0:0:
120,64,76913,2,0,L|184:53,1,65,8|2,0:1|0:0,0:0:0:0:
268,87,77266,1,0,1:0:0:0:
196,350,77795,5,0,1:0:0:0:
176,260,77972,1,2,1:2:0:0:
176,260,78148,1,2,1:2:0:0:
266,244,78325,2,0,L|330:255,1,65,8|2,0:1|1:2,0:0:0:0:
420,265,78678,2,0,B|441:231|441:231|433:174,1,97.5,0|0,1:0|0:0,0:0:0:0:
429,128,79031,6,0,L|315:147,2,97.5,0|0|0,1:0|1:0|1:0,0:0:0:0:
479,51,79737,2,0,L|415:40,1,65,8|2,0:1|0:0,0:0:0:0:
325,21,80090,1,0,1:0:0:0:
325,21,80795,5,0,1:0:0:0:
325,21,80972,1,0,1:0:0:0:
268,92,81148,1,8,0:0:0:0:
177,102,81325,1,2,1:0:0:0:
86,112,81501,2,2,B|65:146|65:146|73:203,1,97.5,0|0,1:0|0:0,0:1:0:0:
81,248,81854,6,0,L|145:259,2,65,4|2|2,1:0|0:0|0:0,0:0:0:0:
101,337,82384,1,0,1:0:0:0:
182,376,82560,2,0,L|246:365,1,65,8|2,0:1|0:0,0:0:0:0:
312,302,82913,1,0,1:0:0:0:
312,302,83619,5,2,1:2:0:0:
312,302,83795,1,2,1:2:0:0:
240,245,83972,2,0,L|251:181,1,65,8|2,0:1|1:2,0:0:0:0:
267,91,84325,2,0,B|301:70|301:70|358:78,1,97.5,0|0,1:0|0:0,0:0:0:0:
383,115,84678,6,0,L|364:229,2,97.5,0|0|0,1:0|1:0|1:0,0:0:0:0:
468,147,85384,2,0,L|457:211,1,65,8|2,0:1|0:0,0:0:0:0:
415,292,85737,1,0,1:0:0:0:
170,170,86266,6,0,L|159:106,2,65,0|0|0,1:0|0:0|1:0,0:0:0:0:
250,212,86795,1,8,0:1:0:0:
271,122,86972,1,2,1:2:0:0:
292,33,87148,2,0,B|258:12|258:12|201:20,1,97.5,0|0,1:0|0:0,0:0:0:0:
155,16,87501,6,0,B|109:35|109:35|61:27,2,97.5,0|0|0,1:0|1:0|1:0,0:0:0:0:
158,105,88207,2,0,L|169:169,1,65,8|2,0:1|0:0,0:0:0:0:
120,246,88560,1,0,1:0:0:0:
385,309,89090,5,0,1:0:0:0:
405,220,89266,1,2,0:0:0:0:
405,220,89443,1,2,1:2:0:0:
315,202,89619,2,0,L|251:213,1,65,8|2,0:0|1:2,0:0:0:0:
169,169,89972,2,0,B|148:135|148:135|156:78,1,97.5,0|0,1:0|0:0,0:0:0:0:
196,55,90325,6,0,L|292:71,2,97.5,0|0|0,1:0|1:0|1:0,0:0:0:0:
116,9,91031,2,0,L|52:20,1,65,8|2,0:1|0:0,0:0:0:0:
18,104,91384,1,0,1:0:0:0:
211,295,91913,6,0,L|200:359,2,65,0|0|0,0:0|1:0|1:0,0:0:0:0:
165,215,92443,1,8,0:1:0:0:
253,195,92619,1,2,0:0:0:0:
341,176,92795,2,0,B|362:142|362:142|354:85,1,97.5,0|0,0:0|0:0,0:0:0:0:
351,39,93148,6,0,B|306:58|306:58|258:50,2,97.5,4|0|0,1:0|1:0|1:0,0:0:0:0:
439,61,93854,2,0,L|450:125,1,65,8|2,0:1|0:0,0:0:0:0:
426,213,94207,1,0,1:0:0:0:
426,213,94913,5,2,1:2:0:0:
426,213,95090,1,2,1:2:0:0:
379,290,95266,2,0,L|315:301,1,65,8|2,0:1|1:2,0:0:0:0:
224,309,95619,2,0,B|203:275|203:275|211:218,1,97.5,0|0,1:0|0:0,0:0:0:0:
227,175,95972,6,0,L|208:61,2,97.5,0|0|0,1:0|1:0|1:0,0:0:0:0:
139,149,96678,2,0,L|128:213,1,65,8|2,0:1|0:0,0:0:0:0:
109,302,97031,1,0,1:0:0:0:
328,139,97560,6,0,L|317:75,2,65,0|0|0,1:0|0:0|1:0,0:0:0:0:
265,206,98090,1,8,0:1:0:0:
349,240,98266,1,2,1:2:0:0:
433,274,98443,2,0,B|454:240|454:240|446:183,1,97.5,0|0,1:0|0:0,0:0:0:0:
419,146,98795,6,0,B|464:127|464:127|512:135,2,97.5,0|0|0,1:0|1:0|1:0,0:0:0:0:
328,139,99501,2,0,L|264:128,1,65,8|2,0:1|0:0,0:0:0:0:
203,59,99854,1,0,1:0:0:0:
60,292,100384,5,0,1:0:0:0:
122,357,100560,1,2,0:0:0:0:
122,357,100737,1,2,1:2:0:0:
209,333,100913,2,0,L|220:269,1,65,8|2,0:1|1:2,0:0:0:0:
239,179,101266,2,0,B|273:158|273:158|330:166,1,97.5,0|0,1:0|0:0,0:0:0:0:
375,174,101619,6,0,L|356:288,2,97.5,0|0|0,1:0|1:0|1:0,0:0:0:0:
453,128,102325,2,0,L|442:64,1,65,8|2,0:1|0:0,0:0:0:0:
372,4,102678,1,0,1:0:0:0:
207,81,103031,5,0,0:0:0:0:
207,81,103207,1,0,0:0:0:0:
134,136,103384,2,0,L|90:128,2,32.5,0|0|8,0:0|0:0|0:1,0:0:0:0:
191,206,103737,2,0,L|202:270,1,65,0|0,0:0|0:0,0:0:0:0:
128,324,104090,1,8,0:1:0:0:
37,313,104266,1,0,0:0:0:0:
37,313,104354,1,0,0:0:0:0:
37,313,104443,5,4,1:0:0:0:
256,192,115737,5,0,1:0:0:0:
337,159,115913,2,0,L|365:165,3,29.2499991073609,0|0|0|0,0:0|0:0|0:0|0:0,0:0:0:0:
397,133,116266,2,0,L|387:75,1,58.4999982147217,8|0,0:0|0:0,0:0:0:0:
462,29,116619,1,0,0:0:0:0:
462,29,116707,1,0,0:0:0:0:
462,29,116795,2,0,L|471:86,1,58.4999982147217,8|0,0:0|0:0,0:0:0:0:
491,172,117148,5,0,1:0:0:0:
491,172,117325,1,0,1:0:0:0:
421,225,117501,2,0,L|363:213,1,58.4999982147217,0|0,3:0|1:0,0:0:0:0:
288,259,117854,2,0,L|292:287,4,29.2499991073609,0|0|0|0|0,0:0|0:0|0:0|0:0|3:0,0:0:0:0:
235,187,118384,5,0,1:0:0:0:
235,187,118472,1,0,1:0:0:0:
235,187,118560,2,0,B|174:179|186:218|122:209,1,116.999996429443,0|0,1:0|1:0,0:0:0:0:
40,177,119090,1,8,0:0:0:0:
56,262,119266,2,0,L|48:290,3,29.2499991073609,0|0|0|0,0:0|0:0|0:0|0:0,0:0:0:0:
63,332,119619,2,0,L|119:316,1,58.4999982147217,8|0,0:0|0:0,0:0:0:0:
200,350,119972,5,0,1:0:0:0:
200,350,120148,1,0,1:0:0:0:
273,300,120325,2,0,L|330:310,1,58.4999982147217,0|0,3:0|1:0,0:0:0:0:
382,239,120678,2,0,L|384:209,3,29.2499991073609,0|0|0|0,0:0|0:0|0:0|0:0,0:0:0:0:
359,173,121031,2,0,L|301:183,1,58.4999982147217,0|0,0:0|0:0,0:0:0:0:
215,200,121384,5,0,1:0:0:0:
215,200,121560,1,0,1:0:0:0:
148,141,121737,2,0,L|120:146,2,29.2499991073609,0|0|8,0:0|0:0|0:0,0:0:0:0:
200,70,122090,2,0,L|228:75,3,29.2499991073609
265,99,122443,2,0,L|322:87,1,58.4999982147217,8|0,0:0|0:0,0:0:0:0:
400,48,122795,5,0,1:0:0:0:
400,48,122972,1,0,1:0:0:0:
450,119,123148,2,0,L|441:177,1,58.4999982147217,0|0,3:0|1:0,0:0:0:0:
383,243,123501,2,0,L|354:238,4,29.2499991073609,0|0|0|0|0,0:0|0:0|0:0|0:0|3:0,0:0:0:0:
437,312,124031,5,0,1:0:0:0:
437,312,124119,1,0,1:0:0:0:
437,312,124207,2,0,P|405:359|349:364,1,116.999996429443,0|0,1:0|1:0,0:0:0:0:
270,325,124737,1,8,0:0:0:0:
194,369,124913,2,0,L|165:361,3,29.2499991073609,0|0|0|0,0:0|0:0|0:0|0:0,0:0:0:0:
132,332,125266,2,0,L|140:274,1,58.4999982147217,8|0,0:0|0:0,0:0:0:0:
203,212,125619,5,0,1:0:0:0:
203,212,125795,1,0,1:0:0:0:
126,168,125972,2,0,L|68:177,1,58.4999982147217,0|0,3:0|1:0,0:0:0:0:
30,98,126325,2,0,L|58:93,3,29.2499991073609,0|0|0|0,0:0|0:0|0:0|0:0,0:0:0:0:
94,67,126678,2,0,L|122:71,3,29.2499991073609,0|0|0|0,0:0|0:0|0:0|0:0,0:0:0:0:
165,84,127031,5,0,1:0:0:0:
240,40,127207,2,0,L|268:45,3,29.2499991073609,0|0|0|0,0:0|0:0|0:0|0:0,0:0:0:0:
302,74,127560,2,0,L|309:137,1,58.4999982147217,8|0,0:0|0:0,0:0:0:0:
376,188,127913,1,0,0:0:0:0:
376,188,128001,1,0,0:0:0:0:
376,188,128090,2,0,L|432:172,1,58.4999982147217,8|0,0:0|0:0,0:0:0:0:
495,111,128443,5,0,1:0:0:0:
495,111,128619,1,0,1:0:0:0:
428,53,128795,2,0,L|371:68,1,58.4999982147217,0|0,3:0|1:0,0:0:0:0:
303,123,129148,2,0,L|274:114,4,29.2499991073609,0|0|0|0|0,0:0|0:0|0:0|0:0|3:0,0:0:0:0:
365,186,129678,5,0,1:0:0:0:
365,186,129766,1,0,1:0:0:0:
364,185,129854,2,0,P|379:241|360:296,1,116.999996429443,0|0,1:0|1:0,0:0:0:0:
304,365,130384,1,8,0:0:0:0:
390,381,130560,2,0,L|418:374,3,29.2499991073609,0|0|0|0,0:0|0:0|0:0|0:0,0:0:0:0:
455,349,130913,2,0,L|464:291,1,58.4999982147217,8|0,0:0|0:0,0:0:0:0:
423,213,131266,5,0,1:0:0:0:
423,213,131443,1,0,1:0:0:0:
477,144,131619,2,0,L|466:86,1,58.4999982147217,0|0,3:0|1:0,0:0:0:0:
395,34,131972,2,0,L|354:27,3,29.2499991073609,0|0|0|0,0:0|0:0|0:0|0:0,0:0:0:0:
325,46,132325,2,0,L|267:37,1,58.4999982147217,0|0,3:0|0:0,0:0:0:0:
192,83,132678,5,0,1:0:0:0:
192,83,132854,1,0,1:0:0:0:
244,153,133031,1,0,0:0:0:0:
244,153,133119,1,0,0:0:0:0:
244,153,133207,1,8,0:0:0:0:
183,217,133384,2,0,L|154:210,3,29.2499991073609,0|0|0|0,0:0|0:0|0:0|0:0,0:0:0:0:
114,230,133737,2,0,L|115:288,1,58.4999982147217,8|0,0:0|0:0,0:0:0:0:
169,358,134090,5,0,1:0:0:0:
169,358,134266,1,0,1:0:0:0:
249,321,134443,2,0,L|247:262,1,58.4999982147217,0|0,3:0|1:0,0:0:0:0:
212,182,134795,2,0,L|214:152,4,29.2499991073609,0|0|0|0|0,0:0|0:0|0:0|0:0|3:0,0:0:0:0:
134,225,135325,5,0,1:0:0:0:
134,225,135413,1,0,1:0:0:0:
134,224,135501,2,0,P|83:200|75:145,1,116.999996429443,0|0,1:0|1:0,0:0:0:0:
115,66,136031,1,8,0:0:0:0:
195,99,136207,2,0,L|224:95,3,29.2499991073609,0|0|0|0,0:0|0:0|0:0|0:0,0:0:0:0:
263,116,136560,2,0,L|252:173,1,58.4999982147217,8|0,0:0|0:0,0:0:0:0:
299,248,136913,5,0,1:0:0:0:
299,248,137090,1,0,1:0:0:0:
372,200,137266,2,0,L|429:209,1,58.4999982147217,0|0,3:0|1:0,0:0:0:0:
483,279,137619,2,0,L|511:274,4,29.2499991073609,0|0|0|0|8,0:0|0:0|0:0|0:0|0:0,0:0:0:0:
418,339,138148,1,0,0:0:0:0:
418,339,138237,1,0,0:0:0:0:
418,339,138325,1,4,0:1:0:0:
108,329,149619,6,0,L|121:212,1,116.999996429443,4|0,1:0|0:0,0:0:0:0:
146,38,150325,1,0,1:0:0:0:
146,38,151031,5,0,1:0:0:0:
146,37,151207,2,0,P|174:33|203:35,1,58.4999982147217,0|0,0:0|0:0,0:0:0:0:
272,89,151560,1,0,0:0:0:0:
272,89,151736,2,0,P|300:84|329:86,1,58.4999982147217,0|0,1:0|0:0,0:0:0:0:
329,86,152443,6,0,L|342:202,1,116.999996429443,0|0,1:0|0:0,0:0:0:0:
302,280,152972,1,0,0:0:0:0:
302,280,153148,1,0,1:0:0:0:
302,280,153854,6,0,L|288:163,1,116.999996429443,0|0,1:0|0:0,0:0:0:0:
329,86,154383,1,0,0:0:0:0:
329,86,154559,1,0,1:0:0:0:
329,85,155266,6,0,P|272:90|228:53,1,116.999996429443,0|0,1:0|1:0,0:0:0:0:
182,223,155972,2,0,P|238:218|282:255,1,116.999996429443,0|0,1:0|1:0,0:0:0:0:
441,331,156678,6,0,L|450:214,1,116.999996429443,0|0,1:0|1:0,0:0:0:0:
369,250,157207,1,0,0:0:0:0:
369,250,157384,2,0,L|378:133,1,116.999996429443,0|0,1:0|1:0,0:0:0:0:
378,133,158090,6,0,L|320:142,1,58.4999982147217,0|0,1:0|1:0,0:0:0:0:
234,164,158443,2,0,L|243:221,1,58.4999982147217,0|0,1:0|1:0,0:0:0:0:
265,308,158795,2,0,L|322:298,1,58.4999982147217,0|0,1:0|1:0,0:0:0:0:
409,277,159148,2,0,L|399:219,1,58.4999982147217,0|0,1:0|1:0,0:0:0:0:
256,192,159501,12,0,160560,1:0:0:0:
144,138,160913,6,0,B|149:99|149:99|158:85|158:85|163:43,2,97.5,6|0|0,1:0|1:0|1:0,0:0:0:0:
199,211,161619,1,8,0:1:0:0:
286,185,161795,1,2,0:0:0:0:
349,251,161972,1,0,1:0:0:0:
136,189,162678,6,0,L|146:124,1,65,0|0,1:0|1:0,0:0:0:0:
216,65,163031,1,8,0:1:0:0:
297,105,163207,1,2,1:2:0:0:
297,105,163384,2,0,L|361:94,1,65,0|0,1:0|0:0,0:0:0:0:
451,108,163737,6,0,B|433:63|433:63|445:16,2,97.5,0|0|0,1:0|1:0|1:0,0:0:0:0:
457,119,164354,1,0,1:0:0:0:
463,130,164443,2,0,L|451:194,1,65,8|2,0:1|0:0,0:0:0:0:
436,283,164795,1,0,1:0:0:0:
210,135,165325,6,0,L|273:119,2,65,0|0|0,1:0|0:0|1:0,0:0:0:0:
129,92,165854,1,8,0:1:0:0:
70,163,166031,1,2,1:2:0:0:
70,163,166119,1,0,0:0:0:0:
70,163,166207,2,0,B|50:198|50:198|56:256,1,97.5,0|0,1:0|0:0,0:0:0:0:
85,289,166560,6,0,L|179:266,2,97.5,0|0|0,1:0|1:0|1:0,0:0:0:0:
123,371,167266,2,0,L|186:356,1,65,8|2,0:1|0:0,0:0:0:0:
274,331,167619,1,0,1:0:0:0:
447,120,168148,5,0,1:0:0:0:
382,184,168325,1,2,0:0:0:0:
382,184,168501,1,2,1:2:0:0:
439,255,168678,2,0,L|430:333,1,65,8|2,0:1|1:2,0:0:0:0:
356,371,169031,2,0,B|305:374|305:374|271:337,1,97.5,0|0,1:0|0:0,0:0:0:0:
246,303,169384,6,0,B|150:323,2,97.5,0|0|0,1:0|1:0|1:0,0:0:0:0:
306,234,170090,2,0,L|301:169,1,65,8|2,0:1|0:0,0:0:0:0:
290,78,170443,1,0,1:0:0:0:
46,200,170972,6,0,L|37:135,2,65,0|0|0,0:0|1:2|1:2,0:0:0:0:
111,263,171501,1,8,0:1:0:0:
200,246,171678,1,0,1:0:0:0:
289,230,171854,2,0,B|313:257|313:257|317:318,1,97.5,0|0,0:0|0:0,0:0:0:0:
301,361,172207,6,0,B|255:339|255:339|209:346,2,97.5,4|0|0,1:0|1:0|1:0,0:0:0:0:
392,354,172913,2,0,L|406:290,1,65,8|2,0:1|0:0,0:0:0:0:
428,202,173266,1,0,1:0:0:0:
185,77,173972,6,0,L|121:64,2,65,0|0|8,1:0|1:0|0:1,0:0:0:0:
270,43,174501,1,2,1:2:0:0:
270,43,174678,2,0,B|309:34|309:34|362:54,1,97.5,0|0,1:0|0:0,0:0:0:0:
389,91,175031,6,0,L|484:73,2,97.5,0|0|0,1:0|1:0|1:0,0:0:0:0:
339,167,175737,2,0,L|347:232,1,65,8|2,0:1|0:0,0:0:0:0:
367,320,176090,1,0,1:0:0:0:
100,377,176619,6,0,L|112:313,2,65,0|0|0,1:0|0:0|1:0,0:0:0:0:
21,331,177148,1,8,0:1:0:0:
58,247,177325,1,2,1:2:0:0:
58,247,177501,2,0,B|76:186|76:186|67:153,1,97.5,0|0,1:0|0:0,0:0:0:0:
39,117,177854,6,0,L|48:19,2,97.5,0|0|0,1:0|1:0|1:0,0:0:0:0:
96,188,178560,2,0,L|158:169,1,65,8|2,0:1|0:0,0:0:0:0:
241,132,178913,1,0,1:0:0:0:
483,257,179443,5,0,1:0:0:0:
421,190,179619,1,2,0:0:0:0:
421,190,179795,1,2,1:2:0:0:
474,116,179972,2,0,L|468:51,1,65,8|2,0:1|1:2,0:0:0:0:
386,11,180325,2,0,B|325:16|325:16|301:43,1,97.5,0|0,1:0|0:0,0:0:0:0:
286,87,180678,6,0,B|310:126|310:126|311:177,2,97.5,0|0|0,1:0|1:0|1:0,0:0:0:0:
215,29,181384,2,0,L|150:37,1,65,8|2,0:1|0:0,0:0:0:0:
91,106,181737,1,0,1:0:0:0:
91,106,182443,5,0,1:0:0:0:
91,106,182619,1,0,1:0:0:0:
136,184,182795,1,8,0:1:0:0:
108,271,182972,1,2,1:0:0:0:
108,271,183148,2,0,L|203:252,1,97.5,0|0,1:0|0:0,0:0:0:0:
245,271,183501,5,4,1:0:0:0:
299,197,183678,2,0,L|286:133,2,65,2|2|0,0:0|0:0|1:0,0:0:0:0:
369,254,184207,1,8,0:1:0:0:
439,311,184384,2,0,L|426:374,1,65,2|0,0:0|1:0,0:0:0:0:
268,47,185266,5,2,1:2:0:0:
268,47,185443,1,2,1:2:0:0:
214,120,185619,2,0,L|149:110,1,65,8|2,0:1|1:2,0:0:0:0:
85,175,185972,2,0,B|89:272,1,97.5,0|0,1:0|0:0,0:0:0:0:
93,318,186325,6,0,B|49:293|49:293|2:295,2,97.5,0|0|0,1:0|1:0|1:0,0:0:0:0:
166,371,187031,1,8,0:1:0:0:
241,321,187207,2,0,L|305:328,1,65,2|0,0:0|1:0,0:0:0:0:
463,105,187913,6,0,L|472:40,2,65,0|2|0,1:0|0:0|1:0,0:0:0:0:
391,162,188443,1,8,0:1:0:0:
323,101,188619,1,2,1:2:0:0:
323,101,188795,2,0,L|226:113,1,97.5,0|0,1:0|0:0,0:0:0:0:
186,91,189148,6,0,B|196:32|196:32|178:-1,2,97.5,0|0|0,1:0|1:0|1:0,0:0:0:0:
168,181,189854,1,8,0:1:0:0:
243,232,190031,2,0,L|306:217,1,65,2|0,0:0|1:0,0:0:0:0:
503,28,190737,5,0,1:0:0:0:
438,92,190913,1,2,0:0:0:0:
438,92,191090,1,2,1:2:0:0:
491,165,191266,2,0,L|481:229,1,65,8|2,0:1|1:2,0:0:0:0:
415,291,191619,2,0,B|367:301|367:301|323:278,1,97.5,0|0,1:0|0:0,0:0:0:0:
282,258,191972,6,0,L|187:280,2,97.5,0|0|0,1:0|1:0|1:0,0:0:0:0:
342,189,192678,1,8,0:1:0:0:
274,128,192854,2,0,L|210:113,1,65,2|0,0:0|1:0,0:0:0:0:
39,326,193560,6,0,L|27:261,2,65,0|0|0,0:0|1:0|1:0,0:0:0:0:
121,365,194090,1,8,0:1:0:0:
208,339,194266,1,2,1:2:0:0:
295,313,194443,2,0,B|354:320|354:320|382:345,1,97.5,0|0,1:0|0:0,0:0:0:0:
421,322,194795,6,0,L|439:226,1,97.5,4|0,1:0|1:0,0:0:0:0:
419,184,195148,2,0,L|354:187,1,65,0|0,0:0|1:0,0:0:0:0:
269,221,195501,1,8,0:1:0:0:
214,147,195678,2,0,L|221:82,1,65,2|0,0:0|1:0,0:0:0:0:
475,183,196560,6,0,L|487:246,2,65,0|0|8,1:0|1:0|0:1,0:0:0:0:
399,131,197089,1,2,1:2:0:0:
399,131,197266,2,0,L|302:142,1,97.5,0|0,1:0|0:0,0:0:0:0:
265,169,197619,6,0,B|281:214|281:214|269:262,2,97.5,0|0|0,1:0|1:0|1:0,0:0:0:0:
214,93,198325,1,8,0:1:0:0:
273,24,198501,2,0,L|336:36,1,65,2|0,0:0|1:0,0:0:0:0:
449,285,199207,6,0,L|462:221,2,65,0|0|0,1:0|0:0|1:0,0:0:0:0:
382,347,199737,1,8,0:1:0:0:
314,285,199913,1,2,0:0:0:0:
314,285,200090,2,0,B|256:274|256:274|220:288,1,97.5,0|0,1:0|0:0,0:0:0:0:
179,308,200443,6,0,L|190:211,2,97.5,0|0|0,1:0|1:0|1:0,0:0:0:0:
114,372,201148,1,8,0:1:0:0:
41,316,201325,2,0,L|33:251,1,65,2|0,0:0|1:0,0:0:0:0:
172,16,202031,5,0,1:0:0:0:
122,92,202207,1,2,0:0:0:0:
122,92,202384,1,2,1:2:0:0:
186,155,202560,2,0,L|249:142,1,65,8|2,0:1|1:2,0:0:0:0:
323,87,202913,2,0,B|387:91|387:91|415:109,1,97.5,0|0,1:0|0:0,0:0:0:0:
451,137,203266,6,0,L|463:40,2,97.5,0|0|0,1:0|1:0|1:0,0:0:0:0:
495,216,203972,1,8,0:1:0:0:
426,275,204148,2,0,L|362:263,1,65,2|0,0:0|1:0,0:0:0:0:
185,215,204854,5,0,1:0:0:0:
250,150,205031,1,0,0:0:0:0:
250,150,205119,1,0,0:0:0:0:
250,150,205207,2,0,L|263:86,1,65,8|0,0:1|0:0,0:0:0:0:
195,25,205560,1,2,0:0:0:0:
116,72,205737,2,0,B|58:86|58:86|-4:54,1,130,0|4,1:0|1:0,0:0:0:0:
