osu file format v14

[General]
AudioFilename: audio.mp3
AudioLeadIn: 0
PreviewTime: -1
Countdown: 1
SampleSet: Soft
StackLeniency: 0.4
Mode: 0
LetterboxInBreaks: 0
WidescreenStoryboard: 0

[Editor]
Bookmarks: 25384,31031,36678,47972,59266,81854,93148,104443,115737,127031,138325,149619,160913,172207,183501,194795,206090,217384,228678
DistanceSpacing: 1
BeatDivisor: 4
GridSize: 32
TimelineZoom: 2.899999

[Metadata]
Title:Treason
TitleUnicode:Treason
Artist:Dictate
ArtistUnicode:Dictate
Creator:Alexey11
Version:Extra
Source:
Tags:
BeatmapID:1629826
BeatmapSetID:775606

[Difficulty]
HPDrainRate:5
CircleSize:3.5
OverallDifficulty:8
ApproachRate:9.5
SliderMultiplier:2.8
SliderTickRate:1

[Events]
//Background and Video events
0,0,"bg1231.jpg",0,0
//Break Periods
2,37407,38976
2,43054,44623
2,45878,46565
2,104643,115212
2,139054,143447
2,144701,149094
//Storyboard Layer 0 (Background)
//Storyboard Layer 1 (Fail)
//Storyboard Layer 2 (Pass)
//Storyboard Layer 3 (Foreground)
//Storyboard Sound Samples

[TimingPoints]
2796,352.941176470588,4,2,1,100,1,0
2796,-1000,4,2,1,30,0,0
5619,-400,4,2,1,30,0,0
14795,-142.857142857143,4,2,1,30,0,0
25384,-100,4,2,1,45,0,0
28207,-200,4,2,1,45,0,0
28560,-100,4,2,1,45,0,0
33854,-200,4,2,1,45,0,0
34207,-100,4,2,1,45,0,0
36060,-200,4,2,1,45,0,0
42148,-200,4,2,1,5,0,0
42325,-200,4,2,1,45,0,0
47884,-200,4,2,1,5,0,0
47972,-200,4,2,1,45,0,0
53619,-133.333333333333,4,2,1,30,0,0
59266,-55.5555555555556,4,2,1,80,0,1
60148,-83.3333333333333,4,2,1,80,0,1
60325,-71.4285714285714,4,2,1,80,0,1
60501,-71.4285714285714,4,2,1,80,0,0
61031,-111.111111111111,4,2,1,80,0,1
61737,-55.5555555555556,4,2,1,80,0,1
62090,-71.4285714285714,4,2,1,80,0,1
62354,-90.9090909090909,4,2,1,80,0,1
62972,-111.111111111111,4,2,1,80,0,1
63148,-50,4,2,1,80,0,1
63325,-50,4,2,1,80,0,0
64031,-52.6315789473684,4,2,1,80,0,1
64207,-52.6315789473684,4,2,2,80,0,1
64295,-52.6315789473684,4,2,1,80,0,1
64384,-71.4285714285714,4,2,1,80,0,1
64560,-55.5555555555556,4,2,1,80,0,1
64913,-83.3333333333333,4,2,1,80,0,1
65972,-62.5,4,2,1,80,0,1
66148,-62.5,4,2,1,80,0,0
66501,-100,4,2,1,80,0,0
66678,-71.4285714285714,4,2,1,80,0,1
67384,-55.5555555555556,4,2,1,80,0,1
67737,-71.4285714285714,4,2,1,80,0,1
68001,-90.9090909090909,4,2,1,80,0,1
68619,-71.4285714285714,4,2,1,80,0,1
68795,-55.5555555555556,4,2,1,80,0,1
68972,-55.5555555555556,4,2,1,80,0,0
69501,-83.3333333333333,4,2,1,80,0,1
69854,-55.5555555555556,4,2,1,80,0,1
70031,-55.5555555555556,4,2,3,80,0,1
70119,-55.5555555555556,4,2,1,80,0,1
70207,-333.333333333333,4,2,1,80,0,1
70560,-55.5555555555556,4,2,1,80,0,1
70913,-83.3333333333333,4,2,1,80,0,1
71619,-55.5555555555556,4,2,1,80,0,1
71795,-55.5555555555556,4,2,1,80,0,0
72148,-111.111111111111,4,2,1,80,0,0
72325,-71.4285714285714,4,2,1,80,0,1
73031,-62.5,4,2,1,80,0,1
73384,-71.4285714285714,4,2,1,80,0,1
73648,-100,4,2,1,80,0,1
74443,-71.4285714285714,4,2,1,80,0,1
74619,-71.4285714285714,4,2,1,80,0,0
75325,-50,4,2,1,80,0,0
75501,-71.4285714285714,4,2,1,80,0,1
75854,-71.4285714285714,4,2,1,80,0,1
77090,-200,4,2,1,80,0,1
77266,-50,4,2,1,80,0,1
77443,-50,4,2,1,80,0,0
77972,-71.4285714285714,4,2,1,80,0,1
78678,-50,4,2,1,80,0,1
79031,-71.4285714285714,4,2,1,80,0,1
79295,-100,4,2,1,80,0,1
80090,-50,4,2,1,80,0,1
80266,-50,4,2,1,80,0,0
80619,-200,4,2,1,80,0,1
80972,-55.5555555555556,4,2,1,80,0,1
81148,-50,4,2,2,80,0,1
81237,-50,4,2,1,80,0,1
81325,-50,4,2,1,80,0,1
81501,-200,4,2,1,80,0,1
81854,-66.6666666666667,4,2,1,80,0,1
82207,-83.3333333333333,4,2,1,80,0,1
82913,-55.5555555555556,4,2,1,80,0,1
83090,-55.5555555555556,4,2,1,80,0,0
83443,-200,4,2,1,80,0,0
83619,-71.4285714285714,4,2,1,80,0,1
84325,-62.5,4,2,1,80,0,1
84943,-83.3333333333333,4,2,1,80,0,1
85737,-55.5555555555556,4,2,1,80,0,1
85913,-55.5555555555556,4,2,1,80,0,0
86266,-71.4285714285714,4,2,1,80,0,1
87148,-62.5,4,2,1,80,0,1
87501,-83.3333333333333,4,2,1,80,0,1
88560,-55.5555555555556,4,2,1,80,0,1
88737,-55.5555555555556,4,2,1,80,0,0
89266,-83.3333333333333,4,2,1,80,0,1
89972,-62.5,4,2,1,80,0,1
90325,-71.4285714285714,4,2,1,80,0,1
90590,-90.9090909090909,4,2,1,80,0,1
91384,-55.5555555555556,4,2,1,80,0,1
91560,-55.5555555555556,4,2,1,80,0,0
92090,-71.4285714285714,4,2,1,80,0,1
92795,-133.333333333333,4,2,1,80,0,1
93148,-55.5555555555556,4,2,1,80,0,1
93501,-71.4285714285714,4,2,1,80,0,1
94031,-142.857142857143,4,2,1,80,0,1
94207,-55.5555555555556,4,2,1,80,0,1
94384,-55.5555555555556,4,2,1,80,0,0
94737,-142.857142857143,4,2,1,80,0,0
94913,-71.4285714285714,4,2,1,80,0,1
95619,-55.5555555555556,4,2,1,80,0,1
95972,-71.4285714285714,4,2,1,80,0,1
96237,-90.9090909090909,4,2,1,80,0,1
97031,-55.5555555555556,4,2,1,80,0,1
97207,-55.5555555555556,4,2,1,80,0,0
98090,-71.4285714285714,4,2,1,80,0,1
98443,-55.5555555555556,4,2,1,80,0,1
98795,-71.4285714285714,4,2,1,80,0,1
99678,-90.9090909090909,4,2,1,80,0,1
99854,-55.5555555555556,4,2,1,80,0,1
100031,-55.5555555555556,4,2,1,80,0,0
100560,-71.4285714285714,4,2,1,80,0,1
101266,-55.5555555555556,4,2,1,80,0,1
101619,-71.4285714285714,4,2,1,80,0,1
101884,-90.9090909090909,4,2,1,80,0,1
102678,-55.5555555555556,4,2,1,80,0,1
102854,-55.5555555555556,4,2,1,80,0,0
103031,-200,4,2,1,30,0,0
103560,-90.9090909090909,4,2,1,30,0,0
104443,-50,4,2,1,45,0,0
115737,-100,4,2,1,45,0,0
118295,-71.4285714285714,4,2,1,45,0,0
118560,-200,4,2,1,45,0,0
118913,-100,4,2,1,45,0,0
124207,-200,4,2,1,45,0,0
124560,-100,4,2,1,45,0,0
129854,-200,4,2,1,45,0,0
130207,-100,4,2,1,45,0,0
135501,-200,4,2,1,45,0,0
135854,-100,4,2,1,45,0,0
149619,-200,4,2,1,45,0,0
155266,-100,4,2,1,45,0,0
160207,-125,4,2,1,45,0,0
160913,-55.5555555555556,4,2,1,80,0,1
161266,-71.4285714285714,4,2,1,80,0,1
162237,-71.4285714285714,4,2,1,80,0,0
162501,-142.857142857143,4,2,1,80,0,0
162678,-71.4285714285714,4,2,1,80,0,1
163384,-62.5,4,2,1,80,0,1
163737,-71.4285714285714,4,2,1,80,0,1
164001,-90.9090909090909,4,2,1,80,0,1
164619,-90.9090909090909,4,2,1,80,0,1
164795,-55.5555555555556,4,2,1,80,0,1
164972,-55.5555555555556,4,2,1,80,0,0
165678,-50,4,2,1,80,0,1
166207,-62.5,4,2,1,80,0,1
166560,-71.4285714285714,4,2,1,80,0,1
167619,-55.5555555555556,4,2,1,80,0,1
167795,-55.5555555555556,4,2,1,80,0,0
168325,-55.5555555555556,4,2,1,80,0,1
168854,-71.4285714285714,4,2,1,80,0,1
169031,-50,4,2,1,80,0,1
169384,-71.4285714285714,4,2,1,80,0,1
169648,-90.9090909090909,4,2,1,80,0,1
170443,-55.5555555555556,4,2,1,80,0,1
170619,-55.5555555555556,4,2,1,80,0,0
171148,-71.4285714285714,4,2,1,80,0,1
171854,-142.857142857143,4,2,1,80,0,1
172207,-55.5555555555556,4,2,1,80,0,1
172560,-71.4285714285714,4,2,1,80,0,1
173090,-142.857142857143,4,2,1,80,0,1
173266,-55.5555555555556,4,2,1,80,0,1
173443,-55.5555555555556,4,2,1,80,0,0
173795,-142.857142857143,4,2,1,80,0,0
173972,-71.4285714285714,4,2,1,80,0,1
174678,-55.5555555555556,4,2,1,80,0,1
175031,-71.4285714285714,4,2,1,80,0,1
175295,-90.9090909090909,4,2,1,80,0,1
176090,-55.5555555555556,4,2,1,80,0,1
176266,-55.5555555555556,4,2,1,80,0,0
176795,-71.4285714285714,4,2,1,80,0,1
178913,-55.5555555555556,4,2,1,80,0,1
179090,-55.5555555555556,4,2,1,80,0,0
179619,-71.4285714285714,4,2,1,80,0,1
180325,-50,4,2,1,80,0,1
180678,-62.5,4,2,1,80,0,1
180943,-83.3333333333333,4,2,1,80,0,1
181737,-55.5555555555556,4,2,1,80,0,1
181913,-55.5555555555556,4,2,1,80,0,0
182090,-500,4,2,1,10,0,0
182443,-71.4285714285714,4,2,1,80,0,1
183148,-200,4,2,1,80,0,1
183501,-55.5555555555556,4,2,1,80,0,1
183854,-71.4285714285714,4,2,1,80,0,1
184560,-55.5555555555556,4,2,1,80,0,1
184737,-55.5555555555556,4,2,1,80,0,0
185090,-142.857142857143,4,2,1,80,0,0
185266,-71.4285714285714,4,2,1,80,0,1
185972,-55.5555555555556,4,2,1,80,0,1
186325,-71.4285714285714,4,2,1,80,0,1
186590,-90.9090909090909,4,2,1,80,0,1
187384,-55.5555555555556,4,2,1,80,0,1
187560,-55.5555555555556,4,2,1,80,0,0
188090,-200,4,2,1,80,0,0
188795,-55.5555555555556,4,2,1,80,0,1
189148,-71.4285714285714,4,2,1,80,0,1
190207,-55.5555555555556,4,2,1,80,0,1
190384,-55.5555555555556,4,2,1,80,0,0
190913,-71.4285714285714,4,2,1,80,0,1
191619,-55.5555555555556,4,2,1,80,0,1
191972,-71.4285714285714,4,2,1,80,0,1
192237,-100,4,2,1,80,0,1
192854,-71.4285714285714,4,2,1,80,0,1
193031,-55.5555555555556,4,2,1,80,0,1
193207,-55.5555555555556,4,2,1,80,0,0
193737,-71.4285714285714,4,2,1,80,0,1
194090,-55.5555555555556,4,2,1,80,0,1
194443,-200,4,2,1,80,0,1
194795,-55.5555555555556,4,2,1,80,0,1
195148,-71.4285714285714,4,2,1,80,0,1
195854,-55.5555555555556,4,2,1,80,0,1
196031,-55.5555555555556,4,2,1,80,0,0
196384,-142.857142857143,4,2,1,80,0,0
196560,-71.4285714285714,4,2,1,80,0,1
197266,-62.5,4,2,1,80,0,1
197619,-71.4285714285714,4,2,1,80,0,1
197884,-90.9090909090909,4,2,1,80,0,1
198501,-142.857142857143,4,2,1,80,0,1
198678,-55.5555555555556,4,2,1,80,0,1
198854,-55.5555555555556,4,2,1,80,0,0
199737,-71.4285714285714,4,2,1,80,0,1
200090,-55.5555555555556,4,2,1,80,0,1
200443,-71.4285714285714,4,2,1,80,0,1
200707,-71.4285714285714,4,2,1,80,0,1
201148,-90.9090909090909,4,2,1,80,0,1
201501,-55.5555555555556,4,2,1,80,0,1
201678,-55.5555555555556,4,2,1,80,0,0
202207,-71.4285714285714,4,2,1,80,0,1
202913,-55.5555555555556,4,2,1,80,0,1
203266,-71.4285714285714,4,2,1,80,0,1
203531,-100,4,2,1,80,0,1
204148,-142.857142857143,4,2,1,80,0,1
204325,-55.5555555555556,4,2,1,80,0,1
204678,-142.857142857143,4,2,1,50,0,0
205207,-100,4,2,1,50,0,0
206090,-833.333333333333,4,2,1,30,0,0
217384,-833.333333333333,4,2,1,30,0,0
233972,-833.333333333333,4,2,1,5,0,0
236090,-25,4,2,1,80,0,0
236101,-1000,4,2,1,80,0,0

[Colours]
Combo1 : 235,183,95
Combo2 : 240,128,141
Combo3 : 236,102,247
Combo4 : 241,41,62
Combo5 : 157,157,157
Combo6 : 255,255,255

[HitObjects]
384,59,2796,70,0,B|417:86|417:86|402:252,1,210,0|0,1:0|0:0,0:0:0:0:
458,315,5619,54,0,B|430:280|374:281|347:310|347:310|334:310|334:310|297:350|240:350|213:325|213:325|265:317|307:274|310:190|245:165|200:194|205:263,1,525
74,254,8443,6,0,B|45:285|48:336|100:365|100:365|151:333|151:275|105:244|105:244|55:210|37:158|56:96|56:96|55:147|87:177,1,525
149,108,11266,54,0,B|220:67|280:139|280:139|290:133|290:133|331:205|406:219|466:188|502:97|433:37|374:74|370:127,1,490
347,279,14090,5,0,1:0:0:0:
326,277,14178,1,0,0:0:0:0:
305,275,14266,1,0,0:0:0:0:
284,273,14354,1,0,0:0:0:0:
240,299,14443,53,0,0:0:0:0:
219,301,14531,1,0,0:0:0:0:
198,303,14619,1,0,0:0:0:0:
177,305,14707,1,0,0:0:0:0:
156,307,14795,5,0,0:0:0:0:
24,322,14972,1,0,1:0:0:0:
77,202,15148,5,0,1:0:0:0:
79,230,15237,1,0,1:0:0:0:
177,174,15413,5,0,0:0:0:0:
175,146,15501,2,0,L|171:90,3,48.9999985046387,0|0|0|0,1:0|0:0|0:0|0:0,0:0:0:0:
269,37,15854,2,0,L|273:93,2,48.9999985046387
362,197,16119,5,0,1:0:0:0:
328,201,16207,1,0,0:0:0:0:
370,105,16384,5,0,1:0:0:0:
404,101,16472,1,0,0:0:0:0:
438,97,16560,1,0,1:0:0:0:
459,290,16737,5,0,0:0:0:0:
425,294,16825,1,0,0:0:0:0:
391,298,16913,5,0,1:0:0:0:
370,300,17001,1,0,0:0:0:0:
349,302,17089,1,0,0:0:0:0:
328,304,17177,1,0,0:0:0:0:
284,278,17266,5,0,0:0:0:0:
184,237,17443,5,0,0:0:0:0:
172,284,17531,1,0,0:0:0:0:
187,330,17619,1,0,0:0:0:0:
381,226,17795,5,0,1:0:0:0:
282,126,17972,5,0,1:0:0:0:
280,154,18061,1,0,1:0:0:0:
171,105,18237,5,0,0:0:0:0:
173,77,18325,2,0,L|177:21,3,48.9999985046387,0|0|0|0,1:0|0:0|0:0|0:0,0:0:0:0:
60,143,18678,2,0,L|64:87,2,48.9999985046387,0|0|0,1:0|0:0|0:0,0:0:0:0:
37,243,18943,5,0,1:0:0:0:
71,239,19031,1,0,0:0:0:0:
196,317,19207,5,0,1:0:0:0:
162,321,19295,1,0,0:0:0:0:
128,325,19384,1,0,1:0:0:0:
244,217,19560,5,0,0:0:0:0:
278,213,19648,1,0,0:0:0:0:
312,209,19737,2,0,L|380:200,3,48.9999985046387,0|0|0|0,1:0|0:0|0:0|0:0,0:0:0:0:
406,82,20090,6,0,P|385:111|381:134,1,48.9999985046387,2|0,0:0|0:0,0:0:0:0:
389,242,20266,5,0,0:0:0:0:
396,265,20354,1,0,0:0:0:0:
412,283,20442,1,0,0:0:0:0:
504,188,20619,1,0,1:0:0:0:
293,45,20795,5,0,1:0:0:0:
315,60,20884,1,0,1:0:0:0:
238,116,21060,5,0,0:0:0:0:
212,132,21148,2,0,P|188:140|155:129,3,48.9999985046387,0|0|0|0,1:0|0:0|0:0|0:0,0:0:0:0:
52,39,21501,6,0,P|77:55|91:84,1,48.9999985046387,0|0,1:0|0:0,0:0:0:0:
76,167,21678,5,0,0:0:0:0:
63,188,21766,1,0,1:0:0:0:
61,212,21854,1,0,0:0:0:0:
95,336,22031,1,0,1:0:0:0:
186,245,22207,2,0,L|290:254,1,97.9999970092774,0|0,1:0|0:0,0:0:0:0:
360,310,22560,5,0,1:0:0:0:
371,288,22648,1,0,0:0:0:0:
377,264,22736,1,0,0:0:0:0:
376,240,22824,1,0,0:0:0:0:
369,216,22913,5,0,0:0:0:0:
357,194,23001,1,0,0:0:0:0:
351,170,23089,1,0,0:0:0:0:
352,146,23177,1,0,0:0:0:0:
361,123,23266,5,0,0:0:0:0:
283,253,23443,1,0,1:0:0:0:
480,160,23619,5,0,1:0:0:0:
444,164,23707,1,0,1:0:0:0:
401,49,23884,5,0,0:0:0:0:
437,45,23972,2,0,L|489:40,3,48.9999985046387,0|0|0|0,1:0|0:0|0:0|0:0,0:0:0:0:
311,44,24325,2,0,L|259:39,2,48.9999985046387,0|0|0,1:0|0:0|0:0,0:0:0:0:
289,160,24590,5,0,1:0:0:0:
253,156,24678,1,0,0:0:0:0:
252,331,24854,1,0,1:0:0:0:
261,245,25031,1,0,1:0:0:0:
261,245,25384,6,0,P|213:256|187:283,1,70,0|0,1:0|0:0,0:0:0:0:
110,346,25560,5,0,0:0:0:0:
106,310,25648,1,0,0:0:0:0:
83,278,25737,5,0,0:0:0:0:
87,242,25825,1,0,0:0:0:0:
117,209,25913,2,0,P|106:161|79:135,1,70,8|0,0:0|0:0,0:0:0:0:
193,272,26090,5,0,0:0:0:0:
229,268,26178,1,0,0:0:0:0:
261,245,26267,5,0,0:0:0:0:
297,249,26355,1,0,0:0:0:0:
330,279,26443,2,0,P|378:268|404:241,1,70,8|0,0:0|0:0,0:0:0:0:
413,157,26619,5,0,0:0:0:0:
417,121,26707,1,0,0:0:0:0:
421,85,26795,2,0,P|410:37|383:11,1,70,0|0,1:0|0:0,0:0:0:0:
260,77,26972,2,0,P|307:91|343:81,1,70,0|0,1:0|0:0,0:0:0:0:
123,59,27148,2,0,L|37:50,1,70,8|0,0:3|0:0,0:0:0:0:
177,160,27325,5,0,1:0:0:0:
177,185,27413,1,0,0:0:0:0:
164,218,27501,5,0,0:0:0:0:
150,262,27589,1,0,0:0:0:0:
154,308,27677,1,0,0:0:0:0:
175,350,27765,1,0,0:0:0:0:
216,339,27854,5,8,0:3:0:0:
240,333,27942,1,0,0:0:0:0:
268,352,28031,5,8,0:3:0:0:
292,358,28119,1,0,0:0:0:0:
325,333,28207,6,0,L|438:321,1,105
490,238,28560,2,0,P|494:193|474:153,1,70,0|0,1:0|0:0,0:0:0:0:
468,72,28737,2,0,P|427:91|402:128,1,70,8|0,0:0|0:0,0:0:0:0:
354,196,28913,5,0,0:0:0:0:
336,211,29001,1,0,0:0:0:0:
316,222,29089,1,0,0:0:0:0:
293,226,29177,1,0,0:0:0:0:
272,226,29266,2,0,L|198:219,1,70,8|0,0:3|0:0,0:0:0:0:
129,88,29443,5,0,0:0:0:0:
156,60,29531,1,0,0:0:0:0:
193,46,29619,2,0,P|206:93|196:120,1,70,0|0,1:0|0:0,0:0:0:0:
64,130,29795,2,0,P|50:82|60:55,1,70,0|0,1:0|0:0,0:0:0:0:
288,75,29972,2,0,L|377:67,1,70,8|0,0:3|0:0,0:0:0:0:
119,213,30148,5,0,1:0:0:0:
99,229,30237,1,0,0:0:0:0:
79,245,30325,5,0,0:0:0:0:
130,249,30413,1,0,1:0:0:0:
183,255,30501,1,0,0:0:0:0:
236,260,30590,1,0,0:0:0:0:
264,231,30678,5,0,0:0:0:0:
299,228,30766,1,0,0:0:0:0:
320,269,30854,5,0,0:0:0:0:
357,273,30943,1,0,0:0:0:0:
397,239,31031,5,0,1:0:0:0:
461,45,31207,5,0,0:0:0:0:
425,49,31295,1,0,0:0:0:0:
393,72,31384,5,0,0:0:0:0:
357,68,31472,1,0,0:0:0:0:
324,38,31560,2,0,P|276:49|250:76,1,70,8|0,0:0|0:0,0:0:0:0:
228,171,31737,5,0,0:0:0:0:
192,167,31825,1,0,0:0:0:0:
160,144,31914,5,0,0:0:0:0:
124,148,32002,1,0,0:0:0:0:
91,178,32090,2,0,P|43:167|17:140,1,70,8|0,0:0|0:0,0:0:0:0:
106,33,32266,5,0,0:0:0:0:
149,41,32354,1,0,0:0:0:0:
192,49,32443,2,0,L|295:67,1,70,0|0,1:0|0:0,0:0:0:0:
394,169,32619,2,0,L|291:187,1,70,0|0,1:0|0:0,0:0:0:0:
224,267,32795,2,0,P|197:243|194:199,1,70,8|0,0:3|0:0,0:0:0:0:
260,61,32972,5,0,1:0:0:0:
294,60,33060,1,0,0:0:0:0:
328,78,33148,5,0,0:0:0:0:
357,96,33236,1,0,1:0:0:0:
391,99,33324,1,0,0:0:0:0:
424,86,33412,1,0,0:0:0:0:
447,60,33500,5,8,0:3:0:0:
450,104,33590,1,0,0:0:0:0:
426,126,33678,5,8,0:3:0:0:
423,169,33766,1,0,0:0:0:0:
448,200,33854,2,0,L|458:317,1,105
347,228,34207,6,0,L|353:310,1,70,0|0,1:0|0:0,0:0:0:0:
250,306,34384,2,0,L|244:224,1,70,8|0,0:0|0:0,0:0:0:0:
113,153,34560,5,0,0:0:0:0:
135,179,34648,1,0,0:0:0:0:
146,212,34736,1,0,0:0:0:0:
145,247,34824,1,0,0:0:0:0:
131,278,34913,2,0,P|108:311|65:326,1,70,8|0,0:3|0:0,0:0:0:0:
241,157,35090,5,0,0:0:0:0:
252,124,35178,1,0,0:0:0:0:
274,98,35266,2,0,P|297:65|340:50,1,70,0|0,1:0|0:0,0:0:0:0:
349,141,35443,2,0,P|366:177|357:222,1,70,0|0,1:0|0:0,0:0:0:0:
213,24,35619,2,0,L|137:30,1,70,8|0,0:3|0:0,0:0:0:0:
38,41,35795,5,0,1:0:0:0:
42,67,35884,1,0,0:0:0:0:
23,98,35972,5,0,0:0:0:0:
16,123,36060,2,0,P|33:200|154:232,1,210,0|0,1:0|0:0,0:0:0:0:
255,189,36678,5,0,0:0:0:0:
255,189,37207,1,0,0:0:0:0:
161,186,39501,5,0,1:0:0:0:
360,186,40030,1,0,1:0:0:0:
256,192,40913,12,0,42148,0:0:0:0:
256,192,42325,5,0,0:0:0:0:
256,192,42854,1,0,0:0:0:0:
256,132,45148,5,0,1:0:0:0:
256,242,45678,1,0,1:0:0:0:
256,192,47090,12,0,47884,0:0:0:0:
134,151,47972,6,0,P|199:115|263:134,1,140,0|0,1:0|0:0,0:0:0:0:
227,322,48678,2,0,P|191:257|210:193,1,140,8|0,0:0|0:0,0:0:0:0:
377,85,49384,6,0,P|302:86|256:134,1,140,0|0,1:0|0:0,0:0:0:0:
381,279,50090,2,0,P|379:204|331:158,1,140,8|0,0:0|0:0,0:0:0:0:
195,265,50795,6,0,L|37:278,1,140,0|0,1:0|0:0,0:0:0:0:
104,43,51501,2,0,L|117:200,1,140,8|0,0:0|0:0,0:0:0:0:
260,103,52207,2,0,L|417:89,1,140,0|0,1:0|0:0,0:0:0:0:
351,325,52913,2,0,L|337:167,1,140,8|0,0:0|0:0,0:0:0:0:
243,63,53619,6,0,P|184:60|134:95,1,105.000004005432,0|0,1:0|0:0,0:0:0:0:
229,244,53972,2,0,P|231:185|197:135,1,105.000004005432,0|0,1:0|0:0,0:0:0:0:
47,230,54325,2,0,P|105:232|156:197,1,105.000004005432,8|0,0:0|0:0,0:0:0:0:
61,48,54678,2,0,P|58:106|93:157,1,105.000004005432,0|0,1:0|0:0,0:0:0:0:
373,230,55031,6,0,L|508:218,1,105.000004005432,0|0,1:0|0:0,0:0:0:0:
184,136,55384,2,0,L|48:147,1,105.000004005432,0|0,1:0|0:0,0:0:0:0:
354,120,55737,2,0,L|342:-15,1,105.000004005432,8|0,0:0|0:0,0:0:0:0:
203,246,56090,2,0,L|214:381,1,105.000004005432,0|0,1:0|0:0,0:0:0:0:
476,280,56443,5,0,1:0:0:0:
344,315,56619,1,0,1:0:0:0:
345,57,56795,1,0,1:0:0:0:
390,229,56971,1,0,1:0:0:0:
184,136,57148,5,0,1:0:0:0:
52,101,57324,1,0,1:0:0:0:
53,359,57500,1,0,1:0:0:0:
98,187,57678,1,0,1:0:0:0:
236,278,57854,5,0,1:0:0:0:
269,260,57942,1,0,1:0:0:0:
305,253,58030,1,0,1:0:0:0:
342,260,58118,1,0,1:0:0:0:
373,280,58206,1,0,1:0:0:0:
408,294,58295,1,0,1:0:0:0:
445,294,58383,1,0,1:0:0:0:
480,280,58471,1,0,1:0:0:0:
497,210,58560,6,0,L|503:140,1,52.5000020027161,0|0,1:0|1:0,1:0:0:0:
400,28,58737,2,0,L|393:97,1,52.5000020027161,0|0,1:0|1:0,1:0:0:0:
237,184,58913,6,0,L|243:114,1,52.5000020027161,0|0,1:0|1:0,1:0:0:0:
140,2,59090,2,0,L|133:71,1,52.5000020027161,0|0,1:0|1:0,1:0:0:0:
46,215,59266,6,0,B|187:183|136:311|309:258,1,251.999992309571,0|0,1:0|0:0,0:0:0:0:
393,228,59531,1,0,1:0:0:0:
197,303,59707,5,0,0:0:0:0:
183,321,59795,1,0,1:0:0:0:
474,354,59972,1,8,0:0:0:0:
367,85,60148,6,0,P|341:121|347:165,1,83.9999974365235,2|0,0:0|0:0,0:0:0:0:
496,63,60325,54,0,B|423:48|423:48|368:63|368:63|270:44,1,195.999994018555,0|0,1:0|0:0,0:0:0:0:
304,50,60854,6,0,L|242:35,2,48.9999985046387
256,124,61031,6,0,P|234:156|210:167,1,62.9999980773926,0|0,1:0|0:0,0:0:0:0:
153,32,61207,2,0,P|158:70|174:91,1,62.9999980773926,0|0,1:0|0:0,0:0:0:0:
420,212,61384,1,8,0:0:0:0:
354,132,61560,6,0,P|396:125|417:86,1,62.9999980773926,0|0,1:0|0:0,0:0:0:0:
92,109,61737,2,0,B|66:82|70:40|70:40|16:183|16:183|48:301|48:301|58:336|58:336,1,377.999988464356,0|0,1:0|0:0,0:0:0:0:
125,232,62090,6,0,B|270:211|270:211|242:218|213:248,1,195.999994018555,0|0,1:0|0:0,0:0:0:0:
413,309,62354,6,0,B|295:288|295:288|318:295|340:323,1,154.000004699707,0|0,1:0|0:0,0:0:0:0:
267,369,62619,1,0,1:0:0:0:
383,59,62795,1,8,0:0:0:0:
383,59,62972,6,0,L|390:13,2,31.4999990386963,2|0|0,0:0|0:0|0:0,0:0:0:0:
435,131,63148,6,0,B|373:171|304:110|304:110|300:115|300:115|235:51|144:108,1,280,0|0,1:0|0:0,0:0:0:0:
181,89,63678,5,0,1:0:0:0:
24,97,63854,1,0,0:0:0:0:
101,32,64031,6,0,B|45:-15|45:-15|72:243|72:243|86:199|110:182,1,398.999989345551,0|0,1:0|0:0,0:0:0:0:
255,201,64384,2,0,P|242:142|206:111,1,97.9999970092774,0|0,1:0|0:0,0:0:0:0:
152,320,64560,2,0,P|163:246|321:349,1,377.999988464356,0|0,1:0|0:0,0:0:0:0:
337,140,64913,6,0,P|379:169|413:221,1,83.9999974365235,0|0,1:0|0:0,0:0:0:0:
398,86,65090,1,0,0:0:0:0:
399,73,65178,2,0,P|441:102|475:154,1,83.9999974365235,0|0,1:0|0:0,0:0:0:0:
491,292,65354,1,0,0:0:0:0:
500,304,65443,2,0,P|503:253|482:194,1,83.9999974365235,0|0,1:0|0:0,0:0:0:0:
247,299,65619,1,8,0:0:0:0:
120,126,65795,6,0,P|163:141|180:186,1,83.9999974365235,2|0,0:0|0:0,0:0:0:0:
264,25,65972,2,0,B|251:97|251:97|272:173|272:173|254:271,1,224,0|0,1:0|0:0,0:0:0:0:
258,244,66501,5,0,1:0:0:0:
468,99,66678,2,0,P|446:141|403:162,1,97.9999970092774
332,96,66854,2,0,P|354:53|398:33,1,97.9999970092774,0|0,1:0|0:0,0:0:0:0:
257,335,67031,1,8,0:0:0:0:
340,279,67207,6,0,P|293:242|238:252,1,97.9999970092774,0|0,1:0|0:0,0:0:0:0:
49,345,67384,6,0,B|32:228|32:228|135:128|135:128|110:4,1,377.999988464356,0|0,1:0|0:0,0:0:0:0:
178,208,67737,6,0,B|231:152|231:152|205:34,1,195.999994018555,0|0,1:0|0:0,0:0:0:0:
242,153,68001,6,0,B|335:171|335:171|377:126,1,154.000004699707,0|0,1:0|0:0,0:0:0:0:
415,61,68266,1,0,1:0:0:0:
118,263,68443,1,8,0:0:0:0:
325,296,68619,6,0,P|298:250|246:246,1,97.9999970092774,2|0,0:0|0:0,0:0:0:0:
462,338,68795,6,0,P|357:308|450:248,1,251.999992309571,0|0,1:0|0:0,0:0:0:0:
427,238,69325,5,0,0:0:0:0:
431,222,69413,1,0,0:0:0:0:
436,206,69501,2,0,P|361:196|356:126,1,83.9999974365235,0|0,1:0|0:0,0:0:0:0:
435,32,69678,2,0,P|435:77|347:87,1,83.9999974365235,0|0,1:0|0:0,0:0:0:0:
193,103,69854,6,0,B|176:56|226:27|226:27|307:59|254:158|254:158|164:194|215:331,1,377.999988464356,8|0,0:0|0:0,0:0:0:0:
312,304,70207,6,0,L|282:233,1,62.9999980773926,0|0,1:0|0:0,0:0:0:0:
381,130,70560,6,0,B|237:94|303:203|118:171,1,251.999992309571,0|0,1:0|0:0,0:0:0:0:
58,129,70825,5,0,1:0:0:0:
0,67,70913,2,0,P|37:105|53:183,1,83.9999974365235,2|0,0:0|0:0,0:0:0:0:
50,233,71090,5,0,1:0:0:0:
359,207,71266,1,8,0:0:0:0:
380,329,71443,6,0,P|327:302|323:242,1,83.9999974365235,0|0,0:1|0:0,0:0:0:0:
306,81,71619,2,0,B|337:57|390:61|390:61|440:103|436:162|436:162|410:128|356:105,1,251.999992309571,0|0,1:0|0:0,0:0:0:0:
400,129,72148,6,0,L|351:138,2,31.4999990386963
325,210,72325,6,0,P|264:216|241:165,1,97.9999970092774,0|0,1:0|0:0,0:0:0:0:
168,155,72501,2,0,P|146:97|189:62,1,97.9999970092774,0|0,1:0|0:0,0:0:0:0:
446,261,72678,1,8,0:0:0:0:
457,106,72854,6,0,P|496:151|487:192,1,97.9999970092774,0|0,1:0|0:0,0:0:0:0:
379,324,73031,6,0,B|301:390|227:320|227:320|152:247|70:328|70:328,1,336,0|0,1:0|0:0,0:0:0:0:
268,250,73384,6,0,P|142:209|71:233,1,195.999994018555,0|0,1:0|0:0,0:0:0:0:
195,211,73648,6,0,P|229:137|308:95,1,140,0|0,1:0|0:0,0:0:0:0:
357,76,73913,1,0,1:0:0:0:
8,58,74090,1,8,0:0:0:0:
84,225,74266,6,0,P|86:187|51:131,1,70,2|0,0:0|0:0,0:0:0:0:
0,267,74443,54,0,B|57:281|57:281|111:265|111:265|226:283,1,195.999994018555,0|0,1:0|0:0,0:0:0:0:
191,277,74972,5,0,1:0:0:0:
288,167,75148,1,0,0:0:0:0:
385,57,75325,1,0,1:0:0:0:
114,189,75501,6,0,P|139:154|190:147,1,97.9999970092774,8|0,0:0|0:0,0:0:0:0:
306,340,75678,2,0,P|337:301|333:250,1,97.9999970092774,0|0,1:0|0:0,0:0:0:0:
46,58,75854,6,0,B|71:98|51:135|51:135|54:142|54:142|30:169|32:218|64:248|64:248|60:255|60:255|91:308|71:352,1,293.999991027832,0|0,1:0|0:0,0:0:0:0:
212,363,76207,6,0,P|190:297|146:287,1,97.9999970092774,0|0,1:0|0:0,0:0:0:0:
129,200,76384,1,0,0:0:0:0:
114,189,76472,2,0,P|181:203|212:170,1,97.9999970092774,0|0,1:0|0:0,0:0:0:0:
298,198,76648,1,0,0:0:0:0:
314,192,76737,2,0,P|268:243|281:286,1,97.9999970092774,0|0,1:0|0:0,0:0:0:0:
495,346,76913,1,8,0:0:0:0:
495,346,77090,6,0,L|522:348,2,17.5,2|0|0,0:0|0:0|0:0,0:0:0:0:
396,384,77266,6,0,B|365:362|362:298|393:268|393:268|413:267|413:267|446:224|444:167|391:123,1,280,0|0,1:0|0:0,0:0:0:0:
413,145,77795,5,0,1:0:0:0:
174,101,77972,2,0,P|212:130|287:120,1,97.9999970092774
300,32,78148,2,0,P|261:2|186:12,1,97.9999970092774,0|0,1:0|0:0,0:0:0:0:
77,325,78325,1,8,0:0:0:0:
57,170,78501,6,0,P|25:222|39:262,1,97.9999970092774,0|0,1:0|0:0,0:0:0:0:
263,332,78678,6,0,B|329:358|329:358|289:265|289:265|254:236|254:236|283:201|283:201|307:103|307:103|246:140,1,420,0|0,1:0|0:0,0:0:0:0:
377,163,79031,6,0,B|407:20|407:20|314:82,1,195.999994018555,0|0,1:0|0:0,0:0:0:0:
415,99,79295,6,0,B|522:132|522:132|475:62,1,140,0|0,1:0|0:0,0:0:0:0:
504,18,79560,1,0,1:0:0:0:
178,173,79737,1,8,0:0:0:0:
178,173,79913,6,0,L|240:183,2,35,2|0|0,0:0|0:0|0:0,0:0:0:0:
118,94,80090,6,0,B|91:90|75:71|75:71|95:102|89:145|89:145|80:187|97:218|97:218|119:256|103:297,1,280,0|0,1:0|0:0,0:0:0:0:
104,293,80619,6,0,L|154:297,1,35
416,310,80795,1,0,1:0:0:0:
259,262,80972,6,0,B|238:314|238:314|273:331|273:331|309:311|309:311|266:202|266:202|276:164|274:130|274:130|280:160|301:186,1,377.999988464356,0|0,1:0|0:0,0:0:0:0:
190,154,81325,1,0,1:0:0:0:
304,36,81501,6,0,B|282:56|282:56|273:146,1,105,0|0,1:0|0:0,0:0:0:0:
37,30,81854,6,0,B|1:57|-1:118|41:163|41:163|37:181|37:181|77:216|77:276|39:319,1,315.000012016297,0|0,1:1|0:0,0:0:0:0:
86,241,82207,6,0,P|139:235|169:205,1,83.9999974365235,0|0,0:1|0:0,0:0:0:0:
99,93,82384,1,0,1:0:0:0:
412,320,82560,1,8,0:0:0:0:
306,172,82737,6,0,P|361:170|397:235,1,105.000004005432,2|0,0:0|0:0,0:0:0:0:
245,294,82913,6,0,B|255:191|255:191|281:167|281:167|292:42,1,251.999992309571,0|0,1:0|0:0,0:0:0:0:
290,54,83443,6,0,L|292:30,2,17.5
196,117,83619,6,0,P|143:154|95:129,1,97.9999970092774,0|0,1:0|0:0,0:0:0:0:
81,53,83795,2,0,P|134:16|182:41,1,97.9999970092774,0|0,1:0|0:0,0:0:0:0:
397,207,83972,6,0,P|452:202|479:161,1,97.9999970092774,8|0,0:0|0:0,0:0:0:0:
369,90,84148,2,0,P|313:85|287:44,1,97.9999970092774,0|0,1:0|0:0,0:0:0:0:
291,263,84325,6,0,B|194:288|165:181|165:181|194:288|88:316,1,336,0|0,1:0|0:0,0:0:0:0:
83,180,84678,6,0,P|136:92|232:131,1,224,0|0,1:0|0:0,0:0:0:0:
208,66,84943,6,0,P|130:46|69:98,1,167.999994873047,0|0,1:0|0:0,0:0:0:0:
167,183,85207,1,0,1:0:0:0:
489,31,85384,1,8,0:0:0:0:
392,164,85560,6,0,P|384:115|405:88,1,83.9999974365235,2|0,0:0|0:0,0:0:0:0:
512,189,85737,6,0,B|412:265|391:119|266:202,1,251.999992309571,0|0,1:0|0:0,0:0:0:0:
276,195,86266,6,0,B|290:231|290:231|280:312,1,97.9999970092774,0|0,1:0|0:0,0:0:0:0:
190,347,86443,2,0,B|176:311|176:311|186:230,1,97.9999970092774
384,275,86619,1,0,1:0:0:0:
95,61,86795,1,8,0:0:0:0:
230,74,86972,6,0,L|341:85,1,97.9999970092774,0|0,1:0|0:0,0:0:0:0:
488,106,87148,6,0,B|521:65|469:35|469:35|422:69|463:141|463:141|512:211|462:283,1,336,0|0,1:0|0:0,0:0:0:0:
367,367,87501,6,0,P|389:328|376:278,1,83.9999974365235,0|0,1:0|0:0,0:0:0:0:
262,258,87678,1,0,0:0:0:0:
246,258,87766,2,0,P|268:296|317:310,1,83.9999974365235,0|0,1:0|0:0,0:0:0:0:
392,219,87943,1,0,0:0:0:0:
401,208,88031,2,0,P|356:208|320:244,1,83.9999974365235,0|0,1:0|0:0,0:0:0:0:
87,126,88207,1,8,0:0:0:0:
87,126,88384,6,0,L|40:120,2,41.9999987182618,2|0|0,0:0|0:0|0:0,0:0:0:0:
167,74,88560,6,0,B|191:106|191:154|165:184|165:184|168:191|168:191|137:231|135:282|177:329,1,251.999992309571,0|0,1:0|0:0,0:0:0:0:
161,308,89090,5,0,1:0:0:0:
325,245,89266,2,0,P|273:243|230:275,1,83.9999974365235
396,316,89443,2,0,P|448:318|491:286,1,83.9999974365235,0|0,1:0|0:0,0:0:0:0:
407,12,89619,1,8,0:0:0:0:
414,148,89795,6,0,L|419:246,1,83.9999974365235,0|0,1:0|0:0,0:0:0:0:
277,85,89972,6,0,B|200:88|200:88|143:259|143:259|59:268,1,336,0|0,1:0|0:0,0:0:0:0:
235,242,90325,6,0,B|203:332|203:332|94:344,1,195.999994018555,0|0,1:0|0:0,0:0:0:0:
213,329,90590,6,0,B|296:320|296:320|319:247,1,154.000004699707,0|0,1:0|0:0,0:0:0:0:
142,259,90854,1,0,1:0:0:0:
429,48,91031,1,8,0:0:0:0:
429,48,91207,6,0,L|432:0,2,38.5000011749268,2|0|0,0:0|0:0|0:0,0:0:0:0:
335,0,91384,6,0,B|326:84|326:84|386:137|386:137|378:231,1,251.999992309571,0|0,1:0|0:0,0:0:0:0:
378,224,91913,5,0,0:0:0:0:
367,258,92001,1,0,0:0:0:0:
355,294,92090,2,0,P|287:292|257:323,1,97.9999970092774,0|0,1:0|0:0,0:0:0:0:
70,349,92266,2,0,P|111:325|158:334,1,97.9999970092774,0|0,1:0|0:0,0:0:0:0:
166,101,92443,1,8,0:0:0:0:
0,148,92619,6,0,P|53:164|114:118,1,97.9999970092774,0|0,1:0|0:0,0:0:0:0:
251,49,92795,6,0,P|325:49|382:107,1,157.500006008148,0|0,1:0|0:0,0:0:0:0:
450,48,93148,6,0,B|479:84|482:138|429:188|429:188|384:220|383:274|396:301,1,251.999992309571,0|0,1:0|0:0,0:0:0:0:
439,337,93413,5,0,1:0:0:0:
512,375,93501,2,0,P|436:372|408:333,1,97.9999970092774,2|0,0:0|0:0,0:0:0:0:
491,274,93678,5,0,1:0:0:0:
140,306,93854,1,8,0:0:0:0:
140,306,94031,6,0,L|95:308,2,24.4999992523194,2|0|0,0:0|0:0|0:0,0:0:0:0:
206,381,94207,6,0,B|235:331|235:331|215:116,1,251.999992309571,0|0,1:0|0:0,0:0:0:0:
217,137,94737,6,0,L|214:95,2,24.4999992523194
290,81,94913,6,0,P|271:47|205:36,1,97.9999970092774,0|0,1:0|0:0,0:0:0:0:
123,108,95090,2,0,P|89:127|78:193,1,97.9999970092774,0|0,1:0|0:0,0:0:0:0:
442,196,95266,1,8,0:0:0:0:
398,32,95443,2,0,P|379:88|409:141,1,97.9999970092774,0|0,1:0|0:0,0:0:0:0:
490,284,95619,6,0,B|531:345|477:394|413:384|400:331|400:331|388:271|312:259|250:327|327:396,1,377.999988464356,0|0,1:0|0:0,0:0:0:0:
300,217,95972,6,0,P|234:270|222:377,1,195.999994018555,0|0,1:0|0:0,0:0:0:0:
214,249,96237,6,0,P|208:165|278:125,1,154.000004699707,0|0,1:0|0:0,0:0:0:0:
351,126,96501,1,0,1:0:0:0:
34,34,96678,1,8,0:0:0:0:
195,71,96854,6,0,P|168:46|119:41,1,77.0000023498536,2|0,0:0|0:0,0:0:0:0:
75,162,97031,6,0,B|84:264|84:264|131:289|131:289|142:399,1,251.999992309571,0|0,1:0|0:0,0:0:0:0:
140,384,97560,5,0,1:0:0:0:
163,207,97737,1,0,0:0:0:0:
36,346,97913,1,0,1:0:0:0:
358,220,98090,6,0,P|319:274|269:269,1,97.9999970092774,8|0,0:0|0:0,0:0:0:0:
85,232,98266,2,0,P|124:286|174:281,1,97.9999970092774,0|0,1:0|0:0,0:0:0:0:
464,368,98443,6,0,B|504:315|522:174|365:142|365:142|437:153|440:243,1,377.999988464356,0|0,1:0|0:0,0:0:0:0:
157,203,98795,6,0,P|203:215|247:195,1,97.9999970092774,0|0,1:0|0:0,0:0:0:0:
229,340,98972,1,0,0:0:0:0:
242,383,99060,2,0,P|229:336|190:307,1,97.9999970092774,0|0,1:0|0:0,0:0:0:0:
329,247,99237,1,0,0:0:0:0:
355,219,99325,2,0,P|322:253|316:301,1,97.9999970092774,0|0,1:0|0:0,0:0:0:0:
182,38,99501,1,8,0:0:0:0:
182,38,99678,6,0,L|181:-16,2,38.5000011749268,2|0|0,0:0|0:0|0:0,0:0:0:0:
134,108,99854,6,0,B|196:148|251:93|251:93|259:101|259:101|324:40|415:111,1,251.999992309571,0|0,1:0|0:0,0:0:0:0:
361,79,100384,5,0,1:0:0:0:
325,262,100560,6,0,P|310:215|324:169,1,97.9999970092774
442,166,100737,2,0,P|456:212|442:258,1,97.9999970092774,0|0,1:0|0:0,0:0:0:0:
81,263,100913,1,8,0:0:0:0:
225,345,101090,6,0,P|172:353|123:333,1,97.9999970092774,0|0,1:0|0:0,0:0:0:0:
0,163,101266,6,0,B|58:143|74:104|74:104|173:158|193:207|182:258|182:258|180:208|132:177,1,377.999988464356,0|0,1:0|0:0,0:0:0:0:
182,162,101619,6,0,B|214:150|224:128|224:128|280:159|291:186|285:215|285:215|281:196|255:169,1,195.999994018555,0|0,1:0|0:0,0:0:0:0:
371,108,101884,6,0,B|345:99|338:82|338:82|295:105|287:127|291:149|291:149|295:134|315:113,1,154.000004699707,0|0,1:0|0:0,0:0:0:0:
377,187,102148,1,0,1:0:0:0:
15,12,102325,1,8,0:0:0:0:
143,108,102501,6,0,P|105:120|66:96,1,77.0000023498536,2|0,0:0|0:0,0:0:0:0:
223,5,102678,6,0,B|217:61|217:61|257:118|257:118|207:170|207:170|201:227,1,251.999992309571,0|0,1:0|0:0,0:0:0:0:
353,122,103031,6,0,L|393:117,1,35
325,215,103207,2,0,L|285:210,1,35
487,247,103384,5,0,1:0:0:0:
455,272,103472,1,0,1:0:0:0:
424,295,103560,2,0,L|441:194,1,77.0000023498536,8|0,0:0|0:0,0:0:0:0:
318,316,103737,6,0,L|217:333,3,77.0000023498536,0|0|0|0,1:0|1:0|1:0|1:0,0:0:0:0:
512,361,104090,1,8,0:0:0:0:
512,361,104443,5,0,1:0:0:0:
202,109,115737,6,0,P|167:138|163:168,1,70,0|0,1:0|0:0,0:0:0:0:
269,186,115913,5,0,0:0:0:0:
308,181,116001,1,0,0:0:0:0:
348,183,116090,5,0,0:0:0:0:
387,188,116178,1,0,0:0:0:0:
426,182,116266,6,0,L|499:175,1,70,8|0,0:0|0:0,0:0:0:0:
432,297,116443,5,0,0:0:0:0:
393,302,116531,1,0,0:0:0:0:
353,300,116620,5,0,0:0:0:0:
314,295,116708,1,0,0:0:0:0:
275,301,116796,6,0,P|235:306|216:330,1,70,8|0,0:0|0:0,0:0:0:0:
115,327,116972,5,0,0:0:0:0:
90,302,117060,1,0,0:0:0:0:
56,299,117148,6,0,P|47:248|64:234,1,70,0|0,1:0|0:0,0:0:0:0:
192,231,117325,2,0,P|152:196|131:204,1,70,0|0,1:0|0:0,0:0:0:0:
26,84,117501,2,0,L|59:152,1,70,8|0,0:3|0:0,0:0:0:0:
198,121,117678,5,0,1:0:0:0:
201,86,117766,1,0,0:0:0:0:
205,51,117854,5,0,0:0:0:0:
235,67,117942,1,0,1:0:0:0:
270,72,118030,1,0,0:0:0:0:
304,68,118118,1,0,0:0:0:0:
336,53,118206,1,8,0:0:0:0:
366,28,118295,6,0,P|425:14|501:113,1,195.999994018555
348,184,118560,6,0,L|419:92,1,105
408,250,118913,6,0,P|373:271|314:260,1,70,0|0,1:0|0:0,0:0:0:0:
259,210,119090,2,0,P|224:189|165:200,1,70,8|0,0:0|0:0,0:0:0:0:
65,279,119266,5,0,0:0:0:0:
63,330,119354,1,0,0:0:0:0:
97,369,119442,5,0,0:0:0:0:
148,375,119530,1,0,0:0:0:0:
190,345,119619,6,0,L|205:264,1,70,8|0,0:3|0:0,0:0:0:0:
70,151,119795,5,0,0:0:0:0:
55,119,119883,1,0,0:0:0:0:
63,86,119972,6,0,P|87:56|129:47,1,70,0|0,1:0|0:0,0:0:0:0:
263,118,120148,2,0,P|224:112|195:80,1,70,0|0,1:0|0:0,0:0:0:0:
425,31,120325,2,0,L|355:37,1,70,8|0,0:0|0:0,0:0:0:0:
393,157,120501,6,0,B|369:191|369:191|379:297,1,140
268,265,120766,5,0,1:0:0:0:
231,254,120854,2,0,P|272:195|339:213,1,140
402,254,121119,2,0,P|468:281|514:229,1,140
503,86,121384,6,0,L|508:155,1,70,0|0,1:0|0:0,0:0:0:0:
387,75,121560,2,0,L|392:144,1,70,0|0,1:0|0:0,0:0:0:0:
271,64,121737,5,0,0:0:0:0:
231,58,121825,1,0,0:0:0:0:
188,56,121913,2,0,L|106:63,1,70,8|0,0:0|0:0,0:0:0:0:
13,167,122090,5,0,0:0:0:0:
53,161,122178,1,0,0:0:0:0:
90,164,122266,5,0,0:0:0:0:
130,170,122354,1,0,0:0:0:0:
172,167,122443,2,0,L|253:159,1,70,8|0,0:0|0:0,0:0:0:0:
322,331,122619,5,0,0:0:0:0:
293,299,122707,1,0,0:0:0:0:
292,257,122795,6,0,P|310:228|349:204,1,70,0|0,1:0|0:0,0:0:0:0:
473,298,122972,2,0,P|438:296|398:275,1,70,0|0,1:0|0:0,0:0:0:0:
465,109,123148,2,0,L|454:211,1,70,8|0,0:0|0:0,0:0:0:0:
339,207,123325,5,0,1:0:0:0:
335,172,123413,1,0,0:0:0:0:
331,137,123501,2,0,L|323:67,3,70,0|0|0|0,0:0|1:0|0:0|0:0,0:0:0:0:
221,116,123854,2,0,L|151:123,3,70,8|0|8|0,0:0|0:0|0:0|0:0,0:0:0:0:
59,79,124207,6,0,P|53:140|77:189,1,105
137,239,124560,6,0,P|159:280|159:323,1,70,0|0,1:0|0:0,0:0:0:0:
1,321,124737,2,0,P|42:299|85:299,1,70,8|0,0:0|0:0,0:0:0:0:
257,289,124913,5,0,0:0:0:0:
305,305,125001,1,0,0:0:0:0:
350,304,125090,5,0,0:0:0:0:
398,288,125178,1,0,0:0:0:0:
431,251,125266,6,0,P|435:215|408:181,1,70,8|0,0:3|0:0,0:0:0:0:
213,112,125443,1,0,0:0:0:0:
203,157,125531,1,0,0:0:0:0:
222,205,125619,6,0,P|258:209|292:182,1,70,0|0,1:0|0:0,0:0:0:0:
229,32,125795,2,0,P|193:28|159:55,1,70,0|0,1:0|0:0,0:0:0:0:
48,168,125972,2,0,L|134:146,1,70,8|0,0:0|0:0,0:0:0:0:
308,94,126148,5,0,1:0:0:0:
330,87,126237,1,0,0:0:0:0:
351,79,126325,2,0,P|370:49|346:10,3,70,0|0|0|0,0:0|1:0|0:0|0:0,0:0:0:0:
508,74,126678,2,0,P|483:48|439:63,3,70
438,150,127031,5,0,1:0:0:0:
497,246,127207,5,0,0:0:0:0:
458,251,127295,1,0,0:0:0:0:
418,249,127384,5,0,0:0:0:0:
379,244,127472,1,0,0:0:0:0:
340,250,127560,6,0,L|270:256,1,70,8|0,0:0|0:0,0:0:0:0:
117,346,127737,5,0,0:0:0:0:
156,341,127825,1,0,0:0:0:0:
196,343,127914,5,0,0:0:0:0:
235,348,128002,1,0,0:0:0:0:
274,342,128090,6,0,L|343:335,1,70,8|0,0:0|0:0,0:0:0:0:
194,177,128266,1,0,0:0:0:0:
149,164,128354,1,0,0:0:0:0:
106,150,128443,6,0,P|105:201|148:251,1,70,0|0,1:0|0:0,0:0:0:0:
282,200,128619,2,0,P|282:148|239:98,1,70,0|0,1:0|0:0,0:0:0:0:
174,14,128795,2,0,L|185:119,1,70,8|0,0:0|0:0,0:0:0:0:
378,154,128972,5,0,1:0:0:0:
410,150,129060,1,0,0:0:0:0:
442,146,129148,5,0,0:0:0:0:
430,179,129237,1,0,1:0:0:0:
429,213,129325,1,0,0:0:0:0:
436,248,129413,1,0,0:0:0:0:
452,279,129501,5,8,0:0:0:0:
420,283,129590,1,0,0:0:0:0:
382,297,129678,5,0,1:0:0:0:
349,293,129767,1,0,0:0:0:0:
318,280,129854,6,0,L|194:290,1,105
160,132,130207,6,0,P|143:166|145:204,1,70,0|0,1:0|0:0,0:0:0:0:
267,135,130384,2,0,P|264:97|243:65,1,70,8|0,0:0|0:0,0:0:0:0:
111,48,130560,5,0,0:0:0:0:
80,65,130648,1,0,0:0:0:0:
57,91,130736,5,0,0:0:0:0:
44,123,130824,1,0,0:0:0:0:
42,158,130913,6,0,L|49:241,1,70,8|0,0:3|0:0,0:0:0:0:
143,197,131090,5,0,0:0:0:0:
156,229,131178,1,0,0:0:0:0:
158,263,131267,6,0,L|150:346,1,70,0|0,1:0|0:0,0:0:0:0:
275,224,131443,2,0,L|267:307,1,70,0|0,1:0|0:0,0:0:0:0:
391,184,131619,2,0,L|461:178,1,70,8|0,0:0|0:0,0:0:0:0:
297,109,131795,5,0,1:0:0:0:
285,80,131884,1,0,0:0:0:0:
273,51,131972,2,0,P|296:30|353:30,3,70,0|0|0|0,0:0|1:0|0:0|0:0,0:0:0:0:
197,128,132325,2,0,P|174:149|116:153,3,70,8|0|0|0,0:0|0:0|0:0|0:0,0:0:0:0:
126,2,132678,6,0,L|133:72,1,70,0|0,1:0|0:0,0:0:0:0:
50,125,132854,2,0,L|56:194,1,70,0|0,1:0|0:0,0:0:0:0:
206,261,133031,5,0,0:0:0:0:
255,253,133119,1,0,0:0:0:0:
304,245,133207,6,0,P|292:208|257:175,1,70,8|0,0:0|0:0,0:0:0:0:
222,350,133384,5,0,0:0:0:0:
271,342,133472,1,0,0:0:0:0:
320,334,133560,5,0,0:0:0:0:
369,326,133649,1,0,0:0:0:0:
418,318,133737,6,8,P|406:281|371:248,1,70,8|0,0:0|0:0,0:0:0:0:
344,140,133913,5,0,0:0:0:0:
353,106,134001,1,0,0:0:0:0:
376,79,134090,6,0,L|467:71,1,70,0|0,1:0|0:0,0:0:0:0:
261,52,134266,2,0,L|169:44,1,70,0|0,1:0|0:0,0:0:0:0:
430,184,134443,2,0,L|521:176,1,70,8|0,0:0|0:0,0:0:0:0:
314,156,134619,5,0,1:0:0:0:
278,169,134707,1,0,0:0:0:0:
242,182,134795,5,0,0:0:0:0:
213,161,134883,1,0,1:0:0:0:
180,153,134971,5,0,0:0:0:0:
145,158,135059,1,0,0:0:0:0:
115,175,135147,5,8,0:0:0:0:
127,213,135237,1,0,0:0:0:0:
154,245,135325,5,0,1:0:0:0:
142,282,135413,1,0,0:0:0:0:
130,319,135501,6,0,L|255:307,1,105
352,213,135854,2,0,P|305:230|276:271,1,70,0|0,1:0|0:0,0:0:0:0:
353,365,136031,2,0,P|360:315|339:270,1,70,8|0,0:0|0:0,0:0:0:0:
276,150,136207,5,0,0:0:0:0:
269,133,136295,1,0,0:0:0:0:
267,116,136383,1,0,0:0:0:0:
268,98,136471,1,0,0:0:0:0:
273,81,136560,2,0,P|310:69|358:75,1,70,8|0,0:3|0:0,0:0:0:0:
455,157,136737,5,0,0:0:0:0:
484,149,136825,1,0,0:0:0:0:
512,143,136913,6,0,P|486:119|454:104,3,70,0|0|0|0,1:0|0:0|1:0|0:0,0:0:0:0:
470,270,137266,2,0,P|468:235|456:202,3,70,8|0|0|0,0:0|0:0|1:0|0:0,0:0:0:0:
349,331,137619,2,0,P|372:305|387:273,3,70,0|0|0|0,0:0|1:0|0:0|0:0,0:0:0:0:
230,278,137972,2,0,P|264:276|297:264,3,70,8|0|0|0,0:0|0:0|0:0|0:0,0:0:0:0:
245,190,138325,5,0,0:0:0:0:
245,190,138854,1,0,0:0:0:0:
161,186,143972,5,0,1:0:0:0:
360,187,144501,1,0,1:0:0:0:
387,73,149619,6,0,B|343:52|343:52|244:87,1,140,0|0,1:0|0:0,0:0:0:0:
335,284,150325,2,0,B|354:241|354:241|320:143,1,140,8|0,0:0|0:0,0:0:0:0:
59,164,151031,2,0,B|86:124|86:124|189:105,1,140,0|0,1:0|0:0,0:0:0:0:
208,321,151737,2,0,B|169:293|169:293|150:191,1,140,8|0,0:0|0:0,0:0:0:0:
491,226,152443,6,0,L|340:239,1,140,0|0,1:0|0:0,0:0:0:0:
137,176,153148,2,0,L|287:162,1,140,8|0,0:0|0:0,0:0:0:0:
285,384,153854,2,0,L|271:233,1,140,0|0,1:0|0:0,0:0:0:0:
348,17,154560,2,0,L|361:167,1,140,8|0,0:0|0:0,0:0:0:0:
45,190,155266,6,0,P|96:148|153:215,1,140,0|0,1:0|0:0,0:0:0:0:
222,356,155619,2,0,P|180:304|247:248,1,140,0|0,1:0|0:0,0:0:0:0:
211,12,155972,2,0,P|253:63|186:120,1,140,8|0,0:0|0:0,0:0:0:0:
388,179,156325,2,0,P|336:221|280:154,1,140,0|0,1:0|0:0,0:0:0:0:
476,41,156678,6,0,L|335:53,1,140,0|0,1:0|0:0,0:0:0:0:
133,118,157031,2,0,L|273:130,1,140,0|0,1:0|0:0,0:0:0:0:
476,343,157384,6,0,L|335:330,1,140,8|0,0:0|0:0,0:0:0:0:
133,266,157737,2,0,L|273:253,1,140,0|0,1:0|0:0,0:0:0:0:
508,235,158090,5,0,1:0:0:0:
353,248,158266,1,0,1:0:0:0:
344,19,158443,1,0,1:0:0:0:
426,127,158619,1,0,1:0:0:0:
52,234,158795,5,0,1:0:0:0:
207,247,158971,1,0,1:0:0:0:
216,18,159148,1,0,1:0:0:0:
134,126,159324,1,0,1:0:0:0:
292,106,159501,5,0,1:0:0:0:
317,136,159589,1,0,1:0:0:0:
333,173,159677,1,0,1:0:0:0:
331,212,159765,1,0,1:0:0:0:
312,247,159853,1,0,1:0:0:0:
296,284,159942,1,0,1:0:0:0:
296,324,160030,1,0,1:0:0:0:
311,360,160118,1,0,1:0:0:0:
387,369,160207,6,0,L|477:376,1,56,0|0,1:0|1:0,1:0:0:0:
222,356,160384,2,0,L|131:348,1,56,0|0,1:0|1:0,1:0:0:0:
436,217,160560,6,0,L|526:224,1,56,0|0,1:0|1:0,1:0:0:0:
221,195,160737,2,0,L|130:187,1,56,0|0,1:0|1:0,1:0:0:0:
447,65,160913,6,0,B|387:41|330:81|330:81|278:116|203:85,1,251.999992309571,0|0,1:0|0:0,0:0:0:0:
91,60,161178,5,0,1:0:0:0:
18,20,161266,2,0,P|42:58|134:75,1,97.9999970092774
277,26,161443,2,0,P|253:64|161:81,1,97.9999970092774,0|0,1:0|0:0,0:0:0:0:
97,312,161619,6,0,L|-14:322,1,97.9999970092774,8|0,0:0|0:0,0:0:0:0:
199,312,161795,2,0,L|310:322,1,97.9999970092774
17,226,161972,6,0,P|41:188|133:171,1,97.9999970092774,0|0,1:0|0:0,0:0:0:0:
275,227,162148,2,0,P|251:189|159:172,1,97.9999970092774
204,166,162501,6,0,L|203:195,2,24.4999992523194
146,102,162678,6,0,P|190:79|263:107,1,97.9999970092774,0|0,1:0|0:0,0:0:0:0:
344,158,162854,2,0,P|367:202|339:275,1,97.9999970092774,0|0,1:0|0:0,0:0:0:0:
458,15,163031,6,0,P|408:17|359:77,1,97.9999970092774,8|0,0:0|0:0,0:0:0:0:
454,170,163207,1,0,0:0:0:0:
400,163,163295,1,0,0:0:0:0:
343,158,163384,6,0,P|238:227|363:223,1,336,0|0,1:0|0:0,0:0:0:0:
199,204,163737,6,0,P|149:276|232:267,1,195.999994018555,0|0,1:0|0:0,0:0:0:0:
57,257,164001,6,0,P|116:268|80:330,1,154.000004699707,0|0,1:0|0:0,0:0:0:0:
0,316,164266,1,0,1:0:0:0:
431,306,164443,1,8,0:0:0:0:
431,306,164619,6,0,L|494:305,2,38.5000011749268,2|0|0,0:0|0:0|0:0,0:0:0:0:
339,364,164795,6,0,B|330:268|330:268|359:233|359:233|348:106,1,251.999992309571,0|0,1:0|0:0,0:0:0:0:
350,123,165325,5,0,1:0:0:0:
147,118,165501,1,0,0:0:0:0:
266,142,165678,6,0,B|254:101|288:59|288:59|249:76|210:59|210:59|244:100|241:170|235:234|235:234|209:198|176:192,1,420,0|0,1:0|0:0,0:0:0:0:
161,277,166031,1,0,1:0:0:0:
400,200,166207,2,0,B|354:157|354:157|284:258|343:365|343:365|388:337,1,336,0|0,1:0|0:0,0:0:0:0:
219,329,166560,6,0,P|166:355|112:339,1,97.9999970092774,0|0,1:0|0:0,0:0:0:0:
114,206,166737,1,0,0:0:0:0:
95,189,166825,2,0,P|144:221|157:276,1,97.9999970092774,0|0,1:0|0:0,0:0:0:0:
37,334,167001,1,0,0:0:0:0:
31,363,167090,2,0,P|34:304|75:265,1,97.9999970092774,0|0,1:0|0:0,0:0:0:0:
378,116,167266,1,8,0:0:0:0:
378,116,167443,6,0,P|355:125|383:119,1,97.9999970092774,2|0,0:1|0:0,0:0:0:0:
430,52,167619,2,0,B|369:11|315:50|315:50|309:42|309:42|246:87|166:28,1,251.999992309571,0|0,1:0|0:0,0:0:0:0:
197,47,168148,5,0,1:0:0:0:
96,190,168325,6,0,B|64:228|64:228|77:335,1,125.999996154785
173,362,168501,2,0,B|205:324|205:324|192:217,1,125.999996154785,0|0,1:0|0:0,0:0:0:0:
30,28,168678,1,8,0:0:0:0:
205,134,168854,6,0,P|145:121|104:67,1,97.9999970092774,0|0,1:0|0:0,0:0:0:0:
195,248,169031,6,0,B|250:256|300:216|300:216|300:226|300:226|371:155|494:187|469:315|436:327|327:331|377:198,1,420,0|0,1:0|0:0,0:0:0:0:
332,119,169384,6,0,P|443:125|504:182,1,195.999994018555,0|0,1:0|0:0,0:0:0:0:
409,113,169648,6,0,P|332:42|255:103,1,154.000004699707,0|0,1:0|0:0,0:0:0:0:
244,114,169913,1,0,1:0:0:0:
494,366,170090,1,8,0:0:0:0:
326,296,170266,6,0,P|376:284|430:319,1,77.0000023498536,2|0,0:0|0:0,0:0:0:0:
231,351,170443,6,0,P|261:242|409:211,1,251.999992309571,0|0,1:0|0:0,0:0:0:0:
383,202,170972,5,0,0:0:0:0:
379,167,171060,1,0,0:0:0:0:
375,130,171148,6,0,L|492:151,1,97.9999970092774,0|0,1:0|0:0,0:0:0:0:
319,34,171325,2,0,L|202:55,1,97.9999970092774,0|0,1:0|0:0,0:0:0:0:
109,259,171501,6,0,L|-8:280,1,97.9999970092774,8|0,0:0|0:0,0:0:0:0:
165,163,171678,2,0,L|282:184,1,97.9999970092774,0|0,1:0|0:0,0:0:0:0:
471,354,171854,6,0,P|418:309|331:347,1,146.999995513916,0|0,1:0|0:0,0:0:0:0:
270,367,172207,6,0,B|236:232|366:289|341:130,1,251.999992309571,0|0,1:0|0:0,0:0:0:0:
293,64,172472,5,0,1:0:0:0:
224,21,172560,2,0,P|290:34|320:86,1,97.9999970092774,2|0,0:0|0:0,0:0:0:0:
400,74,172737,1,0,1:0:0:0:
65,190,172913,1,8,0:0:0:0:
65,190,173090,6,0,L|65:222,2,24.4999992523194
3,109,173266,6,0,B|94:104|94:104|154:150|154:150|253:143,1,251.999992309571,0|0,1:0|0:0,0:0:0:0:
239,143,173795,6,0,L|275:140,2,24.4999992523194
287,224,173972,6,0,P|328:213|350:156,1,97.9999970092774,0|0,1:0|0:0,0:0:0:0:
454,139,174148,2,0,P|471:100|442:47,1,97.9999970092774,0|0,1:0|0:0,0:0:0:0:
98,293,174325,1,8,0:0:0:0:
28,129,174501,6,0,P|18:182|44:229,1,97.9999970092774,0|0,1:0|0:0,0:0:0:0:
175,358,174678,6,0,B|223:385|292:381|304:301|304:301|349:306|349:306|369:219|459:211|496:252,1,377.999988464356,0|0,1:0|0:0,0:0:0:0:
287,224,175031,6,0,B|315:171|386:135|457:142,1,195.999994018555,0|0,1:0|0:0,0:0:0:0:
345,166,175295,6,0,B|323:124|268:97|213:102,1,154.000004699707,0|0,1:0|0:0,0:0:0:0:
111,179,175560,1,0,1:0:0:0:
495,7,175737,1,8,0:0:0:0:
341,44,175913,6,0,P|383:60|434:40,1,77.0000023498536,2|0,0:0|0:0,0:0:0:0:
237,25,176090,6,0,B|201:19|160:23|136:72|136:72|112:116|51:123|4:105,1,251.999992309571,0|0,1:0|0:0,0:0:0:0:
20,110,176619,5,0,1:0:0:0:
228,107,176795,2,0,P|226:139|232:109,1,97.9999970092774
57,0,176972,2,0,P|55:32|61:2,1,97.9999970092774,0|0,1:0|0:0,0:0:0:0:
221,317,177148,6,0,P|235:271|219:225,1,97.9999970092774,8|0,0:0|0:0,0:0:0:0:
36,224,177325,2,0,P|21:269|37:315,1,97.9999970092774,2|0,1:2|0:0,0:0:0:0:
133,373,177501,6,0,P|125:224|135:56,1,293.999991027832,0|0,1:0|0:0,0:0:0:0:
228,107,177854,6,0,P|275:99|320:117,1,97.9999970092774,0|0,1:0|0:0,0:0:0:0:
300,242,178031,1,0,0:0:0:0:
303,281,178119,2,0,P|272:243|265:195,1,97.9999970092774,0|0,1:0|0:0,0:0:0:0:
394,155,178295,1,0,0:0:0:0:
416,129,178384,2,0,P|398:174|360:204,1,97.9999970092774,0|0,1:0|0:0,0:0:0:0:
57,0,178560,1,8,0:0:0:0:
126,168,178737,6,0,P|134:118|111:75,1,97.9999970092774,2|0,0:0|0:0,0:0:0:0:
39,215,178913,6,0,B|161:150|156:304|300:234,1,251.999992309571,0|0,1:0|0:0,0:0:0:0:
274,244,179443,5,0,1:0:0:0:
72,384,179619,2,0,P|31:340|61:264,1,97.9999970092774
138,255,179795,2,0,P|179:299|149:375,1,97.9999970092774,0|0,1:0|0:0,0:0:0:0:
250,48,179972,1,8,0:0:0:0:
119,127,180148,6,0,P|139:57|178:47,1,97.9999970092774,0|0,1:0|0:0,0:0:0:0:
345,51,180325,6,0,B|409:51|446:115|409:179|345:179|345:179|281:179|246:243|281:307|345:307,1,420,0|0,1:0|0:0,0:0:0:0:
199,240,180678,6,0,P|162:339|263:345,1,224,0|0,1:0|0:0,0:0:0:0:
106,279,180943,6,0,P|34:253|30:325,1,167.999994873047,0|0,1:0|0:0,0:0:0:0:
104,361,181207,1,0,1:0:0:0:
470,310,181384,1,8,0:0:0:0:
470,310,181560,6,0,L|534:309,2,41.9999987182618,2|0|0,0:0|0:0|0:0,0:0:0:0:
392,382,181737,6,0,B|394:357|394:357|373:313|387:268|387:268|401:227|373:172|373:172|393:205|422:212,1,251.999992309571,0|0,1:0|0:0,0:0:0:0:
443,130,182090,6,0,L|458:119,3,14
292,127,182443,6,0,P|327:88|390:89,1,97.9999970092774,0|0,1:0|0:0,0:0:0:0:
284,239,182619,2,0,P|249:278|186:277,1,97.9999970092774,0|0,1:0|0:0,0:0:0:0:
49,34,182795,1,8,0:0:0:0:
161,111,182972,2,0,P|200:146|199:209,1,97.9999970092774,0|0,1:0|0:0,0:0:0:0:
10,238,183148,6,0,L|111:193,1,105,0|0,1:0|0:0,0:0:0:0:
205,283,183501,6,0,B|138:248|75:323|148:403|218:354|218:354|278:312|366:351,1,377.999988464356,0|0,1:0|0:0,0:0:0:0:
368,246,183854,6,0,P|320:249|298:311,1,97.9999970092774,0|0,0:1|0:0,0:0:0:0:
444,288,184031,6,0,P|455:249|408:175,1,97.9999970092774,0|0,1:0|0:0,0:0:0:0:
78,81,184207,1,8,0:0:0:0:
78,81,184384,6,0,B|89:48|89:48|74:34|74:34|63:50|63:50|78:79,1,97.9999970092774,2|0,0:3|0:0,0:0:0:0:
25,154,184560,6,0,B|95:189|161:132|161:132|173:51|273:62,1,251.999992309571,0|0,1:0|0:0,0:0:0:0:
227,62,185090,6,0,L|264:57,2,24.4999992523194
334,163,185266,6,0,P|291:170|238:128,1,97.9999970092774
335,38,185443,2,0,P|378:31|431:73,1,97.9999970092774,0|0,1:0|0:0,0:0:0:0:
261,239,185619,6,0,L|245:142,1,97.9999970092774,8|0,0:0|0:0,0:0:0:0:
437,155,185795,2,0,L|421:58,1,97.9999970092774,0|0,1:0|0:0,0:0:0:0:
363,360,185972,6,0,P|261:239|200:387,1,377.999988464356,0|0,1:0|0:0,0:0:0:0:
211,213,186325,6,0,P|126:208|155:296,1,195.999994018555,0|0,1:0|0:0,0:0:0:0:
97,194,186590,6,0,P|29:202|33:134,1,154.000004699707,0|0,1:0|0:0,0:0:0:0:
126,111,186854,1,0,1:0:0:0:
503,379,187031,1,8,0:0:0:0:
422,200,187207,6,0,P|414:254|430:287,1,77.0000023498536,2|0,0:0|0:0,0:0:0:0:
512,177,187384,6,0,B|417:165|417:165|353:194|353:194|261:182,1,251.999992309571,0|0,1:0|0:0,0:0:0:0:
267,182,187913,5,0,1:0:0:0:
278,96,188090,6,0,L|280:75,2,17.5
214,26,188266,1,0,1:0:0:0:
53,313,188443,1,8,0:0:0:0:
162,223,188619,5,2,0:0:0:0:
205,247,188707,1,0,0:0:0:0:
224,286,188795,6,0,B|235:323|235:323|185:364|185:364|135:324|135:324|161:223|161:223|226:193|209:119,1,377.999988464356,0|0,1:0|0:0,0:0:0:0:
48,51,189148,6,0,P|57:98|92:130,1,97.9999970092774,0|0,1:0|0:0,0:0:0:0:
218,60,189325,1,0,0:0:0:0:
258,47,189413,2,0,P|212:31|166:45,1,97.9999970092774,0|0,1:0|0:0,0:0:0:0:
159,185,189590,1,0,0:0:0:0:
169,221,189678,2,0,P|206:180|212:140,1,97.9999970092774,0|0,1:0|0:0,0:0:0:0:
458,41,189854,1,8,0:0:0:0:
414,184,190031,6,0,P|377:143|371:103,1,97.9999970092774,2|0,0:0|0:0,0:0:0:0:
479,257,190207,6,0,B|443:288|403:290|369:270|369:270|370:276|370:276|319:247|267:250|226:290,1,251.999992309571,0|0,1:0|0:0,0:0:0:0:
249,271,190737,5,0,1:0:0:0:
39,107,190913,2,0,P|76:169|133:172,1,97.9999970092774
180,103,191090,2,0,P|142:42|86:44,1,97.9999970092774
301,348,191266,1,8,0:0:0:0:
145,284,191443,6,0,P|170:338|223:351,1,97.9999970092774,0|0,1:0|0:0,0:0:0:0:
403,348,191619,6,0,B|454:337|498:279|432:217|432:217|348:146|431:54|503:123|487:168,1,377.999988464356,0|0,1:0|0:0,0:0:0:0:
318,160,191972,6,0,P|350:71|439:29,1,195.999994018555,0|0,1:0|0:0,0:0:0:0:
332,98,192237,6,0,P|274:49|196:37,1,140,0|0,1:0|0:0,0:0:0:0:
103,52,192501,1,0,1:0:0:0:
252,351,192678,1,8,0:0:0:0:
185,205,192854,6,0,P|227:216|241:287,1,97.9999970092774,2|0,0:0|0:0,0:0:0:0:
71,268,193031,6,0,P|159:212|67:163,1,251.999992309571,0|0,1:0|0:0,0:0:0:0:
67,163,193560,5,0,0:0:0:0:
75,138,193648,1,0,0:0:0:0:
83,112,193737,2,0,P|131:99|188:151,1,97.9999970092774,0|0,1:0|0:0,0:0:0:0:
271,57,193913,2,0,P|305:93|285:168,1,97.9999970092774,0|0,1:0|0:0,0:0:0:0:
214,282,194090,6,0,B|185:315|181:353|181:353|92:295|129:190|209:158|329:202|283:336,1,377.999988464356,8|0,0:0|0:0,0:0:0:0:
277,353,194443,6,0,P|303:334|384:328,1,105,0|0,1:0|0:0,0:0:0:0:
447,379,194795,6,0,B|491:317|436:252|436:252|381:195|417:108,1,251.999992309571,0|0,1:0|0:0,0:0:0:0:
448,62,195060,5,0,1:0:0:0:
511,20,195148,2,0,P|460:31|421:88,1,97.9999970092774,2|0,0:0|0:0,0:0:0:0:
511,138,195325,1,0,1:0:0:0:
119,9,195501,1,8,0:0:0:0:
234,116,195678,6,0,P|171:108|147:72,1,97.9999970092774,0|0,0:1|0:0,0:0:0:0:
285,18,195854,6,0,B|289:61|281:110|281:110|266:139|246:163|246:163|227:209|236:261,1,251.999992309571,0|0,1:0|0:0,0:0:0:0:
235,257,196384,6,0,L|238:294,2,24.4999992523194
327,249,196560,6,0,P|349:297|322:351,1,97.9999970092774,0|0,1:0|0:0,0:0:0:0:
149,350,196737,2,0,P|127:302|154:248,1,97.9999970092774,0|0,1:0|0:0,0:0:0:0:
426,62,196913,1,8,0:0:0:0:
489,222,197090,6,0,B|503:167|503:167|474:119,1,97.9999970092774,0|0,1:0|0:0,0:0:0:0:
323,46,197266,6,0,B|205:53|205:53|137:137|137:137|-2:121,1,336,0|0,1:0|0:0,0:0:0:0:
226,162,197619,6,0,B|170:221|170:221|48:208,1,195.999994018555,0|0,1:0|0:0,0:0:0:0:
169,220,197884,6,0,B|211:289|211:289|167:403,1,154.000004699707,0|0,1:0|0:0,0:0:0:0:
102,300,198148,1,0,1:0:0:0:
457,304,198325,1,8,0:0:0:0:
457,304,198501,6,0,L|457:347,2,24.4999992523194,2|0|0,0:0|0:0|0:0,0:0:0:0:
511,228,198678,6,0,B|453:193|395:231|395:231|334:267|253:216,1,251.999992309571,0|0,1:0|0:0,0:0:0:0:
272,227,199207,5,0,1:0:0:0:
431,109,199384,1,0,0:0:0:0:
457,304,199560,1,0,1:0:0:0:
211,155,199737,6,0,P|271:132|338:189,1,97.9999970092774,8|0,0:0|0:0,0:0:0:0:
326,295,199913,2,0,P|266:318|199:261,1,97.9999970092774,0|0,1:0|0:0,0:0:0:0:
52,20,200090,6,0,B|28:44|28:92|60:124|60:124|92:156|92:220|60:252|60:252|28:284|28:340|66:373,1,377.999988464356,0|0,1:0|0:0,0:0:0:0:
134,311,200443,6,0,P|180:298|207:258,1,97.9999970092774,0|0,1:0|0:0,0:0:0:0:
185,107,200619,1,0,0:0:0:0:
174,79,200707,2,0,P|162:125|183:168,1,97.9999970092774,0|0,1:0|0:0,0:0:0:0:
320,225,200884,1,0,0:0:0:0:
355,230,200972,2,0,P|320:196|272:193,1,97.9999970092774,0|0,1:0|0:0,0:0:0:0:
512,212,201148,1,8,0:0:0:0:
405,98,201325,6,0,P|406:137|430:167,1,77.0000023498536,2|0,0:0|0:0,0:0:0:0:
512,31,201501,6,0,B|488:-4|437:-8|404:14|404:14|390:10|390:10|346:41|295:36|253:-9,1,251.999992309571,0|0,1:0|0:0,0:0:0:0:
280,14,202031,5,0,1:0:0:0:
144,198,202207,2,0,P|197:180|219:123,1,97.9999970092774
131,45,202384,2,0,P|78:63|56:120,1,97.9999970092774,0|0,1:0|0:0,0:0:0:0:
358,325,202560,1,8,0:0:0:0:
205,205,202737,6,0,B|218:251|218:251|280:289,1,97.9999970092774,0|0,1:0|0:0,0:0:0:0:
454,270,202913,6,0,B|500:257|500:257|534:201|534:201|511:54|511:54|445:22|445:22|401:29,1,377.999988464356,0|0,1:0|0:0,0:0:0:0:
380,230,203266,6,0,B|368:232|368:232|331:215|331:215|317:134|317:134|335:103|335:103|361:96,1,195.999994018555,0|0,1:0|0:0,0:0:0:0:
301,189,203531,6,0,B|302:197|302:197|290:223|290:223|232:234|232:234|209:220|209:220|204:202,1,140,0|0,1:0|0:0,0:0:0:0:
237,86,203795,1,0,1:0:0:0:
63,360,203972,1,8,0:0:0:0:
63,360,204148,6,0,L|63:401,2,24.4999992523194,2|0|0,0:0|0:0|0:0,0:0:0:0:
11,293,204325,6,0,B|73:257|131:317|131:317|185:373|267:343,1,251.999992309571,0|0,1:0|0:0,0:0:0:0:
368,280,204678,6,0,P|354:308|331:327,1,48.9999985046387
267,241,204854,2,0,P|249:214|244:185,1,48.9999985046387
336,117,205031,5,0,0:0:0:0:
359,154,205119,1,0,0:0:0:0:
376,192,205207,2,0,L|389:96,1,70,8|0,0:0|0:0,0:0:0:0:
415,40,205384,6,0,P|360:39|322:67,3,70,0|0|2|0,1:0|0:0|0:0|0:0,0:0:0:0:
141,96,205737,1,8,0:0:0:0:
141,96,206090,6,0,B|118:69|121:32|121:32|88:80|140:172|140:172|201:313|-19:341|1:134|139:171|139:171|173:172|226:200|231:280|231:280|235:239|257:195|282:174|282:174|227:80|260:32|260:32|257:69|281:98,1,1058.40002583984,0|0,1:0|0:0,0:0:0:0:
390,81,217384,70,0,B|290:39|350:-84|492:-24|415:85|415:85|399:114|398:145|398:145|400:184|439:211|439:211|363:163|275:205|212:353|330:417|412:415|485:391|484:291|484:291|443:320|397:295|397:295|427:323|431:345,1,1075.20002625,0|0,1:0|0:0,0:0:0:0:
256,192,228766,12,0,233972,0:0:0:0:
