osu file format v14

[General]
AudioFilename: audio.mp3
AudioLeadIn: 0
PreviewTime: 135517
Countdown: 0
SampleSet: None
StackLeniency: 0.7
Mode: 3
LetterboxInBreaks: 0
SpecialStyle: 0
WidescreenStoryboard: 0

[Editor]
DistanceSpacing: 1
BeatDivisor: 4
GridSize: 32
TimelineZoom: 1

[Metadata]
Title:Scavenger
TitleUnicode:Scavenger
Artist:Dictate
ArtistUnicode:Dictate
Creator:TheNewBungping
Version:Normal
Source:osu!
Tags:featured artist mapping olympiad
BeatmapID:1751261
BeatmapSetID:836239

[Difficulty]
HPDrainRate:8
CircleSize:4
OverallDifficulty:8
ApproachRate:5
SliderMultiplier:1.4
SliderTickRate:1

[Events]
//Background and Video events
0,0,"bg.jpg",0,0
//Break Periods
2,3012,7259
2,93364,97611
2,99011,103259
2,183717,187964
//Storyboard Layer 0 (Background)
//Storyboard Layer 1 (Fail)
//Storyboard Layer 2 (Pass)
//Storyboard Layer 3 (Foreground)
//Storyboard Sound Samples

[TimingPoints]
2812,352.941176470588,4,2,0,100,1,0
47988,-100,4,2,0,100,0,1
93164,-100,4,2,0,100,0,0
138341,-100,4,2,0,100,0,1
183517,-100,4,2,0,100,0,0

[HitObjects]
320,192,2812,5,0,0:0:0:0:
64,192,2812,1,0,0:0:0:0:
64,192,8459,5,0,0:0:0:0:
448,192,8459,1,0,0:0:0:0:
320,192,12870,1,0,0:0:0:0:
64,192,14106,1,0,0:0:0:0:
448,192,14341,1,0,0:0:0:0:
320,192,14576,1,0,0:0:0:0:
192,192,14811,1,0,0:0:0:0:
64,192,15047,1,0,0:0:0:0:
448,192,15282,1,0,0:0:0:0:
192,192,15517,1,0,0:0:0:0:
320,192,15753,1,0,0:0:0:0:
448,192,15988,1,0,0:0:0:0:
64,192,16223,1,0,0:0:0:0:
320,192,16459,1,0,0:0:0:0:
448,192,16694,1,0,0:0:0:0:
64,192,16929,1,0,0:0:0:0:
192,192,17164,1,0,0:0:0:0:
448,192,17400,1,0,0:0:0:0:
64,192,17635,1,0,0:0:0:0:
320,192,17870,1,0,0:0:0:0:
192,192,18106,1,0,0:0:0:0:
64,192,18341,1,0,0:0:0:0:
192,192,19753,1,0,0:0:0:0:
320,192,19753,1,0,0:0:0:0:
448,192,19929,1,0,0:0:0:0:
64,192,20635,1,0,0:0:0:0:
448,192,21341,1,0,0:0:0:0:
64,192,22047,1,0,0:0:0:0:
320,192,22576,1,0,0:0:0:0:
192,192,23282,1,0,0:0:0:0:
320,192,23988,1,0,0:0:0:0:
192,192,24694,1,0,0:0:0:0:
64,192,25400,1,0,0:0:0:0:
448,192,25400,1,0,0:0:0:0:
320,192,27164,1,0,0:0:0:0:
192,192,28223,1,0,0:0:0:0:
448,192,31047,1,0,0:0:0:0:
192,192,31047,1,0,0:0:0:0:
320,192,32811,1,0,0:0:0:0:
64,192,33870,1,0,0:0:0:0:
448,192,35282,1,0,0:0:0:0:
64,192,36694,1,0,0:0:0:0:
448,192,36694,1,0,0:0:0:0:
320,192,38459,1,0,0:0:0:0:
192,192,39517,1,0,0:0:0:0:
64,192,42341,1,0,0:0:0:0:
320,192,42341,1,0,0:0:0:0:
448,192,43047,128,0,47988:0:0:0:0:
64,192,47988,1,0,0:0:0:0:
192,192,47988,1,0,0:0:0:0:
320,192,48341,1,0,0:0:0:0:
192,192,48517,1,0,0:0:0:0:
64,192,48694,1,0,0:0:0:0:
448,192,48694,1,0,0:0:0:0:
320,192,48870,1,0,0:0:0:0:
192,192,49047,1,0,0:0:0:0:
320,192,49223,1,0,0:0:0:0:
448,192,49223,1,0,0:0:0:0:
64,192,49753,1,0,0:0:0:0:
192,192,49753,1,0,0:0:0:0:
320,192,50106,1,0,0:0:0:0:
448,192,50106,1,0,0:0:0:0:
64,192,50282,1,0,0:0:0:0:
192,192,50459,1,0,0:0:0:0:
320,192,50635,1,0,0:0:0:0:
448,192,50811,1,0,0:0:0:0:
64,192,50811,1,0,0:0:0:0:
192,192,50988,1,0,0:0:0:0:
448,192,51164,1,0,0:0:0:0:
64,192,51341,1,0,0:0:0:0:
320,192,51517,1,0,0:0:0:0:
448,192,51517,1,0,0:0:0:0:
192,192,51694,1,0,0:0:0:0:
448,192,51870,1,0,0:0:0:0:
320,192,52047,1,0,0:0:0:0:
64,192,52047,1,0,0:0:0:0:
192,192,52400,1,0,0:0:0:0:
320,192,52576,1,0,0:0:0:0:
448,192,52753,1,0,0:0:0:0:
192,192,52929,1,0,0:0:0:0:
64,192,52929,1,0,0:0:0:0:
320,192,53106,1,0,0:0:0:0:
192,192,53282,1,0,0:0:0:0:
320,192,53459,1,0,0:0:0:0:
64,192,53635,1,0,0:0:0:0:
448,192,53635,1,0,0:0:0:0:
192,192,53988,1,0,0:0:0:0:
448,192,54164,1,0,0:0:0:0:
320,192,54341,1,0,0:0:0:0:
64,192,54341,1,0,0:0:0:0:
192,192,54517,1,0,0:0:0:0:
448,192,54694,1,0,0:0:0:0:
64,192,54870,1,0,0:0:0:0:
192,192,54870,1,0,0:0:0:0:
320,192,55400,1,0,0:0:0:0:
448,192,55400,1,0,0:0:0:0:
64,192,55753,1,0,0:0:0:0:
192,192,55753,1,0,0:0:0:0:
448,192,55929,1,0,0:0:0:0:
320,192,56106,1,0,0:0:0:0:
192,192,56282,1,0,0:0:0:0:
64,192,56459,1,0,0:0:0:0:
448,192,56459,1,0,0:0:0:0:
320,192,56635,1,0,0:0:0:0:
192,192,56811,1,0,0:0:0:0:
448,192,56988,1,0,0:0:0:0:
64,192,57164,1,0,0:0:0:0:
192,192,57164,1,0,0:0:0:0:
320,192,57341,1,0,0:0:0:0:
64,192,57517,1,0,0:0:0:0:
192,192,57694,1,0,0:0:0:0:
448,192,57694,1,0,0:0:0:0:
320,192,58047,1,0,0:0:0:0:
448,192,58223,1,0,0:0:0:0:
64,192,58223,1,0,0:0:0:0:
192,192,58400,1,0,0:0:0:0:
320,192,58576,1,0,0:0:0:0:
448,192,58576,1,0,0:0:0:0:
64,192,58753,1,0,0:0:0:0:
448,192,58929,1,0,0:0:0:0:
320,192,59106,1,0,0:0:0:0:
192,192,59282,1,0,0:0:0:0:
64,192,59282,1,0,0:0:0:0:
448,192,59635,1,0,0:0:0:0:
64,192,59811,1,0,0:0:0:0:
320,192,59988,1,0,0:0:0:0:
448,192,59988,1,0,0:0:0:0:
64,192,60164,1,0,0:0:0:0:
448,192,60341,1,0,0:0:0:0:
64,192,60517,1,0,0:0:0:0:
192,192,60517,1,0,0:0:0:0:
192,192,61047,1,0,0:0:0:0:
320,192,61047,1,0,0:0:0:0:
448,192,61400,1,0,0:0:0:0:
64,192,61400,1,0,0:0:0:0:
320,192,61576,1,0,0:0:0:0:
192,192,61753,1,0,0:0:0:0:
64,192,61929,1,0,0:0:0:0:
320,192,62106,1,0,0:0:0:0:
448,192,62106,1,0,0:0:0:0:
192,192,62282,1,0,0:0:0:0:
320,192,62459,1,0,0:0:0:0:
448,192,62635,1,0,0:0:0:0:
64,192,62811,1,0,0:0:0:0:
192,192,62811,1,0,0:0:0:0:
320,192,62988,1,0,0:0:0:0:
64,192,63164,1,0,0:0:0:0:
448,192,63341,1,0,0:0:0:0:
192,192,63341,1,0,0:0:0:0:
320,192,63694,1,0,0:0:0:0:
192,192,63870,1,0,0:0:0:0:
448,192,64047,1,0,0:0:0:0:
64,192,64223,1,0,0:0:0:0:
320,192,64223,1,0,0:0:0:0:
192,192,64400,1,0,0:0:0:0:
448,192,64576,1,0,0:0:0:0:
192,192,64753,1,0,0:0:0:0:
448,192,64929,1,0,0:0:0:0:
64,192,64929,1,0,0:0:0:0:
320,192,65282,1,0,0:0:0:0:
64,192,65459,1,0,0:0:0:0:
320,192,65635,1,0,0:0:0:0:
448,192,65635,1,0,0:0:0:0:
192,192,65811,1,0,0:0:0:0:
320,192,65988,1,0,0:0:0:0:
448,192,66164,1,0,0:0:0:0:
64,192,66164,1,0,0:0:0:0:
320,192,66694,1,0,0:0:0:0:
448,192,66694,1,0,0:0:0:0:
64,192,67047,1,0,0:0:0:0:
192,192,67047,1,0,0:0:0:0:
448,192,67223,1,0,0:0:0:0:
320,192,67400,1,0,0:0:0:0:
64,192,67576,1,0,0:0:0:0:
192,192,67753,1,0,0:0:0:0:
448,192,67753,1,0,0:0:0:0:
320,192,67929,1,0,0:0:0:0:
64,192,68106,1,0,0:0:0:0:
448,192,68282,1,0,0:0:0:0:
64,192,68459,1,0,0:0:0:0:
192,192,68459,1,0,0:0:0:0:
320,192,68635,1,0,0:0:0:0:
192,192,68811,1,0,0:0:0:0:
64,192,68988,1,0,0:0:0:0:
448,192,68988,1,0,0:0:0:0:
320,192,69517,1,0,0:0:0:0:
448,192,69517,1,0,0:0:0:0:
64,192,69870,1,0,0:0:0:0:
192,192,69870,1,0,0:0:0:0:
448,192,70047,1,0,0:0:0:0:
192,192,70223,1,0,0:0:0:0:
320,192,70400,1,0,0:0:0:0:
64,192,70576,1,0,0:0:0:0:
448,192,70576,1,0,0:0:0:0:
192,192,70929,1,0,0:0:0:0:
320,192,71106,1,0,0:0:0:0:
64,192,71282,1,0,0:0:0:0:
192,192,71282,1,0,0:0:0:0:
448,192,71459,1,0,0:0:0:0:
320,192,71635,1,0,0:0:0:0:
192,192,71811,1,0,0:0:0:0:
448,192,71811,1,0,0:0:0:0:
64,192,72341,1,0,0:0:0:0:
320,192,72341,1,0,0:0:0:0:
448,192,72694,1,0,0:0:0:0:
192,192,72694,1,0,0:0:0:0:
64,192,72870,1,0,0:0:0:0:
320,192,73047,1,0,0:0:0:0:
192,192,73223,1,0,0:0:0:0:
64,192,73400,1,0,0:0:0:0:
448,192,73400,1,0,0:0:0:0:
320,192,73576,1,0,0:0:0:0:
192,192,73753,1,0,0:0:0:0:
64,192,73929,1,0,0:0:0:0:
320,192,74106,1,0,0:0:0:0:
448,192,74106,1,0,0:0:0:0:
192,192,74282,1,0,0:0:0:0:
320,192,74459,1,0,0:0:0:0:
448,192,74635,1,0,0:0:0:0:
64,192,74635,1,0,0:0:0:0:
192,192,74988,1,0,0:0:0:0:
320,192,75164,1,0,0:0:0:0:
192,192,75341,1,0,0:0:0:0:
448,192,75517,1,0,0:0:0:0:
64,192,75517,1,0,0:0:0:0:
320,192,75694,1,0,0:0:0:0:
192,192,75870,1,0,0:0:0:0:
320,192,76047,1,0,0:0:0:0:
64,192,76223,1,0,0:0:0:0:
192,192,76223,1,0,0:0:0:0:
448,192,76576,1,0,0:0:0:0:
320,192,76753,1,0,0:0:0:0:
192,192,76929,1,0,0:0:0:0:
448,192,76929,1,0,0:0:0:0:
64,192,77106,1,0,0:0:0:0:
320,192,77282,1,0,0:0:0:0:
448,192,77459,1,0,0:0:0:0:
64,192,77459,1,0,0:0:0:0:
192,192,77988,1,0,0:0:0:0:
320,192,77988,1,0,0:0:0:0:
448,192,78341,1,0,0:0:0:0:
64,192,78341,1,0,0:0:0:0:
320,192,78517,1,0,0:0:0:0:
192,192,78694,1,0,0:0:0:0:
64,192,78870,1,0,0:0:0:0:
320,192,79047,1,0,0:0:0:0:
448,192,79047,1,0,0:0:0:0:
192,192,79223,1,0,0:0:0:0:
448,192,79400,1,0,0:0:0:0:
64,192,79576,1,0,0:0:0:0:
320,192,79753,1,0,0:0:0:0:
192,192,79753,1,0,0:0:0:0:
448,192,79929,1,0,0:0:0:0:
64,192,80106,1,0,0:0:0:0:
320,192,80282,1,0,0:0:0:0:
448,192,80282,1,0,0:0:0:0:
192,192,80459,1,0,0:0:0:0:
448,192,80635,1,0,0:0:0:0:
320,192,80811,1,0,0:0:0:0:
64,192,80811,1,0,0:0:0:0:
192,192,80988,1,0,0:0:0:0:
64,192,81164,1,0,0:0:0:0:
448,192,81164,1,0,0:0:0:0:
320,192,81341,1,0,0:0:0:0:
192,192,81517,1,0,0:0:0:0:
64,192,81694,1,0,0:0:0:0:
320,192,81870,1,0,0:0:0:0:
448,192,81870,1,0,0:0:0:0:
192,192,82223,1,0,0:0:0:0:
320,192,82400,1,0,0:0:0:0:
448,192,82576,1,0,0:0:0:0:
192,192,82576,1,0,0:0:0:0:
64,192,82753,1,0,0:0:0:0:
448,192,82929,1,0,0:0:0:0:
64,192,83106,1,0,0:0:0:0:
320,192,83106,1,0,0:0:0:0:
192,192,83635,1,0,0:0:0:0:
448,192,83635,1,0,0:0:0:0:
64,192,83988,1,0,0:0:0:0:
320,192,83988,1,0,0:0:0:0:
192,192,84164,1,0,0:0:0:0:
320,192,84341,1,0,0:0:0:0:
448,192,84517,1,0,0:0:0:0:
64,192,84694,1,0,0:0:0:0:
192,192,84694,1,0,0:0:0:0:
320,192,84870,1,0,0:0:0:0:
192,192,85047,1,0,0:0:0:0:
448,192,85223,1,0,0:0:0:0:
64,192,85400,1,0,0:0:0:0:
320,192,85400,1,0,0:0:0:0:
192,192,85576,1,0,0:0:0:0:
320,192,85753,1,0,0:0:0:0:
192,192,85929,1,0,0:0:0:0:
448,192,85929,1,0,0:0:0:0:
64,192,86282,1,0,0:0:0:0:
448,192,86459,1,0,0:0:0:0:
192,192,86635,1,0,0:0:0:0:
320,192,86811,1,0,0:0:0:0:
64,192,86811,1,0,0:0:0:0:
448,192,86988,1,0,0:0:0:0:
64,192,87164,1,0,0:0:0:0:
448,192,87341,1,0,0:0:0:0:
192,192,87517,1,0,0:0:0:0:
320,192,87517,1,0,0:0:0:0:
64,192,87870,1,0,0:0:0:0:
320,192,88047,1,0,0:0:0:0:
448,192,88223,1,0,0:0:0:0:
192,192,88223,1,0,0:0:0:0:
64,192,88400,1,0,0:0:0:0:
448,192,88576,1,0,0:0:0:0:
64,192,88753,1,0,0:0:0:0:
192,192,88753,1,0,0:0:0:0:
320,192,89282,1,0,0:0:0:0:
448,192,89282,1,0,0:0:0:0:
64,192,89635,1,0,0:0:0:0:
192,192,89635,1,0,0:0:0:0:
448,192,89811,1,0,0:0:0:0:
192,192,89988,1,0,0:0:0:0:
320,192,90164,1,0,0:0:0:0:
64,192,90341,1,0,0:0:0:0:
448,192,90341,1,0,0:0:0:0:
192,192,90517,1,0,0:0:0:0:
320,192,90694,1,0,0:0:0:0:
64,192,90870,1,0,0:0:0:0:
448,192,91047,1,0,0:0:0:0:
192,192,91047,1,0,0:0:0:0:
320,192,91223,1,0,0:0:0:0:
64,192,91400,1,0,0:0:0:0:
320,192,91576,1,0,0:0:0:0:
448,192,91576,1,0,0:0:0:0:
192,192,91753,1,0,0:0:0:0:
320,192,91929,1,0,0:0:0:0:
64,192,92106,1,0,0:0:0:0:
192,192,92106,1,0,0:0:0:0:
320,192,92459,1,0,0:0:0:0:
448,192,92459,1,0,0:0:0:0:
192,192,92811,1,0,0:0:0:0:
320,192,92988,1,0,0:0:0:0:
64,192,93164,1,0,0:0:0:0:
448,192,93164,1,0,0:0:0:0:
448,192,98811,5,0,0:0:0:0:
64,192,104459,5,0,0:0:0:0:
192,192,104459,1,0,0:0:0:0:
448,192,105164,1,0,0:0:0:0:
64,192,106047,1,0,0:0:0:0:
192,192,106223,1,0,0:0:0:0:
448,192,106576,1,0,0:0:0:0:
64,192,107282,1,0,0:0:0:0:
192,192,107282,1,0,0:0:0:0:
448,192,107988,1,0,0:0:0:0:
64,192,108517,1,0,0:0:0:0:
448,192,108870,1,0,0:0:0:0:
448,192,109400,1,0,0:0:0:0:
320,192,110106,1,0,0:0:0:0:
448,192,110106,1,0,0:0:0:0:
64,192,110811,1,0,0:0:0:0:
448,192,111694,1,0,0:0:0:0:
320,192,111870,1,0,0:0:0:0:
64,192,112223,1,0,0:0:0:0:
320,192,112929,1,0,0:0:0:0:
448,192,112929,1,0,0:0:0:0:
64,192,113635,1,0,0:0:0:0:
320,192,114164,1,0,0:0:0:0:
448,192,114341,1,0,0:0:0:0:
64,192,114517,1,0,0:0:0:0:
64,192,115047,128,0,115753:0:0:0:0:
192,192,115753,1,0,0:0:0:0:
448,192,115753,1,0,0:0:0:0:
320,192,116459,1,0,0:0:0:0:
64,192,117341,1,0,0:0:0:0:
448,192,117517,1,0,0:0:0:0:
320,192,117870,1,0,0:0:0:0:
64,192,118576,1,0,0:0:0:0:
192,192,118576,1,0,0:0:0:0:
320,192,119282,1,0,0:0:0:0:
192,192,119811,1,0,0:0:0:0:
320,192,120164,1,0,0:0:0:0:
320,192,120694,1,0,0:0:0:0:
64,192,121400,1,0,0:0:0:0:
448,192,121400,1,0,0:0:0:0:
192,192,122106,1,0,0:0:0:0:
448,192,122988,1,0,0:0:0:0:
64,192,123164,1,0,0:0:0:0:
192,192,123517,1,0,0:0:0:0:
320,192,124223,1,0,0:0:0:0:
448,192,124223,1,0,0:0:0:0:
192,192,124929,1,0,0:0:0:0:
320,192,125459,1,0,0:0:0:0:
448,192,125635,1,0,0:0:0:0:
192,192,125811,1,0,0:0:0:0:
192,192,126341,128,0,127047:0:0:0:0:
320,192,127047,1,0,0:0:0:0:
448,192,127047,1,0,0:0:0:0:
64,192,129870,1,0,0:0:0:0:
192,192,130223,1,0,0:0:0:0:
320,192,130576,1,0,0:0:0:0:
448,192,130929,1,0,0:0:0:0:
64,192,131282,1,0,0:0:0:0:
192,192,131635,1,0,0:0:0:0:
320,192,131988,1,0,0:0:0:0:
448,192,132341,1,0,0:0:0:0:
64,192,132694,1,0,0:0:0:0:
192,192,133047,1,0,0:0:0:0:
320,192,133400,1,0,0:0:0:0:
448,192,133753,1,0,0:0:0:0:
64,192,134106,1,0,0:0:0:0:
192,192,134459,1,0,0:0:0:0:
320,192,134811,1,0,0:0:0:0:
448,192,135164,1,0,0:0:0:0:
64,192,135517,1,0,0:0:0:0:
192,192,135870,1,0,0:0:0:0:
320,192,136223,1,0,0:0:0:0:
448,192,136576,1,0,0:0:0:0:
64,192,136929,1,0,0:0:0:0:
192,192,137282,1,0,0:0:0:0:
320,192,137635,1,0,0:0:0:0:
448,192,137988,128,0,138341:0:0:0:0:
64,192,138341,1,0,0:0:0:0:
192,192,138341,1,0,0:0:0:0:
320,192,138694,1,0,0:0:0:0:
64,192,138870,1,0,0:0:0:0:
448,192,139047,1,0,0:0:0:0:
320,192,139047,1,0,0:0:0:0:
192,192,139223,1,0,0:0:0:0:
448,192,139400,1,0,0:0:0:0:
64,192,139576,1,0,0:0:0:0:
192,192,139576,1,0,0:0:0:0:
320,192,140106,1,0,0:0:0:0:
448,192,140106,1,0,0:0:0:0:
64,192,140459,1,0,0:0:0:0:
448,192,140459,1,0,0:0:0:0:
192,192,140635,1,0,0:0:0:0:
320,192,140811,1,0,0:0:0:0:
448,192,140988,1,0,0:0:0:0:
64,192,141164,1,0,0:0:0:0:
192,192,141164,1,0,0:0:0:0:
320,192,141341,1,0,0:0:0:0:
192,192,141517,1,0,0:0:0:0:
64,192,141694,1,0,0:0:0:0:
320,192,141870,1,0,0:0:0:0:
448,192,141870,1,0,0:0:0:0:
192,192,142047,1,0,0:0:0:0:
320,192,142223,1,0,0:0:0:0:
64,192,142400,1,0,0:0:0:0:
448,192,142400,1,0,0:0:0:0:
320,192,142753,1,0,0:0:0:0:
192,192,142929,1,0,0:0:0:0:
448,192,143106,1,0,0:0:0:0:
64,192,143282,1,0,0:0:0:0:
320,192,143282,1,0,0:0:0:0:
192,192,143459,1,0,0:0:0:0:
320,192,143635,1,0,0:0:0:0:
192,192,143811,1,0,0:0:0:0:
64,192,143988,1,0,0:0:0:0:
448,192,143988,1,0,0:0:0:0:
320,192,144341,1,0,0:0:0:0:
64,192,144517,1,0,0:0:0:0:
192,192,144694,1,0,0:0:0:0:
448,192,144694,1,0,0:0:0:0:
320,192,144870,1,0,0:0:0:0:
192,192,145047,1,0,0:0:0:0:
64,192,145223,1,0,0:0:0:0:
448,192,145223,1,0,0:0:0:0:
192,192,145753,1,0,0:0:0:0:
320,192,145753,1,0,0:0:0:0:
64,192,146106,1,0,0:0:0:0:
448,192,146106,1,0,0:0:0:0:
192,192,146282,1,0,0:0:0:0:
320,192,146459,1,0,0:0:0:0:
64,192,146635,1,0,0:0:0:0:
320,192,146811,1,0,0:0:0:0:
448,192,146811,1,0,0:0:0:0:
192,192,146988,1,0,0:0:0:0:
448,192,147164,1,0,0:0:0:0:
64,192,147341,1,0,0:0:0:0:
192,192,147517,1,0,0:0:0:0:
448,192,147517,1,0,0:0:0:0:
320,192,147694,1,0,0:0:0:0:
192,192,147870,1,0,0:0:0:0:
320,192,148047,1,0,0:0:0:0:
64,192,148047,1,0,0:0:0:0:
192,192,148400,1,0,0:0:0:0:
448,192,148576,1,0,0:0:0:0:
320,192,148576,1,0,0:0:0:0:
64,192,148753,1,0,0:0:0:0:
448,192,148929,1,0,0:0:0:0:
192,192,148929,1,0,0:0:0:0:
320,192,149106,1,0,0:0:0:0:
64,192,149282,1,0,0:0:0:0:
448,192,149459,1,0,0:0:0:0:
64,192,149635,1,0,0:0:0:0:
192,192,149635,1,0,0:0:0:0:
320,192,149988,1,0,0:0:0:0:
192,192,150164,1,0,0:0:0:0:
448,192,150341,1,0,0:0:0:0:
320,192,150341,1,0,0:0:0:0:
64,192,150517,1,0,0:0:0:0:
448,192,150694,1,0,0:0:0:0:
64,192,150870,1,0,0:0:0:0:
192,192,150870,1,0,0:0:0:0:
192,192,151400,1,0,0:0:0:0:
320,192,151400,1,0,0:0:0:0:
448,192,151753,1,0,0:0:0:0:
64,192,151753,1,0,0:0:0:0:
192,192,151929,1,0,0:0:0:0:
320,192,152106,1,0,0:0:0:0:
448,192,152282,1,0,0:0:0:0:
192,192,152459,1,0,0:0:0:0:
64,192,152459,1,0,0:0:0:0:
320,192,152635,1,0,0:0:0:0:
64,192,152811,1,0,0:0:0:0:
448,192,152988,1,0,0:0:0:0:
320,192,153164,1,0,0:0:0:0:
192,192,153164,1,0,0:0:0:0:
64,192,153341,1,0,0:0:0:0:
320,192,153517,1,0,0:0:0:0:
192,192,153694,1,0,0:0:0:0:
448,192,153694,1,0,0:0:0:0:
64,192,154047,1,0,0:0:0:0:
448,192,154223,1,0,0:0:0:0:
192,192,154400,1,0,0:0:0:0:
64,192,154576,1,0,0:0:0:0:
320,192,154576,1,0,0:0:0:0:
448,192,154753,1,0,0:0:0:0:
64,192,154929,1,0,0:0:0:0:
448,192,155106,1,0,0:0:0:0:
64,192,155282,1,0,0:0:0:0:
192,192,155282,1,0,0:0:0:0:
320,192,155635,1,0,0:0:0:0:
192,192,155811,1,0,0:0:0:0:
64,192,155988,1,0,0:0:0:0:
448,192,155988,1,0,0:0:0:0:
320,192,156164,1,0,0:0:0:0:
192,192,156341,1,0,0:0:0:0:
64,192,156517,1,0,0:0:0:0:
448,192,156517,1,0,0:0:0:0:
192,192,157047,1,0,0:0:0:0:
320,192,157047,1,0,0:0:0:0:
64,192,157400,1,0,0:0:0:0:
448,192,157400,1,0,0:0:0:0:
320,192,157576,1,0,0:0:0:0:
448,192,157753,1,0,0:0:0:0:
192,192,157929,1,0,0:0:0:0:
320,192,158106,1,0,0:0:0:0:
64,192,158106,1,0,0:0:0:0:
448,192,158282,1,0,0:0:0:0:
64,192,158459,1,0,0:0:0:0:
320,192,158635,1,0,0:0:0:0:
192,192,158811,1,0,0:0:0:0:
448,192,158811,1,0,0:0:0:0:
64,192,158988,1,0,0:0:0:0:
448,192,159164,1,0,0:0:0:0:
64,192,159341,1,0,0:0:0:0:
192,192,159341,1,0,0:0:0:0:
320,192,159694,1,0,0:0:0:0:
448,192,159694,1,0,0:0:0:0:
64,192,160047,1,0,0:0:0:0:
192,192,160223,1,0,0:0:0:0:
448,192,160223,1,0,0:0:0:0:
320,192,160400,1,0,0:0:0:0:
192,192,160576,1,0,0:0:0:0:
64,192,160929,1,0,0:0:0:0:
448,192,160929,1,0,0:0:0:0:
320,192,161282,1,0,0:0:0:0:
64,192,161459,1,0,0:0:0:0:
192,192,161635,1,0,0:0:0:0:
448,192,161635,1,0,0:0:0:0:
320,192,161811,1,0,0:0:0:0:
192,192,161988,1,0,0:0:0:0:
64,192,162164,1,0,0:0:0:0:
448,192,162164,1,0,0:0:0:0:
64,192,162694,1,0,0:0:0:0:
192,192,162694,1,0,0:0:0:0:
320,192,163047,1,0,0:0:0:0:
448,192,163047,1,0,0:0:0:0:
64,192,163223,1,0,0:0:0:0:
320,192,163400,1,0,0:0:0:0:
192,192,163576,1,0,0:0:0:0:
448,192,163753,1,0,0:0:0:0:
64,192,163753,1,0,0:0:0:0:
320,192,163929,1,0,0:0:0:0:
192,192,164106,1,0,0:0:0:0:
448,192,164282,1,0,0:0:0:0:
64,192,164459,1,0,0:0:0:0:
320,192,164459,1,0,0:0:0:0:
192,192,164635,1,0,0:0:0:0:
320,192,164811,1,0,0:0:0:0:
64,192,164988,1,0,0:0:0:0:
448,192,164988,1,0,0:0:0:0:
192,192,165341,1,0,0:0:0:0:
448,192,165517,1,0,0:0:0:0:
64,192,165694,1,0,0:0:0:0:
448,192,165870,1,0,0:0:0:0:
192,192,165870,1,0,0:0:0:0:
320,192,166047,1,0,0:0:0:0:
192,192,166223,1,0,0:0:0:0:
320,192,166400,1,0,0:0:0:0:
64,192,166576,1,0,0:0:0:0:
448,192,166576,1,0,0:0:0:0:
192,192,166929,1,0,0:0:0:0:
320,192,167106,1,0,0:0:0:0:
64,192,167282,1,0,0:0:0:0:
192,192,167282,1,0,0:0:0:0:
448,192,167459,1,0,0:0:0:0:
64,192,167635,1,0,0:0:0:0:
192,192,167811,1,0,0:0:0:0:
448,192,167811,1,0,0:0:0:0:
320,192,168341,1,0,0:0:0:0:
64,192,168341,1,0,0:0:0:0:
192,192,168694,1,0,0:0:0:0:
448,192,168694,1,0,0:0:0:0:
320,192,168870,1,0,0:0:0:0:
192,192,169047,1,0,0:0:0:0:
64,192,169223,1,0,0:0:0:0:
320,192,169400,1,0,0:0:0:0:
448,192,169400,1,0,0:0:0:0:
64,192,169576,1,0,0:0:0:0:
320,192,169753,1,0,0:0:0:0:
192,192,169929,1,0,0:0:0:0:
64,192,170106,1,0,0:0:0:0:
448,192,170106,1,0,0:0:0:0:
320,192,170282,1,0,0:0:0:0:
192,192,170459,1,0,0:0:0:0:
320,192,170635,1,0,0:0:0:0:
64,192,170635,1,0,0:0:0:0:
448,192,170811,1,0,0:0:0:0:
64,192,170988,1,0,0:0:0:0:
448,192,171164,1,0,0:0:0:0:
192,192,171164,1,0,0:0:0:0:
320,192,171341,1,0,0:0:0:0:
64,192,171517,1,0,0:0:0:0:
192,192,171517,1,0,0:0:0:0:
448,192,171694,1,0,0:0:0:0:
64,192,172223,1,0,0:0:0:0:
320,192,172223,1,0,0:0:0:0:
192,192,172576,1,0,0:0:0:0:
320,192,172753,1,0,0:0:0:0:
448,192,172929,1,0,0:0:0:0:
64,192,172929,1,0,0:0:0:0:
192,192,173106,1,0,0:0:0:0:
320,192,173282,1,0,0:0:0:0:
448,192,173459,1,0,0:0:0:0:
64,192,173459,1,0,0:0:0:0:
64,192,173988,1,0,0:0:0:0:
320,192,173988,1,0,0:0:0:0:
192,192,174341,1,0,0:0:0:0:
448,192,174341,1,0,0:0:0:0:
320,192,174517,1,0,0:0:0:0:
64,192,174694,1,0,0:0:0:0:
192,192,174870,1,0,0:0:0:0:
320,192,175047,1,0,0:0:0:0:
448,192,175047,1,0,0:0:0:0:
64,192,175223,1,0,0:0:0:0:
448,192,175400,1,0,0:0:0:0:
192,192,175576,1,0,0:0:0:0:
64,192,175753,1,0,0:0:0:0:
320,192,175753,1,0,0:0:0:0:
448,192,175929,1,0,0:0:0:0:
64,192,176106,1,0,0:0:0:0:
192,192,176282,1,0,0:0:0:0:
448,192,176282,1,0,0:0:0:0:
320,192,176635,1,0,0:0:0:0:
64,192,176811,1,0,0:0:0:0:
448,192,176988,1,0,0:0:0:0:
64,192,177164,1,0,0:0:0:0:
192,192,177164,1,0,0:0:0:0:
320,192,177341,1,0,0:0:0:0:
192,192,177517,1,0,0:0:0:0:
320,192,177694,1,0,0:0:0:0:
64,192,177870,1,0,0:0:0:0:
448,192,177870,1,0,0:0:0:0:
192,192,178223,1,0,0:0:0:0:
320,192,178400,1,0,0:0:0:0:
64,192,178576,1,0,0:0:0:0:
448,192,178576,1,0,0:0:0:0:
320,192,178753,1,0,0:0:0:0:
192,192,178929,1,0,0:0:0:0:
64,192,179106,1,0,0:0:0:0:
448,192,179106,1,0,0:0:0:0:
320,192,179635,1,0,0:0:0:0:
192,192,179635,1,0,0:0:0:0:
64,192,179988,1,0,0:0:0:0:
448,192,179988,1,0,0:0:0:0:
320,192,180164,1,0,0:0:0:0:
192,192,180341,1,0,0:0:0:0:
64,192,180517,1,0,0:0:0:0:
320,192,180694,1,0,0:0:0:0:
448,192,180694,1,0,0:0:0:0:
192,192,180870,1,0,0:0:0:0:
448,192,181047,1,0,0:0:0:0:
64,192,181223,1,0,0:0:0:0:
192,192,181400,1,0,0:0:0:0:
320,192,181400,1,0,0:0:0:0:
64,192,181929,1,0,0:0:0:0:
448,192,181929,1,0,0:0:0:0:
192,192,182282,1,0,0:0:0:0:
320,192,182459,1,0,0:0:0:0:
64,192,182459,1,0,0:0:0:0:
448,192,182635,1,0,0:0:0:0:
192,192,182811,1,0,0:0:0:0:
64,192,182811,128,0,183517:0:0:0:0:
320,192,183517,1,0,0:0:0:0:
448,192,183517,1,0,0:0:0:0:
192,192,189164,5,0,0:0:0:0:
448,192,193576,1,0,0:0:0:0:
64,192,194811,1,0,0:0:0:0:
192,192,194811,1,0,0:0:0:0:
320,192,196576,1,0,0:0:0:0:
192,192,197635,1,0,0:0:0:0:
448,192,200459,1,0,0:0:0:0:
64,192,202223,1,0,0:0:0:0:
320,192,203282,1,0,0:0:0:0:
192,192,204694,1,0,0:0:0:0:
64,192,206106,1,0,0:0:0:0:
