osu file format v14

[General]
AudioFilename: audio.mp3
AudioLeadIn: 0
PreviewTime: 102183
Countdown: 0
SampleSet: Soft
StackLeniency: 0.6
Mode: 0
LetterboxInBreaks: 0
WidescreenStoryboard: 1

[Editor]
Bookmarks: 13230,36253,48113,58578,80904,92067,102648,114392,125555,136718,147881,159044,170206
DistanceSpacing: 1
BeatDivisor: 4
GridSize: 32
TimelineZoom: 3.999998

[Metadata]
Title:Militant
TitleUnicode:Militant
Artist:Dictate
ArtistUnicode:Dictate
Creator:NeilPerry
Version:Easy
Source:
Tags:bouyaaa regou hotdog mappers' guild featured artist scavenger dnb neurofunk industrial glitch
BeatmapID:1649481
BeatmapSetID:785677

[Difficulty]
HPDrainRate:2.5
CircleSize:3
OverallDifficulty:3
ApproachRate:3.5
SliderMultiplier:0.8
SliderTickRate:1

[Events]
//Background and Video events
0,0,"dictate1.png",0,0
//Break Periods
2,25439,29291
2,81253,90687
2,114741,118594
//Storyboard Layer 0 (Background)
//Storyboard Layer 1 (Fail)
//Storyboard Layer 2 (Pass)
//Storyboard Layer 3 (Foreground)
//Storyboard Sound Samples

[TimingPoints]
2765,348.837209302326,4,2,1,40,1,0
13230,-100,4,2,1,40,0,0
25090,-100,4,2,1,50,0,0
25177,-100,4,2,1,5,0,0
30671,-100,4,2,1,20,0,0
31195,-100,4,2,1,30,0,0
31718,-100,4,2,1,40,0,0
32241,-100,4,2,1,60,0,0
32765,-100,4,2,1,50,0,0
33637,-100,4,2,1,30,0,0
34073,-100,4,2,1,5,0,0
34160,-100,4,2,1,40,0,0
34421,-100,4,2,1,5,0,0
34509,-100,4,2,1,50,0,0
36078,-100,4,2,1,65,0,0
80904,-100,4,2,1,50,0,0
80991,-100,4,2,1,5,0,0
91369,-100,4,2,1,50,0,0
102532,-100,4,2,1,65,0,0
103230,-100,4,2,1,65,0,1
114392,-100,4,2,1,50,0,0
114480,-100,4,2,1,5,0,0
119974,-100,4,2,1,20,0,0
120497,-100,4,2,1,30,0,0
121020,-100,4,2,1,40,0,0
121544,-100,4,2,1,60,0,0
122067,-100,4,2,1,50,0,0
122939,-100,4,2,1,30,0,0
123375,-100,4,2,1,5,0,0
123462,-100,4,2,1,40,0,0
123724,-100,4,2,1,5,0,0
123811,-100,4,2,1,50,0,0
125381,-100,4,2,1,65,0,0

[Colours]
Combo1 : 255,128,128
Combo2 : 223,244,240
Combo3 : 179,255,222
Combo4 : 99,203,143
Combo5 : 177,254,152
Combo6 : 252,217,112

[HitObjects]
398,34,13927,6,0,L|389:88,1,40,0|8,3:0|0:0,0:0:0:0:
391,153,14451,2,0,L|399:208,1,40,0|8,3:0|0:1,0:0:0:0:
413,270,14974,2,0,L|406:316,1,40,0|8,3:0|0:0,0:0:0:0:
333,342,15497,2,0,L|288:362,3,40,0|0|0|8,0:0|0:0|3:0|0:0,0:0:0:0:
252,291,16369,6,0,L|207:311,3,40,0|0|0|8,3:0|3:0|3:0|0:0,0:0:0:0:
136,319,17241,2,0,L|127:265,1,40,0|8,3:0|0:1,0:0:0:0:
129,200,17765,2,0,L|137:145,1,40,0|8,3:0|0:0,0:0:0:0:
151,83,18288,2,0,L|144:37,3,40,0|0|0|8,0:0|0:0|3:0|0:0,0:0:0:0:
224,31,19160,70,0,L|231:77,3,40,0|0|0|8,3:0|3:0|3:0|0:0,0:0:0:0:
241,149,20032,2,0,L|292:162,1,40,0|8,3:0|0:1,0:0:0:0:
353,126,20555,2,0,L|407:113,1,40,0|8,3:0|0:0,0:0:0:0:
458,161,21078,2,0,L|511:177,3,40,0|0|0|8,0:0|0:0|3:0|0:0,0:0:0:0:
476,250,21951,6,0,L|423:234,3,40,0|0|0|8,3:0|3:0|3:0|0:0,0:0:0:0:
364,271,22823,2,0,L|315:282,1,40,0|8,3:0|0:1,0:0:0:0:
249,253,23346,2,0,L|203:242,1,40,0|8,3:0|0:0,0:0:0:0:
137,278,23869,2,0,L|87:290,3,40,0|0|0|8,0:0|0:0|3:0|0:1,0:0:0:0:
41,230,24741,70,0,P|32:188|11:144,1,80,0|4,3:0|3:1,0:0:0:0:
264,30,30671,6,0,L|257:72,1,40,0|0,3:0|0:0,0:0:0:0:
243,148,31195,2,0,L|236:190,1,40,0|0,0:0|0:0,0:0:0:0:
221,266,31718,2,0,L|214:308,1,40,0|0,3:0|0:0,0:0:0:0:
145,346,32241,2,0,L|96:358,1,40,0|8,0:0|0:0,0:0:0:0:
57,291,32765,2,0,P|49:247|64:203,1,80,0|0,3:0|0:0,0:0:0:0:
70,134,33462,70,0,B|167:134|116:181|234:176,1,160,0|8,3:0|0:3,0:0:0:0:
260,107,34509,2,0,P|293:142|186:253,1,240,0|0,3:0|1:0,0:0:0:0:
63,347,36253,54,0,P|127:336|205:363,1,120,0|0,3:0|3:0,0:0:0:0:
217,361,36951,2,0,P|281:372|359:345,1,120,8|0,0:1|0:0,0:0:0:0:
374,290,37823,2,0,L|396:240,3,40,8|0|0|8,0:0|0:3|0:0|0:1,0:0:0:0:
405,174,38695,6,0,P|358:178|326:204,2,80,0|0|0,0:0|3:0|0:0,0:0:0:0:
477,139,39741,2,0,L|507:0,1,120,8|0,0:1|0:0,0:0:0:0:
422,16,40613,2,0,L|372:23,3,40,8|0|0|8,0:0|3:0|0:0|1:1,0:0:0:0:
315,65,41485,1,2,3:1:0:0:
246,105,41834,70,0,L|258:238,1,120,0|0,3:0|3:0,0:0:0:0:
271,262,42532,2,0,L|259:395,1,120,8|0,0:1|0:0,0:0:0:0:
181,368,43404,2,0,L|132:375,3,40,8|0|0|8,0:0|3:0|0:0|0:1,0:0:0:0:
109,300,44276,6,0,P|72:328|60:368,2,80,0|0|0,3:0|3:0|0:0,0:0:0:0:
185,275,45323,2,0,L|208:143,1,120,8|0,0:1|0:0,0:0:0:0:
282,134,46195,2,0,L|351:123,1,40,8|0,0:0|3:0,0:0:0:0:
398,105,46718,2,0,B|411:175|369:163|379:238,1,120,8|0,1:1|0:0,0:0:0:0:
384,260,47416,70,0,L|261:277,1,120,0|0,3:0|3:0,0:0:0:0:
233,300,48113,2,0,L|110:317,1,120,8|0,0:1|0:0,0:0:0:0:
67,251,48985,2,0,L|52:206,3,40,8|0|0|8,0:0|3:0|0:0|0:1,0:0:0:0:
94,143,49858,6,0,P|60:131|7:149,2,80,0|0|0,3:1|3:0|0:0,0:0:0:0:
153,196,50904,2,0,P|209:218|296:198,1,120,8|0,0:1|0:0,0:0:0:0:
319,151,51776,2,0,P|340:172|346:192,3,40,8|0|0|8,0:0|3:0|0:0|1:0,0:0:0:0:
334,260,52648,1,2,0:1:0:0:
315,337,52997,70,0,L|180:347,1,120,0|0,3:0|3:0,0:0:0:0:
181,308,53695,2,0,L|46:298,1,120,8|0,0:1|0:0,0:0:0:0:
36,222,54567,2,0,L|21:160,3,40,8|0|0|8,0:0|3:0|0:0|0:1,0:0:0:0:
95,142,55439,6,0,P|69:111|32:103,2,80,0|0|0,3:0|3:0|0:0,0:0:0:0:
117,218,56485,2,0,B|190:213|153:237|239:238,1,120,8|0,0:1|0:0,0:0:0:0:
313,247,57358,2,0,L|328:189,1,40,8|2,0:0|3:2,0:0:0:0:
304,130,57881,2,0,B|377:125|340:149|426:150,1,120,8|0,1:0|0:0,0:0:0:0:
459,158,58578,38,0,L|424:327,1,160,2|8,3:2|0:3,0:0:0:0:
354,349,59625,2,0,P|273:359|229:333,2,120,2|2|0,3:2|0:0|0:0,0:0:0:0:
352,268,61020,1,2,3:2:0:0:
277,238,61369,6,0,B|266:141|317:176|303:53,1,160,2|8,3:2|0:3,0:0:0:0:
229,58,62416,2,0,P|256:15|326:6,2,120,2|2|8,3:2|0:0|0:3,0:0:0:0:
211,136,63811,1,0,3:0:0:0:
253,203,64160,70,0,B|223:230|165:220|190:202|141:189|85:228,1,160,2|8,3:2|3:0,0:0:0:0:
79,296,65206,2,0,P|39:272|27:193,2,120,2|2|8,3:2|0:0|0:3,0:0:0:0:
158,308,66602,1,2,3:2:0:0:
235,286,66951,6,0,B|333:271|280:321|421:310,1,160,2|8,3:2|3:0,0:0:0:0:
442,250,67997,2,0,P|471:292|451:363,2,120,2|2|8,3:2|0:0|1:0,0:0:0:0:
370,213,69392,1,0,3:0:0:0:
301,172,69741,6,0,L|281:74,2,80,0|0|8,3:0|0:0|0:1,0:0:0:0:
296,252,70788,2,0,P|251:291|186:283,1,120,2|2,3:1|3:1,0:0:0:0:
168,256,71485,2,0,P|137:241|87:252,1,80,8|0,0:1|3:0,0:0:0:0:
20,281,72183,1,0,3:1:0:0:
28,201,72532,6,0,L|10:112,2,80,0|0|8,3:0|0:0|0:1,0:0:0:0:
93,248,73578,2,0,B|168:245|144:275|239:268,1,120,2|2,3:1|0:1,0:0:0:0:
249,277,74276,2,0,L|262:363,1,80,0|8,3:1|1:0,0:0:0:0:
340,364,74974,1,0,3:0:0:0:
383,296,75323,70,0,P|412:322|420:361,2,80,0|0|8,3:1|0:1|0:1,0:0:0:0:
340,227,76369,2,0,L|319:94,1,120,2|2,3:1|3:1,0:0:0:0:
305,71,77067,2,0,L|199:61,1,80,8|0,0:1|0:3,0:0:0:0:
145,54,77765,1,0,3:1:0:0:
95,116,78113,6,0,P|68:80|74:25,2,80,0|0|8,3:0|0:0|0:1,0:0:0:0:
168,149,79160,2,0,L|150:279,1,120,2|2,3:1|0:1,0:0:0:0:
148,307,79858,2,0,L|239:319,1,80,0|0,3:1|0:1,0:0:0:0:
306,326,80555,1,0,1:0:0:0:
385,335,80904,69,4,3:1:0:0:
371,28,92067,22,0,L|364:83,1,40,0|0,3:0|0:0,0:0:0:0:
364,147,92590,2,0,L|371:202,1,40,0|8,3:0|0:3,0:0:0:0:
372,266,93113,2,0,L|365:321,1,40,0|0,3:0|0:0,0:0:0:0:
287,294,93637,2,0,L|294:239,1,40,0|8,3:0|0:3,0:0:0:0:
279,175,94160,2,0,B|209:171|236:197|150:195,1,120,0|0,3:0|0:0,0:0:0:0:
121,197,94858,6,0,L|111:143,1,40,0|2,3:0|0:0,0:0:0:0:
93,80,95381,2,0,L|103:26,1,40,0|8,3:0|0:3,0:0:0:0:
178,24,95904,2,0,L|246:36,1,40,0|0,3:0|0:0,0:0:0:0:
292,57,96427,2,0,L|331:50,3,40,0|0|8|8,0:0|3:0|0:0|0:3,0:0:0:0:
410,37,97299,1,2,3:2:0:0:
489,39,97648,70,0,L|502:93,1,40,0|0,3:0|0:0,0:0:0:0:
454,144,98171,2,0,L|441:198,1,40,0|8,3:0|0:3,0:0:0:0:
473,257,98695,2,0,L|486:311,1,40,0|0,3:0|0:0,0:0:0:0:
403,310,99218,2,0,L|390:256,1,40,0|8,3:0|0:3,0:0:0:0:
356,200,99741,2,0,B|318:197|318:197|236:233,1,120,0|0,3:0|0:0,0:0:0:0:
204,239,100439,6,0,L|191:185,1,40,0|2,3:0|0:0,0:0:0:0:
116,217,100962,2,0,L|129:271,1,40,0|8,3:0|0:3,0:0:0:0:
46,269,101485,2,0,L|33:215,1,40,0|0,3:0|0:0,0:0:0:0:
53,151,102009,2,0,L|66:97,1,40,0|0,3:0|3:0,0:0:0:0:
87,36,102532,1,8,0:3:0:0:
166,29,102881,1,0,3:0:0:0:
245,26,103230,6,0,L|380:13,1,120,2|0,3:2|3:0,0:0:0:0:
404,18,103927,2,0,L|503:35,2,80,8|0|0,0:1|3:0|0:0,0:0:0:0:
386,96,104974,1,8,0:1:0:0:
328,152,105323,2,0,L|342:245,1,80,0|0,3:0|3:0,0:0:0:0:
405,277,106020,6,0,P|338:281|263:310,1,120,0|0,3:0|3:0,0:0:0:0:
248,305,106718,2,0,L|234:398,2,80,8|0|0,0:1|3:0|0:0,0:0:0:0:
217,230,107765,1,0,3:0:0:0:
161,172,108113,2,0,L|147:79,1,80,8|2,0:1|3:2,0:0:0:0:
114,20,108811,70,0,B|148:1|212:12|170:39|263:36,1,120,2|0,3:2|3:0,0:0:0:0:
266,47,109509,2,0,L|368:73,2,80,8|0|0,0:1|3:0|0:0,0:0:0:0:
240,122,110555,1,8,0:1:0:0:
213,197,110904,2,0,L|186:275,1,80,0|0,0:3|3:0,0:0:0:0:
142,339,111602,6,0,P|197:324|292:342,1,120,0|0,3:0|3:0,0:0:0:0:
296,344,112299,2,0,P|352:362|381:358,2,80,8|0|0,0:1|3:0|0:0,0:0:0:0:
311,265,113346,1,0,3:0:0:0:
357,200,113695,2,0,B|392:111|336:135|383:13,1,160,8|4,0:1|3:1,0:0:0:0:
256,192,119974,12,0,123811,3:0:0:0:
321,60,125555,70,0,B|388:51|388:51|404:67|404:67|489:81,1,160,2|8,3:2|0:3,0:0:0:0:
483,158,126602,2,0,L|501:285,2,120,2|2|8,3:2|0:0|0:3,0:0:0:0:
403,163,127997,1,2,3:2:0:0:
323,166,128346,6,0,B|242:149|266:206|151:183,1,160,2|8,3:2|0:3,0:0:0:0:
88,194,129392,2,0,P|109:131|164:106,2,120,2|2|8,3:2|0:0|1:0,0:0:0:0:
133,260,130788,1,0,3:0:0:0:
191,314,131137,70,0,L|371:323,1,160,2|8,3:2|0:3,0:0:0:0:
395,255,132183,2,0,B|432:287|432:287|429:370,2,120,2|2|8,3:2|0:0|0:3,0:0:0:0:
324,217,133578,1,2,3:2:0:0:
365,148,133927,6,0,B|344:117|269:113|289:176|193:137,1,160,2|8,3:2|0:3,0:0:0:0:
150,96,134974,2,0,L|169:219,2,120,2|2|8,3:2|0:0|1:0,0:0:0:0:
95,37,136369,1,0,3:0:0:0:
49,102,136718,6,0,P|17:63|23:15,2,80,0|0|8,3:1|0:1|0:1,0:0:0:0:
62,181,137765,2,0,P|123:182|193:219,1,120,2|2,3:1|3:1,0:0:0:0:
200,236,138462,2,0,L|183:322,1,80,8|0,0:1|3:0,0:0:0:0:
262,334,139160,1,0,3:1:0:0:
324,284,139509,6,0,P|343:326|326:381,2,80,0|0|8,3:1|0:1|0:1,0:0:0:0:
291,211,140555,2,0,P|279:161|322:83,1,120,2|2,3:1|0:1,0:0:0:0:
343,97,141253,2,0,L|446:115,1,80,0|8,3:1|1:0,0:0:0:0:
500,128,141951,1,0,3:0:0:0:
486,206,142299,70,0,L|468:294,2,80,0|0|8,3:1|0:1|0:1,0:0:0:0:
406,191,143346,2,0,P|357:192|298:244,1,120,2|2,3:1|3:1,0:0:0:0:
285,270,144044,2,0,P|248:298|184:287,1,80,8|0,0:1|3:0,0:0:0:0:
144,262,144741,1,0,3:1:0:0:
101,193,145090,6,0,P|73:216|62:262,2,80,0|0|8,3:1|0:1|0:1,0:0:0:0:
180,183,146137,2,0,L|213:40,1,120,2|2,3:1|0:1,0:0:0:0:
246,57,146834,2,0,L|332:47,1,80,0|8,3:0|1:1,0:0:0:0:
405,41,147532,1,0,1:0:0:0:
381,117,147881,38,0,B|361:213|414:177|392:305,1,160,2|8,3:2|0:3,0:0:0:0:
344,334,148927,2,0,P|385:355|455:325,2,120,2|2|8,3:1|0:1|0:3,0:0:0:0:
296,269,150323,1,2,3:2:0:0:
264,195,150671,6,0,L|92:220,1,160,2|8,3:2|0:3,0:0:0:0:
26,229,151718,2,0,L|0:103,2,120,2|2|8,3:1|0:1|1:0,0:0:0:0:
50,305,153113,1,2,3:2:0:0:
114,353,153462,2,0,B|154:368|207:364|195:315|293:341,1,160,2|8,3:2|0:3,0:0:0:0:
308,265,154509,70,0,P|351:322|337:377,2,120,2|2|8,3:1|0:1|0:3,0:0:0:0:
233,236,155904,1,2,3:2:0:0:
153,225,156253,6,0,L|121:44,1,160,2|8,3:2|0:3,0:0:0:0:
67,11,157299,2,0,B|38:40|38:40|51:131,2,120,2|2|8,3:1|0:1|1:0,0:0:0:0:
146,20,158695,1,2,3:2:0:0:
195,82,159044,6,0,P|222:48|225:5,2,80,0|0|8,3:1|0:1|0:1,0:0:0:0:
133,133,160090,2,0,L|151:276,1,120,2|2,3:1|3:1,0:0:0:0:
158,290,160788,2,0,L|261:279,1,80,8|0,0:1|3:0,0:0:0:0:
317,272,161485,1,0,3:1:0:0:
375,217,161834,6,0,P|398:262|390:302,2,80,0|0|8,3:1|0:1|0:1,0:0:0:0:
298,191,162881,2,0,L|266:44,1,120,2|2,3:1|0:1,0:0:0:0:
235,58,163578,2,0,L|139:45,1,80,0|8,3:0|1:0,0:0:0:0:
75,38,164276,1,0,3:0:0:0:
43,111,164625,70,0,P|7:83|-3:39,2,80,0|0|8,3:1|0:1|0:1,0:0:0:0:
112,151,165671,2,0,P|92:204|109:280,1,120,2|2,3:1|3:1,0:0:0:0:
125,297,166369,2,0,P|183:321|201:339,1,80,8|0,0:1|3:0,0:0:0:0:
267,367,167067,1,0,3:1:0:0:
265,286,167416,6,0,L|261:191,2,80,0|0|8,3:1|0:1|0:1,0:0:0:0:
340,311,168462,2,0,L|461:324,1,120,2|2,3:1|0:1,0:0:0:0:
470,285,169160,2,0,L|496:192,1,80,0|8,3:0|1:0,0:0:0:0:
463,132,169858,1,0,0:0:0:0:
431,58,170206,69,4,3:1:0:0:
