osu file format v14

[General]
AudioFilename: audio.mp3
AudioLeadIn: 0
PreviewTime: 102183
Countdown: 0
SampleSet: Normal
StackLeniency: 0.2
Mode: 1
LetterboxInBreaks: 0
WidescreenStoryboard: 1

[Editor]
Bookmarks: 13230,36253,58578,80904,92067,114392,125555,136718,147881,159044,170206
DistanceSpacing: 1.5
BeatDivisor: 4
GridSize: 32
TimelineZoom: 2.899999

[Metadata]
Title:Militant
TitleUnicode:Militant
Artist:Dictate
ArtistUnicode:Dictate
Creator:-Rmdy
Version:Oni
Source:
Tags:featured artist scavanger dnb neurofunk industrial glitch
BeatmapID:1727905
BeatmapSetID:824520

[Difficulty]
HPDrainRate:5.5
CircleSize:4.2
OverallDifficulty:5.5
ApproachRate:5
SliderMultiplier:1.4
SliderTickRate:1

[Events]
//Background and Video events
0,0,"dictate1.png",0,0
//Break Periods
2,25290,29471
2,81104,90169
2,114592,118774
//Storyboard Layer 0 (Background)
//Storyboard Layer 1 (Fail)
//Storyboard Layer 2 (Pass)
//Storyboard Layer 3 (Foreground)
//Storyboard Sound Samples

[TimingPoints]
2765,348.837209302326,4,1,0,40,1,0
25090,-100,4,1,0,50,0,0
30671,-100,4,1,0,20,0,0
31195,-100,4,1,0,30,0,0
31718,-100,4,1,0,40,0,0
32241,-100,4,1,0,60,0,0
32765,-100,4,1,0,50,0,0
33637,-100,4,1,0,30,0,0
34160,-100,4,1,0,40,0,0
34509,-100,4,1,0,50,0,0
35555,-99.009900990099,4,1,0,50,0,0
35642,-98.0392156862745,4,1,0,50,0,0
35730,-97.0873786407767,4,1,0,50,0,0
35817,-96.1538461538461,4,1,0,50,0,0
35904,-95.2380952380952,4,1,0,50,0,0
36253,-95.2380952380952,4,1,0,65,0,1
58230,-96.1538461538461,4,1,0,65,0,1
58317,-97.0873786407767,4,1,0,65,0,1
58404,-98.0392156862745,4,1,0,65,0,1
58491,-99.009900990099,4,1,0,65,0,1
58578,-100,4,1,0,65,0,0
80904,-100,4,1,0,50,0,0
91369,-100,4,1,0,50,0,0
102532,-100,4,1,0,65,0,0
114392,-100,4,1,0,50,0,0
119974,-100,4,1,0,20,0,0
120497,-100,4,1,0,30,0,0
121020,-100,4,1,0,40,0,0
121544,-100,4,1,0,60,0,0
122067,-100,4,1,0,50,0,0
122939,-100,4,1,0,30,0,0
123462,-100,4,1,0,40,0,0
123811,-100,4,1,0,50,0,0
124858,-98.0392156862745,4,1,0,50,0,0
124945,-96.1538461538461,4,1,0,50,0,0
125032,-94.3396226415094,4,1,0,50,0,0
125119,-92.5925925925926,4,1,0,50,0,0
125206,-90.9090909090909,4,1,0,50,0,0
125555,-90.9090909090909,4,1,0,65,0,1
147532,-92.5925925925926,4,1,0,65,0,1
147619,-94.3396226415094,4,1,0,65,0,1
147706,-96.1538461538461,4,1,0,65,0,1
147794,-98.0392156862745,4,1,0,65,0,1
147881,-100,4,1,0,65,0,0

[Colours]
Combo1 : 255,128,128
Combo2 : 223,244,240
Combo3 : 179,255,222
Combo4 : 99,203,143
Combo5 : 177,254,152
Combo6 : 252,217,112

[HitObjects]
256,192,13230,5,8,0:0:0:0:
256,192,13927,1,0,0:0:0:0:
256,192,14102,1,8,0:0:0:0:
256,192,14451,1,8,0:0:0:0:
256,192,14625,1,8,0:0:0:0:
256,192,14974,1,0,0:0:0:0:
256,192,15148,1,8,0:0:0:0:
256,192,15497,1,8,0:0:0:0:
256,192,15671,1,0,0:0:0:0:
256,192,15846,1,0,0:0:0:0:
256,192,16020,1,8,0:0:0:0:
256,192,16369,1,0,0:0:0:0:
256,192,16544,1,0,0:0:0:0:
256,192,16718,1,8,0:0:0:0:
256,192,16892,1,8,0:0:0:0:
256,192,17241,1,8,0:0:0:0:
256,192,17416,1,8,0:0:0:0:
256,192,17765,1,0,0:0:0:0:
256,192,17939,1,8,0:0:0:0:
256,192,18288,1,0,0:0:0:0:
256,192,18462,1,0,0:0:0:0:
256,192,18637,1,0,0:0:0:0:
256,192,18811,1,8,0:0:0:0:
256,192,19160,1,0,0:0:0:0:
256,192,19334,1,0,0:0:0:0:
256,192,19509,1,8,0:0:0:0:
256,192,19683,1,8,0:0:0:0:
256,192,20032,1,8,0:0:0:0:
256,192,20206,1,8,0:0:0:0:
256,192,20555,1,0,0:0:0:0:
256,192,20730,1,8,0:0:0:0:
256,192,21078,1,8,0:0:0:0:
256,192,21253,1,0,0:0:0:0:
256,192,21427,1,0,0:0:0:0:
256,192,21602,1,8,0:0:0:0:
256,192,21951,1,0,0:0:0:0:
256,192,22125,1,0,0:0:0:0:
256,192,22299,1,8,0:0:0:0:
256,192,22474,1,8,0:0:0:0:
256,192,22823,1,8,0:0:0:0:
256,192,22997,1,8,0:0:0:0:
256,192,23346,1,0,0:0:0:0:
256,192,23520,1,8,0:0:0:0:
256,192,23869,1,0,0:0:0:0:
256,192,24044,1,0,0:0:0:0:
256,192,24218,1,0,0:0:0:0:
256,192,24392,1,8,0:0:0:0:
256,192,24567,1,8,0:0:0:0:
256,192,24741,1,0,0:0:0:0:
256,192,24858,1,0,0:0:0:0:
256,192,24974,1,0,0:0:0:0:
256,192,25090,1,8,0:0:0:0:
256,192,30671,5,4,0:0:0:0:
256,192,30846,1,8,0:0:0:0:
256,192,31195,1,8,0:0:0:0:
256,192,31369,1,8,0:0:0:0:
256,192,31718,1,4,0:0:0:0:
256,192,31892,1,8,0:0:0:0:
256,192,32241,1,8,0:0:0:0:
256,192,32416,1,8,0:0:0:0:
256,192,32765,1,4,0:0:0:0:
256,192,32939,1,8,0:0:0:0:
256,192,33113,1,8,0:0:0:0:
256,192,33288,1,8,0:0:0:0:
256,192,33462,1,4,0:0:0:0:
256,192,33637,1,8,0:0:0:0:
256,192,34160,1,8,0:0:0:0:
256,192,34509,1,4,0:0:0:0:
256,192,34683,1,8,0:0:0:0:
256,192,35555,1,8,0:0:0:0:
256,192,35642,1,8,0:0:0:0:
256,192,35730,1,8,0:0:0:0:
256,192,35817,1,8,0:0:0:0:
256,192,35904,1,8,0:0:0:0:
256,192,36078,1,8,0:0:0:0:
256,192,36253,1,4,0:0:0:0:
256,192,36427,1,8,0:0:0:0:
256,192,36515,1,0,0:0:0:0:
256,192,36602,1,0,0:0:0:0:
256,192,36776,1,8,0:0:0:0:
256,192,36951,1,0,0:0:0:0:
256,192,37125,1,8,0:0:0:0:
256,192,37212,1,8,0:0:0:0:
256,192,37299,1,0,0:0:0:0:
256,192,37474,1,0,0:0:0:0:
256,192,37561,1,0,0:0:0:0:
256,192,37648,1,0,0:0:0:0:
256,192,37823,1,8,0:0:0:0:
256,192,37997,1,0,0:0:0:0:
256,192,38171,1,8,0:0:0:0:
256,192,38259,1,0,0:0:0:0:
256,192,38346,1,8,0:0:0:0:
256,192,38695,1,8,0:0:0:0:
256,192,38782,1,8,0:0:0:0:
256,192,38869,1,8,0:0:0:0:
256,192,39044,1,0,0:0:0:0:
256,192,39218,1,8,0:0:0:0:
256,192,39305,1,0,0:0:0:0:
256,192,39392,1,0,0:0:0:0:
256,192,39567,1,8,0:0:0:0:
256,192,39741,1,0,0:0:0:0:
256,192,39916,1,8,0:0:0:0:
256,192,40003,1,8,0:0:0:0:
256,192,40090,1,0,0:0:0:0:
256,192,40265,1,0,0:0:0:0:
256,192,40352,1,0,0:0:0:0:
256,192,40439,1,0,0:0:0:0:
256,192,40613,1,8,0:0:0:0:
256,192,40788,1,0,0:0:0:0:
256,192,40962,1,8,0:0:0:0:
256,192,41049,1,0,0:0:0:0:
256,192,41137,1,8,0:0:0:0:
256,192,41311,1,8,0:0:0:0:
256,192,41398,1,8,0:0:0:0:
256,192,41485,1,0,0:0:0:0:
256,192,41573,1,0,0:0:0:0:
256,192,41660,1,8,0:0:0:0:
256,192,41747,1,8,0:0:0:0:
256,192,41834,1,0,0:0:0:0:
256,192,42009,1,8,0:0:0:0:
256,192,42096,1,0,0:0:0:0:
256,192,42183,1,0,0:0:0:0:
256,192,42358,1,8,0:0:0:0:
256,192,42532,1,0,0:0:0:0:
256,192,42706,1,8,0:0:0:0:
256,192,42794,1,8,0:0:0:0:
256,192,42881,1,0,0:0:0:0:
256,192,43055,1,0,0:0:0:0:
256,192,43142,1,0,0:0:0:0:
256,192,43230,1,0,0:0:0:0:
256,192,43404,1,8,0:0:0:0:
256,192,43578,1,0,0:0:0:0:
256,192,43753,1,8,0:0:0:0:
256,192,43840,1,0,0:0:0:0:
256,192,43927,1,8,0:0:0:0:
256,192,44276,1,8,0:0:0:0:
256,192,44363,1,8,0:0:0:0:
256,192,44451,1,8,0:0:0:0:
256,192,44625,1,0,0:0:0:0:
256,192,44799,1,8,0:0:0:0:
256,192,44887,1,0,0:0:0:0:
256,192,44974,1,0,0:0:0:0:
256,192,45148,1,8,0:0:0:0:
256,192,45323,1,0,0:0:0:0:
256,192,45497,1,8,0:0:0:0:
256,192,45584,1,8,0:0:0:0:
256,192,45671,1,0,0:0:0:0:
256,192,45846,1,0,0:0:0:0:
256,192,45933,1,0,0:0:0:0:
256,192,46020,1,0,0:0:0:0:
256,192,46195,1,8,0:0:0:0:
256,192,46369,1,0,0:0:0:0:
256,192,46544,1,8,0:0:0:0:
256,192,46631,1,0,0:0:0:0:
256,192,46718,1,8,0:0:0:0:
256,192,46892,1,8,0:0:0:0:
256,192,46980,1,8,0:0:0:0:
256,192,47067,1,0,0:0:0:0:
256,192,47154,1,0,0:0:0:0:
256,192,47241,1,0,0:0:0:0:
256,192,47328,1,8,0:0:0:0:
256,192,47416,1,0,0:0:0:0:
256,192,47590,1,8,0:0:0:0:
256,192,47677,1,0,0:0:0:0:
256,192,47765,1,0,0:0:0:0:
256,192,47939,1,8,0:0:0:0:
256,192,48113,1,0,0:0:0:0:
256,192,48288,1,8,0:0:0:0:
256,192,48375,1,8,0:0:0:0:
256,192,48462,1,0,0:0:0:0:
256,192,48637,1,0,0:0:0:0:
256,192,48724,1,0,0:0:0:0:
256,192,48811,1,0,0:0:0:0:
256,192,48985,1,8,0:0:0:0:
256,192,49160,1,0,0:0:0:0:
256,192,49334,1,8,0:0:0:0:
256,192,49421,1,0,0:0:0:0:
256,192,49509,1,8,0:0:0:0:
256,192,49858,1,8,0:0:0:0:
256,192,49945,1,8,0:0:0:0:
256,192,50032,1,8,0:0:0:0:
256,192,50206,1,0,0:0:0:0:
256,192,50381,1,8,0:0:0:0:
256,192,50468,1,0,0:0:0:0:
256,192,50555,1,0,0:0:0:0:
256,192,50730,1,8,0:0:0:0:
256,192,50904,1,0,0:0:0:0:
256,192,51078,1,8,0:0:0:0:
256,192,51166,1,8,0:0:0:0:
256,192,51253,1,0,0:0:0:0:
256,192,51427,1,0,0:0:0:0:
256,192,51515,1,0,0:0:0:0:
256,192,51602,1,0,0:0:0:0:
256,192,51776,1,8,0:0:0:0:
256,192,51951,1,0,0:0:0:0:
256,192,52125,1,8,0:0:0:0:
256,192,52212,1,0,0:0:0:0:
256,192,52299,1,8,0:0:0:0:
256,192,52474,1,0,0:0:0:0:
256,192,52561,1,0,0:0:0:0:
256,192,52648,1,8,0:0:0:0:
256,192,52735,1,0,0:0:0:0:
256,192,52823,1,0,0:0:0:0:
256,192,52910,1,8,0:0:0:0:
256,192,52997,1,0,0:0:0:0:
256,192,53171,1,8,0:0:0:0:
256,192,53259,1,0,0:0:0:0:
256,192,53346,1,0,0:0:0:0:
256,192,53520,1,8,0:0:0:0:
256,192,53695,1,0,0:0:0:0:
256,192,53869,1,8,0:0:0:0:
256,192,53956,1,8,0:0:0:0:
256,192,54044,1,0,0:0:0:0:
256,192,54218,1,0,0:0:0:0:
256,192,54305,1,0,0:0:0:0:
256,192,54392,1,0,0:0:0:0:
256,192,54567,1,8,0:0:0:0:
256,192,54741,1,0,0:0:0:0:
256,192,54916,1,8,0:0:0:0:
256,192,55003,1,0,0:0:0:0:
256,192,55090,1,8,0:0:0:0:
256,192,55439,1,8,0:0:0:0:
256,192,55526,1,8,0:0:0:0:
256,192,55613,1,8,0:0:0:0:
256,192,55788,1,0,0:0:0:0:
256,192,55962,1,8,0:0:0:0:
256,192,56049,1,0,0:0:0:0:
256,192,56137,1,0,0:0:0:0:
256,192,56311,1,8,0:0:0:0:
256,192,56485,1,0,0:0:0:0:
256,192,56660,1,8,0:0:0:0:
256,192,56747,1,8,0:0:0:0:
256,192,56834,1,0,0:0:0:0:
256,192,57009,1,0,0:0:0:0:
256,192,57096,1,0,0:0:0:0:
256,192,57183,1,0,0:0:0:0:
256,192,57358,1,8,0:0:0:0:
256,192,57532,1,0,0:0:0:0:
256,192,57706,1,8,0:0:0:0:
256,192,57794,1,0,0:0:0:0:
256,192,57881,1,8,0:0:0:0:
256,192,58055,1,8,0:0:0:0:
256,192,58142,1,8,0:0:0:0:
256,192,58230,1,8,0:0:0:0:
256,192,58317,1,8,0:0:0:0:
256,192,58404,1,8,0:0:0:0:
256,192,58491,1,8,0:0:0:0:
256,192,58578,1,0,0:0:0:0:
256,192,59102,1,0,0:0:0:0:
256,192,59276,1,12,0:0:0:0:
256,192,59625,1,4,0:0:0:0:
256,192,60148,1,0,0:0:0:0:
256,192,60323,1,4,0:0:0:0:
256,192,60671,1,12,0:0:0:0:
256,192,61020,1,4,0:0:0:0:
256,192,61369,1,4,0:0:0:0:
256,192,61892,1,0,0:0:0:0:
256,192,62067,1,12,0:0:0:0:
256,192,62416,1,4,0:0:0:0:
256,192,62939,1,0,0:0:0:0:
256,192,63113,1,4,0:0:0:0:
256,192,63462,1,8,0:0:0:0:
256,192,63549,1,8,0:0:0:0:
256,192,63637,1,0,0:0:0:0:
256,192,63724,1,0,0:0:0:0:
256,192,63811,1,8,0:0:0:0:
256,192,63985,1,0,0:0:0:0:
256,192,64073,1,8,0:0:0:0:
256,192,64160,1,0,0:0:0:0:
256,192,64683,1,0,0:0:0:0:
256,192,64858,1,12,0:0:0:0:
256,192,65206,1,4,0:0:0:0:
256,192,65730,1,0,0:0:0:0:
256,192,65904,1,4,0:0:0:0:
256,192,66253,1,12,0:0:0:0:
256,192,66602,1,4,0:0:0:0:
256,192,66951,1,4,0:0:0:0:
256,192,67474,1,0,0:0:0:0:
256,192,67648,1,12,0:0:0:0:
256,192,67997,1,4,0:0:0:0:
256,192,68520,1,0,0:0:0:0:
256,192,68695,1,4,0:0:0:0:
256,192,69044,1,8,0:0:0:0:
256,192,69131,1,8,0:0:0:0:
256,192,69218,1,0,0:0:0:0:
256,192,69305,1,0,0:0:0:0:
256,192,69392,1,0,0:0:0:0:
256,192,69480,1,0,0:0:0:0:
256,192,69567,1,8,0:0:0:0:
256,192,69654,1,8,0:0:0:0:
256,192,69741,1,0,0:0:0:0:
256,192,69916,1,0,0:0:0:0:
256,192,70003,1,0,0:0:0:0:
256,192,70090,1,0,0:0:0:0:
256,192,70265,1,8,0:0:0:0:
256,192,70439,1,8,0:0:0:0:
256,192,70788,1,0,0:0:0:0:
256,192,70962,1,0,0:0:0:0:
256,192,71049,1,0,0:0:0:0:
256,192,71137,1,0,0:0:0:0:
256,192,71311,1,8,0:0:0:0:
256,192,71485,1,8,0:0:0:0:
256,192,71834,1,0,0:0:0:0:
256,192,72009,1,8,0:0:0:0:
256,192,72096,1,8,0:0:0:0:
256,192,72183,1,0,0:0:0:0:
256,192,72358,1,8,0:0:0:0:
256,192,72445,1,8,0:0:0:0:
256,192,72532,1,0,0:0:0:0:
256,192,72706,1,0,0:0:0:0:
256,192,72794,1,0,0:0:0:0:
256,192,72881,1,0,0:0:0:0:
256,192,73055,1,8,0:0:0:0:
256,192,73230,1,8,0:0:0:0:
256,192,73578,1,0,0:0:0:0:
256,192,73753,1,0,0:0:0:0:
256,192,73840,1,0,0:0:0:0:
256,192,73927,1,0,0:0:0:0:
256,192,74102,1,0,0:0:0:0:
256,192,74276,1,0,0:0:0:0:
256,192,74625,1,8,0:0:0:0:
256,192,74712,1,8,0:0:0:0:
256,192,74799,1,8,0:0:0:0:
256,192,74887,1,8,0:0:0:0:
256,192,74974,1,0,0:0:0:0:
256,192,75061,1,0,0:0:0:0:
256,192,75148,1,8,0:0:0:0:
256,192,75235,1,8,0:0:0:0:
256,192,75323,1,0,0:0:0:0:
256,192,75497,1,0,0:0:0:0:
256,192,75584,1,0,0:0:0:0:
256,192,75671,1,0,0:0:0:0:
256,192,75846,1,8,0:0:0:0:
256,192,76020,1,8,0:0:0:0:
256,192,76369,1,0,0:0:0:0:
256,192,76544,1,0,0:0:0:0:
256,192,76631,1,0,0:0:0:0:
256,192,76718,1,0,0:0:0:0:
256,192,76892,1,8,0:0:0:0:
256,192,77067,1,8,0:0:0:0:
256,192,77416,1,0,0:0:0:0:
256,192,77590,1,8,0:0:0:0:
256,192,77677,1,8,0:0:0:0:
256,192,77765,1,0,0:0:0:0:
256,192,77939,1,8,0:0:0:0:
256,192,78026,1,8,0:0:0:0:
256,192,78113,1,0,0:0:0:0:
256,192,78288,1,0,0:0:0:0:
256,192,78375,1,0,0:0:0:0:
256,192,78462,1,0,0:0:0:0:
256,192,78637,1,8,0:0:0:0:
256,192,78811,1,8,0:0:0:0:
256,192,79160,1,0,0:0:0:0:
256,192,79334,1,0,0:0:0:0:
256,192,79421,1,0,0:0:0:0:
256,192,79509,1,0,0:0:0:0:
256,192,79683,1,0,0:0:0:0:
256,192,79858,1,0,0:0:0:0:
256,192,80206,1,8,0:0:0:0:
256,192,80294,1,8,0:0:0:0:
256,192,80381,1,0,0:0:0:0:
256,192,80468,1,0,0:0:0:0:
256,192,80555,1,8,0:0:0:0:
256,192,80671,1,0,0:0:0:0:
256,192,80788,1,0,0:0:0:0:
256,192,80904,1,8,0:0:0:0:
256,192,91369,5,8,0:0:0:0:
256,192,92067,1,0,0:0:0:0:
256,192,92241,1,8,0:0:0:0:
256,192,92416,1,0,0:0:0:0:
256,192,92590,1,8,0:0:0:0:
256,192,92765,1,12,0:0:0:0:
256,192,93113,1,0,0:0:0:0:
256,192,93288,1,8,0:0:0:0:
256,192,93462,1,0,0:0:0:0:
256,192,93637,1,8,0:0:0:0:
256,192,93811,1,12,0:0:0:0:
256,192,94160,1,0,0:0:0:0:
256,192,94334,1,8,0:0:0:0:
256,192,94421,1,8,0:0:0:0:
256,192,94509,1,0,0:0:0:0:
256,192,94683,1,8,0:0:0:0:
256,192,94770,1,8,0:0:0:0:
256,192,94858,1,0,0:0:0:0:
256,192,95032,1,0,0:0:0:0:
256,192,95206,1,0,0:0:0:0:
256,192,95381,1,8,0:0:0:0:
256,192,95555,1,12,0:0:0:0:
256,192,95904,1,0,0:0:0:0:
256,192,96078,1,0,0:0:0:0:
256,192,96253,1,0,0:0:0:0:
256,192,96427,1,8,0:0:0:0:
256,192,96602,1,4,0:0:0:0:
256,192,96951,1,0,0:0:0:0:
256,192,97125,1,0,0:0:0:0:
256,192,97212,1,0,0:0:0:0:
256,192,97299,1,0,0:0:0:0:
256,192,97474,1,8,0:0:0:0:
256,192,97648,1,0,0:0:0:0:
256,192,97823,1,8,0:0:0:0:
256,192,97997,1,0,0:0:0:0:
256,192,98171,1,8,0:0:0:0:
256,192,98346,1,12,0:0:0:0:
256,192,98695,1,0,0:0:0:0:
256,192,98869,1,8,0:0:0:0:
256,192,99044,1,0,0:0:0:0:
256,192,99218,1,8,0:0:0:0:
256,192,99392,1,12,0:0:0:0:
256,192,99741,1,0,0:0:0:0:
256,192,99916,1,8,0:0:0:0:
256,192,100003,1,8,0:0:0:0:
256,192,100090,1,0,0:0:0:0:
256,192,100265,1,8,0:0:0:0:
256,192,100352,1,8,0:0:0:0:
256,192,100439,1,0,0:0:0:0:
256,192,100613,1,0,0:0:0:0:
256,192,100788,1,0,0:0:0:0:
256,192,100962,1,8,0:0:0:0:
256,192,101137,1,12,0:0:0:0:
256,192,101485,1,0,0:0:0:0:
256,192,101660,1,0,0:0:0:0:
256,192,101834,1,0,0:0:0:0:
256,192,102009,1,8,0:0:0:0:
256,192,102183,1,4,0:0:0:0:
256,192,102532,1,0,0:0:0:0:
256,192,102706,1,8,0:0:0:0:
256,192,102881,1,0,0:0:0:0:
256,192,102997,1,8,0:0:0:0:
256,192,103113,1,8,0:0:0:0:
256,192,103230,1,0,0:0:0:0:
256,192,103404,1,8,0:0:0:0:
256,192,103491,1,8,0:0:0:0:
256,192,103578,1,0,0:0:0:0:
256,192,103753,1,8,0:0:0:0:
256,192,103927,1,8,0:0:0:0:
256,192,104276,1,0,0:0:0:0:
256,192,104451,1,8,0:0:0:0:
256,192,104538,1,8,0:0:0:0:
256,192,104625,1,0,0:0:0:0:
256,192,104799,1,8,0:0:0:0:
256,192,104974,1,8,0:0:0:0:
256,192,105323,1,0,0:0:0:0:
256,192,105497,1,8,0:0:0:0:
256,192,105584,1,8,0:0:0:0:
256,192,105671,1,0,0:0:0:0:
256,192,105846,1,8,0:0:0:0:
256,192,105933,1,8,0:0:0:0:
256,192,106020,1,0,0:0:0:0:
256,192,106195,1,0,0:0:0:0:
256,192,106282,1,0,0:0:0:0:
256,192,106369,1,0,0:0:0:0:
256,192,106544,1,8,0:0:0:0:
256,192,106718,1,8,0:0:0:0:
256,192,107067,1,0,0:0:0:0:
256,192,107241,1,0,0:0:0:0:
256,192,107328,1,0,0:0:0:0:
256,192,107416,1,0,0:0:0:0:
256,192,107590,1,8,0:0:0:0:
256,192,107765,1,0,0:0:0:0:
256,192,108113,1,0,0:0:0:0:
256,192,108288,1,0,0:0:0:0:
256,192,108375,1,0,0:0:0:0:
256,192,108462,1,0,0:0:0:0:
256,192,108637,1,8,0:0:0:0:
256,192,108811,1,0,0:0:0:0:
256,192,108985,1,8,0:0:0:0:
256,192,109073,1,8,0:0:0:0:
256,192,109160,1,0,0:0:0:0:
256,192,109334,1,8,0:0:0:0:
256,192,109509,1,8,0:0:0:0:
256,192,109858,1,0,0:0:0:0:
256,192,110032,1,8,0:0:0:0:
256,192,110119,1,8,0:0:0:0:
256,192,110206,1,0,0:0:0:0:
256,192,110381,1,8,0:0:0:0:
256,192,110555,1,8,0:0:0:0:
256,192,110904,1,0,0:0:0:0:
256,192,111078,1,8,0:0:0:0:
256,192,111166,1,8,0:0:0:0:
256,192,111253,1,0,0:0:0:0:
256,192,111427,1,8,0:0:0:0:
256,192,111515,1,8,0:0:0:0:
256,192,111602,1,0,0:0:0:0:
256,192,111776,1,0,0:0:0:0:
256,192,111863,1,0,0:0:0:0:
256,192,111951,1,0,0:0:0:0:
256,192,112125,1,8,0:0:0:0:
256,192,112299,1,8,0:0:0:0:
256,192,112648,1,0,0:0:0:0:
256,192,112823,1,0,0:0:0:0:
256,192,112910,1,0,0:0:0:0:
256,192,112997,1,0,0:0:0:0:
256,192,113171,1,8,0:0:0:0:
256,192,113346,1,0,0:0:0:0:
256,192,113695,1,0,0:0:0:0:
256,192,113869,1,0,0:0:0:0:
256,192,114044,1,8,0:0:0:0:
256,192,114160,1,0,0:0:0:0:
256,192,114276,1,0,0:0:0:0:
256,192,114392,1,8,0:0:0:0:
256,192,119974,5,4,0:0:0:0:
256,192,120149,1,8,0:0:0:0:
256,192,120498,1,8,0:0:0:0:
256,192,120672,1,8,0:0:0:0:
256,192,121021,1,4,0:0:0:0:
256,192,121195,1,8,0:0:0:0:
256,192,121544,1,8,0:0:0:0:
256,192,121719,1,8,0:0:0:0:
256,192,122068,1,4,0:0:0:0:
256,192,122242,1,8,0:0:0:0:
256,192,122416,1,8,0:0:0:0:
256,192,122591,1,8,0:0:0:0:
256,192,122765,1,4,0:0:0:0:
256,192,122940,1,8,0:0:0:0:
256,192,123463,1,8,0:0:0:0:
256,192,123812,1,4,0:0:0:0:
256,192,123986,1,8,0:0:0:0:
256,192,124858,1,8,0:0:0:0:
256,192,124945,1,8,0:0:0:0:
256,192,125033,1,8,0:0:0:0:
256,192,125120,1,8,0:0:0:0:
256,192,125207,1,8,0:0:0:0:
256,192,125381,1,8,0:0:0:0:
256,192,125556,1,4,0:0:0:0:
256,192,125730,1,8,0:0:0:0:
256,192,125818,1,0,0:0:0:0:
256,192,125905,1,0,0:0:0:0:
256,192,126079,1,8,0:0:0:0:
256,192,126254,1,0,0:0:0:0:
256,192,126428,1,8,0:0:0:0:
256,192,126515,1,8,0:0:0:0:
256,192,126602,1,0,0:0:0:0:
256,192,126777,1,0,0:0:0:0:
256,192,126864,1,0,0:0:0:0:
256,192,126951,1,0,0:0:0:0:
256,192,127126,1,8,0:0:0:0:
256,192,127300,1,0,0:0:0:0:
256,192,127474,1,8,0:0:0:0:
256,192,127562,1,0,0:0:0:0:
256,192,127649,1,8,0:0:0:0:
256,192,127998,1,8,0:0:0:0:
256,192,128085,1,8,0:0:0:0:
256,192,128172,1,8,0:0:0:0:
256,192,128347,1,0,0:0:0:0:
256,192,128521,1,8,0:0:0:0:
256,192,128608,1,0,0:0:0:0:
256,192,128695,1,0,0:0:0:0:
256,192,128870,1,8,0:0:0:0:
256,192,129044,1,0,0:0:0:0:
256,192,129219,1,8,0:0:0:0:
256,192,129306,1,8,0:0:0:0:
256,192,129393,1,0,0:0:0:0:
256,192,129568,1,0,0:0:0:0:
256,192,129655,1,0,0:0:0:0:
256,192,129742,1,0,0:0:0:0:
256,192,129916,1,8,0:0:0:0:
256,192,130091,1,0,0:0:0:0:
256,192,130265,1,8,0:0:0:0:
256,192,130352,1,0,0:0:0:0:
256,192,130440,1,8,0:0:0:0:
256,192,130526,1,0,0:0:0:0:
256,192,130614,1,0,0:0:0:0:
256,192,130788,1,0,0:0:0:0:
256,192,130876,1,0,0:0:0:0:
256,192,130963,1,8,0:0:0:0:
256,192,131050,1,8,0:0:0:0:
256,192,131137,1,0,0:0:0:0:
256,192,131312,1,8,0:0:0:0:
256,192,131399,1,0,0:0:0:0:
256,192,131486,1,0,0:0:0:0:
256,192,131661,1,8,0:0:0:0:
256,192,131835,1,0,0:0:0:0:
256,192,132009,1,8,0:0:0:0:
256,192,132097,1,8,0:0:0:0:
256,192,132184,1,0,0:0:0:0:
256,192,132358,1,0,0:0:0:0:
256,192,132445,1,0,0:0:0:0:
256,192,132533,1,0,0:0:0:0:
256,192,132707,1,8,0:0:0:0:
256,192,132881,1,0,0:0:0:0:
256,192,133056,1,8,0:0:0:0:
256,192,133143,1,0,0:0:0:0:
256,192,133230,1,8,0:0:0:0:
256,192,133579,1,8,0:0:0:0:
256,192,133666,1,8,0:0:0:0:
256,192,133754,1,8,0:0:0:0:
256,192,133928,1,0,0:0:0:0:
256,192,134102,1,8,0:0:0:0:
256,192,134190,1,0,0:0:0:0:
256,192,134277,1,0,0:0:0:0:
256,192,134451,1,8,0:0:0:0:
256,192,134626,1,0,0:0:0:0:
256,192,134800,1,8,0:0:0:0:
256,192,134887,1,8,0:0:0:0:
256,192,134974,1,0,0:0:0:0:
256,192,135149,1,0,0:0:0:0:
256,192,135236,1,0,0:0:0:0:
256,192,135323,1,0,0:0:0:0:
256,192,135498,1,8,0:0:0:0:
256,192,135672,1,0,0:0:0:0:
256,192,135847,1,8,0:0:0:0:
256,192,135934,1,0,0:0:0:0:
256,192,136021,1,8,0:0:0:0:
256,192,136108,1,8,0:0:0:0:
256,192,136195,1,8,0:0:0:0:
256,192,136370,1,0,0:0:0:0:
256,192,136457,1,0,0:0:0:0:
256,192,136544,1,0,0:0:0:0:
256,192,136631,1,8,0:0:0:0:
256,192,136719,1,0,0:0:0:0:
256,192,136893,1,8,0:0:0:0:
256,192,136980,1,0,0:0:0:0:
256,192,137068,1,0,0:0:0:0:
256,192,137242,1,8,0:0:0:0:
256,192,137416,1,0,0:0:0:0:
256,192,137591,1,8,0:0:0:0:
256,192,137678,1,8,0:0:0:0:
256,192,137765,1,0,0:0:0:0:
256,192,137940,1,0,0:0:0:0:
256,192,138027,1,0,0:0:0:0:
256,192,138114,1,0,0:0:0:0:
256,192,138288,1,8,0:0:0:0:
256,192,138463,1,0,0:0:0:0:
256,192,138637,1,8,0:0:0:0:
256,192,138724,1,0,0:0:0:0:
256,192,138812,1,8,0:0:0:0:
256,192,138985,1,0,0:0:0:0:
256,192,139161,1,8,0:0:0:0:
256,192,139248,1,8,0:0:0:0:
256,192,139335,1,8,0:0:0:0:
256,192,139509,1,0,0:0:0:0:
256,192,139684,1,8,0:0:0:0:
256,192,139770,1,0,0:0:0:0:
256,192,139858,1,0,0:0:0:0:
256,192,140033,1,8,0:0:0:0:
256,192,140207,1,0,0:0:0:0:
256,192,140381,1,8,0:0:0:0:
256,192,140469,1,8,0:0:0:0:
256,192,140556,1,0,0:0:0:0:
256,192,140730,1,0,0:0:0:0:
256,192,140818,1,0,0:0:0:0:
256,192,140905,1,0,0:0:0:0:
256,192,141079,1,8,0:0:0:0:
256,192,141254,1,0,0:0:0:0:
256,192,141428,1,8,0:0:0:0:
256,192,141515,1,0,0:0:0:0:
256,192,141602,1,8,0:0:0:0:
256,192,141689,1,8,0:0:0:0:
256,192,141777,1,0,0:0:0:0:
256,192,141951,1,8,0:0:0:0:
256,192,142038,1,0,0:0:0:0:
256,192,142126,1,0,0:0:0:0:
256,192,142213,1,8,0:0:0:0:
256,192,142300,1,0,0:0:0:0:
256,192,142474,1,8,0:0:0:0:
256,192,142562,1,0,0:0:0:0:
256,192,142649,1,0,0:0:0:0:
256,192,142823,1,8,0:0:0:0:
256,192,142998,1,0,0:0:0:0:
256,192,143172,1,8,0:0:0:0:
256,192,143259,1,8,0:0:0:0:
256,192,143347,1,0,0:0:0:0:
256,192,143521,1,0,0:0:0:0:
256,192,143608,1,0,0:0:0:0:
256,192,143695,1,0,0:0:0:0:
256,192,143870,1,8,0:0:0:0:
256,192,144044,1,0,0:0:0:0:
256,192,144219,1,8,0:0:0:0:
256,192,144306,1,0,0:0:0:0:
256,192,144393,1,8,0:0:0:0:
256,192,144567,1,0,0:0:0:0:
256,192,144742,1,8,0:0:0:0:
256,192,144829,1,8,0:0:0:0:
256,192,144916,1,8,0:0:0:0:
256,192,145091,1,0,0:0:0:0:
256,192,145265,1,8,0:0:0:0:
256,192,145352,1,0,0:0:0:0:
256,192,145440,1,0,0:0:0:0:
256,192,145614,1,8,0:0:0:0:
256,192,145788,1,0,0:0:0:0:
256,192,145963,1,8,0:0:0:0:
256,192,146050,1,8,0:0:0:0:
256,192,146137,1,0,0:0:0:0:
256,192,146312,1,0,0:0:0:0:
256,192,146399,1,0,0:0:0:0:
256,192,146486,1,0,0:0:0:0:
256,192,146661,1,8,0:0:0:0:
256,192,146835,1,0,0:0:0:0:
256,192,147009,1,8,0:0:0:0:
256,192,147097,1,0,0:0:0:0:
256,192,147184,1,8,0:0:0:0:
256,192,147358,1,8,0:0:0:0:
256,192,147445,1,8,0:0:0:0:
256,192,147533,1,8,0:0:0:0:
256,192,147620,1,8,0:0:0:0:
256,192,147707,1,8,0:0:0:0:
256,192,147794,1,8,0:0:0:0:
256,192,147881,1,0,0:0:0:0:
256,192,148405,1,0,0:0:0:0:
256,192,148579,1,12,0:0:0:0:
256,192,148928,1,4,0:0:0:0:
256,192,149451,1,0,0:0:0:0:
256,192,149626,1,4,0:0:0:0:
256,192,149974,1,12,0:0:0:0:
256,192,150323,1,4,0:0:0:0:
256,192,150672,1,4,0:0:0:0:
256,192,151195,1,0,0:0:0:0:
256,192,151370,1,12,0:0:0:0:
256,192,151719,1,4,0:0:0:0:
256,192,152242,1,0,0:0:0:0:
256,192,152416,1,4,0:0:0:0:
256,192,152765,1,8,0:0:0:0:
256,192,152852,1,8,0:0:0:0:
256,192,152940,1,0,0:0:0:0:
256,192,153027,1,0,0:0:0:0:
256,192,153114,1,8,0:0:0:0:
256,192,153288,1,0,0:0:0:0:
256,192,153376,1,8,0:0:0:0:
256,192,153463,1,0,0:0:0:0:
256,192,153986,1,0,0:0:0:0:
256,192,154161,1,12,0:0:0:0:
256,192,154509,1,4,0:0:0:0:
256,192,155033,1,0,0:0:0:0:
256,192,155207,1,4,0:0:0:0:
256,192,155556,1,12,0:0:0:0:
256,192,155905,1,4,0:0:0:0:
256,192,156254,1,4,0:0:0:0:
256,192,156777,1,0,0:0:0:0:
256,192,156951,1,12,0:0:0:0:
256,192,157300,1,4,0:0:0:0:
256,192,157823,1,0,0:0:0:0:
256,192,157998,1,4,0:0:0:0:
256,192,158347,1,8,0:0:0:0:
256,192,158434,1,8,0:0:0:0:
256,192,158521,1,0,0:0:0:0:
256,192,158608,1,0,0:0:0:0:
256,192,158695,1,0,0:0:0:0:
256,192,158783,1,0,0:0:0:0:
256,192,158870,1,8,0:0:0:0:
256,192,158957,1,8,0:0:0:0:
256,192,159044,1,0,0:0:0:0:
256,192,159219,1,0,0:0:0:0:
256,192,159306,1,0,0:0:0:0:
256,192,159393,1,0,0:0:0:0:
256,192,159568,1,8,0:0:0:0:
256,192,159742,1,8,0:0:0:0:
256,192,160091,1,0,0:0:0:0:
256,192,160265,1,0,0:0:0:0:
256,192,160352,1,0,0:0:0:0:
256,192,160440,1,0,0:0:0:0:
256,192,160614,1,8,0:0:0:0:
256,192,160788,1,8,0:0:0:0:
256,192,161137,1,0,0:0:0:0:
256,192,161312,1,8,0:0:0:0:
256,192,161399,1,8,0:0:0:0:
256,192,161486,1,0,0:0:0:0:
256,192,161661,1,8,0:0:0:0:
256,192,161748,1,8,0:0:0:0:
256,192,161835,1,0,0:0:0:0:
256,192,162009,1,0,0:0:0:0:
256,192,162097,1,0,0:0:0:0:
256,192,162184,1,0,0:0:0:0:
256,192,162358,1,8,0:0:0:0:
256,192,162533,1,8,0:0:0:0:
256,192,162881,1,0,0:0:0:0:
256,192,163056,1,0,0:0:0:0:
256,192,163143,1,0,0:0:0:0:
256,192,163230,1,0,0:0:0:0:
256,192,163405,1,0,0:0:0:0:
256,192,163579,1,0,0:0:0:0:
256,192,163928,1,8,0:0:0:0:
256,192,164015,1,8,0:0:0:0:
256,192,164102,1,8,0:0:0:0:
256,192,164190,1,8,0:0:0:0:
256,192,164277,1,0,0:0:0:0:
256,192,164364,1,0,0:0:0:0:
256,192,164451,1,8,0:0:0:0:
256,192,164538,1,8,0:0:0:0:
256,192,164626,1,0,0:0:0:0:
256,192,164800,1,0,0:0:0:0:
256,192,164887,1,0,0:0:0:0:
256,192,164974,1,0,0:0:0:0:
256,192,165149,1,8,0:0:0:0:
256,192,165323,1,8,0:0:0:0:
256,192,165672,1,0,0:0:0:0:
256,192,165847,1,0,0:0:0:0:
256,192,165934,1,0,0:0:0:0:
256,192,166021,1,0,0:0:0:0:
256,192,166195,1,8,0:0:0:0:
256,192,166370,1,8,0:0:0:0:
256,192,166719,1,0,0:0:0:0:
256,192,166893,1,8,0:0:0:0:
256,192,166980,1,8,0:0:0:0:
256,192,167068,1,0,0:0:0:0:
256,192,167242,1,8,0:0:0:0:
256,192,167329,1,8,0:0:0:0:
256,192,167416,1,0,0:0:0:0:
256,192,167591,1,0,0:0:0:0:
256,192,167678,1,0,0:0:0:0:
256,192,167765,1,0,0:0:0:0:
256,192,167940,1,8,0:0:0:0:
256,192,168114,1,8,0:0:0:0:
256,192,168463,1,0,0:0:0:0:
256,192,168637,1,0,0:0:0:0:
256,192,168724,1,0,0:0:0:0:
256,192,168812,1,0,0:0:0:0:
256,192,168986,1,0,0:0:0:0:
256,192,169161,1,0,0:0:0:0:
256,192,169509,1,8,0:0:0:0:
256,192,169625,1,8,0:0:0:0:
256,192,169741,1,8,0:0:0:0:
256,192,169858,1,0,0:0:0:0:
256,192,169974,1,0,0:0:0:0:
256,192,170091,1,0,0:0:0:0:
256,192,170207,1,8,0:0:0:0:
