osu file format v14

[General]
AudioFilename: audio.mp3
AudioLeadIn: 0
PreviewTime: 43532
Countdown: 0
SampleSet: Soft
StackLeniency: 0.5
Mode: 0
LetterboxInBreaks: 0
WidescreenStoryboard: 1

[Editor]
Bookmarks: 21837,43532,54380,65227,76075,86922,108617,119465,129295,130312
DistanceSpacing: 1.1
BeatDivisor: 8
GridSize: 8
TimelineZoom: 2.999999

[Metadata]
Title:IMITATE
TitleUnicode:IMITATE
Artist:Dictate
ArtistUnicode:Dictate
Creator:Fisky
Version:KKip's Hard
Source:
Tags:mir kkipalt elcheer chompy Cah-m thzz collaboration electronic instrumental birthday song bday btmc
BeatmapID:3045508
BeatmapSetID:1201530

[Difficulty]
HPDrainRate:4
CircleSize:3.5
OverallDifficulty:6
ApproachRate:8
SliderMultiplier:1.4
SliderTickRate:1

[Events]
//Background and Video events
0,0,"IMITATE BG.png",0,0
//Break Periods
2,87037,97020
//Storyboard Layer 0 (Background)
//Storyboard Layer 1 (Fail)
//Storyboard Layer 2 (Pass)
//Storyboard Layer 3 (Foreground)
//Storyboard Layer 4 (Overlay)
//Storyboard Sound Samples

[TimingPoints]
143,338.983050847457,4,2,1,70,1,0
21837,-117.64705882353,4,2,2,60,0,0
38109,-117.64705882353,4,2,2,70,0,0
40820,-117.64705882353,4,2,1,70,0,0
42176,-117.64705882353,4,2,1,60,0,0
43532,-100,4,2,1,80,0,0
53108,-100,4,2,1,5,0,0
53193,-100,4,2,1,80,0,0
54634,-100,4,2,1,5,0,0
54719,-100,4,2,1,80,0,0
57007,-100,4,2,1,5,0,0
57091,-100,4,2,1,80,0,0
57346,-100,4,2,1,5,0,0
57430,-100,4,2,1,80,0,0
58532,-100,4,2,1,5,0,0
58617,-100,4,2,1,80,0,0
60057,-100,4,2,1,5,0,0
60142,-100,4,2,1,80,0,0
63956,-100,4,2,1,5,0,0
64041,-100,4,2,1,80,0,0
65481,-100,4,2,1,5,0,0
65566,-100,4,2,1,80,0,0
67854,-100,4,2,1,5,0,0
67938,-100,4,2,1,80,0,0
68193,-100,4,2,1,5,0,0
68277,-100,4,2,1,80,0,0
69379,-100,4,2,1,5,0,0
69464,-100,4,2,1,80,0,0
70904,-100,4,2,1,5,0,0
70989,-100,4,2,1,80,0,0
71921,-100,4,2,1,5,0,0
72006,-100,4,2,1,80,0,0
74803,-100,4,2,1,5,0,0
74888,-100,4,2,1,80,0,0
76329,-100,4,2,1,5,0,0
76414,-100,4,2,1,80,0,0
78702,-100,4,2,1,5,0,0
78786,-100,4,2,1,80,0,0
79041,-100,4,2,1,5,0,0
79125,-100,4,2,1,80,0,0
80227,-100,4,2,1,5,0,0
80312,-100,4,2,1,80,0,0
81752,-100,4,2,1,5,0,0
81837,-100,4,2,1,80,0,0
85651,-100,4,2,1,5,0,0
85736,-100,4,2,1,80,0,0
86923,-117.647058823529,4,2,1,80,0,0
95820,-117.647058823529,4,2,1,30,0,0
97685,-117.647058823529,4,2,1,5,0,0
97770,-117.64705882353,4,2,2,60,0,0
107261,-105.263157894737,4,2,2,40,0,0
107515,-105.263157894737,4,2,2,50,0,0
107770,-105.263157894737,4,2,2,60,0,0
108024,-105.263157894737,4,2,2,70,0,0
108617,-105.263157894737,4,2,1,50,0,0
108871,-105.263157894737,4,2,2,5,0,0
108956,-95.2380952380952,4,2,1,90,0,1
118109,-95.2380952380952,4,2,2,70,0,0
119465,-95.2380952380952,4,2,1,50,0,0
119719,-95.2380952380952,4,2,1,5,0,0
119804,-95.2380952380952,4,2,1,90,0,1
128956,-95.2380952380952,4,2,1,70,0,0
130312,-100,4,2,1,70,0,0
141159,-100,4,2,1,60,0,0
141498,-100,4,2,2,60,0,0
143871,-100,4,2,1,60,0,0
144210,-100,4,2,2,60,0,0
146583,-100,4,2,1,60,0,0
146922,-100,4,2,2,60,0,0
149295,-100,4,2,1,60,0,0
149634,-100,4,2,2,60,0,0

[Colours]
Combo1 : 202,255,104
Combo2 : 80,254,158
Combo3 : 79,255,216
Combo4 : 30,243,255

[HitObjects]
0,161,143,6,0,P|89:112|187:208,1,245,8|0,0:1|0:0,0:3:0:0:
239,383,1159,2,0,B|263:359|263:359|249:249,1,140,8|0,0:0|0:0,0:0:0:0:
350,161,1837,2,0,P|356:192|368:248,1,70,8|2,0:0|0:0,0:0:0:0:
358,242,2092,2,0,P|419:245|433:241,1,70,0|2,0:0|0:0,0:0:0:0:
479,95,2600,2,2,P|480:61|486:17,1,70,8|0,0:0|0:0,0:0:0:0:
495,34,2854,6,0,P|406:83|300:74,1,210,8|2,0:1|0:0,0:3:0:0:
141,56,3702,2,0,P|190:71|212:221,1,210,0|8,0:0|0:1,0:0:0:0:
155,256,4380,2,0,P|218:263|314:284,1,140,12|0,0:1|0:0,0:1:0:0:
301,291,4804,1,8,0:1:0:0:
413,230,5058,2,0,P|401:195|393:151,2,70,8|8|8,0:1|0:0|0:0,0:1:0:0:
427,226,5481,1,0,0:0:0:0:
427,226,5566,6,0,P|447:288|308:347,1,245,12|0,0:1|0:0,0:3:0:0:
226,171,6583,2,0,B|202:195|202:195|92:181,1,140,8|8,0:0|0:1,0:0:0:0:
37,121,7092,2,0,P|43:152|60:267,1,140,8|2,0:1|0:0,0:0:0:0:
47,269,7515,1,8,0:1:0:0:
31,351,7685,2,0,P|92:354|132:306,1,105,10|0,0:1|0:0,0:0:0:0:
134,333,8024,2,2,P|135:299|141:255,1,70,10|0,0:1|0:0,0:0:0:0:
152,259,8278,6,0,P|223:332|326:270,1,210,8|2,0:1|0:0,0:3:0:0:
427,375,9126,1,0,0:0:0:0:
500,349,9295,2,0,P|505:248|468:232,1,140,8|8,0:0|0:1,0:0:0:0:
408,206,9804,2,0,P|345:199|249:178,1,140,12|0,0:1|0:0,0:1:0:0:
262,171,10228,1,8,0:1:0:0:
169,84,10482,2,0,P|181:49|189:5,2,70,8|8|8,0:1|0:0|0:0,0:1:0:0:
161,97,10905,1,0,0:0:0:0:
161,97,10990,6,0,P|69:59|4:151,1,210,12|2,0:1|0:0,0:3:0:0:
185,215,12007,2,0,B|209:239|209:239|195:349,1,140,8|8,0:0|0:1,0:0:0:0:
121,384,12515,2,0,P|115:349|108:315,1,70,8|8,0:1|0:0,0:0:0:0:
68,246,12854,1,2,0:0:0:0:
68,246,12939,2,0,P|7:249|-7:245,1,70,0|10,0:0|0:1,0:0:0:0:
153,140,13448,2,2,P|214:137|228:141,1,70,10|0,0:1|0:0,0:2:0:0:
226,150,13701,6,0,P|315:101|423:159,1,210,8|2,0:1|0:0,0:3:0:0:
501,240,14549,1,0,0:0:0:0:
418,242,14719,2,0,P|417:246|395:396,1,140,8|8,0:0|0:1,0:0:0:0:
352,307,15227,2,0,P|289:314|193:335,1,140,12|0,0:1|0:0,0:1:0:0:
206,342,15651,1,8,0:1:0:0:
87,299,15905,2,0,P|75:334|67:378,2,70,8|8|8,0:1|0:0|0:0,0:1:0:0:
101,303,16328,1,0,0:0:0:0:
101,303,16413,6,0,P|153:250|44:193,1,210,12|2,0:1|0:0,0:3:0:0:
311,253,17431,2,0,B|335:229|335:229|445:243,1,140,8|2,0:0|0:0,0:0:0:0:
502,180,17939,2,0,P|492:110|479:41,1,140,8|2,0:1|0:0,0:0:0:0:
470,51,18362,1,8,0:1:0:0:
414,114,18532,2,0,P|353:117|313:69,1,105,10|0,0:1|0:0,0:0:0:0:
311,96,18871,2,2,P|310:62|304:18,1,70,10|0,0:1|0:0,0:0:0:0:
292,19,19126,6,0,P|223:15|172:59,1,140,12|8,0:1|0:0,0:3:0:0:
185,66,19549,2,0,B|194:112|194:112|185:134,1,70,0|8,0:0|0:1,0:0:0:0:
159,257,19973,1,0,0:0:0:0:
239,234,20142,2,0,P|297:246|398:272,1,140,8|8,0:0|0:1,0:0:0:0:
441,318,20651,2,0,P|434:255|434:202,1,105,8|0,0:1|0:0,0:0:0:0:
451,207,20990,1,0,0:0:0:0:
451,207,21075,2,0,B|461:155|461:155|434:86,1,105,10|10,0:1|0:1,0:0:0:0:
363,69,21498,2,0,L|315:81,3,35,8|8|8|8,0:0|0:0|0:0|0:0,0:0:0:0:
380,61,21837,5,12,0:1:0:0:
380,61,21922,2,0,P|305:48|276:40,1,89.2500017023087,2|10,0:0|0:0,0:0:0:0:
258,117,22346,1,0,0:0:0:0:
258,117,22431,2,0,P|183:130|154:138,1,89.2500017023087,2|2,0:0|0:0,0:0:0:0:
99,103,22854,2,0,P|87:62|85:23,1,59.5000011348725,10|2,0:0|0:0,0:0:0:0:
5,45,23193,5,0,0:0:0:0:
5,45,23278,2,0,P|18:119|26:148,1,89.2500017023087,2|10,0:0|0:0,0:0:0:0:
12,213,23702,1,0,0:0:0:0:
12,213,23787,2,0,P|25:287|33:316,1,89.2500017023087,2|2,0:0|0:0,0:0:0:0:
88,359,24210,1,10,0:0:0:0:
165,345,24380,1,2,0:0:0:0:
240,377,24549,5,0,0:0:0:0:
240,377,24634,2,0,P|253:302|261:273,1,89.2500017023087,2|10,0:0|0:0,0:0:0:0:
193,247,25058,1,0,0:0:0:0:
193,247,25143,2,0,P|180:172|172:143,1,89.2500017023087,2|2,0:0|0:0,0:0:0:0:
236,105,25566,2,0,P|277:117|316:119,1,59.5000011348725,10|2,0:0|0:0,0:0:0:0:
360,67,25905,5,0,0:0:0:0:
360,67,25990,2,0,P|373:141|381:170,1,89.2500017023087,2|10,0:0|0:0,0:0:0:0:
435,216,26414,1,0,0:0:0:0:
435,216,26499,2,0,P|448:290|456:319,1,89.2500017023087,2|2,0:0|0:0,0:0:0:0:
434,380,26922,1,10,0:0:0:0:
357,359,27092,1,2,0:0:0:0:
313,296,27261,5,8,0:1:0:0:
180,340,27515,1,0,0:0:0:0:
180,340,27600,2,0,P|111:332|74:329,2,89.2500017023087,10|2|2,0:0|0:0|0:0,0:0:0:0:
237,288,28278,2,0,P|231:253|226:225,1,59.5000011348725,10|2,0:0|0:0,0:0:0:0:
248,155,28617,5,0,0:0:0:0:
248,155,28702,1,2,0:0:0:0:
202,85,28871,1,0,0:0:0:0:
202,85,28956,1,10,0:0:0:0:
126,124,29126,2,0,P|118:186|105:255,1,119.000002269745,2|2,0:0|0:0,0:0:0:0:
117,320,29634,1,10,0:0:0:0:
42,352,29804,1,2,0:0:0:0:
16,279,29973,5,8,0:1:0:0:
9,147,30227,1,0,0:0:0:0:
9,147,30312,2,0,P|1:78|-2:41,2,89.2500017023087,10|2|2,0:0|0:0|0:0,0:0:0:0:
88,166,30990,2,0,P|94:131|99:103,1,59.5000011348725,10|2,0:0|0:0,0:0:0:0:
177,86,31329,5,0,0:0:0:0:
177,86,31414,1,2,0:0:0:0:
242,139,31583,1,0,0:0:0:0:
242,139,31668,1,10,0:0:0:0:
306,92,31838,1,0,0:0:0:0:
306,92,31922,2,0,P|314:30|320:-9,1,89.2500017023087,2|2,0:0|0:0,0:0:0:0:
397,27,32346,2,0,P|391:56|386:85,1,59.5000011348725,10|2,0:0|0:0,0:0:0:0:
418,156,32685,5,8,0:1:0:0:
437,309,33024,2,0,P|377:297|328:288,1,89.2500017023087,10|2,0:0|0:0,0:0:0:0:
249,232,33532,1,2,0:0:0:0:
189,282,33702,2,0,P|182:223|164:153,1,119.000002269745,10|0,0:0|0:0,0:0:0:0:
121,102,34210,6,0,P|70:106|31:215,1,178.500003404617,8|0,0:1|0:0,0:0:0:0:
38,223,34804,2,0,P|29:266|23:310,1,89.2500017023087,10|0,0:1|0:0,0:0:0:0:
15,323,35142,2,0,P|49:328|80:335,1,59.5000011348725,10|0,0:1|0:0,0:0:0:0:
83,341,35397,5,8,0:1:0:0:
220,269,35736,2,0,P|280:281|329:290,1,89.2500017023087,10|2,0:0|0:0,0:0:0:0:
395,364,36244,1,2,0:0:0:0:
450,310,36414,2,0,P|437:262|435:247,1,59.5000011348725,10|2,0:0|0:0,0:0:0:0:
465,180,36753,5,8,0:1:0:0:
419,117,36922,2,0,P|368:121|329:185,1,119.000002269745,8|0,0:1|0:0,0:0:0:0:
319,179,37346,2,0,P|325:211|326:244,1,59.5000011348725,10|0,0:1|0:0,0:0:0:0:
318,246,37600,2,0,L|258:234,1,59.5000011348725,10|10,0:1|0:0,0:0:0:0:
190,268,37939,1,2,0:0:0:0:
132,215,38109,5,8,0:1:0:0:
163,144,38278,1,8,0:1:0:0:
351,98,38702,5,8,0:1:0:0:
320,27,38871,1,8,0:1:0:0:
158,134,39295,5,8,0:1:0:0:
90,97,39464,1,10,0:1:0:0:
22,134,39634,2,0,L|36:224,1,89.2500017023087,10|10,0:1|0:1,0:0:0:0:
107,191,40058,1,10,0:1:0:0:
175,228,40228,2,0,L|161:318,1,89.2500017023087,10|10,0:1|0:1,0:0:0:0:
228,353,40650,1,10,0:1:0:0:
297,315,40820,5,8,0:0:0:0:
297,315,40905,1,8,0:0:0:0:
366,349,41075,2,0,L|356:382,3,29.7500005674362,8|8|8|8,0:0|0:1|0:1|0:1,0:0:0:0:
420,287,41498,1,8,0:1:0:0:
420,287,41583,1,8,0:1:0:0:
420,287,41668,2,0,L|410:254,4,29.7500005674362,8|8|8|8|8,0:1|0:1|0:1|0:1|0:3,0:0:0:0:
481,348,42176,5,8,0:1:0:0:
256,192,42261,12,8,43193,0:0:0:0:
0,280,43532,6,0,P|101:309|157:312,1,140,12|8,0:1|0:0,0:3:0:0:
145,306,43956,2,0,B|154:269|154:269|133:224,1,70,0|8,0:0|0:1,0:0:0:0:
257,169,44380,1,0,0:0:0:0:
319,224,44549,2,0,P|406:237|484:247,1,140,8|0,0:0|0:0,0:0:0:0:
493,170,45058,6,0,P|387:211|273:305,1,245,8|8,0:1|0:1,0:0:0:0:
143,382,45990,2,2,L|158:287,1,70,8|0,0:1|0:0,0:0:0:0:
165,304,46244,6,0,P|97:318|39:270,1,140,12|8,0:1|0:0,0:3:0:0:
33,274,46668,1,0,0:0:0:0:
63,200,46838,1,8,0:1:0:0:
63,200,46922,1,0,0:0:0:0:
13,129,47092,2,0,B|34:154|34:154|122:181|229:176,1,210,0|8,0:0|0:1,0:0:0:0:
268,236,47770,6,0,P|253:176|330:150,1,140,12|0,0:1|0:0,0:1:0:0:
316,156,48193,1,0,0:0:0:0:
437,121,48448,2,0,B|469:141|469:141|485:254,1,140,0|8,0:0|0:0,0:1:0:0:
497,259,48871,1,0,0:0:0:0:
497,259,48956,6,0,P|396:230|340:227,1,140,12|8,0:1|0:0,0:3:0:0:
352,233,49380,2,0,B|343:270|343:270|364:315,1,70,0|8,0:0|0:1,0:0:0:0:
254,373,49804,1,0,0:0:0:0:
192,318,49973,2,0,P|105:305|27:295,1,140,8|0,0:0|0:0,0:0:0:0:
4,355,50482,6,0,P|99:279|213:234,1,245,8|10,0:1|0:1,0:0:0:0:
121,66,51414,2,2,L|110:135,1,70,2|0,0:0|0:0,0:0:0:0:
98,143,51668,6,0,P|166:157|224:109,1,140,8|8,0:1|0:0,0:3:0:0:
231,120,52092,2,0,L|219:76,2,35,0|2|8,0:0|0:0|0:1,0:0:0:0:
348,138,52516,2,0,B|323:159|323:159|296:247|301:354,1,210,0|8,0:0|0:1,0:0:0:0:
370,380,53194,6,0,B|401:360|401:360|407:312,1,70,12|0,0:1|0:0,0:1:0:0:
505,244,53617,1,8,0:1:0:0:
418,152,53871,1,8,0:1:0:0:
472,87,54041,2,0,L|452:33,3,35,8|8|8|0,0:0|0:0|0:0|0:0,0:0:0:0:
451,54,54380,6,0,P|350:83|294:86,1,140,12|8,0:1|0:0,0:3:0:0:
306,80,54804,2,0,B|297:43|297:43|318:-2,1,70,0|8,0:0|0:1,0:0:0:0:
185,0,55228,1,0,0:0:0:0:
215,75,55397,2,0,P|202:161|192:240,1,140,8|8,0:0|0:1,0:0:0:0:
118,242,55906,6,0,P|224:283|338:377,1,245,8|10,0:1|0:1,0:0:0:0:
442,231,56838,2,2,L|457:136,1,70,10|0,0:1|0:0,0:0:0:0:
467,160,57092,6,0,P|399:146|341:194,1,140,8|8,0:1|0:0,0:3:0:0:
335,190,57516,1,0,0:0:0:0:
350,274,57686,1,8,0:1:0:0:
350,274,57770,1,0,0:0:0:0:
275,317,57940,2,0,B|254:292|254:292|166:265|59:270,1,210,0|8,0:0|0:1,0:0:0:0:
0,282,58618,6,0,P|-15:222|62:196,1,140,14|2,0:1|0:0,0:1:0:0:
48,202,59041,1,8,0:1:0:0:
155,144,59295,1,8,0:1:0:0:
214,199,59465,2,0,L|192:249,2,35,8|8|8,0:0|0:0|0:0,0:0:0:0:
232,199,59719,1,0,0:0:0:0:
232,199,59804,6,0,P|203:98|200:42,1,140,12|8,0:1|0:0,0:3:0:0:
207,55,60228,2,0,B|244:46|244:46|289:67,1,70,0|8,0:0|0:1,0:0:0:0:
364,140,60652,1,0,0:0:0:0:
442,121,60821,2,0,P|429:208|419:286,1,140,8|0,0:0|0:0,0:0:0:0:
503,246,61330,6,0,P|408:322|294:367,1,245,8|10,0:1|0:1,0:0:0:0:
184,241,62262,2,2,L|195:172,1,70,10|0,0:1|0:0,0:0:0:0:
203,162,62516,6,0,P|135:148|77:196,1,140,12|8,0:1|0:0,0:3:0:0:
84,198,62939,2,0,P|69:207|43:208,2,35,0|2|8,0:0|0:0|0:1,0:0:0:0:
45,328,63364,2,0,B|66:303|66:303|154:276|261:280,1,210,0|8,0:0|0:1,0:0:0:0:
303,332,64042,6,0,B|334:312|334:312|340:264,1,70,12|10,0:1|0:2,0:1:0:0:
388,218,64380,1,0,0:0:0:0:
388,218,64465,1,0,0:0:0:0:
388,218,64549,1,8,0:0:0:0:
448,284,64719,1,10,1:1:0:0:
448,284,64804,1,10,1:1:0:0:
448,284,64889,2,0,L|428:338,3,35,8|8|0|8,0:0|0:1|0:0|0:0,0:1:0:0:
445,328,65228,6,0,P|345:346|284:351,1,140,12|8,0:1|0:0,0:3:0:0:
297,340,65651,2,0,B|308:289,2,35,0|2|8,0:0|0:0|0:1,0:0:0:0:
182,383,66075,1,0,0:0:0:0:
122,327,66244,2,0,P|131:257|141:188,1,140,8|0,0:0|0:0,0:0:0:0:
210,146,66753,6,0,P|104:187|44:173,1,175,8|8,0:1|0:1,0:0:0:0:
20,97,67346,2,0,P|30:60|36:16,1,70,8|0,0:1|0:0,0:0:0:0:
103,102,67685,2,2,P|113:65|119:21,1,70,10|0,0:1|0:0,0:0:0:0:
131,36,67939,6,0,P|199:50|257:2,1,140,8|8,0:1|0:0,0:3:0:0:
263,19,68363,2,0,L|272:68,2,35,0|2|8,0:0|0:0|0:1,0:0:0:0:
395,54,68787,1,0,0:0:0:0:
443,119,68956,2,0,P|429:195|411:260,1,140,8|8,0:0|0:1,0:0:0:0:
479,302,69465,6,0,P|419:287|393:364,1,140,12|0,0:1|0:0,0:1:0:0:
399,350,69888,1,8,0:1:0:0:
278,329,70143,2,0,B|258:361|258:361|200:370,2,70,8|8|0,0:1|0:0|0:0,0:1:0:0:
289,322,70566,1,0,0:0:0:0:
289,322,70651,6,0,P|188:293|132:290,1,140,12|8,0:1|0:0,0:3:0:0:
147,279,71075,2,0,B|168:234,2,35,0|2|8,0:0|0:0|0:1,0:0:0:0:
266,210,71499,1,0,0:0:0:0:
312,143,71668,2,0,P|225:130|147:120,1,140,8|0,0:0|0:0,0:0:0:0:
172,138,72092,1,0,0:0:0:0:
172,138,72176,6,0,P|117:132|83:123,1,70,10|8,0:1|0:0,0:3:0:0:
43,182,72515,2,0,P|39:129|34:77,2,105,2|8|8,0:0|0:1|0:0,0:0:0:0:
139,320,73363,6,0,P|207:334|265:286,1,140,8|8,0:1|0:0,0:3:0:0:
271,290,73787,2,0,L|262:244,2,35,0|2|8,0:0|0:0|0:1,0:0:0:0:
302,156,74211,2,0,B|327:177|327:177|354:265|349:372,1,210,0|8,0:0|0:1,0:0:0:0:
426,382,74889,6,0,B|457:362|457:362|463:314,1,70,12|0,0:1|0:0,0:1:0:0:
450,193,75312,1,8,0:1:0:0:
317,226,75566,1,8,0:1:0:0:
238,213,75736,2,0,L|218:159,3,35,8|8|8|0,0:0|0:0|0:0|0:0,0:0:0:0:
227,168,76075,6,0,P|126:139|70:136,1,140,12|8,0:1|0:0,0:3:0:0:
82,130,76499,2,0,B|74:83,2,35,0|2|10,0:0|0:0|0:1,0:0:0:0:
1,240,76923,1,0,0:0:0:0:
78,220,77092,2,2,P|65:306|55:385,1,140,10|0,0:0|0:0,0:0:0:0:
129,320,77600,6,0,P|214:330|291:291,1,175,8|0,0:1|0:0,0:0:0:0:
327,219,78193,2,0,P|317:182|311:143,1,70,8|0,0:1|0:0,0:0:0:0:
244,224,78532,2,0,P|234:187|228:143,1,70,8|0,0:1|0:0,0:0:0:0:
221,167,78787,6,0,P|153:181|95:133,1,140,8|8,0:1|0:0,0:3:0:0:
89,150,79210,2,0,L|80:199,2,35,0|0|10,0:0|0:0|0:1,0:0:0:0:
20,49,79634,1,0,0:0:0:0:
11,128,79803,2,0,P|25:204|43:269,1,140,10|8,0:0|0:1,0:0:0:0:
37,342,80312,6,0,P|97:357|123:280,1,140,12|0,0:1|0:0,0:1:0:0:
117,294,80735,1,8,0:1:0:0:
226,346,80990,2,0,B|246:378|246:378|304:387,2,70,8|8|0,0:1|0:0|0:0,0:1:0:0:
215,339,81413,1,0,0:0:0:0:
215,339,81498,6,0,P|316:310|372:307,1,140,12|8,0:1|0:0,0:3:0:0:
357,316,81922,2,0,B|378:271,2,35,0|2|8,0:0|0:0|0:1,0:0:0:0:
466,368,82346,1,0,0:0:0:0:
509,300,82515,2,0,P|499:263|485:223,1,70,8|2,0:0|0:0,0:0:0:0:
477,242,82770,1,2,0:0:0:0:
478,242,82854,6,0,L|491:144,1,70,0|8,0:0|0:1,0:0:0:0:
441,105,83193,2,0,P|395:104|327:136,1,105,8|8,0:0|0:1,0:0:0:0:
284,183,83617,2,2,L|273:252,1,70,10|0,0:1|0:0,0:0:0:0:
201,190,83956,2,2,L|190:259,1,70,10|0,0:1|0:0,0:0:0:0:
190,271,84210,6,0,P|122:285|64:237,1,140,12|8,0:1|0:0,0:3:0:0:
58,255,84634,2,0,L|67:301,2,35,2|0|0,0:0|0:0|0:0,0:0:0:0:
51,134,85058,1,8,0:1:0:0:
108,77,85227,2,0,P|159:59|246:91,1,140,8|8,0:0|0:1,0:0:0:0:
279,153,85736,6,0,B|310:133|310:133|316:85,1,70,8|12,0:1|0:0,0:3:0:0:
378,50,86075,1,2,1:1:0:0:
378,50,86159,1,0,0:0:0:0:
450,93,86329,1,0,0:0:0:0:
447,104,86413,1,10,1:1:0:0:
445,115,86498,1,10,1:1:0:0:
442,127,86583,2,0,L|455:160,3,35,10|8|8|8,1:1|0:0|0:0|0:0,0:0:0:0:
243,352,97770,5,12,0:1:0:0:
373,312,98109,2,0,P|384:252|394:203,1,89.2500017023087,10|2,0:0|0:0,0:0:0:0:
288,168,98617,1,2,0:0:0:0:
210,173,98787,2,0,P|202:141|196:108,1,59.5000011348725,10|2,0:0|0:0,0:0:0:0:
146,56,99126,6,0,P|95:60|56:169,1,178.500003404617,8|0,0:1|0:0,0:0:0:0:
14,232,99804,1,8,0:1:0:0:
85,259,99973,1,10,0:1:0:0:
125,367,100227,1,8,0:1:0:0:
196,340,100396,1,8,0:1:0:0:
196,340,100482,5,8,0:1:0:0:
263,200,100821,2,0,P|323:212|372:221,1,89.2500017023087,10|2,0:0|0:0,0:0:0:0:
452,271,101329,2,0,P|457:300|466:328,2,59.5000011348725,2|10|2,0:0|0:0|0:0,0:0:0:0:
505,214,101837,6,0,P|454:210|415:146,1,119.000002269745,8|10,0:1|0:0,0:0:0:0:
301,136,102431,2,0,P|307:104|308:71,1,59.5000011348725,2|0,0:0|0:0,0:0:0:0:
298,70,102685,2,0,L|238:82,1,59.5000011348725,10|10,0:1|0:0,0:0:0:0:
230,78,102939,1,8,0:1:0:0:
180,145,103109,1,8,0:1:0:0:
180,145,103194,5,8,0:1:0:0:
29,111,103532,2,0,P|56:222|64:289,1,178.500003404617,10|2,0:3|0:0,0:0:0:0:
130,341,104210,2,0,P|146:281|148:272,1,59.5000011348725,10|0,0:3|0:0,0:0:0:0:
205,234,104549,5,8,0:1:0:0:
352,279,104888,1,10,0:3:0:0:
411,144,105227,5,8,0:1:0:0:
334,156,105397,1,10,0:1:0:0:
246,60,105651,5,8,0:1:0:0:
169,72,105821,1,0,0:1:0:0:
169,72,105905,6,0,P|180:9|182:3,1,59.5000011348725,8|8,0:1|0:1,0:0:0:0:
249,68,106244,2,0,P|238:131|236:137,1,59.5000011348725,10|8,0:3|0:1,0:0:0:0:
173,169,106583,1,8,0:1:0:0:
173,169,106668,1,8,0:1:0:0:
173,169,106753,2,0,L|140:159,2,29.7500005674362,10|8|10,0:1|0:1|0:3,0:0:0:0:
182,188,107007,2,0,P|169:223|164:241,2,44.6250008511543,10|10|0,0:1|0:1|0:0,0:0:0:0:
256,192,107346,12,2,108278,0:0:0:0:
163,330,108956,6,0,P|268:331|310:314,1,146.999995513916,12|0,0:3|0:0,0:0:0:0:
363,373,109465,1,2,0:0:0:0:
441,355,109634,2,0,P|431:294|427:276,1,73.4999977569581,10|2,0:3|0:0,0:0:0:0:
498,241,109973,6,0,P|508:180|512:162,1,73.4999977569581,8|0,0:1|0:0,0:0:0:0:
510,168,110227,1,0,0:0:0:0:
510,168,110312,1,10,0:3:0:0:
465,108,110481,1,0,0:0:0:0:
465,108,110566,2,0,P|401:127|345:133,1,110.249996635437,2|2,0:0|0:0,0:0:0:0:
304,193,110990,1,10,0:3:0:0:
229,163,111159,1,2,0:0:0:0:
229,163,111244,1,0,0:0:0:0:
229,163,111329,6,0,P|238:109|244:86,1,73.4999977569581,8|0,0:1|0:0,0:0:0:0:
230,84,111583,1,0,0:0:0:0:
230,84,111668,2,0,P|191:88|116:108,1,110.249996635437,10|2,0:3|0:0,0:0:0:0:
121,191,112092,1,0,0:0:0:0:
121,191,112176,1,2,0:0:0:0:
178,249,112346,2,0,P|213:257|250:259,1,73.4999977569581,10|2,0:3|0:0,0:0:0:0:
142,321,112685,6,0,P|245:340|289:330,2,146.999995513916,8|10|0,0:1|0:3|0:0,0:0:0:0:
82,379,113532,1,2,0:0:0:0:
17,329,113702,2,0,P|33:282|38:218,1,110.249996635437,10|0,0:3|0:0,0:0:0:0:
28,217,114041,5,8,0:1:0:0:
28,217,114126,2,0,P|28:176|86:147,1,110.249996635437,2|10,0:0|0:3,0:0:0:0:
163,122,114549,1,0,0:0:0:0:
163,122,114634,2,0,P|198:142|194:207,1,110.249996635437,2|2,0:0|0:0,0:0:0:0:
228,279,115058,1,10,0:3:0:0:
308,287,115227,1,2,0:0:0:0:
371,345,115396,5,8,0:1:0:0:
371,345,115481,2,0,P|420:326|426:274,1,110.249996635437,2|10,0:0|0:3,0:0:0:0:
501,240,115904,1,0,0:0:0:0:
501,240,115990,1,2,0:0:0:0:
462,168,116159,1,0,0:0:0:0:
462,168,116245,1,2,0:0:0:0:
378,210,116414,2,0,P|384:156|385:122,1,73.4999977569581,10|2,0:3|0:0,0:0:0:0:
363,59,116753,6,0,P|299:26|232:52,1,146.999995513916,8|10,0:1|0:3,0:0:0:0:
195,126,117261,1,0,0:0:0:0:
195,126,117346,2,0,P|209:186|213:214,1,73.4999977569581,2|0,0:0|0:0,0:0:0:0:
207,206,117600,2,0,P|147:192|119:188,2,73.4999977569581,2|10|2,0:0|0:3|0:0,0:0:0:0:
263,264,118109,6,0,P|316:330|384:326,2,146.999995513916,8|10|0,0:1|0:0|0:0,0:0:0:0:
317,204,118956,1,10,0:0:0:0:
398,223,119126,1,10,0:0:0:0:
398,223,119210,2,0,L|390:279,2,36.749998878479,8|10|8,0:0|0:0|0:0,0:0:0:0:
412,215,119465,5,2,0:0:0:0:
512,91,119804,2,0,P|407:92|365:75,1,146.999995513916,14|0,0:3|0:0,0:0:0:0:
322,10,120313,1,2,0:0:0:0:
288,82,120482,2,0,P|298:143|302:161,1,73.4999977569581,10|2,0:3|0:0,0:0:0:0:
247,215,120821,6,0,P|237:276|233:294,1,73.4999977569581,8|0,0:1|0:0,0:0:0:0:
235,288,121075,1,0,0:0:0:0:
235,288,121160,1,10,0:3:0:0:
201,363,121329,1,0,0:0:0:0:
201,363,121414,2,0,P|265:344|321:338,1,110.249996635437,2|2,0:0|0:0,0:0:0:0:
387,355,121838,1,10,0:3:0:0:
425,285,122007,1,2,0:0:0:0:
425,285,122092,1,0,0:0:0:0:
425,285,122177,6,0,P|416:231|410:208,1,73.4999977569581,10|0,0:1|0:0,0:0:0:0:
404,206,122431,1,0,0:0:0:0:
404,206,122515,2,0,P|349:200|296:185,1,110.249996635437,10|2,0:3|0:0,0:0:0:0:
294,171,122854,1,0,0:0:0:0:
219,147,123024,1,2,0:0:0:0:
161,203,123194,2,0,P|169:238|171:275,1,73.4999977569581,10|2,0:3|0:0,0:0:0:0:
142,125,123533,6,0,P|37:126|-5:109,2,146.999995513916,8|10|0,0:1|0:3|0:0,0:0:0:0:
219,147,124380,2,0,B|224:106|224:106|205:71,1,73.4999977569581,2|0,0:0|0:0,0:0:0:0:
249,7,124719,1,0,0:0:0:0:
171,6,124889,5,12,0:1:0:0:
171,6,124974,2,0,P|122:20|57:27,1,110.249996635437,2|10,0:0|0:3,0:0:0:0:
112,104,125396,1,0,0:0:0:0:
112,104,125481,2,0,P|63:90|-2:83,1,110.249996635437,2|2,0:0|0:0,0:0:0:0:
10,164,125906,1,10,0:3:0:0:
79,205,126075,1,2,0:0:0:0:
156,175,126244,5,8,0:1:0:0:
156,175,126329,2,0,P|205:193|211:245,1,110.249996635437,2|10,0:0|0:3,0:0:0:0:
267,311,126753,2,0,L|307:306,2,36.749998878479,0|2|8,0:0|0:0|0:1,0:0:0:0:
207,366,127093,1,8,0:1:0:0:
134,346,127261,1,10,0:1:0:0:
134,346,127346,1,8,0:1:0:0:
60,371,127515,1,10,0:1:0:0:
60,371,127600,6,0,P|45:309|39:295,1,73.4999977569581,10|10,0:1|0:1,0:0:0:0:
96,240,127939,2,0,P|81:178|75:164,1,73.4999977569581,10|10,0:1|0:1,0:0:0:0:
144,122,128278,1,10,0:0:0:0:
144,122,128363,1,8,0:0:0:0:
144,122,128448,1,8,0:0:0:0:
144,122,128532,1,8,0:0:0:0:
144,122,128617,1,8,0:0:0:0:
144,122,128702,2,0,L|136:66,2,55.1249983177186,8|8|8,0:1|0:1|0:1,0:0:0:0:
327,256,129295,6,0,P|381:236|402:152,1,146.999995513916,10|0,0:0|0:0,0:0:0:0:
370,81,129804,2,0,P|327:92|291:99,2,73.4999977569581,10|10|10,0:0|0:0|0:0,0:0:0:0:
432,30,130312,6,2,P|476:134|495:165,1,140,12|8,0:1|0:3,0:3:0:0:
500,243,130820,1,2,0:0:0:0:
500,243,130905,1,0,0:0:0:0:
500,243,130990,2,0,P|396:287|365:306,1,140,8|10,0:1|0:3,0:0:0:0:
373,311,131414,2,0,L|301:301,1,70
294,309,131668,6,0,L|306:353,2,35,8|2|0,0:1|0:0|0:0,0:0:0:0:
224,258,132007,1,8,0:3:0:0:
224,258,132092,2,0,L|235:217,2,35,0|2|0,0:0|0:0|0:0,0:0:0:0:
208,268,132346,1,10,0:1:0:0:
129,282,132515,1,10,0:1:0:0:
20,212,132770,1,10,0:1:0:0:
18,129,132939,1,10,0:1:0:0:
18,129,133024,6,2,P|123:142|171:148,1,140,12|10,0:1|0:3,0:3:0:0:
233,196,133532,1,2,0:0:0:0:
233,196,133617,1,0,0:0:0:0:
233,196,133702,2,0,P|284:150|261:92,1,140,8|10,0:1|0:3,0:0:0:0:
270,85,134126,2,0,L|342:95,1,70
349,87,134380,6,0,L|337:43,2,35,8|2|0,0:1|0:0|0:0,0:0:0:0:
400,156,134719,1,8,0:3:0:0:
400,156,134804,2,0,L|389:197,2,35,0|2|0,0:0|0:0|0:0,0:0:0:0:
416,146,135058,1,10,0:1:0:0:
491,172,135227,1,10,0:1:0:0:
497,292,135482,1,10,0:1:0:0:
423,273,135651,1,10,0:1:0:0:
423,273,135736,6,2,P|318:286|270:292,1,140,12|8,0:1|0:3,0:3:0:0:
236,356,136244,1,2,0:0:0:0:
236,356,136329,1,0,0:0:0:0:
236,356,136414,2,0,L|154:333,1,70,8|0,0:1|0:0,0:0:0:0:
119,273,136753,1,10,0:3:0:0:
119,273,136837,2,0,L|127:201,1,70
138,195,137092,5,8,0:1:0:0:
138,195,137176,1,2,0:0:0:0:
138,195,137261,2,0,L|129:79,1,105
118,75,137600,2,0,L|132:43,2,35,2|0|10,0:0|0:0|0:1,0:0:0:0:
42,112,137939,1,10,0:1:0:0:
56,237,138194,1,10,0:1:0:0:
0,292,138363,1,10,0:1:0:0:
0,292,138448,6,2,P|105:305|153:311,1,140,12|8,0:1|0:3,0:3:0:0:
197,375,138956,1,2,0:0:0:0:
197,375,139041,1,0,0:0:0:0:
197,375,139126,2,0,P|215:308|278:304,1,140,8|10,0:1|0:3,0:0:0:0:
284,293,139550,2,0,L|243:232,1,70
248,223,139804,6,0,L|292:214,2,35,10|0|0,0:1|0:0|0:0,0:0:0:0:
181,185,140142,2,0,P|171:117|160:41,1,140,8|0,0:0|0:0,0:0:0:0:
265,49,140651,1,8,0:0:0:0:
265,49,140736,1,8,0:0:0:0:
265,49,140820,2,0,L|255:98,2,35,10|10|2,0:0|0:0|0:1,0:0:0:0:
354,15,141160,6,2,P|337:120|333:164,3,140,12|8|0|8,0:1|0:0|0:0|0:0,0:3:0:0:
456,258,142515,1,0,0:0:0:0:
309,324,142854,1,8,0:0:0:0:
186,219,143193,1,0,0:0:0:0:
39,285,143532,1,8,0:0:0:0:
166,384,143871,6,2,P|158:314|145:245,3,140,12|8|0|8,0:1|0:0|0:0|0:0,0:3:0:0:
42,121,145227,1,8,0:1:0:0:
115,88,145397,1,8,0:1:0:0:
264,221,145820,2,0,P|331:217|362:224,1,70,8|0,0:1|0:0,0:0:0:0:
346,229,146075,1,8,0:1:0:0:
400,170,146244,2,0,P|386:119|378:81,1,70,10|2,0:0|0:0,0:0:0:0:
456,69,146583,6,2,P|351:49|297:37,1,140,12|8,0:1|0:0,0:3:0:0:
204,156,147261,2,0,P|99:136|45:124,2,140,0|8|0,0:0|0:0|0:0,0:0:0:0:
239,229,148109,2,0,P|231:285|144:328,1,140,8|2,0:1|0:0,0:0:0:0:
66,243,148702,2,0,P|68:168|76:126,1,105,8|0,0:1|0:0,0:0:0:0:
63,133,149041,2,0,P|55:89|54:49,1,70,8|0,0:1|0:0,0:0:0:0:
63,57,149295,6,2,P|168:37|222:25,1,140,12|8,0:1|0:0,0:3:0:0:
318,150,149973,2,0,P|423:130|477:118,1,140
500,285,150651,1,0,0:0:0:0:
423,320,150820,1,0,0:0:0:0:
219,268,151244,2,0,P|166:290|140:294,1,70,8|0,0:1|0:0,0:0:0:0:
144,289,151498,1,0,0:0:0:0:
76,329,151668,2,0,L|63:373,3,35,10|8|8|8,0:0|0:0|0:0|0:0,0:0:0:0:
