osu file format v14

[General]
AudioFilename: audio.mp3
AudioLeadIn: 0
PreviewTime: 4154
Countdown: 0
SampleSet: Soft
StackLeniency: 0.5
Mode: 0
LetterboxInBreaks: 0
WidescreenStoryboard: 1

[Editor]
DistanceSpacing: 1.1
BeatDivisor: 4
GridSize: 16
TimelineZoom: 1.4

[Metadata]
Title:Ghouls!
TitleUnicode:Ghouls!
Artist:Dictate
ArtistUnicode:Dictate
Creator:RhodokSniper
Version:Easy
Source:
Tags:
BeatmapID:1838766
BeatmapSetID:879251

[Difficulty]
HPDrainRate:2
CircleSize:2.8
OverallDifficulty:2
ApproachRate:3
SliderMultiplier:1.1
SliderTickRate:2

[Events]
//Background and Video events
0,0,"585cd425e6fba.jpg",0,0
//Break Periods
//Storyboard Layer 0 (Background)
//Storyboard Layer 1 (Fail)
//Storyboard Layer 2 (Pass)
//Storyboard Layer 3 (Foreground)
//Storyboard Sound Samples

[TimingPoints]
3624,530.973451327434,4,2,1,50,1,0
7473,-100,4,2,2,25,0,0
7739,-100,4,2,1,50,0,0
8004,-100,4,2,2,25,0,0
8270,-100,4,2,1,50,0,0
8668,-100,4,2,1,50,0,0
9730,-100,4,2,1,50,0,0
10393,-100,4,2,1,40,0,0
10924,-100,4,2,1,36,0,0
11455,-100,4,2,1,32,0,0
11721,-100,4,2,1,50,0,0
15969,-100,4,2,2,25,0,0
16234,-100,4,2,1,50,0,0
16500,-100,4,2,2,25,0,0
16765,-100,4,2,1,50,0,0
21809,-100,4,2,2,25,0,0
22075,-100,4,2,1,50,0,0
28181,-100,4,2,2,25,0,0
28447,-100,4,2,1,50,0,0
28712,-100,4,2,2,25,0,0
28977,-100,4,2,1,50,0,0
30570,-100,4,2,1,30,0,0
31632,-100,4,2,1,50,0,0
32562,-100,4,2,1,50,0,0
33225,-100,4,2,2,25,0,0
33491,-100,4,2,1,50,0,0
33756,-100,4,2,1,35,0,0
34818,-100,4,2,1,50,0,0
36942,-100,4,2,1,35,0,0
37739,-100,4,2,1,50,0,0
40659,-100,4,2,1,50,0,0
40924,-100,4,2,2,25,0,0
41721,-100,4,2,1,50,0,0
43314,-100,4,2,1,35,0,0
44110,-100,4,2,1,50,0,0
45703,-100,4,2,2,25,0,0
45969,-100,4,2,1,50,0,0
46234,-100,4,2,2,25,0,0
46500,-100,4,2,1,50,0,0
47031,-100,4,2,1,50,0,0
47296,-100,4,2,2,25,0,0
48093,-100,4,2,1,50,0,0
53270,-100,4,2,1,50,0,0
53668,-100,4,2,2,25,0,0
54199,-100,4,2,1,50,0,0
56057,-100,4,2,1,35,0,0
56854,-100,4,2,1,50,0,0
66677,-100,4,2,2,25,0,0
66942,-100,4,2,1,50,0,0
68800,-100,4,2,1,35,0,0
69597,-100,4,2,1,50,0,0
73314,-100,4,2,2,25,0,0
73579,-100,4,2,1,50,0,0
74110,-100,4,2,1,35,0,0
74641,-100,4,2,2,25,0,0
74907,-100,4,2,1,50,0,0
76234,-100,4,2,2,25,0,0
76500,-100,4,2,1,50,0,0
77827,-100,4,2,2,25,0,0
78093,-100,4,2,1,50,0,0
78889,-100,4,2,1,50,0,0
81544,-100,4,2,1,35,0,0
82340,-100,4,2,1,50,0,0
83933,-100,4,2,2,25,0,0
84199,-100,4,2,1,50,0,0
84730,-100,4,2,1,35,0,0
85526,-100,4,2,1,50,0,0
86588,-100,4,2,2,25,0,0
86854,-100,4,2,1,50,0,0
87916,-100,4,2,1,35,0,0
88712,-100,4,2,1,50,0,0
91101,-100,4,2,1,35,0,0
91898,-100,4,2,2,25,0,0
92429,-100,4,2,1,35,0,0

[Colours]
Combo1 : 181,17,251
Combo2 : 254,153,1
Combo3 : 208,0,0
Combo4 : 0,210,57

[HitObjects]
128,112,4154,6,0,P|112:160|128:240,1,110,2|0,0:0|0:0,0:0:0:0:
215,290,5216,1,0,0:0:0:0:
288,192,5747,6,0,P|336:240|336:288,2,110
204,104,7340,2,0,P|156:152|156:200,2,110
317,61,8933,6,0,B|332:104|275:117|299:180,1,110,2|0,0:0|0:0,0:0:0:0:
233,319,9995,2,0,P|169:278|130:236,2,110,2|2|2,0:0|0:0|0:0,0:0:0:0:
353,318,11588,1,2,0:0:0:0:
293,214,12119,5,0,0:0:0:0:
293,214,12650,2,0,P|272:160|288:112,1,110
400,157,13712,2,0,P|421:103|405:55,2,110
295,217,15305,1,0,0:0:0:0:
189,275,15836,2,0,P|172:200|174:143,2,110,2|2|2,0:0|0:0|0:0,0:0:0:0:
305,305,17429,1,0,0:0:0:0:
274,189,17960,1,0,0:0:0:0:
387,217,18491,6,0,P|392:162|366:115,2,110
271,250,20084,1,0,0:0:0:0:
271,250,20615,2,0,P|229:301|170:305,1,110
120,208,21677,6,0,P|170:185|215:155,1,110,2|0,0:0|0:0,0:0:0:0:
163,46,22739,2,0,P|119:79|70:105,1,110,2|2,0:0|0:0,0:0:0:0:
150,196,23800,6,0,P|175:146|227:145,1,110
244,263,24862,5,0,0:0:0:0:
342,193,25393,1,0,0:0:0:0:
354,313,25924,1,0,0:0:0:0:
240,254,26455,5,0,0:0:0:0:
338,184,26986,1,0,0:0:0:0:
350,304,27517,1,0,0:0:0:0:
450,236,28048,6,0,P|479:177|483:125,2,110
351,130,29641,5,8,0:0:0:0:
246,68,30172,2,0,P|202:86|179:145,1,110,0|8,0:0|0:0,0:0:0:0:
232,249,31234,5,8,0:0:0:0:
325,325,31765,2,0,P|354:277|345:216,1,110,0|4,0:0|0:0,0:0:0:0:
364,104,32827,6,0,B|338:57|311:73|311:73|281:98|281:98|243:66|187:70|161:106,1,220,0|8,0:0|0:0,0:0:0:0:
220,171,34420,5,8,0:0:0:0:
140,216,34951,2,0,P|181:262|239:264,1,110,0|4,0:0|0:0,0:0:0:0:
363,275,36013,6,0,P|355:198|328:155,2,110,4|4|12,0:0|0:0|0:0,0:0:0:0:
239,249,37606,2,0,P|161:240|119:212,2,110,12|4|4,0:0|0:0|0:0,0:0:0:0:
216,119,39199,2,0,P|230:58|262:18,2,110,4|4|4,0:0|0:0|0:0,0:0:0:0:
134,142,40792,6,0,P|222:203|299:132,1,220,4|4,0:0|0:0,0:0:0:0:
372,231,42385,5,8,0:0:0:0:
254,241,42916,2,0,P|270:170|318:134,1,110,0|8,0:0|0:0,0:0:0:0:
372,231,43977,5,8,0:0:0:0:
295,145,44508,2,0,P|260:186|253:240,1,110
187,342,45570,2,0,P|142:280|132:246,2,110,4|4|4,0:0|0:0|0:0,0:0:0:0:
235,241,47163,6,0,B|266:196|266:196|280:187|315:216|330:215|330:215|351:131|384:122,1,220,4|4,0:0|0:0,0:0:0:0:
224,81,48756,5,4,0:0:0:0:
128,154,49287,1,4,0:0:0:0:
155,271,49818,1,4,0:0:0:0:
244,189,50349,5,4,0:0:0:0:
128,154,50880,1,4,0:0:0:0:
155,271,51411,1,4,0:0:0:0:
269,310,51942,2,0,P|336:302|388:284,2,110,4|4|4,0:0|0:0|0:0,0:0:0:0:
154,271,53535,6,0,B|111:245|111:245|136:201|136:201|92:178|73:148|77:94,1,220,4|4,0:0|0:0,0:0:0:0:
173,88,55128,6,0,P|232:66|288:61,1,110,8|0,0:0|0:0,0:0:0:0:
261,180,56190,1,8,0:0:0:0:
339,271,56721,6,0,P|287:291|233:298,1,110,8|0,0:0|0:0,0:0:0:0:
261,180,57783,1,0,0:0:0:0:
141,195,58314,6,0,P|93:168|88:107,2,110,4|4|4,0:0|0:0|0:0,0:0:0:0:
189,100,59907,2,0,P|216:52|276:47,2,110,4|4|4,0:0|0:0|0:0,0:0:0:0:
299,150,61500,1,4,0:0:0:0:
403,210,62031,1,4,0:0:0:0:
298,270,62562,1,4,0:0:0:0:
368,150,63093,5,4,0:0:0:0:
368,270,63624,1,4,0:0:0:0:
263,209,64155,1,4,0:0:0:0:
402,210,64685,5,4,0:0:0:0:
298,270,65216,1,4,0:0:0:0:
299,149,65747,1,4,0:0:0:0:
403,89,66278,6,0,B|348:32|300:48|300:48|252:32|194:91,1,220,4|4,0:0|0:0,0:0:0:0:
175,184,67871,6,0,P|120:157|102:105,2,110,0|0|8,0:0|0:0|0:0,0:0:0:0:
274,136,69464,6,0,P|293:193|269:243,2,110,8|0|0,0:0|0:0|0:0,0:0:0:0:
167,78,71057,5,0,0:0:0:0:
270,15,71588,1,0,0:0:0:0:
274,136,72119,1,0,0:0:0:0:
167,78,72650,1,0,0:0:0:0:
167,78,73181,2,0,P|159:144|170:205,1,110
83,215,74243,6,0,P|160:276|250:199,1,220,12|4,0:0|0:0,0:0:0:0:
166,182,75836,6,0,P|243:121|333:198,1,220,12|4,0:0|0:0,0:0:0:0:
250,214,77429,6,0,P|327:275|417:198,1,220,12|4,0:0|0:0,0:0:0:0:
333,188,79022,6,0,B|322:164|309:141|279:121|251:122|224:119|197:140|169:173|169:173|216:121|239:86|250:58,1,330,2|0,0:0|0:0,0:0:0:0:
252,214,81146,1,0,0:0:0:0:
252,214,81677,6,0,P|282:274|342:292,1,110,8|8,0:0|0:0,0:0:0:0:
405,206,82739,5,2,0:0:0:0:
379,87,83270,1,2,0:0:0:0:
290,169,83800,2,0,P|228:135|177:128,1,110,2|2,0:0|0:0,0:0:0:0:
203,248,84862,5,8,0:0:0:0:
203,248,85393,1,8,0:0:0:0:
324,196,85924,1,4,0:0:0:0:
426,154,86455,2,8,L|321:198,1,110,0|2,0:0|0:0,0:0:0:0:
226,124,87517,5,4,0:0:0:0:
105,114,88048,1,8,0:0:0:0:
155,224,88579,1,8,0:0:0:0:
275,236,89110,2,0,P|250:296|200:334,2,110,4|6|6,0:0|0:0|0:0,0:0:0:0:
211,132,90703,5,0,0:0:0:0:
331,117,91234,1,8,0:0:0:0:
363,233,91765,2,0,B|314:268|314:268|296:226|296:226|261:255|219:252|180:218,1,220,8|8,0:0|0:0,0:0:0:0:
