osu file format v14

[General]
AudioFilename: audio.mp3
AudioLeadIn: 0
PreviewTime: 109225
Countdown: 0
SampleSet: Soft
StackLeniency: 0.4
Mode: 0
LetterboxInBreaks: 0
WidescreenStoryboard: 1

[Editor]
Bookmarks: 3294,29776,43018,56259,69501,82742,95983,109225,109432,109561,109639,109690,109820,109845,109949,110104,110156,110233,110259,110363,110466,110518,110570,110647,110776,110802,110880,110957,111087,111190,111242,111371,111397,111475,111604,111707,111863,111914,111966,112070,112121,112225,112302,112406,112432,112483,112535,112587,112690,112742,112768,112897,112949,113052,113182,113259,113337,113466,113570,113673,113725,113776,113802,113880,113906,113983,114009,114087,114190,114294,114397,114475,114552,114604,114630,114707,114733,114811,114889,114992,115018,115121,115276,115328,115432,115561,115639,115716,115742,115768,115871,115949,116052,116207,116259,116337,116414,116466,116518,116570,116673,116776,116828,116880,117009,117087,117139,117216,117294,117320,117397,117475,117578,117604,117682,117707,117759,117889,117914,118018,118070,118199,118225,118328,118380,118483,118535,118587,118664,118768,118845,118871,119052,119156,119182,119311,119363,119466,119595,119673,119725,119776,119880,119983,120009,120087,120113,120294,120397,120423,120578,120604,120733,120811,120889,120914,120992,121121,121328,121432,121561,121639,121742,121845,121897,121949,122052,122156,122207,122259,122363,122466,135707,148949,155570,168811,182052,195294,208535,220121
DistanceSpacing: 1
BeatDivisor: 8
GridSize: 8
TimelineZoom: 2.1

[Metadata]
Title:Cortex
TitleUnicode:Cortex
Artist:Dictate
ArtistUnicode:Dictate
Creator:Mun
Version:Hard
Source:
Tags:noclip ep renraku global media neurofunk icekalt greenhue
BeatmapID:1691946
BeatmapSetID:806082

[Difficulty]
HPDrainRate:5
CircleSize:4
OverallDifficulty:6
ApproachRate:8
SliderMultiplier:1.6
SliderTickRate:1

[Events]
//Background and Video events
0,0,"62574020_rsz.jpg",0,0
//Break Periods
2,109425,120811
2,149149,154820
//Storyboard Layer 0 (Background)
//Storyboard Layer 1 (Fail)
//Storyboard Layer 2 (Pass)
//Storyboard Layer 3 (Foreground)
//Storyboard Sound Samples

[TimingPoints]
1639,413.793103448276,4,2,1,30,1,0
1639,-250,4,2,1,30,0,0
2880,-100,4,2,1,30,0,0
3294,-166.666666666667,4,2,1,40,0,0
16535,-142.857142857143,4,2,1,40,0,0
42190,-76.9230769230769,4,2,1,40,0,0
43018,-142.857142857143,4,2,1,40,0,0
50570,-133.333333333333,4,2,1,40,0,0
50983,-125,4,2,1,40,0,0
51397,-117.647058823529,4,2,1,40,0,0
51811,-111.111111111111,4,2,1,40,0,0
52225,-105.263157894737,4,2,1,40,0,0
52639,-100,4,2,1,30,0,0
54604,-166.666666666667,4,2,2,30,0,0
55432,-100,4,2,4,60,0,0
56259,-76.9230769230769,4,2,2,60,0,1
95156,-142.857142857143,4,2,4,60,0,1
95983,-76.9230769230769,4,2,2,60,0,1
108397,-142.857142857143,4,2,0,60,0,1
109225,-1000,4,2,0,60,0,0
122466,-250,4,2,0,30,0,0
134052,-142.857142857143,4,2,0,50,0,0
135707,-76.9230769230769,4,2,2,60,0,1
148949,-100,4,2,0,30,0,0
155570,-125,4,2,0,30,0,0
168811,-166.666666666667,4,2,0,30,0,0
182259,-200,4,2,0,30,0,0
183087,-166.666666666667,4,2,0,30,0,0
183914,-142.857142857143,4,2,0,30,0,0
184742,-166.666666666667,4,2,0,30,0,0
185570,-200,4,2,0,30,0,0
186397,-166.666666666667,4,2,0,30,0,0
187225,-142.857142857143,4,2,0,30,0,0
188053,-100,4,2,0,30,0,0
188880,-166.666666666667,4,2,0,30,0,0
189708,-142.857142857143,4,2,0,30,0,0
190535,-125,4,2,0,30,0,0
191363,-142.857142857143,4,2,0,30,0,0
195501,-200,4,2,0,30,0,0
196329,-166.666666666667,4,2,0,30,0,0
197156,-142.857142857143,4,2,0,30,0,0
197984,-166.666666666667,4,2,0,30,0,0
198811,-200,4,2,0,30,0,0
199639,-166.666666666667,4,2,0,30,0,0
200466,-142.857142857143,4,2,0,30,0,0
201294,-100,4,2,0,30,0,0
202121,-166.666666666667,4,2,0,30,0,0
202949,-142.857142857143,4,2,0,30,0,0
203776,-125,4,2,0,30,0,0
204604,-142.857142857143,4,2,0,30,0,0
206880,-100,4,2,0,30,0,0
207707,-166.666666666667,4,2,0,30,0,0
208535,-333.333333333333,4,2,2,20,0,0
214742,-333.333333333333,4,2,99,20,0,0
215156,-285.714285714286,4,2,2,20,0,0
220121,-285.714285714286,4,2,2,20,0,0
220949,-285.714285714286,4,2,2,7,0,0
222604,-285.714285714286,4,2,99,5,0,0

[Colours]
Combo1 : 128,128,128
Combo2 : 92,125,163
Combo3 : 53,53,255
Combo4 : 78,187,228
Combo5 : 0,99,198

[HitObjects]
165,299,1639,6,0,L|166:231,2,64,2|2|2,0:3|0:3|0:3,0:0:0:0:
182,225,2880,2,0,L|181:345,1,120,0|0,3:0|3:0,0:0:0:0:
175,362,3294,6,0,P|223:354|274:374,2,95.9999970703126,12|0|0,0:0|0:0|0:0,0:0:0:0:
101,383,4535,5,0,0:0:0:0:
102,354,4742,1,0,0:0:0:0:
104,325,4949,1,2,0:3:0:0:
167,215,5363,1,0,0:0:0:0:
166,186,5570,1,0,0:0:0:0:
161,157,5776,2,0,B|125:143|90:162|90:162|77:172|77:172|66:165|66:165|55:173|55:173|47:166|47:166|34:173|34:173|25:164|25:164|9:166,1,167.999994873047,8|0,0:0|0:0,0:0:0:0:
0,156,6604,6,0,L|1:274,2,95.9999970703126,2|0|0,0:0|0:0|0:0,0:0:0:0:
0,73,7845,5,0,0:0:0:0:
29,72,8052,1,0,0:0:0:0:
58,70,8259,1,2,2:3:0:0:
168,7,8673,1,0,0:0:0:0:
197,8,8880,1,0,0:0:0:0:
226,13,9086,2,0,B|240:49|220:83|220:83|211:97|211:97|218:108|218:108|210:119|210:119|217:127|217:127|210:140|210:140|219:149|219:149|217:165,1,167.999994873047,8|0,0:0|0:0,0:0:0:0:
213,176,9914,6,0,L|215:291,2,95.9999970703126,2|0|0,0:0|0:0|0:0,0:0:0:0:
119,146,11156,1,0,0:0:0:0:
120,174,11363,1,0,0:0:0:0:
121,202,11570,1,2,0:3:0:0:
128,310,11983,1,0,0:0:0:0:
128,310,12397,2,0,B|164:296|198:316|198:316|212:325|212:325|223:318|223:318|234:326|234:326|242:319|242:319|255:326|255:326|264:317|264:317|280:319,1,167.999994873047,8|0,0:0|0:0,0:0:0:0:
291,323,13225,6,0,B|282:271|282:271|293:220,2,95.9999970703126,2|0|0,0:0|0:0|0:0,0:0:0:0:
372,374,14466,1,0,0:0:0:0:
400,374,14673,1,0,0:0:0:0:
428,374,14880,6,0,L|429:263,1,95.9999970703126,2|0,0:0|0:0,0:0:0:0:
490,174,15707,2,0,B|476:172|476:172|467:181|467:181|454:174|454:174|446:181|446:181|435:173|435:173|424:180|424:180|411:171|411:171|393:181|393:181|383:162|383:162|364:173|364:173|340:165,1,167.999994873047,0|0,0:0|0:0,0:0:0:0:
340,169,16535,6,0,P|283:152|217:164,1,111.999996582031,0|0,3:0|0:0,0:0:0:0:
211,178,17052,2,0,P|182:186|148:180,1,55.9999982910157,2|2,0:0|0:0,0:0:0:0:
132,169,17362,1,8,0:0:0:0:
132,169,17776,1,2,0:0:0:0:
133,225,17983,1,0,0:0:0:0:
134,281,18190,6,0,B|166:303|166:303|221:298,2,83.9999974365235,0|2|0,0:0|0:0|3:0,0:0:0:0:
75,229,19018,2,0,B|50:194|67:144|67:144|55:134|55:134|63:123|63:123|55:114|55:114|62:105|62:105|55:97|55:97|63:89|63:89|55:76|55:76|66:65|66:65|64:46,1,195.999994018555,8|0,0:0|0:0,0:0:0:0:
89,48,19845,6,0,P|150:37|205:78,1,111.999996582031,0|0,0:0|0:0,0:0:0:0:
269,160,20570,1,0,0:0:0:0:
269,160,20673,2,0,L|338:161,1,55.9999982910157,8|0,0:0|0:0,0:0:0:0:
185,183,21087,2,0,L|116:184,1,55.9999982910157,0|0,0:0|0:0,0:0:0:0:
244,239,21501,6,0,B|255:280|255:280|246:334,2,83.9999974365235,0|2|0,0:0|0:0|0:0,0:0:0:0:
185,183,22328,2,0,B|150:158|100:175|100:175|90:163|90:163|79:171|79:171|70:163|70:163|61:170|61:170|53:163|53:163|45:171|45:171|32:163|32:163|21:174|21:174|2:172,1,195.999994018555,10|0,0:0|0:0,0:0:0:0:
8,199,23156,2,0,L|18:311,1,111.999996582031,0|0,0:0|0:0,0:0:0:0:
38,329,23673,2,0,P|68:318|98:325,1,55.9999982910157,2|2,0:0|0:0,0:0:0:0:
113,339,23983,1,8,0:0:0:0:
113,339,24397,1,0,0:0:0:0:
165,358,24604,1,0,0:0:0:0:
219,346,24811,6,0,L|223:278,1,55.9999982910157,0|0,0:0|0:0,0:0:0:0:
227,196,25225,1,2,0:0:0:0:
227,196,25328,2,0,P|260:199|287:218,1,55.9999982910157,0|0,0:0|0:0,0:0:0:0:
290,237,25639,2,0,B|325:262|375:245|375:245|385:257|385:257|396:249|396:249|405:257|405:257|414:250|414:250|422:257|422:257|430:249|430:249|443:257|443:257|454:246|454:246|473:248,1,195.999994018555,8|0,0:0|0:0,0:0:0:0:
474,225,26466,6,0,B|487:170|487:170|473:110,1,111.999996582031,0|0,0:0|0:0,0:0:0:0:
455,95,26983,2,0,L|452:30,1,55.9999982910157,2|2,0:0|0:0,0:0:0:0:
451,10,27294,1,8,0:0:0:0:
451,10,27707,1,0,0:0:0:0:
395,15,27914,1,0,0:0:0:0:
339,21,28121,6,0,L|274:32,1,55.9999982910157,0|0,0:0|0:0,0:0:0:0:
201,47,28535,1,2,0:0:0:0:
201,47,28639,2,0,P|217:83|246:104,1,55.9999982910157,0|0,0:0|0:0,0:0:0:0:
250,112,28949,2,0,B|265:109|265:109|275:119|275:119|289:112|289:112|298:119|298:119|310:110|310:110|322:118|322:118|336:108|336:108|350:117|350:117|364:103|364:103|376:117|376:117|388:97|388:97|406:103,1,195.999994018555,8|0,0:0|0:0,0:0:0:0:
427,112,29776,5,0,3:0:0:0:
434,167,29983,2,0,L|439:241,1,55.9999982910157,0|0,3:0|0:0,0:0:0:0:
419,244,30294,2,0,L|415:299,1,55.9999982910157,0|0,0:0|0:0,0:0:0:0:
419,244,31121,2,0,L|415:299,1,55.9999982910157,0|0,0:0|0:0,0:0:0:0:
291,234,31845,5,2,0:0:0:0:
169,350,32466,1,2,0:0:0:0:
169,350,32570,1,2,0:0:0:0:
127,283,32776,1,2,0:0:0:0:
127,283,32880,1,2,0:0:0:0:
88,212,33087,6,0,P|79:152|99:98,1,111.999996582031,0|0,3:0|0:0,0:0:0:0:
116,86,33604,2,0,P|152:91|175:86,1,55.9999982910157,0|0,0:0|0:0,0:0:0:0:
116,86,34432,2,0,P|152:91|175:86,1,55.9999982910157,0|0,0:0|0:0,0:0:0:0:
281,0,35156,1,2,0:0:0:0:
348,153,35776,1,2,0:0:0:0:
348,153,35880,1,2,0:0:0:0:
284,208,36087,1,2,0:0:0:0:
284,208,36191,1,2,0:0:0:0:
219,260,36397,6,0,B|193:289|193:289|195:378,1,111.999996582031,0|0,3:0|0:0,0:0:0:0:
233,378,36914,2,0,L|234:315,1,55.9999982910157,0|0,0:0|0:0,0:0:0:0:
122,143,37639,2,0,B|96:172|96:172|97:238,1,83.9999974365235,0|0,0:0|0:0,0:0:0:0:
96,217,38673,6,0,L|98:258,1,27.9999991455078,2|0,0:0|0:0,0:0:0:0:
120,280,38880,2,0,L|142:373,1,83.9999974365235,0|0,0:0|0:0,0:0:0:0:
142,384,39294,2,0,P|181:361|234:374,1,83.9999974365235,0|0,0:0|0:0,0:0:0:0:
237,384,39707,6,0,B|222:294|222:294|257:229,1,139.999995727539,0|2,3:0|0:0,0:0:0:0:
245,251,40742,1,2,0:0:0:0:
317,293,40949,2,0,L|437:287,1,111.999996582031,0|0,0:0|0:0,0:0:0:0:
428,287,41776,1,2,0:0:0:0:
428,287,42190,2,0,L|426:254,14,25.9999988098145
431,329,43018,5,0,3:0:0:0:
365,381,43225,1,0,3:0:0:0:
295,333,43432,1,0,0:0:0:0:
295,333,43535,2,0,L|291:271,1,55.9999982910157,2|2,0:0|0:0,0:0:0:0:
290,252,43845,1,8,0:0:0:0:
211,281,44052,1,0,0:0:0:0:
169,207,44259,2,0,B|158:163|158:163|169:107,1,83.9999974365235,0|0,0:0|0:0,0:0:0:0:
191,92,44673,6,0,P|231:86|255:93,1,55.9999982910157,0|0,0:0|0:0,0:0:0:0:
277,117,44983,2,0,P|317:123|341:116,1,55.9999982910157,2|2,0:0|0:0,0:0:0:0:
365,93,45294,1,0,0:0:0:0:
365,93,45397,1,0,0:0:0:0:
365,93,45501,2,0,B|340:128|357:178|357:178|345:188|345:188|353:199|353:199|345:208|345:208|352:217|352:217|345:225|345:225|353:233|353:233|345:246|345:246|356:257|356:257|354:276,1,195.999994018555,8|0,0:0|0:0,0:0:0:0:
388,284,46328,6,0,P|339:276|290:294,1,83.9999974365235,0|0,3:0|0:0,0:0:0:0:
291,303,46742,1,0,0:0:0:0:
291,303,46845,2,0,L|285:223,1,55.9999982910157,0|0,0:0|0:0,0:0:0:0:
271,222,47156,2,0,P|244:211|202:217,2,55.9999982910157,10|2|2,0:0|0:0|0:0,0:0:0:0:
271,222,47983,6,0,L|268:149,1,55.9999982910157,0|0,0:0|0:0,0:0:0:0:
263,146,48294,1,2,0:0:0:0:
263,146,48397,1,0,0:0:0:0:
263,146,48501,2,0,P|293:156|335:150,1,55.9999982910157,2|0,0:0|0:0,0:0:0:0:
347,125,48811,2,0,B|382:100|432:117|432:117|442:105|442:105|453:113|453:113|462:105|462:105|471:112|471:112|479:105|479:105|487:113|487:113|500:105|500:105|511:116|511:116|530:114,1,195.999994018555,8|0,0:0|0:0,0:0:0:0:
499,156,49639,5,0,3:0:0:0:
499,156,49742,2,0,L|518:248,1,83.9999974365235,0|0,0:0|0:0,0:0:0:0:
509,258,50156,6,0,P|470:242|425:251,1,83.9999974365235,0|8,0:0|0:0,0:0:0:0:
412,287,50570,2,0,P|369:304|324:297,1,90.0000034332277,0|0,0:0|0:0,0:0:0:0:
309,264,50983,2,0,P|262:244|208:255,1,96,0|0,0:0|3:0,0:0:0:0:
188,279,51397,6,0,L|197:170,1,102.000001945496,0|0,0:0|0:0,0:0:0:0:
231,151,51811,2,0,L|222:42,1,107.999996704102,0|8,0:0|0:0,0:0:0:0:
188,11,52225,2,0,P|253:28|312:-1,1,113.999996955872,0|0,0:0|0:0,0:0:0:0:
326,49,52639,2,0,P|391:32|429:47,1,80,0|0,0:0|0:0,0:0:0:0:
444,56,52949,5,0,3:0:0:0:
502,132,53156,1,0,0:0:0:0:
477,208,53363,1,0,0:0:0:0:
416,230,53570,1,0,0:0:0:0:
372,211,53776,5,8,0:0:0:0:
374,295,53983,1,0,3:0:0:0:
383,384,54190,1,0,3:0:0:0:
383,384,54294,1,0,3:0:0:0:
383,384,54397,1,0,3:0:0:0:
299,346,54604,6,0,B|267:326|229:341|229:341|187:358|152:336,1,143.999995605469,4|0,3:0|0:0,0:0:0:0:
146,314,55432,6,0,P|96:263|110:371,1,240,4|0,0:0|0:0,0:0:0:0:
146,314,56259,6,0,L|142:184,1,103.999995239258,0|0,3:0|0:0,0:0:0:0:
136,105,56673,1,0,0:0:0:0:
126,115,56776,2,0,P|183:104|243:127,1,103.999995239258,0|0,0:0|0:0,0:0:0:0:
260,156,57087,1,8,0:0:0:0:
260,156,57501,1,0,0:0:0:0:
252,167,57604,2,0,P|309:178|369:155,1,103.999995239258,0|0,0:0|0:0,0:0:0:0:
392,132,57914,5,0,3:0:0:0:
471,64,58121,2,0,L|485:174,1,103.999995239258,0|0,0:0|0:0,0:0:0:0:
398,327,58535,2,0,L|412:217,1,103.999995239258,0|8,0:0|0:0,0:0:0:0:
315,181,58949,6,0,P|375:177|401:136,1,103.999995239258,0|2,0:0|0:0,0:0:0:0:
399,113,59259,2,0,P|365:75|314:76,1,103.999995239258,0|0,0:0|0:0,0:0:0:0:
299,92,59570,6,0,B|254:118|202:90|202:90|152:62|80:95,1,207.999990478516,0|0,3:0|0:0,0:0:0:0:
84,102,60087,2,0,P|109:160|88:224,1,103.999995239258,0|0,0:0|0:0,0:0:0:0:
62,232,60397,2,0,L|186:241,2,103.999995239258,8|2|2,0:0|0:0|0:0,0:0:0:0:
12,324,61018,1,0,0:0:0:0:
115,328,61225,6,0,B|216:332|216:332|280:299,1,155.999992858887,0|0,0:0|0:0,0:0:0:0:
291,292,61639,1,0,0:0:0:0:
374,230,61845,2,0,P|438:228|470:263,1,103.999995239258,0|8,0:0|0:0,0:0:0:0:
470,375,62259,2,0,L|476:262,1,103.999995239258,0|2,3:0|0:0,0:0:0:0:
500,224,62570,2,0,L|494:111,1,103.999995239258,0|0,3:0|0:0,0:0:0:0:
505,68,62880,6,0,B|353:43|353:43|410:106,1,207.999990478516,0|0,3:0|0:0,0:0:0:0:
413,129,63397,2,0,P|416:192|375:245,1,103.999995239258,0|0,0:0|0:0,0:0:0:0:
377,232,63707,1,8,0:0:0:0:
277,200,63914,1,0,0:0:0:0:
211,281,64121,2,0,P|191:322|205:381,2,103.999995239258,2|2|0,3:2|0:0|0:0,0:0:0:0:
211,281,64949,5,0,0:0:0:0:
200,293,65052,2,0,P|264:291|296:326,1,103.999995239258,0|0,3:0|0:0,0:0:0:0:
322,358,65363,2,0,B|309:278|309:278|330:194,1,155.999992858887,8|0,0:0|0:0,0:0:0:0:
423,165,65880,2,0,L|417:278,1,103.999995239258,2|2,3:2|0:0,0:0:0:0:
446,312,66190,6,0,B|362:301|362:301|335:314|335:314|231:296,1,207.999990478516,0|0,3:0|0:0,0:0:0:0:
196,274,66707,2,0,P|192:210|233:157,1,103.999995239258,2|2,0:0|0:0,0:0:0:0:
232,171,67017,1,8,0:0:0:0:
291,85,67224,1,0,0:0:0:0:
211,18,67432,2,0,L|98:13,2,103.999995239258
211,18,68259,5,0,0:0:0:0:
226,15,68363,2,0,P|228:79|193:111,1,103.999995239258,0|0,3:0|0:0,0:0:0:0:
162,139,68673,2,0,L|145:7,1,103.999995239258,4|0,0:0|0:0,0:0:0:0:
139,28,68983,2,0,B|95:7|53:34|57:83|57:83|71:210,1,207.999990478516,0|0,0:0|0:0,0:0:0:0:
85,181,69501,6,0,B|73:292|73:292|113:259,1,155.999992858887,0|0,3:0|0:0,0:0:0:0:
120,253,69915,1,0,0:0:0:0:
132,243,70018,2,0,P|189:254|249:231,1,103.999995239258,2|0,0:0|0:0,0:0:0:0:
273,209,70328,2,0,L|266:332,1,103.999995239258,8|0,3:2|0:0,0:0:0:0:
360,361,70743,1,0,3:0:0:0:
371,369,70846,2,0,P|382:312|359:252,1,103.999995239258,0|0,0:0|0:0,0:0:0:0:
351,250,71156,6,0,L|491:251,1,103.999995239258,0|0,0:0|0:0,0:0:0:0:
481,236,71466,1,0,0:0:0:0:
493,235,71570,2,0,P|506:181|496:162,2,51.999997619629,0|0|0,0:0|0:0|0:0,0:0:0:0:
413,168,71983,1,8,0:0:0:0:
319,214,72190,2,0,P|252:217|211:184,1,103.999995239258,0|8,0:0|0:0,0:0:0:0:
195,152,72501,2,0,L|192:261,1,103.999995239258,0|0,3:0|0:0,0:0:0:0:
171,304,72812,6,0,B|216:278|268:306|268:306|318:334|390:301,1,207.999990478516,0|0,3:0|0:0,0:0:0:0:
419,288,73329,2,0,P|444:230|423:166,1,103.999995239258,0|0,0:0|0:0,0:0:0:0:
404,151,73639,2,0,L|280:142,2,103.999995239258,10|2|2,0:0|0:0|0:0,0:0:0:0:
508,159,74260,1,0,0:0:0:0:
459,66,74467,6,0,B|410:40|410:40|309:44,1,155.999992858887,0|2,0:0|0:0,0:0:0:0:
289,45,74881,1,0,0:0:0:0:
220,123,75087,2,0,P|284:121|316:156,1,103.999995239258,2|8,0:0|0:0,0:0:0:0:
371,231,75501,2,0,B|374:176|374:176|404:121,1,103.999995239258,0|0,3:0|0:0,0:0:0:0:
418,119,75811,2,0,B|441:75|441:75|444:20,1,103.999995239258,0|0,3:0|0:0,0:0:0:0:
393,32,76122,6,0,B|241:57|241:57|320:95,1,207.999990478516,0|0,3:0|0:0,0:0:0:0:
329,114,76639,2,0,P|334:165|312:211,1,103.999995239258,0|0,0:0|0:0,0:0:0:0:
262,226,76949,1,8,0:0:0:0:
181,159,77156,1,0,0:0:0:0:
110,235,77363,2,0,L|101:359,2,103.999995239258,2|2|0,3:2|0:0|0:0,0:0:0:0:
110,235,78191,5,0,0:0:0:0:
99,247,78294,2,0,P|163:245|195:280,1,103.999995239258,0|0,3:0|0:0,0:0:0:0:
225,309,78605,2,0,B|212:229|212:229|233:145,1,155.999992858887,8|0,0:0|0:0,0:0:0:0:
324,111,79122,2,0,L|437:117,1,103.999995239258,2|2,3:2|0:0,0:0:0:0:
465,153,79432,6,0,B|476:237|476:237|463:264|463:264|481:368,1,207.999990478516,0|0,3:0|0:0,0:0:0:0:
428,370,79949,2,0,P|364:374|311:333,1,103.999995239258,2|2,0:0|0:0,0:0:0:0:
325,334,80259,1,8,0:0:0:0:
348,232,80466,1,0,0:0:0:0:
281,151,80673,2,0,L|157:142,2,103.999995239258,2|2|2,0:0|0:0|0:0,0:0:0:0:
281,151,81501,5,2,0:0:0:0:
296,148,81604,2,0,P|298:212|263:244,1,103.999995239258,0|0,3:0|0:0,0:0:0:0:
221,251,81915,2,0,L|89:268,1,103.999995239258,10|0,0:3|0:0,0:0:0:0:
110,274,82225,2,0,B|89:318|116:360|165:356|165:356|292:342,1,207.999990478516,0|2,0:0|0:3,0:0:0:0:
300,337,82742,6,0,P|364:331|427:364,1,103.999995239258,0|0,3:0|0:0,0:0:0:0:
491,292,83156,1,0,0:0:0:0:
491,292,83570,2,0,B|517:232|475:187|475:187|440:241,1,155.999992858887,8|0,0:0|0:0,0:0:0:0:
449,234,83983,1,2,0:0:0:0:
447,248,84087,2,0,P|390:259|330:236,1,103.999995239258,0|0,3:0|0:0,0:0:0:0:
307,211,84397,6,0,P|250:200|190:223,1,103.999995239258,0|0,3:0|0:0,0:0:0:0:
169,248,84707,1,0,3:0:0:0:
133,150,84914,2,0,L|132:85,2,51.999997619629,0|0|0,3:0|0:0|0:0,0:0:0:0:
118,200,85225,6,0,P|84:237|33:236,2,103.999995239258,8|0|0,0:0|3:0|0:0,0:0:0:0:
170,197,85742,2,0,P|220:196|253:234,1,103.999995239258,0|2,3:0|0:0,0:0:0:0:
279,280,86053,6,0,B|324:306|376:278|376:278|395:193,1,155.999992858887,0|0,3:0|0:0,0:0:0:0:
398,174,86466,2,0,L|411:70,1,103.999995239258,0|0,0:0|0:0,0:0:0:0:
329,135,86880,2,0,P|270:154|205:126,1,103.999995239258,8|0,0:0|0:0,0:0:0:0:
163,64,87294,1,0,3:0:0:0:
163,64,87397,1,0,0:0:0:0:
163,64,87501,6,0,B|169:117|169:117|141:158|141:158|148:223,1,155.999992858887,0|0,0:0|0:0,0:0:0:0:
157,314,88018,1,2,0:0:0:0:
253,353,88225,2,0,L|321:355,2,51.999997619629,0|0|0,0:0|0:0|0:0,0:0:0:0:
238,302,88535,2,0,P|277:264|342:268,2,103.999995239258,8|0|0,0:0|3:0|0:0,0:0:0:0:
189,282,89053,2,0,L|183:169,1,103.999995239258,0|0,3:0|0:0,0:0:0:0:
151,136,89363,6,0,B|114:95|114:95|266:120,1,207.999990478516,0|0,3:0|0:0,0:0:0:0:
312,145,89880,2,0,P|333:98|328:47,1,103.999995239258,2|0,0:0|0:0,0:0:0:0:
312,28,90190,1,8,0:0:0:0:
412,54,90397,1,0,0:0:0:0:
457,147,90604,2,0,L|448:271,2,103.999995239258,0|0|0,3:0|0:0|0:0,0:0:0:0:
457,147,91432,5,0,0:0:0:0:
468,159,91535,2,0,P|404:157|372:192,1,103.999995239258,0|0,3:0|0:0,0:0:0:0:
358,231,91846,2,0,B|345:151|345:151|366:67,1,155.999992858887,8|0,0:0|0:0,0:0:0:0:
275,22,92363,2,0,L|246:133,1,103.999995239258,0|0,3:0|0:0,0:0:0:0:
257,174,92673,6,0,B|173:163|173:163|146:176|146:176|54:160,1,207.999990478516,0|0,3:0|0:0,0:0:0:0:
13,126,93190,2,0,P|-8:172|-1:223,1,103.999995239258,0|0,0:0|0:0,0:0:0:0:
42,252,93500,1,8,0:0:0:0:
145,241,93707,1,0,0:0:0:0:
203,327,93914,2,0,L|306:334,2,103.999995239258,0|0|0,3:0|0:0|0:0,0:0:0:0:
203,327,94742,5,0,0:0:0:0:
188,330,94845,2,0,P|186:266|221:234,1,103.999995239258,0|0,3:0|0:0,0:0:0:0:
239,224,95156,2,0,L|246:170,4,41.9999987182618,4|0|0|0|0,0:0|0:0|0:0|0:0|0:0,0:0:0:0:
348,222,95984,6,0,B|360:333|360:333|320:300,1,155.999992858887,0|0,3:0|0:0,0:0:0:0:
284,273,96397,2,0,P|254:270|215:280,1,51.999997619629,0|0,0:0|0:0,0:0:0:0:
191,305,96604,2,0,P|161:308|122:298,1,51.999997619629,0|2,0:0|0:0,0:0:0:0:
104,265,96811,1,8,0:0:0:0:
151,172,97018,2,0,L|152:104,2,51.999997619629,0|0|2,0:0|0:0|0:0,0:0:0:0:
187,209,97329,2,0,P|244:198|304:221,1,103.999995239258,0|0,3:0|0:0,0:0:0:0:
316,253,97639,6,0,P|369:273|456:254,1,103.999995239258,0|0,3:0|0:0,0:0:0:0:
465,255,97949,1,2,0:0:0:0:
477,254,98053,2,0,P|490:200|480:181,2,51.999997619629,0|0|0,0:0|3:0|0:0,0:0:0:0:
405,178,98466,1,8,0:0:0:0:
309,218,98673,2,0,B|255:227|255:227|193:199,1,103.999995239258,0|0,3:0|0:0,0:0:0:0:
178,164,98984,2,0,L|175:273,1,103.999995239258,0|0,3:0|0:0,0:0:0:0:
166,293,99295,6,0,B|211:267|263:295|263:295|295:333|347:328,1,155.999992858887,0|0,3:0|0:0,0:0:0:0:
358,329,99707,2,0,P|408:291|422:225,1,103.999995239258,0|0,0:0|0:0,0:0:0:0:
404,151,100122,2,0,L|280:142,2,103.999995239258,8|0|0,0:0|0:0|0:0,0:0:0:0:
372,54,100742,2,0,B|270:48|270:48|215:86,1,155.999992858887,0|0,0:0|0:0,0:0:0:0:
209,181,101259,1,2,0:0:0:0:
268,266,101466,2,0,P|296:244|308:220,2,51.999997619629,0|0|0,3:0|0:0|0:0,0:0:0:0:
234,305,101776,2,0,B|276:328|276:328|331:331,2,103.999995239258,8|2|2,0:0|3:2|0:0,0:0:0:0:
199,264,102294,2,0,B|155:241|155:241|100:238,1,103.999995239258,0|0,3:0|0:0,0:0:0:0:
68,196,102605,6,0,B|24:163|24:163|178:168,1,207.999990478516,0|2,3:0|0:0,0:0:0:0:
225,145,103122,2,0,P|247:98|242:47,1,103.999995239258,2|0,0:0|0:0,0:0:0:0:
228,35,103432,1,8,0:0:0:0:
326,68,103639,1,0,0:0:0:0:
425,36,103846,2,0,L|416:160,2,103.999995239258,0|0|0,3:0|0:0|0:0,0:0:0:0:
425,36,104674,5,0,0:0:0:0:
414,48,104777,2,0,P|478:46|510:81,1,103.999995239258,0|0,3:0|0:0,0:0:0:0:
499,123,105088,2,0,B|426:141|426:141|346:128,1,155.999992858887,8|0,0:0|0:0,0:0:0:0:
280,208,105605,2,0,L|391:229,1,103.999995239258,0|2,3:0|0:0,0:0:0:0:
402,276,105915,6,0,B|318:259|318:259|282:267|282:267|188:245,1,207.999990478516,0|0,3:0|0:0,0:0:0:0:
161,210,106432,2,0,P|157:146|198:93,1,103.999995239258,2|2,0:0|0:0,0:0:0:0:
197,107,106742,1,8,0:0:0:0:
287,55,106949,1,0,0:0:0:0:
373,113,107156,2,0,L|497:122,2,103.999995239258,0|0|0,3:0|0:0|0:0,0:0:0:0:
373,113,107984,5,2,0:0:0:0:
358,110,108087,2,0,P|356:174|391:206,1,103.999995239258,0|0,3:0|0:0,0:0:0:0:
408,205,108397,6,0,L|475:204,4,37.3333321940105,4|0|0|0|0,0:0|0:0|0:0|0:0|0:0,0:0:0:0:
279,202,109225,1,0,3:0:0:0:
406,263,122466,6,0,P|372:255|342:260,1,64,2|0,0:0|0:0,0:0:0:0:
285,302,123087,1,0,0:0:0:0:
285,302,123294,2,0,L|292:339,2,32,0|0|0,0:0|0:0|0:0,0:0:0:0:
211,277,123914,5,2,0:0:0:0:
211,277,124121,2,0,L|218:314,2,32,0|0|0,0:0|0:0|0:0,0:0:0:0:
137,252,124742,1,2,0:0:0:0:
137,252,124949,2,0,L|144:289,1,32,0|0,0:0|0:0,0:0:0:0:
63,227,125363,2,0,L|70:264,1,32,2|0,0:0|0:0,0:0:0:0:
123,181,125776,6,0,P|100:161|68:152,1,64,2|0,0:0|0:0,0:0:0:0:
10,103,126397,1,0,0:0:0:0:
10,103,126604,2,0,L|5:59,2,32,0|0|0,0:0|0:0|0:0,0:0:0:0:
86,78,127225,5,2,0:0:0:0:
86,78,127432,2,0,L|81:34,2,32,0|0|0,0:0|0:0|0:0,0:0:0:0:
162,53,128052,1,2,0:0:0:0:
162,53,128259,2,0,L|157:9,1,32,0|0,0:0|0:0,0:0:0:0:
239,31,128673,2,0,L|234:-13,1,32,2|0,0:0|0:0,0:0:0:0:
243,113,129087,6,0,P|273:104|298:85,1,64,2|0,0:0|0:0,0:0:0:0:
341,21,129707,1,0,0:0:0:0:
341,21,129914,2,0,L|342:55,2,32,0|0|0,0:0|0:0|0:0,0:0:0:0:
420,40,130535,5,2,0:0:0:0:
420,40,130742,2,0,L|421:74,2,32,0|0|0,0:0|0:0|0:0,0:0:0:0:
499,59,131363,1,0,0:0:0:0:
499,59,131570,2,0,L|500:93,1,32,2|0,0:0|0:0,0:0:0:0:
446,147,131983,2,0,L|447:181,1,32,2|0,0:0|0:0,0:0:0:0:
501,227,132397,6,0,B|489:242|489:242|491:291,1,64,2|0,0:0|0:0,0:0:0:0:
416,314,133018,1,0,0:0:0:0:
416,314,133225,2,0,B|414:282,2,32,0|0|0,0:0|0:0|0:0,0:0:0:0:
341,341,133845,1,2,0:0:0:0:
293,281,134052,6,0,L|289:223,1,55.9999982910157,0|0,0:0|0:0,0:0:0:0:
328,152,134466,2,0,L|324:94,1,55.9999982910157,0|0,0:0|0:0,0:0:0:0:
377,39,134880,2,0,L|375:18,14,13.9999995727539,0|0|0|0|0|0|0|0|0|0|0|0|0|0|0,0:0|0:0|0:0|0:0|0:0|0:0|0:0|0:0|0:0|0:0|0:0|0:0|0:0|0:0|0:0,0:0:0:0:
408,79,135707,6,0,L|412:147,1,51.999997619629,0|0,3:2|0:0,0:0:0:0:
427,146,135914,2,0,L|431:214,1,51.999997619629
439,217,136121,2,0,P|405:210|372:217,3,51.999997619629
335,265,136535,2,0,P|281:248|265:345,1,155.999992858887,10|0,0:0|0:0,0:0:0:0:
258,338,136949,1,0,1:0:0:0:
271,349,137052,2,0,L|105:337,1,155.999992858887,0|0,3:0|3:0,0:0:0:0:
16,245,137570,6,0,P|93:226|144:249,1,103.999995239258,0|0,3:0|0:0,0:0:0:0:
132,249,137880,2,0,P|209:230|260:253,1,103.999995239258,0|0,3:0|0:0,0:0:0:0:
264,276,138190,2,0,L|281:141,1,103.999995239258,2|2,0:0|0:0,0:0:0:0:
311,132,138501,2,0,L|328:267,1,103.999995239258,0|0,0:0|0:0,0:0:0:0:
357,275,138811,2,0,P|400:270|430:278,1,51.999997619629,0|0,0:0|0:0,0:0:0:0:
447,306,139018,5,0,3:0:0:0:
447,306,139121,1,0,0:0:0:0:
447,306,139225,2,0,P|432:240|515:212,1,155.999992858887,0|0,0:0|0:0,0:0:0:0:
511,220,139639,2,0,L|504:157,1,51.999997619629,0|0,0:0|0:0,0:0:0:0:
499,116,139845,1,10,0:0:0:0:
413,56,140052,2,0,L|305:65,1,103.999995239258,0|0,3:0|0:0,0:0:0:0:
267,96,140363,2,0,L|159:87,1,103.999995239258,0|0,3:0|0:0,0:0:0:0:
112,73,140673,6,0,P|139:129|116:192,1,103.999995239258,0|2,3:0|0:0,0:0:0:0:
88,197,140983,2,0,L|96:310,1,103.999995239258,0|0,0:0|0:0,0:0:0:0:
100,353,141294,1,0,0:0:0:0:
188,297,141501,2,0,P|249:283|273:293,2,51.999997619629,0|0|0,0:0|0:0|0:0,0:0:0:0:
188,322,141811,2,0,P|218:328|239:342,1,51.999997619629,0|0,0:0|0:0,0:0:0:0:
248,359,142018,2,0,P|301:331|356:334,1,103.999995239258,0|0,0:0|0:0,0:0:0:0:
367,351,142328,6,0,L|366:274,1,51.999997619629,4|0,3:2|0:0,0:0:0:0:
350,273,142535,2,0,L|349:196,1,51.999997619629
347,171,142742,1,0,0:0:0:0:
361,153,142845,2,0,P|287:177|225:146,1,103.999995239258,0|0,0:0|0:0,0:0:0:0:
221,140,143156,2,0,B|188:119|188:119|223:232,1,155.999992858887,10|0,0:0|0:0,0:0:0:0:
230,247,143570,1,0,0:0:0:0:
239,263,143673,2,0,L|128:265,1,103.999995239258,0|0,3:0|0:0,0:0:0:0:
82,263,143983,5,0,0:0:0:0:
16,182,144190,2,0,P|7:110|52:37,2,155.999992858887,0|0|8,3:0|3:0|0:0,0:0:0:0:
16,182,145225,2,0,B|76:162|76:162|180:189,1,155.999992858887,0|0,0:0|0:0,0:0:0:0:
185,194,145639,6,0,P|203:142|306:169,1,155.999992858887,0|0,3:0|0:0,0:0:0:0:
289,162,146052,2,0,P|360:148|395:212,1,155.999992858887,0|0,0:0|0:0,0:0:0:0:
380,233,146466,1,8,0:0:0:0:
290,286,146673,2,0,P|282:312|285:350,2,51.999997619629,0|0|0,3:0|0:0|0:0,0:0:0:0:
305,273,146983,2,0,L|189:271,1,103.999995239258,0|0,3:0|0:0,0:0:0:0:
171,291,147294,6,0,P|189:222|170:177,1,103.999995239258,0|2,3:0|0:0,0:0:0:0:
128,182,147604,2,0,P|110:113|129:68,1,103.999995239258,0|2,0:0|0:0,0:0:0:0:
143,56,147914,2,0,P|171:53|216:66,1,51.999997619629,0|0,0:0|0:0,0:0:0:0:
235,89,148121,6,0,B|251:81|251:81|254:93|254:93|264:81|264:81|270:93|270:93|281:81|281:81|290:92|290:92|300:83|300:83|315:95|315:95|321:86|321:86|326:95|326:95|331:86|331:86|337:97|337:97|341:87|341:87|346:95|346:95|379:94|379:94|381:86|381:86|383:95|383:95|423:96|423:96|426:89|426:89|429:96|429:96|463:96|463:96|466:104|466:104|471:96|471:96|510:96,1,363.999983337403,0|0,0:0|0:0,0:0:0:0:
510,107,148949,5,0,0:0:0:0:
319,267,155570,6,0,L|242:275,1,64,2|0,0:0|0:0,0:0:0:0:
306,190,155983,2,0,L|337:119,1,64,2|0,0:3|0:0,0:0:0:0:
379,217,156397,2,0,L|424:279,1,64,2|0,0:3|0:0,0:0:0:0:
393,342,156811,1,0,0:0:0:0:
393,342,157018,1,0,0:0:0:0:
338,376,157225,6,0,P|296:381|261:375,1,64,2|0,0:0|0:0,0:0:0:0:
231,330,157639,2,0,P|189:325|154:331,1,64,0|0,0:0|0:0,0:0:0:0:
112,360,158052,2,0,L|28:363,1,64,0|0,0:0|0:0,0:0:0:0:
8,311,158466,1,2,0:0:0:0:
8,311,158673,1,0,0:0:0:0:
51,264,158880,6,0,P|60:228|54:191,1,64,2|0,0:0|0:0,0:0:0:0:
27,144,159294,2,0,P|58:146|89:137,1,64,0|0,0:0|0:0,0:0:0:0:
144,105,159707,2,0,P|141:136|150:167,1,64,0|0,0:0|0:0,0:0:0:0:
202,205,160121,1,2,0:0:0:0:
202,205,160328,1,0,0:0:0:0:
259,176,160535,6,0,L|335:172,1,64,2|0,0:0|0:0,0:0:0:0:
377,138,160949,2,0,L|453:134,1,64,0|0,0:0|0:0,0:0:0:0:
494,170,161363,2,0,P|505:195|495:243,1,64,0|0,0:0|0:0,0:0:0:0:
459,279,161776,1,2,0:0:0:0:
459,279,161983,1,0,0:0:0:0:
413,233,162190,6,0,P|374:225|340:234,1,64,2|0,0:0|0:0,0:0:0:0:
299,268,162604,2,0,P|291:307|300:341,1,64,0|0,0:0|0:0,0:0:0:0:
336,380,163018,2,0,B|373:352|373:352|467:351,1,128,2|0,0:0|0:0,0:0:0:0:
512,352,163639,1,0,0:0:0:0:
481,296,163845,5,2,0:0:0:0:
438,248,164052,2,0,P|428:202|441:168,2,64,0|0|0,0:0|0:0|0:0,0:0:0:0:
481,296,164673,1,2,0:0:0:0:
433,339,164880,2,0,P|387:349|353:336,2,64,0|0|0,0:0|0:0|0:0,0:0:0:0:
481,296,165501,6,0,L|484:219,1,64,2|0,0:0|0:0,0:0:0:0:
439,185,165914,2,0,L|436:108,1,64,0|0,0:0|0:0,0:0:0:0:
464,63,166328,2,0,P|406:18|342:31,1,128,2|0,0:0|0:0,0:0:0:0:
309,69,166949,1,2,0:0:0:0:
251,41,167156,1,0,0:0:0:0:
212,91,167363,2,0,L|208:167,2,64,0|0|2,0:0|0:0|0:0,0:0:0:0:
134,177,167983,2,0,L|58:173,1,64,0|2,0:0|0:0,0:0:0:0:
105,252,168397,2,0,L|29:248,1,64,0|2,0:0|0:0,0:0:0:0:
177,293,168811,6,0,P|206:296|234:293,5,47.9999985351563,2|0|0|0|2|2,0:0|0:0|0:0|0:0|0:0|0:0,0:0:0:0:
268,272,170052,1,0,0:0:0:0:
268,272,170259,1,0,0:0:0:0:
296,232,170466,6,0,P|297:208|294:184,5,47.9999985351563,0|0|0|0|2|2,0:0|0:0|0:0|0:0|0:0|0:0,0:0:0:0:
249,171,171707,1,0,0:0:0:0:
249,171,171914,1,0,0:0:0:0:
214,138,172121,6,0,L|211:72,5,47.9999985351563,0|0|0|0|2|2,0:0|0:0|0:0|0:0|0:0|0:0,0:0:0:0:
208,42,173363,1,0,0:0:0:0:
208,42,173570,1,0,0:0:0:0:
174,8,173776,6,0,P|131:3|113:9,5,47.9999985351563,0|0|0|0|2|2,0:0|0:0|0:0|0:0|0:0|0:0,0:0:0:0:
110,48,175018,1,0,0:0:0:0:
110,48,175225,1,0,0:0:0:0:
68,69,175432,6,0,P|60:93|63:129,1,47.9999985351563,0|0,0:0|0:0,0:0:0:0:
93,151,175845,2,0,P|101:175|98:211,1,47.9999985351563,0|0,0:0|0:0,0:0:0:0:
93,244,176259,2,0,B|127:264|127:264|200:255,1,95.9999970703126,2|0,0:0|0:0,0:0:0:0:
231,246,176880,1,0,0:0:0:0:
275,224,177087,5,0,0:0:0:0:
292,179,177294,2,0,L|288:117,2,47.9999985351563,0|2|2,0:0|0:0|0:0,0:0:0:0:
275,224,177914,1,0,0:0:0:0:
314,252,178121,2,0,L|310:314,2,47.9999985351563,0|2|2,0:0|0:0|0:0,0:0:0:0:
366,224,178742,6,0,P|378:187|377:165,1,47.9999985351563,0|0,0:0|0:0,0:0:0:0:
355,125,179156,2,0,P|343:88|344:66,1,47.9999985351563,0|0,0:0|0:0,0:0:0:0:
373,29,179570,2,0,P|329:46|279:41,1,95.9999970703126,2|0,0:0|0:0,0:0:0:0:
239,4,180190,1,0,0:0:0:0:
198,44,180397,5,0,0:0:0:0:
153,7,180604,2,0,L|94:10,2,47.9999985351563,0|0|0,0:0|0:0|0:0,0:0:0:0:
198,44,181225,2,0,P|204:89|198:104,1,47.9999985351563,2|0,0:0|0:0,0:0:0:0:
156,123,181639,2,0,P|150:168|156:183,1,47.9999985351563,2|0,0:0|0:0,0:0:0:0:
186,215,182052,5,2,0:0:0:0:
186,215,182259,2,0,L|240:216,2,40,0|0|2,0:0|0:0|0:0,0:0:0:0:
199,310,183087,2,0,L|253:311,2,47.9999985351563,0|0|2,0:0|0:0|0:0,0:0:0:0:
238,205,183914,6,0,L|302:206,2,55.9999982910157,0|0|2,0:0|0:0|0:0,0:0:0:0:
263,323,184742,2,0,L|317:324,2,47.9999985351563,0|0|2,0:0|0:0|0:0,0:0:0:0:
181,358,185363,5,0,0:0:0:0:
171,364,185570,2,0,L|175:311,2,40,0|0|2,0:0|0:0|0:0,0:0:0:0:
261,332,186397,2,0,L|257:279,2,47.9999985351563,0|0|2,0:0|0:0|0:0,0:0:0:0:
151,307,187225,2,0,L|155:243,2,55.9999982910157,0|0|2,0:0|0:0|0:0,0:0:0:0:
240,239,188052,1,0,0:0:0:0:
240,239,188156,1,0,3:0:0:0:
240,239,188259,2,0,L|242:182,1,40,8|0,0:0|3:0,0:0:0:0:
221,163,188466,2,0,B|261:176|261:176|329:169,1,80,2|0,3:0|0:0,0:0:0:0:
379,155,188880,6,0,L|376:216,2,47.9999985351563,0|0|2,0:0|0:0|0:0,0:0:0:0:
473,171,189707,2,0,L|470:232,2,47.9999985351563,0|0|2,0:0|0:0|0:0,0:0:0:0:
352,216,190535,2,0,L|348:289,2,64,0|0|2,0:0|0:0|0:0,0:0:0:0:
483,240,191363,2,0,L|479:313,2,55.9999982910157,0|0|2,0:0|0:0|0:0,0:0:0:0:
448,161,191983,5,2,0:0:0:0:
382,218,192190,2,0,P|349:221|322:215,2,55.9999982910157,0|0|0,0:0|0:0|0:0,0:0:0:0:
448,161,192811,2,0,L|444:90,1,55.9999982910157,2|0,0:0|0:0,0:0:0:0:
359,66,193225,2,0,L|355:137,1,55.9999982910157,0|2,0:0|0:0,0:0:0:0:
326,216,193639,5,0,0:0:0:0:
249,276,193845,2,0,P|232:241|232:215,2,55.9999982910157,0|0|2,0:0|0:0|0:0,0:0:0:0:
323,319,194466,2,0,L|393:318,1,55.9999982910157,0|2,0:0|0:0,0:0:0:0:
512,279,194880,2,0,L|442:278,1,55.9999982910157,0|2,0:0|0:0,0:0:0:0:
400,201,195294,5,0,0:0:0:0:
400,201,195501,2,0,L|399:147,2,40,0|0|2,0:0|0:0|0:0,0:0:0:0:
305,188,196329,2,0,L|304:134,2,47.9999985351563,0|0|2,0:0|0:0|0:0,0:0:0:0:
410,149,197156,6,0,L|408:84,2,55.9999982910157,0|0|2,0:0|0:0|0:0,0:0:0:0:
292,124,197984,2,0,L|291:70,2,47.9999985351563,0|0|2,0:0|0:0|0:0,0:0:0:0:
181,26,198605,5,0,0:0:0:0:
171,20,198812,2,0,L|175:73,2,40,0|0|2,0:0|0:0|0:0,0:0:0:0:
261,52,199639,2,0,L|257:105,2,47.9999985351563,0|0|2,0:0|0:0|0:0,0:0:0:0:
151,77,200467,2,0,L|155:140,2,55.9999982910157,0|0|2,0:0|0:0|0:0,0:0:0:0:
263,190,201294,2,0,P|226:197|208:210,1,40,8|0,3:2|0:0,0:0:0:0:
197,228,201501,2,0,B|180:250|194:293|231:296|231:296|305:297,1,160,8|2,0:0|0:0,0:0:0:0:
379,229,202122,6,0,L|376:168,2,47.9999985351563,0|0|2,0:0|0:0|0:0,0:0:0:0:
473,213,202949,2,0,L|470:152,2,55.9999982910157,0|0|2,0:0|0:0|0:0,0:0:0:0:
352,168,203777,2,0,L|348:94,2,64,0|0|2,0:0|0:0|0:0,0:0:0:0:
483,144,204605,2,0,L|479:70,2,55.9999982910157,0|0|0,0:0|0:0|0:0,0:0:0:0:
448,223,205225,5,0,0:0:0:0:
382,166,205432,2,0,P|349:163|322:169,2,55.9999982910157
448,223,206053,2,0,L|444:294,1,55.9999982910157,0|0,3:0|0:0,0:0:0:0:
359,318,206467,2,0,L|355:247,1,55.9999982910157,0|0,0:0|0:0,0:0:0:0:
326,168,206881,5,0,0:0:0:0:
249,108,207087,2,0,L|182:106,1,40,8|0,3:2|0:0,0:0:0:0:
174,126,207294,2,0,B|141:103|141:103|157:217,1,120,8|0,0:0|0:0,0:0:0:0:
159,204,207708,2,0,L|229:205,1,47.9999985351563,0|0,0:0|0:0,0:0:0:0:
96,249,208122,2,0,L|26:250,1,47.9999985351563,0|0,0:0|0:0,0:0:0:0:
93,166,208535,6,0,B|107:142|132:127|160:127|160:127|188:127|214:143|227:167|227:167|243:190|269:205|297:205|297:205|325:205|352:192|368:169|368:169|334:169|307:196|306:229|306:229|305:263|332:291|366:292|366:292|399:293|432:261|431:215|431:215|416:244|391:266|368:273,1,719.999978027344,0|0,3:0|0:0,0:0:0:0:
368,272,215156,6,0,B|353:294|327:305|301:300|301:300|275:296|255:275|251:248|251:248|240:146|240:145|240:145|237:111|206:84|176:88|176:88|137:89|110:118|102:159|102:159|145:149|172:122|176:87|176:87|180:53|160:20|128:9,1,671.999979492188,0|0,3:0|3:0,0:0:0:0:
256,192,220173,12,0,224259,0:0:0:0:
