osu file format v14

[General]
AudioFilename: audio.mp3
AudioLeadIn: 0
PreviewTime: 165519
Countdown: 1
SampleSet: Normal
StackLeniency: 0.7
Mode: 1
LetterboxInBreaks: 0
WidescreenStoryboard: 1

[Editor]
Bookmarks: 15412,29126,42840,56555,70269,83983,97698,111412,125126,138840,152555,166269,179983,193698,207412,221126
DistanceSpacing: 0.9
BeatDivisor: 4
GridSize: 32
TimelineZoom: 0.4999988

[Metadata]
Title:Cauldron
TitleUnicode:Cauldron
Artist:Dictate
ArtistUnicode:Dictate
Creator:Nepuri
Version:Futsuu
Source:osu!
Tags:Neurofunk Featured Artist Drum Circle Mappers' Guild
BeatmapID:1967655
BeatmapSetID:942334

[Difficulty]
HPDrainRate:6
CircleSize:5
OverallDifficulty:4
ApproachRate:5
SliderMultiplier:1.4
SliderTickRate:1

[Events]
//Background and Video events
0,0,"Futsuud.jpg",0,50
//Break Periods
//Storyboard Layer 0 (Background)
//Storyboard Layer 1 (Fail)
//Storyboard Layer 2 (Pass)
//Storyboard Layer 3 (Foreground)
//Storyboard Sound Samples

[TimingPoints]
1698,428.571428571429,4,1,0,100,1,0
1698,-100,4,1,0,100,0,0
1912,-100,4,1,0,28,0,0
3412,-100,4,1,0,28,0,0
8448,-100,4,1,0,70,0,0
8930,-100,4,1,0,28,0,0
14555,-100,4,1,0,35,0,0
15412,-100,4,1,0,50,0,0
42840,-100,4,1,0,50,0,0
56555,-100,4,1,0,70,0,1
111412,-100,4,1,0,70,0,0
112028,-100,4,1,0,30,0,0
113126,-100,4,1,0,30,0,0
114840,-100,4,1,0,30,0,0
124055,-100,4,1,0,35,0,0
124269,-100,4,1,0,40,0,0
124483,-100,4,1,0,45,0,0
124698,-100,4,1,0,50,0,0
124912,-100,4,1,0,50,0,0
125019,-100,4,1,0,50,0,0
125126,-100,4,1,0,50,0,0
138733,-100,4,1,0,50,0,0
138840,-100,4,1,0,50,0,0
152555,-100,4,1,0,50,0,0
166269,-100,4,1,0,70,0,1
221126,-100,4,1,0,70,0,0
221448,-100,4,1,0,65,0,0
221769,-100,4,1,0,60,0,0
227340,-100,4,1,0,60,0,0
227555,-100,4,1,0,60,0,0
227983,-100,4,1,0,55,0,0
228305,-100,4,1,0,50,0,0
228626,-100,4,1,0,50,0,0
234198,-100,4,1,0,50,0,0
234412,-100,4,1,0,40,0,0
238055,-100,4,1,0,35,0,0
238269,-100,4,1,0,30,0,0
240840,-100,4,1,0,25,0,0
241697,-100,4,1,0,25,0,0
247269,-100,4,1,0,30,0,0
247483,-100,4,1,0,35,0,0
247698,-100,4,1,0,40,0,0
247912,-100,4,1,0,45,0,0
248555,-100,4,1,0,60,0,0

[HitObjects]
237,150,1698,5,4,0:0:0:0:
256,192,2126,12,0,7698,0:0:0:0:
214,93,8555,5,0,0:0:0:0:
256,192,8983,12,0,14555,0:0:0:0:
242,127,15412,5,4,0:0:0:0:
261,173,15626,1,8,0:0:0:0:
322,119,16483,1,0,0:0:0:0:
298,185,17340,1,8,0:0:0:0:
298,185,18198,1,0,0:0:0:0:
384,172,19055,1,8,0:0:0:0:
230,141,19912,1,0,0:0:0:0:
406,252,20769,1,8,0:0:0:0:
406,252,21626,1,0,0:0:0:0:
198,118,22055,1,8,0:0:0:0:
198,118,22269,1,4,0:0:0:0:
202,139,22912,1,0,0:0:0:0:
449,60,23555,1,0,0:0:0:0:
333,172,23876,1,8,0:0:0:0:
333,172,24519,1,8,0:0:0:0:
377,61,25269,1,0,0:0:0:0:
346,168,25912,1,8,0:0:0:0:
200,145,26340,1,0,0:0:0:0:
200,145,26983,1,0,0:0:0:0:
247,136,27305,1,8,0:0:0:0:
247,136,28055,1,8,0:0:0:0:
226,140,29126,5,4,0:0:0:0:
261,173,29340,1,8,0:0:0:0:
322,119,30197,1,0,0:0:0:0:
298,185,31054,1,8,0:0:0:0:
298,185,31912,1,0,0:0:0:0:
384,172,32769,1,8,0:0:0:0:
230,141,33626,1,0,0:0:0:0:
406,252,34483,1,8,0:0:0:0:
406,252,35340,1,0,0:0:0:0:
134,117,35769,1,8,0:0:0:0:
198,118,35983,1,4,0:0:0:0:
202,139,36626,1,0,0:0:0:0:
449,60,37269,1,0,0:0:0:0:
333,172,37590,1,8,0:0:0:0:
333,172,38233,1,8,0:0:0:0:
377,61,38983,1,0,0:0:0:0:
346,168,39626,1,8,0:0:0:0:
200,145,40055,1,0,0:0:0:0:
200,145,40697,1,0,0:0:0:0:
247,136,41019,1,8,0:0:0:0:
247,136,41662,1,8,0:0:0:0:
377,140,42840,1,4,0:0:0:0:
377,140,43483,1,0,0:0:0:0:
229,170,43912,1,8,0:0:0:0:
229,170,44555,1,0,0:0:0:0:
237,152,45198,1,0,0:0:0:0:
195,137,45626,1,8,0:0:0:0:
215,164,46269,1,0,0:0:0:0:
377,140,46912,1,0,0:0:0:0:
229,170,47340,1,8,0:0:0:0:
229,170,47983,1,0,0:0:0:0:
237,152,48627,1,0,0:0:0:0:
195,137,49055,1,8,0:0:0:0:
147,211,49698,1,4,0:0:0:0:
377,140,50340,1,0,0:0:0:0:
229,170,50769,1,8,0:0:0:0:
101,54,50983,1,0,0:0:0:0:
229,170,51412,1,0,0:0:0:0:
237,152,52055,1,0,0:0:0:0:
195,137,52483,1,8,0:0:0:0:
171,138,52698,1,0,0:0:0:0:
215,164,53126,1,0,0:0:0:0:
377,140,53768,1,0,0:0:0:0:
229,170,54198,1,8,0:0:0:0:
173,110,54412,1,0,0:0:0:0:
229,170,54840,1,0,0:0:0:0:
237,152,55483,1,0,0:0:0:0:
301,113,55698,1,12,0:0:0:0:
214,63,56555,1,4,0:0:0:0:
329,152,57198,1,0,0:0:0:0:
329,152,57412,1,8,0:0:0:0:
125,155,57733,1,8,0:0:0:0:
418,78,58055,1,8,0:0:0:0:
289,139,58269,1,4,0:0:0:0:
306,188,58912,1,0,0:0:0:0:
303,176,59126,1,8,0:0:0:0:
303,176,59555,1,8,0:0:0:0:
102,200,59769,1,8,0:0:0:0:
349,152,59983,1,4,0:0:0:0:
256,147,60626,1,0,0:0:0:0:
454,216,60840,1,8,0:0:0:0:
454,216,61162,1,8,0:0:0:0:
454,216,61483,1,8,0:0:0:0:
454,216,61698,1,4,0:0:0:0:
252,168,62340,1,0,0:0:0:0:
235,147,62555,1,8,0:0:0:0:
232,141,62983,1,12,0:0:0:0:
296,108,63412,1,4,0:0:0:0:
291,103,64055,1,0,0:0:0:0:
193,153,64269,1,8,0:0:0:0:
193,153,64590,1,8,0:0:0:0:
193,153,64912,1,8,0:0:0:0:
218,147,65126,1,4,0:0:0:0:
261,155,65769,1,0,0:0:0:0:
261,155,65983,1,8,0:0:0:0:
427,120,66412,1,8,0:0:0:0:
424,112,66626,1,8,0:0:0:0:
424,112,66840,1,4,0:0:0:0:
329,137,67483,1,0,0:0:0:0:
329,137,67698,1,8,0:0:0:0:
282,177,68019,1,8,0:0:0:0:
282,177,68340,1,8,0:0:0:0:
282,177,68555,1,4,0:0:0:0:
210,120,69412,1,8,0:0:0:0:
396,81,69840,1,12,0:0:0:0:
197,152,70269,1,4,0:0:0:0:
329,152,70912,1,0,0:0:0:0:
329,152,71126,1,8,0:0:0:0:
125,155,71447,1,8,0:0:0:0:
418,78,71769,1,8,0:0:0:0:
289,139,71983,1,4,0:0:0:0:
306,188,72626,1,0,0:0:0:0:
303,176,72840,1,8,0:0:0:0:
303,176,73269,1,8,0:0:0:0:
102,200,73483,1,8,0:0:0:0:
349,152,73697,1,4,0:0:0:0:
256,147,74340,1,0,0:0:0:0:
454,216,74554,1,8,0:0:0:0:
454,216,74876,1,8,0:0:0:0:
454,216,75197,1,8,0:0:0:0:
454,216,75412,1,4,0:0:0:0:
252,168,76054,1,0,0:0:0:0:
235,147,76269,1,8,0:0:0:0:
232,141,76697,1,12,0:0:0:0:
296,108,77126,1,4,0:0:0:0:
291,103,77769,1,0,0:0:0:0:
193,153,77983,1,8,0:0:0:0:
193,153,78304,1,8,0:0:0:0:
193,153,78626,1,8,0:0:0:0:
218,147,78840,1,4,0:0:0:0:
261,155,79483,1,0,0:0:0:0:
261,155,79697,1,8,0:0:0:0:
427,120,80126,1,8,0:0:0:0:
424,112,80340,1,8,0:0:0:0:
424,112,80554,1,4,0:0:0:0:
329,137,81197,1,0,0:0:0:0:
329,137,81412,1,8,0:0:0:0:
282,177,81733,1,8,0:0:0:0:
282,177,82054,1,8,0:0:0:0:
282,177,82269,1,4,0:0:0:0:
210,120,83126,1,8,0:0:0:0:
396,81,83554,1,12,0:0:0:0:
211,152,83983,5,4,0:0:0:0:
365,160,84626,1,8,0:0:0:0:
369,233,84840,1,0,0:0:0:0:
222,177,85055,1,0,0:0:0:0:
271,157,85269,1,8,0:0:0:0:
271,157,85698,1,4,0:0:0:0:
250,116,86340,1,8,0:0:0:0:
199,162,86555,1,8,0:0:0:0:
199,162,86769,1,0,0:0:0:0:
216,152,86983,1,8,0:0:0:0:
216,152,87412,1,4,0:0:0:0:
437,93,88055,1,8,0:0:0:0:
241,144,88269,1,0,0:0:0:0:
241,144,88483,1,0,0:0:0:0:
276,187,88698,1,8,0:0:0:0:
225,134,89126,1,4,0:0:0:0:
169,113,89769,1,8,0:0:0:0:
191,143,90412,1,8,0:0:0:0:
153,109,90626,1,8,0:0:0:0:
153,109,90840,1,4,0:0:0:0:
246,191,91483,1,8,0:0:0:0:
290,129,91698,1,0,0:0:0:0:
290,129,91912,1,0,0:0:0:0:
392,82,92126,1,8,0:0:0:0:
392,82,92555,1,4,0:0:0:0:
392,82,93198,1,0,0:0:0:0:
239,144,93412,1,8,0:0:0:0:
141,40,93626,1,0,0:0:0:0:
137,130,93840,1,8,0:0:0:0:
284,68,94269,1,4,0:0:0:0:
245,152,94912,1,8,0:0:0:0:
441,81,95126,1,0,0:0:0:0:
441,81,95340,1,0,0:0:0:0:
320,130,95555,1,8,0:0:0:0:
259,79,95983,1,4,0:0:0:0:
205,149,96626,1,8,0:0:0:0:
414,63,96840,1,8,0:0:0:0:
43,98,97055,1,0,0:0:0:0:
444,45,97269,1,8,0:0:0:0:
444,45,97698,1,4,0:0:0:0:
369,233,98554,1,0,0:0:0:0:
222,177,98769,1,0,0:0:0:0:
364,98,99198,1,8,0:0:0:0:
271,157,99412,1,4,0:0:0:0:
250,116,100054,1,8,0:0:0:0:
199,162,100269,1,8,0:0:0:0:
199,162,100483,1,0,0:0:0:0:
356,204,100697,1,8,0:0:0:0:
216,152,101126,1,4,0:0:0:0:
437,93,101769,1,8,0:0:0:0:
241,144,101983,1,0,0:0:0:0:
241,144,102197,1,0,0:0:0:0:
276,187,102412,1,8,0:0:0:0:
225,134,102840,1,4,0:0:0:0:
169,113,103483,1,8,0:0:0:0:
191,143,104126,1,8,0:0:0:0:
153,109,104340,1,8,0:0:0:0:
153,109,104554,1,4,0:0:0:0:
246,191,105197,1,8,0:0:0:0:
290,129,105412,1,0,0:0:0:0:
290,129,105626,1,0,0:0:0:0:
392,82,105840,1,8,0:0:0:0:
392,82,106269,1,4,0:0:0:0:
392,82,106912,1,8,0:0:0:0:
239,144,107126,1,8,0:0:0:0:
303,100,107340,1,0,0:0:0:0:
137,130,107554,1,8,0:0:0:0:
284,68,107983,1,4,0:0:0:0:
245,152,108626,1,0,0:0:0:0:
441,81,108840,1,8,0:0:0:0:
441,81,109054,1,0,0:0:0:0:
320,130,109269,1,8,0:0:0:0:
259,79,109697,1,4,0:0:0:0:
205,149,110340,1,8,0:0:0:0:
205,149,110554,1,0,0:0:0:0:
414,63,110769,1,0,0:0:0:0:
444,45,110983,1,8,0:0:0:0:
444,45,111197,1,8,0:0:0:0:
288,100,111412,1,4,0:0:0:0:
256,192,112269,12,0,114840,0:0:0:0:
205,197,118269,5,0,0:0:0:0:
144,59,119769,1,8,0:0:0:0:
144,53,120412,1,0,0:0:0:0:
144,59,121483,1,8,0:0:0:0:
258,96,121912,1,0,0:0:0:0:
246,170,122555,1,0,0:0:0:0:
219,144,123198,1,8,0:0:0:0:
229,166,123840,1,0,0:0:0:0:
267,167,124269,1,0,0:0:0:0:
267,167,124483,1,8,0:0:0:0:
228,138,124698,1,8,0:0:0:0:
205,146,125126,5,4,0:0:0:0:
359,57,125769,1,0,0:0:0:0:
359,57,126198,1,0,0:0:0:0:
359,57,126626,1,8,0:0:0:0:
276,146,127269,1,0,0:0:0:0:
276,146,127698,1,0,0:0:0:0:
276,146,128126,1,0,0:0:0:0:
276,146,128340,1,8,0:0:0:0:
216,86,128769,1,8,0:0:0:0:
216,86,129198,1,0,0:0:0:0:
216,86,129626,1,0,0:0:0:0:
216,86,130055,1,8,0:0:0:0:
216,86,130698,1,0,0:0:0:0:
216,86,131126,1,0,0:0:0:0:
216,86,131555,1,0,0:0:0:0:
216,86,131769,1,8,0:0:0:0:
238,182,131983,1,4,0:0:0:0:
264,5,132626,1,0,0:0:0:0:
264,5,133055,1,8,0:0:0:0:
265,120,133483,1,8,0:0:0:0:
265,120,134126,1,0,0:0:0:0:
265,120,134555,1,0,0:0:0:0:
258,159,134983,1,0,0:0:0:0:
258,159,135198,1,8,0:0:0:0:
321,94,135626,1,8,0:0:0:0:
321,94,136055,1,8,0:0:0:0:
321,94,136483,1,0,0:0:0:0:
321,94,136912,1,8,0:0:0:0:
321,94,137555,1,0,0:0:0:0:
321,94,137983,1,0,0:0:0:0:
321,94,138412,1,0,0:0:0:0:
321,94,138840,1,4,0:0:0:0:
283,198,139055,1,8,0:0:0:0:
245,223,139805,1,0,0:0:0:0:
245,223,140769,1,8,0:0:0:0:
245,223,141412,1,0,0:0:0:0:
103,162,142483,1,8,0:0:0:0:
238,134,143233,1,0,0:0:0:0:
336,190,144198,1,8,0:0:0:0:
270,184,144840,1,0,0:0:0:0:
270,184,145698,1,4,0:0:0:0:
137,18,145912,1,8,0:0:0:0:
245,223,146662,1,0,0:0:0:0:
245,223,147626,1,8,0:0:0:0:
245,223,148269,1,0,0:0:0:0:
103,162,149340,1,8,0:0:0:0:
238,134,150090,1,0,0:0:0:0:
336,190,151055,1,8,0:0:0:0:
270,184,151697,1,0,0:0:0:0:
191,81,152555,5,4,0:0:0:0:
133,111,152876,1,0,0:0:0:0:
245,223,153626,1,8,0:0:0:0:
245,223,153947,1,8,0:0:0:0:
269,125,154269,1,0,0:0:0:0:
269,125,154590,1,0,0:0:0:0:
264,120,155340,1,8,0:0:0:0:
250,84,155983,1,0,0:0:0:0:
250,84,156305,1,0,0:0:0:0:
238,134,157055,1,8,0:0:0:0:
281,216,157376,1,8,0:0:0:0:
219,131,157698,1,0,0:0:0:0:
219,131,158019,1,0,0:0:0:0:
270,184,158769,1,8,0:0:0:0:
441,247,159198,1,8,0:0:0:0:
270,184,159412,1,0,0:0:0:0:
186,21,159733,1,0,0:0:0:0:
287,138,160055,1,8,0:0:0:0:
248,96,160698,1,8,0:0:0:0:
348,61,161126,1,0,0:0:0:0:
348,61,161448,1,0,0:0:0:0:
245,223,162412,1,8,0:0:0:0:
357,151,162840,1,0,0:0:0:0:
357,151,163162,1,0,0:0:0:0:
180,147,163698,1,8,0:0:0:0:
241,145,164126,1,8,0:0:0:0:
196,137,164555,1,0,0:0:0:0:
292,129,165198,1,0,0:0:0:0:
270,184,165411,1,12,0:0:0:0:
109,29,166055,1,8,0:0:0:0:
444,45,166269,1,4,0:0:0:0:
365,160,166912,1,8,0:0:0:0:
369,233,167126,1,0,0:0:0:0:
222,177,167341,1,0,0:0:0:0:
364,98,167770,1,8,0:0:0:0:
271,157,167984,1,4,0:0:0:0:
250,116,168626,1,8,0:0:0:0:
199,162,168841,1,8,0:0:0:0:
199,162,169055,1,0,0:0:0:0:
356,204,169269,1,8,0:0:0:0:
216,152,169698,1,4,0:0:0:0:
437,93,170341,1,8,0:0:0:0:
241,144,170555,1,0,0:0:0:0:
241,144,170769,1,0,0:0:0:0:
276,187,170984,1,8,0:0:0:0:
225,134,171412,1,4,0:0:0:0:
169,113,172055,1,8,0:0:0:0:
191,143,172698,1,8,0:0:0:0:
153,109,172912,1,8,0:0:0:0:
153,109,173126,1,4,0:0:0:0:
246,191,173769,1,8,0:0:0:0:
290,129,173984,1,0,0:0:0:0:
290,129,174198,1,0,0:0:0:0:
392,82,174412,1,8,0:0:0:0:
392,82,174841,1,4,0:0:0:0:
392,82,175484,1,8,0:0:0:0:
239,144,175698,1,8,0:0:0:0:
303,100,175912,1,0,0:0:0:0:
137,130,176126,1,8,0:0:0:0:
284,68,176555,1,4,0:0:0:0:
245,152,177198,1,0,0:0:0:0:
441,81,177412,1,8,0:0:0:0:
441,81,177626,1,0,0:0:0:0:
320,130,177841,1,8,0:0:0:0:
259,79,178269,1,4,0:0:0:0:
205,149,178912,5,8,0:0:0:0:
205,149,179126,1,0,0:0:0:0:
414,63,179341,1,0,0:0:0:0:
444,45,179555,1,8,0:0:0:0:
444,45,179769,1,8,0:0:0:0:
211,152,179983,5,4,0:0:0:0:
369,233,180840,1,0,0:0:0:0:
222,177,181055,1,0,0:0:0:0:
271,157,181269,1,8,0:0:0:0:
271,157,181698,1,4,0:0:0:0:
250,116,182340,1,8,0:0:0:0:
199,162,182555,1,8,0:0:0:0:
199,162,182769,1,0,0:0:0:0:
216,152,182983,1,8,0:0:0:0:
216,152,183412,1,4,0:0:0:0:
437,93,184055,1,8,0:0:0:0:
241,144,184269,1,0,0:0:0:0:
241,144,184483,1,0,0:0:0:0:
276,187,184698,1,8,0:0:0:0:
225,134,185126,1,4,0:0:0:0:
169,113,185769,1,8,0:0:0:0:
191,143,186412,1,8,0:0:0:0:
153,109,186626,1,8,0:0:0:0:
153,109,186840,1,4,0:0:0:0:
246,191,187483,1,8,0:0:0:0:
290,129,187698,1,0,0:0:0:0:
290,129,187912,1,0,0:0:0:0:
392,82,188126,1,8,0:0:0:0:
392,82,188555,1,4,0:0:0:0:
392,82,189198,1,0,0:0:0:0:
239,144,189412,1,8,0:0:0:0:
141,40,189626,1,0,0:0:0:0:
137,130,189840,1,8,0:0:0:0:
284,68,190269,1,4,0:0:0:0:
245,152,190912,1,8,0:0:0:0:
441,81,191126,1,0,0:0:0:0:
441,81,191340,1,0,0:0:0:0:
320,130,191555,1,8,0:0:0:0:
259,79,191983,1,4,0:0:0:0:
205,149,192626,5,8,0:0:0:0:
414,63,192840,1,8,0:0:0:0:
43,98,193055,1,0,0:0:0:0:
444,45,193269,1,8,0:0:0:0:
197,152,193698,5,4,0:0:0:0:
329,152,194554,1,8,0:0:0:0:
125,155,194875,1,8,0:0:0:0:
418,78,195197,1,8,0:0:0:0:
289,139,195412,1,4,0:0:0:0:
306,188,196054,1,0,0:0:0:0:
303,176,196268,1,8,0:0:0:0:
303,176,196697,1,8,0:0:0:0:
102,200,196911,1,8,0:0:0:0:
349,152,197125,1,4,0:0:0:0:
256,147,197768,1,0,0:0:0:0:
454,216,197982,1,8,0:0:0:0:
454,216,198304,1,8,0:0:0:0:
454,216,198625,1,8,0:0:0:0:
454,216,198840,1,4,0:0:0:0:
252,168,199482,1,0,0:0:0:0:
235,147,199697,1,8,0:0:0:0:
232,141,200125,1,12,0:0:0:0:
296,108,200554,1,4,0:0:0:0:
291,103,201197,1,0,0:0:0:0:
193,153,201411,1,8,0:0:0:0:
193,153,201732,1,8,0:0:0:0:
193,153,202054,1,8,0:0:0:0:
218,147,202268,1,4,0:0:0:0:
261,155,202911,1,0,0:0:0:0:
261,155,203125,1,8,0:0:0:0:
427,120,203554,1,8,0:0:0:0:
424,112,203768,1,8,0:0:0:0:
424,112,203982,1,4,0:0:0:0:
329,137,204625,1,0,0:0:0:0:
329,137,204840,1,8,0:0:0:0:
282,177,205161,1,8,0:0:0:0:
282,177,205482,1,8,0:0:0:0:
282,177,205697,1,4,0:0:0:0:
210,120,206554,1,8,0:0:0:0:
396,81,206983,1,12,0:0:0:0:
197,152,207411,1,4,0:0:0:0:
329,152,208054,1,0,0:0:0:0:
329,152,208268,1,8,0:0:0:0:
125,155,208589,1,8,0:0:0:0:
418,78,208911,1,8,0:0:0:0:
289,139,209125,1,4,0:0:0:0:
306,188,209768,1,0,0:0:0:0:
303,176,209982,1,8,0:0:0:0:
303,176,210411,1,8,0:0:0:0:
102,200,210625,1,8,0:0:0:0:
349,152,210839,1,4,0:0:0:0:
256,147,211482,1,0,0:0:0:0:
454,216,211698,1,8,0:0:0:0:
454,216,212019,1,8,0:0:0:0:
454,216,212340,1,8,0:0:0:0:
454,216,212554,1,4,0:0:0:0:
252,168,213198,1,0,0:0:0:0:
235,147,213411,1,8,0:0:0:0:
232,141,213839,1,12,0:0:0:0:
296,108,214268,1,4,0:0:0:0:
291,103,214911,1,0,0:0:0:0:
193,153,215125,1,8,0:0:0:0:
193,153,215448,1,8,0:0:0:0:
193,153,215768,1,8,0:0:0:0:
218,147,215982,1,4,0:0:0:0:
261,155,216625,1,0,0:0:0:0:
261,155,216839,1,8,0:0:0:0:
427,120,217268,1,8,0:0:0:0:
424,112,217482,1,8,0:0:0:0:
424,112,217698,1,4,0:0:0:0:
329,137,218339,1,0,0:0:0:0:
329,137,218554,1,8,0:0:0:0:
282,177,218875,1,8,0:0:0:0:
282,177,219198,1,8,0:0:0:0:
282,177,219411,1,4,0:0:0:0:
210,120,220268,1,8,0:0:0:0:
396,81,220698,1,12,0:0:0:0:
304,125,221126,5,4,0:0:0:0:
329,152,221770,1,0,0:0:0:0:
329,152,221984,1,8,0:0:0:0:
418,78,222627,1,8,0:0:0:0:
289,139,222841,1,0,0:0:0:0:
306,188,223484,1,0,0:0:0:0:
303,176,223698,1,8,0:0:0:0:
303,176,224127,1,8,0:0:0:0:
349,152,224555,1,0,0:0:0:0:
256,147,225198,1,0,0:0:0:0:
454,216,225412,1,8,0:0:0:0:
454,216,226055,1,8,0:0:0:0:
454,216,226270,1,0,0:0:0:0:
252,168,226912,1,0,0:0:0:0:
235,147,227127,1,8,0:0:0:0:
232,141,227555,1,12,0:0:0:0:
296,108,227984,1,4,0:0:0:0:
291,103,228627,1,0,0:0:0:0:
193,153,228841,1,8,0:0:0:0:
193,153,229484,1,8,0:0:0:0:
218,147,229698,1,0,0:0:0:0:
261,155,230555,1,8,0:0:0:0:
427,120,230984,1,8,0:0:0:0:
424,112,231412,1,0,0:0:0:0:
150,105,232055,1,0,0:0:0:0:
329,137,232270,1,8,0:0:0:0:
150,105,232912,1,8,0:0:0:0:
292,75,233126,1,0,0:0:0:0:
176,74,233983,1,8,0:0:0:0:
293,157,234412,1,12,0:0:0:0:
293,157,234840,1,0,0:0:0:0:
384,152,235698,1,8,0:0:0:0:
384,152,236555,1,0,0:0:0:0:
384,152,237412,1,8,0:0:0:0:
384,152,238269,1,0,0:0:0:0:
384,152,239126,1,8,0:0:0:0:
384,152,239983,1,0,0:0:0:0:
332,178,240840,1,8,0:0:0:0:
321,178,241698,5,4,0:0:0:0:
256,192,241912,12,0,246840,0:0:0:0:
137,74,248555,5,4,0:0:0:0:
