osu file format v14

[General]
AudioFilename: audio.mp3
AudioLeadIn: 0
PreviewTime: 165519
Countdown: 1
SampleSet: Normal
StackLeniency: 0.7
Mode: 1
LetterboxInBreaks: 0
WidescreenStoryboard: 0

[Editor]
Bookmarks: 15412,29126,42840,56555,70269,83983,97698,111412,125126,138840,152555,166269,179983,193698,207412,221126
DistanceSpacing: 1
BeatDivisor: 8
GridSize: 32
TimelineZoom: 2.799999

[Metadata]
Title:Cauldron
TitleUnicode:Cauldron
Artist:Dictate
ArtistUnicode:Dictate
Creator:Nepuri
Version:Concoction
Source:osu!
Tags:Neurofunk Featured Artist Drum Circle Mappers' Guild
BeatmapID:1967654
BeatmapSetID:942334

[Difficulty]
HPDrainRate:6
CircleSize:5
OverallDifficulty:6.5
ApproachRate:5
SliderMultiplier:1.4
SliderTickRate:1

[Events]
//Background and Video events
0,0,"Topd.jpg",0,50
//Break Periods
//Storyboard Layer 0 (Background)
//Storyboard Layer 1 (Fail)
//Storyboard Layer 2 (Pass)
//Storyboard Layer 3 (Foreground)
//Storyboard Sound Samples

[TimingPoints]
1698,428.571428571429,4,1,0,100,1,0
1698,-58.8235294117647,4,1,0,100,0,0
1912,-83.3333333333333,4,1,0,28,0,0
3412,-100,4,1,0,28,0,0
8448,-100,4,1,0,70,0,0
8930,-100,4,1,0,28,0,0
14555,-90.9090909090909,4,1,0,35,0,0
15412,-58.8235294117647,4,1,0,50,0,0
15626,-66.6666666666667,4,1,0,50,0,0
15726,-76.9230769230769,4,1,0,50,0,0
22269,-58.8235294117647,4,1,0,50,0,0
22483,-66.6666666666667,4,1,0,50,0,0
22805,-76.9230769230769,4,1,0,50,0,0
29126,-58.8235294117647,4,1,0,50,0,0
29340,-66.6666666666667,4,1,0,50,0,0
29662,-76.9230769230769,4,1,0,50,0,0
35956,-58.8235294117647,4,1,0,50,0,0
36170,-66.6666666666667,4,1,0,50,0,0
36492,-76.9230769230769,4,1,0,50,0,0
42840,-66.6666666666667,4,1,0,50,0,0
43912,-76.9230769230769,4,1,0,50,0,0
44528,-66.6666666666667,4,1,0,50,0,0
45600,-76.9230769230769,4,1,0,50,0,0
46242,-66.6666666666667,4,1,0,50,0,0
47314,-76.9230769230769,4,1,0,50,0,0
47956,-66.6666666666667,4,1,0,50,0,0
49028,-76.9230769230769,4,1,0,50,0,0
49671,-66.6666666666667,4,1,0,50,0,0
50233,-71.4285714285714,4,1,0,50,0,0
50742,-76.9230769230769,4,1,0,50,0,0
51278,-66.6666666666667,4,1,0,50,0,0
52483,-76.9230769230769,4,1,0,50,0,0
53126,-66.6666666666667,4,1,0,50,0,0
53662,-71.4285714285714,4,1,0,50,0,0
54198,-76.9230769230769,4,1,0,50,0,0
54733,-66.6666666666667,4,1,0,50,0,0
55698,-62.5,4,1,0,50,0,0
56555,-50,4,1,0,70,0,1
57412,-58.8235294117647,4,1,0,70,0,1
58242,-50,4,1,0,70,0,1
59099,-58.8235294117647,4,1,0,70,0,1
59956,-50,4,1,0,70,0,1
60813,-58.8235294117647,4,1,0,70,0,1
61671,-50,4,1,0,70,0,1
62528,-58.8235294117647,4,1,0,70,0,1
62983,-41.6666666666667,4,1,0,70,0,1
63198,-45.4545454545455,4,1,0,70,0,1
63305,-47.6190476190476,4,1,0,70,0,1
63385,-50,4,1,0,70,0,1
64242,-58.8235294117647,4,1,0,70,0,1
65099,-50,4,1,0,70,0,1
65956,-58.8235294117647,4,1,0,70,0,1
66814,-50,4,1,0,70,0,1
67671,-58.8235294117647,4,1,0,70,0,1
68528,-50,4,1,0,70,0,1
69385,-58.8235294117647,4,1,0,70,0,1
69840,-41.6666666666667,4,1,0,70,0,1
70055,-45.4545454545455,4,1,0,70,0,1
70162,-47.6190476190476,4,1,0,70,0,1
70269,-50,4,1,0,70,0,1
71126,-58.8235294117647,4,1,0,70,0,1
71956,-50,4,1,0,70,0,1
72813,-58.8235294117647,4,1,0,70,0,1
73671,-50,4,1,0,70,0,1
74528,-58.8235294117647,4,1,0,70,0,1
75385,-50,4,1,0,70,0,1
76242,-58.8235294117647,4,1,0,70,0,1
76698,-41.6666666666667,4,1,0,70,0,1
76912,-45.4545454545455,4,1,0,70,0,1
77019,-47.6190476190476,4,1,0,70,0,1
77126,-50,4,1,0,70,0,1
77983,-58.8235294117647,4,1,0,70,0,1
78813,-50,4,1,0,70,0,1
79670,-58.8235294117647,4,1,0,70,0,1
80528,-50,4,1,0,70,0,1
81385,-58.8235294117647,4,1,0,70,0,1
82242,-50,4,1,0,70,0,1
83099,-58.8235294117647,4,1,0,70,0,1
83555,-41.6666666666667,4,1,0,70,0,1
83769,-43.4782608695652,4,1,0,70,0,1
83983,-45.4545454545455,4,1,0,70,0,1
84626,-55.5555555555556,4,1,0,70,0,1
85671,-45.4545454545455,4,1,0,70,0,1
86314,-55.5555555555556,4,1,0,70,0,1
87385,-45.4545454545455,4,1,0,70,0,1
88028,-55.5555555555556,4,1,0,70,0,1
89099,-45.4545454545455,4,1,0,70,0,1
89742,-55.5555555555556,4,1,0,70,0,1
90814,-45.4545454545455,4,1,0,70,0,1
91457,-55.5555555555556,4,1,0,70,0,1
92528,-45.4545454545455,4,1,0,70,0,1
93171,-55.5555555555556,4,1,0,70,0,1
94242,-45.4545454545455,4,1,0,70,0,1
94885,-55.5555555555556,4,1,0,70,0,1
95956,-45.4545454545455,4,1,0,70,0,1
96599,-55.5555555555556,4,1,0,70,0,1
97671,-45.4545454545455,4,1,0,70,0,1
98314,-52.6315789473684,4,1,0,70,0,1
99385,-45.4545454545455,4,1,0,70,0,1
100028,-52.6315789473684,4,1,0,70,0,1
101099,-45.4545454545455,4,1,0,70,0,1
101742,-52.6315789473684,4,1,0,70,0,1
102814,-45.4545454545455,4,1,0,70,0,1
103457,-52.6315789473684,4,1,0,70,0,1
104528,-45.4545454545455,4,1,0,70,0,1
105171,-52.6315789473684,4,1,0,70,0,1
106242,-45.4545454545455,4,1,0,70,0,1
106885,-52.6315789473684,4,1,0,70,0,1
107956,-45.4545454545455,4,1,0,70,0,1
108599,-52.6315789473684,4,1,0,70,0,1
109671,-45.4545454545455,4,1,0,70,0,1
110314,-52.6315789473684,4,1,0,70,0,1
111385,-41.6666666666667,4,1,0,70,0,1
111412,-41.6666666666667,4,1,0,70,0,0
112028,-66.6666666666667,4,1,0,30,0,0
113126,-76.9230769230769,4,1,0,30,0,0
114840,-100,4,1,0,30,0,0
124055,-95.2380952380952,4,1,0,35,0,0
124269,-90.9090909090909,4,1,0,40,0,0
124483,-86.9565217391304,4,1,0,45,0,0
124698,-83.3333333333333,4,1,0,50,0,0
124912,-80,4,1,0,50,0,0
125019,-78.4313725490196,4,1,0,50,0,0
125126,-76.9230769230769,4,1,0,50,0,0
138733,-66.6666666666667,4,1,0,50,0,0
138840,-58.8235294117647,4,1,0,50,0,0
139055,-66.6666666666667,4,1,0,50,0,0
139376,-76.9230769230769,4,1,0,50,0,0
145671,-58.8235294117647,4,1,0,50,0,0
145886,-66.6666666666667,4,1,0,50,0,0
146207,-76.9230769230769,4,1,0,50,0,0
152555,-66.6666666666667,4,1,0,50,0,0
153626,-76.9230769230769,4,1,0,50,0,0
154242,-66.6666666666667,4,1,0,50,0,0
155313,-76.9230769230769,4,1,0,50,0,0
155956,-66.6666666666667,4,1,0,50,0,0
157027,-76.9230769230769,4,1,0,50,0,0
157671,-66.6666666666667,4,1,0,50,0,0
158742,-76.9230769230769,4,1,0,50,0,0
159385,-66.6666666666667,4,1,0,50,0,0
159948,-71.4285714285714,4,1,0,50,0,0
160456,-76.9230769230769,4,1,0,50,0,0
160992,-66.6666666666667,4,1,0,50,0,0
161662,-71.4285714285714,4,1,0,50,0,0
162063,-76.9230769230769,4,1,0,50,0,0
162412,-62.5,4,1,0,50,0,0
162840,-66.6666666666667,4,1,0,50,0,0
163698,-71.4285714285714,4,1,0,50,0,0
164555,-62.5,4,1,0,50,0,0
165412,-58.8235294117647,4,1,0,50,0,0
166269,-45.4545454545455,4,1,0,70,0,1
166885,-52.6315789473684,4,1,0,70,0,1
167956,-45.4545454545455,4,1,0,70,0,1
168599,-52.6315789473684,4,1,0,70,0,1
169670,-45.4545454545455,4,1,0,70,0,1
170313,-52.6315789473684,4,1,0,70,0,1
171385,-45.4545454545455,4,1,0,70,0,1
172028,-52.6315789473684,4,1,0,70,0,1
173099,-45.4545454545455,4,1,0,70,0,1
173742,-52.6315789473684,4,1,0,70,0,1
174813,-45.4545454545455,4,1,0,70,0,1
175456,-52.6315789473684,4,1,0,70,0,1
176527,-45.4545454545455,4,1,0,70,0,1
177170,-52.6315789473684,4,1,0,70,0,1
178242,-45.4545454545455,4,1,0,70,0,1
178885,-52.6315789473684,4,1,0,70,0,1
179983,-45.4545454545455,4,1,0,70,0,1
180626,-55.5555555555556,4,1,0,70,0,1
181671,-45.4545454545455,4,1,0,70,0,1
182314,-55.5555555555556,4,1,0,70,0,1
183385,-45.4545454545455,4,1,0,70,0,1
184028,-55.5555555555556,4,1,0,70,0,1
185099,-45.4545454545455,4,1,0,70,0,1
185742,-55.5555555555556,4,1,0,70,0,1
186814,-45.4545454545455,4,1,0,70,0,1
187457,-55.5555555555556,4,1,0,70,0,1
188528,-45.4545454545455,4,1,0,70,0,1
189171,-55.5555555555556,4,1,0,70,0,1
190242,-45.4545454545455,4,1,0,70,0,1
190885,-55.5555555555556,4,1,0,70,0,1
191956,-45.4545454545455,4,1,0,70,0,1
192599,-55.5555555555556,4,1,0,70,0,1
193697,-50,4,1,0,70,0,1
194555,-58.8235294117647,4,1,0,70,0,1
195385,-50,4,1,0,70,0,1
196242,-58.8235294117647,4,1,0,70,0,1
197100,-50,4,1,0,70,0,1
197957,-58.8235294117647,4,1,0,70,0,1
198814,-50,4,1,0,70,0,1
199671,-58.8235294117647,4,1,0,70,0,1
200126,-41.6666666666667,4,1,0,70,0,1
200341,-45.4545454545455,4,1,0,70,0,1
200448,-47.6190476190476,4,1,0,70,0,1
200555,-50,4,1,0,70,0,1
201412,-58.8235294117647,4,1,0,70,0,1
202242,-50,4,1,0,70,0,1
203099,-58.8235294117647,4,1,0,70,0,1
203957,-50,4,1,0,70,0,1
204814,-58.8235294117647,4,1,0,70,0,1
205671,-50,4,1,0,70,0,1
206528,-58.8235294117647,4,1,0,70,0,1
206984,-41.6666666666667,4,1,0,70,0,1
207198,-45.4545454545455,4,1,0,70,0,1
207412,-50,4,1,0,70,0,1
208269,-58.8235294117647,4,1,0,70,0,1
209099,-50,4,1,0,70,0,1
209956,-58.8235294117647,4,1,0,70,0,1
210813,-50,4,1,0,70,0,1
211670,-58.8235294117647,4,1,0,70,0,1
212528,-50,4,1,0,70,0,1
213385,-58.8235294117647,4,1,0,70,0,1
213840,-41.6666666666667,4,1,0,70,0,1
214055,-45.4545454545455,4,1,0,70,0,1
214162,-47.6190476190476,4,1,0,70,0,1
214242,-50,4,1,0,70,0,1
215099,-58.8235294117647,4,1,0,70,0,1
215956,-50,4,1,0,70,0,1
216813,-58.8235294117647,4,1,0,70,0,1
217671,-50,4,1,0,70,0,1
218528,-58.8235294117647,4,1,0,70,0,1
219385,-50,4,1,0,70,0,1
221126,-45.4545454545455,4,1,0,70,0,0
221448,-50,4,1,0,65,0,0
221769,-55.5555555555556,4,1,0,60,0,0
221983,-60.6060606060606,4,1,0,60,0,0
227555,-54.054054054054,4,1,0,60,0,0
227769,-58.8235294117647,4,1,0,55,0,0
227983,-64.5161290322581,4,1,0,55,0,0
228305,-68.9655172413793,4,1,0,50,0,0
228626,-68.9655172413793,4,1,0,50,0,0
234412,-57.1428571428571,4,1,0,40,0,0
234840,-74.0740740740741,4,1,0,40,0,0
238055,-76.9230769230769,4,1,0,35,0,0
238269,-80,4,1,0,30,0,0
240840,-86.9565217391304,4,1,0,25,0,0
241697,-100,4,1,0,25,0,0
247269,-100,4,1,0,30,0,0
247483,-100,4,1,0,35,0,0
247698,-100,4,1,0,40,0,0
247912,-100,4,1,0,45,0,0
248555,-71.4285714285714,4,1,0,60,0,0

[HitObjects]
237,150,1698,5,4,0:0:0:0:
256,192,2126,12,0,8126,0:0:0:0:
214,93,8555,5,0,0:0:0:0:
256,192,8983,12,0,14340,0:0:0:0:
256,192,14555,12,0,14983,0:0:0:0:
242,127,15412,5,4,0:0:0:0:
261,173,15626,1,8,0:0:0:0:
261,173,15948,1,8,0:0:0:0:
322,119,16483,1,8,0:0:0:0:
322,119,16537,1,8,0:0:0:0:
262,115,16805,1,8,0:0:0:0:
298,185,17340,1,8,0:0:0:0:
298,185,17662,1,8,0:0:0:0:
298,185,18198,1,8,0:0:0:0:
466,62,18251,1,8,0:0:0:0:
466,62,18305,1,8,0:0:0:0:
466,62,18358,1,8,0:0:0:0:
384,172,19055,1,8,0:0:0:0:
230,141,19376,1,8,0:0:0:0:
230,141,19912,1,8,0:0:0:0:
230,141,19965,1,8,0:0:0:0:
309,179,20233,1,8,0:0:0:0:
406,252,20769,1,8,0:0:0:0:
406,252,21090,1,8,0:0:0:0:
406,252,21626,1,8,0:0:0:0:
381,114,21680,1,8,0:0:0:0:
381,114,21733,1,8,0:0:0:0:
381,114,21787,1,8,0:0:0:0:
198,118,22055,1,0,0:0:0:0:
198,118,22269,1,4,0:0:0:0:
202,139,22483,1,8,0:0:0:0:
202,139,22805,1,8,0:0:0:0:
202,139,22912,1,0,0:0:0:0:
449,60,23340,1,8,0:0:0:0:
449,60,23394,1,8,0:0:0:0:
449,60,23448,1,8,0:0:0:0:
164,79,23501,1,8,0:0:0:0:
449,60,23555,1,0,0:0:0:0:
333,172,23876,1,8,0:0:0:0:
333,172,24198,1,8,0:0:0:0:
333,172,24519,1,8,0:0:0:0:
377,61,25055,1,8,0:0:0:0:
377,61,25108,1,8,0:0:0:0:
175,39,25162,1,8,0:0:0:0:
377,61,25215,1,8,0:0:0:0:
377,61,25269,1,0,0:0:0:0:
346,168,25912,1,8,0:0:0:0:
200,145,26233,1,8,0:0:0:0:
200,145,26340,1,0,0:0:0:0:
200,145,26769,1,8,0:0:0:0:
200,145,26823,1,8,0:0:0:0:
200,145,26876,1,8,0:0:0:0:
200,145,26930,1,8,0:0:0:0:
200,145,26983,1,0,0:0:0:0:
247,136,27305,1,8,0:0:0:0:
247,136,27626,1,8,0:0:0:0:
247,136,27948,1,8,0:0:0:0:
247,136,28055,1,8,0:0:0:0:
247,136,28108,1,8,0:0:0:0:
247,136,28162,1,8,0:0:0:0:
245,141,28215,1,8,0:0:0:0:
430,248,28751,1,8,0:0:0:0:
430,248,28805,1,8,0:0:0:0:
430,248,28858,1,8,0:0:0:0:
226,140,29126,1,4,0:0:0:0:
261,173,29340,1,8,0:0:0:0:
261,173,29662,1,8,0:0:0:0:
322,119,30197,1,8,0:0:0:0:
322,119,30251,1,8,0:0:0:0:
262,115,30519,1,8,0:0:0:0:
298,185,31054,1,8,0:0:0:0:
298,185,31376,1,8,0:0:0:0:
298,185,31912,1,8,0:0:0:0:
466,62,31965,1,8,0:0:0:0:
466,62,32019,1,8,0:0:0:0:
466,62,32072,1,8,0:0:0:0:
384,172,32769,1,8,0:0:0:0:
230,141,33090,1,8,0:0:0:0:
230,141,33626,1,8,0:0:0:0:
230,141,33679,1,8,0:0:0:0:
309,179,33947,1,8,0:0:0:0:
406,252,34483,1,8,0:0:0:0:
406,252,34804,1,8,0:0:0:0:
406,252,35340,1,8,0:0:0:0:
381,114,35394,1,8,0:0:0:0:
381,114,35447,1,8,0:0:0:0:
381,114,35501,1,8,0:0:0:0:
198,118,35769,1,0,0:0:0:0:
198,118,35983,1,4,0:0:0:0:
202,139,36197,1,8,0:0:0:0:
202,139,36519,1,8,0:0:0:0:
202,139,36626,1,0,0:0:0:0:
449,60,37054,1,8,0:0:0:0:
449,60,37108,1,8,0:0:0:0:
449,60,37162,1,8,0:0:0:0:
164,79,37215,1,8,0:0:0:0:
449,60,37269,1,0,0:0:0:0:
333,172,37590,1,8,0:0:0:0:
333,172,37912,1,8,0:0:0:0:
333,172,38233,1,8,0:0:0:0:
377,61,38769,1,8,0:0:0:0:
377,61,38822,1,8,0:0:0:0:
175,39,38876,1,8,0:0:0:0:
377,61,38929,1,8,0:0:0:0:
377,61,38983,1,0,0:0:0:0:
346,168,39626,1,8,0:0:0:0:
200,145,39947,1,8,0:0:0:0:
200,145,40054,1,0,0:0:0:0:
200,145,40483,1,8,0:0:0:0:
200,145,40537,1,8,0:0:0:0:
200,145,40590,1,8,0:0:0:0:
200,145,40644,1,8,0:0:0:0:
200,145,40697,1,0,0:0:0:0:
247,136,41019,1,8,0:0:0:0:
247,136,41340,1,8,0:0:0:0:
247,136,41662,1,8,0:0:0:0:
247,136,41769,1,8,0:0:0:0:
247,136,41822,1,8,0:0:0:0:
247,136,41876,1,8,0:0:0:0:
245,141,41929,1,8,0:0:0:0:
430,248,42465,1,8,0:0:0:0:
430,248,42519,1,8,0:0:0:0:
430,248,42572,1,8,0:0:0:0:
377,140,42840,1,4,0:0:0:0:
377,140,43055,1,8,0:0:0:0:
377,140,43162,1,4,0:0:0:0:
377,140,43376,1,8,0:0:0:0:
377,140,43483,1,4,0:0:0:0:
229,170,43912,1,8,0:0:0:0:
229,170,43965,1,8,0:0:0:0:
229,170,44233,1,8,0:0:0:0:
229,170,44555,1,4,0:0:0:0:
237,152,44769,1,8,0:0:0:0:
237,152,44876,1,4,0:0:0:0:
237,152,45090,1,8,0:0:0:0:
237,152,45198,1,4,0:0:0:0:
195,137,45626,1,8,0:0:0:0:
195,137,45680,1,8,0:0:0:0:
195,137,45733,1,8,0:0:0:0:
195,137,45787,1,8,0:0:0:0:
215,164,46269,1,4,0:0:0:0:
377,140,46484,1,8,0:0:0:0:
377,140,46591,1,4,0:0:0:0:
377,140,46805,1,8,0:0:0:0:
377,140,46912,1,4,0:0:0:0:
229,170,47341,1,8,0:0:0:0:
229,170,47394,1,8,0:0:0:0:
229,170,47662,1,8,0:0:0:0:
229,170,47984,1,4,0:0:0:0:
237,152,48198,1,8,0:0:0:0:
237,152,48305,1,4,0:0:0:0:
237,152,48519,1,8,0:0:0:0:
237,152,48627,1,4,0:0:0:0:
195,137,49055,1,8,0:0:0:0:
195,137,49109,1,8,0:0:0:0:
195,137,49162,1,8,0:0:0:0:
195,137,49216,1,8,0:0:0:0:
147,211,49483,1,8,0:0:0:0:
215,164,49698,1,4,0:0:0:0:
377,140,49912,1,8,0:0:0:0:
377,140,50019,1,4,0:0:0:0:
377,140,50233,1,8,0:0:0:0:
377,140,50340,1,0,0:0:0:0:
229,170,50769,1,8,0:0:0:0:
229,170,50822,1,8,0:0:0:0:
101,54,50876,1,8,0:0:0:0:
101,54,50930,1,8,0:0:0:0:
112,46,50983,1,0,0:0:0:0:
197,146,51305,1,8,0:0:0:0:
229,170,51412,1,4,0:0:0:0:
237,152,51626,1,8,0:0:0:0:
237,152,51733,1,4,0:0:0:0:
237,152,51947,1,8,0:0:0:0:
237,152,52055,1,4,0:0:0:0:
195,137,52483,1,8,0:0:0:0:
195,137,52537,1,8,0:0:0:0:
195,137,52590,1,8,0:0:0:0:
195,137,52644,1,8,0:0:0:0:
171,138,52698,1,0,0:0:0:0:
215,164,53126,1,4,0:0:0:0:
377,140,53340,1,8,0:0:0:0:
377,140,53447,1,4,0:0:0:0:
377,140,53662,1,8,0:0:0:0:
377,140,53768,1,0,0:0:0:0:
229,170,54198,1,8,0:0:0:0:
229,170,54250,1,8,0:0:0:0:
184,139,54305,1,8,0:0:0:0:
184,139,54358,1,8,0:0:0:0:
173,110,54412,1,0,0:0:0:0:
263,151,54733,1,8,0:0:0:0:
229,170,54840,1,4,0:0:0:0:
237,152,55054,1,8,0:0:0:0:
237,152,55161,1,4,0:0:0:0:
237,152,55375,1,8,0:0:0:0:
237,152,55483,1,4,0:0:0:0:
301,113,55698,1,12,0:0:0:0:
347,78,55858,1,0,0:0:0:0:
235,142,55939,1,0,0:0:0:0:
347,78,56019,1,8,0:0:0:0:
235,142,56099,1,8,0:0:0:0:
347,78,56180,1,0,0:0:0:0:
165,148,56233,1,0,0:0:0:0:
165,148,56287,1,0,0:0:0:0:
347,78,56340,1,8,0:0:0:0:
214,63,56555,1,4,0:0:0:0:
329,152,56876,1,4,0:0:0:0:
329,152,57198,1,4,0:0:0:0:
329,152,57412,1,8,0:0:0:0:
418,78,57626,1,0,0:0:0:0:
418,78,57680,1,0,0:0:0:0:
418,78,57733,1,8,0:0:0:0:
418,78,57948,1,0,0:0:0:0:
418,78,58055,1,8,0:0:0:0:
289,139,58269,1,4,0:0:0:0:
306,144,58590,1,4,0:0:0:0:
306,188,58912,1,4,0:0:0:0:
303,176,59126,1,8,0:0:0:0:
303,176,59340,1,8,0:0:0:0:
303,176,59394,1,8,0:0:0:0:
303,176,59448,1,0,0:0:0:0:
303,176,59501,1,0,0:0:0:0:
303,176,59555,1,8,0:0:0:0:
349,152,59662,1,0,0:0:0:0:
102,200,59769,1,8,0:0:0:0:
349,152,59983,1,4,0:0:0:0:
256,147,60305,1,4,0:0:0:0:
256,147,60626,1,4,0:0:0:0:
454,216,60840,1,8,0:0:0:0:
454,216,61055,1,0,0:0:0:0:
454,216,61108,1,0,0:0:0:0:
454,216,61162,1,8,0:0:0:0:
454,216,61376,1,0,0:0:0:0:
454,216,61483,1,8,0:0:0:0:
454,216,61698,1,4,0:0:0:0:
252,168,62019,1,4,0:0:0:0:
252,168,62340,1,4,0:0:0:0:
235,147,62555,1,8,0:0:0:0:
232,141,62769,1,8,0:0:0:0:
232,141,62823,1,8,0:0:0:0:
232,141,62876,1,0,0:0:0:0:
232,141,62983,1,12,0:0:0:0:
296,108,63198,1,0,0:0:0:0:
296,108,63305,1,8,0:0:0:0:
296,108,63412,1,4,0:0:0:0:
291,103,63733,1,4,0:0:0:0:
291,103,64055,1,4,0:0:0:0:
193,153,64269,1,8,0:0:0:0:
193,153,64483,1,0,0:0:0:0:
193,153,64537,1,0,0:0:0:0:
193,153,64590,1,8,0:0:0:0:
193,153,64805,1,0,0:0:0:0:
193,153,64912,1,8,0:0:0:0:
218,147,65126,1,4,0:0:0:0:
261,155,65448,1,4,0:0:0:0:
261,155,65769,1,4,0:0:0:0:
261,155,65983,1,8,0:0:0:0:
427,120,66198,1,0,0:0:0:0:
427,120,66251,1,0,0:0:0:0:
427,120,66305,1,0,0:0:0:0:
427,120,66358,1,0,0:0:0:0:
427,120,66412,1,8,0:0:0:0:
427,120,66519,1,0,0:0:0:0:
424,112,66573,1,0,0:0:0:0:
424,112,66626,1,8,0:0:0:0:
424,112,66840,1,4,0:0:0:0:
329,137,67162,1,4,0:0:0:0:
329,137,67483,1,4,0:0:0:0:
329,137,67698,1,8,0:0:0:0:
282,177,67912,1,0,0:0:0:0:
282,177,67965,1,0,0:0:0:0:
282,177,68019,1,8,0:0:0:0:
282,177,68233,1,0,0:0:0:0:
282,177,68340,1,8,0:0:0:0:
282,177,68555,1,4,0:0:0:0:
292,75,68876,1,4,0:0:0:0:
292,75,69198,1,4,0:0:0:0:
210,120,69412,1,8,0:0:0:0:
210,120,69626,1,0,0:0:0:0:
401,74,69680,1,0,0:0:0:0:
401,74,69733,1,0,0:0:0:0:
396,81,69840,1,12,0:0:0:0:
197,152,70055,1,8,0:0:0:0:
197,152,70162,1,8,0:0:0:0:
197,152,70269,1,4,0:0:0:0:
329,152,70590,1,4,0:0:0:0:
329,152,70912,1,4,0:0:0:0:
329,152,71126,1,8,0:0:0:0:
418,78,71340,1,0,0:0:0:0:
418,78,71394,1,0,0:0:0:0:
418,78,71447,1,8,0:0:0:0:
418,78,71662,1,0,0:0:0:0:
418,78,71769,1,8,0:0:0:0:
289,139,71983,1,4,0:0:0:0:
306,144,72304,1,4,0:0:0:0:
306,188,72626,1,4,0:0:0:0:
303,176,72840,1,8,0:0:0:0:
303,176,73054,1,8,0:0:0:0:
303,176,73108,1,8,0:0:0:0:
303,176,73162,1,0,0:0:0:0:
303,176,73215,1,0,0:0:0:0:
303,176,73269,1,8,0:0:0:0:
349,152,73376,1,0,0:0:0:0:
102,200,73483,1,8,0:0:0:0:
349,152,73697,1,4,0:0:0:0:
256,147,74019,1,4,0:0:0:0:
256,147,74340,1,4,0:0:0:0:
454,216,74554,1,8,0:0:0:0:
454,216,74769,1,0,0:0:0:0:
454,216,74822,1,0,0:0:0:0:
454,216,74876,1,8,0:0:0:0:
454,216,75090,1,0,0:0:0:0:
454,216,75197,1,8,0:0:0:0:
454,216,75412,1,4,0:0:0:0:
252,168,75733,1,4,0:0:0:0:
252,168,76054,1,4,0:0:0:0:
235,147,76269,1,8,0:0:0:0:
232,141,76483,1,8,0:0:0:0:
232,141,76537,1,8,0:0:0:0:
232,141,76590,1,0,0:0:0:0:
232,141,76698,1,12,0:0:0:0:
296,108,76912,1,0,0:0:0:0:
296,108,77019,1,8,0:0:0:0:
296,108,77126,1,4,0:0:0:0:
291,103,77447,1,4,0:0:0:0:
291,103,77769,1,4,0:0:0:0:
193,153,77983,1,8,0:0:0:0:
193,153,78197,1,0,0:0:0:0:
193,153,78251,1,0,0:0:0:0:
193,153,78304,1,8,0:0:0:0:
193,153,78519,1,0,0:0:0:0:
193,153,78626,1,8,0:0:0:0:
218,147,78840,1,4,0:0:0:0:
261,155,79162,1,4,0:0:0:0:
261,155,79483,1,4,0:0:0:0:
261,155,79697,1,8,0:0:0:0:
427,120,79912,1,0,0:0:0:0:
427,120,79965,1,0,0:0:0:0:
427,120,80019,1,0,0:0:0:0:
427,120,80072,1,0,0:0:0:0:
427,120,80126,1,8,0:0:0:0:
427,120,80233,1,0,0:0:0:0:
424,112,80287,1,0,0:0:0:0:
424,112,80340,1,8,0:0:0:0:
424,112,80554,1,4,0:0:0:0:
329,137,80876,1,4,0:0:0:0:
329,137,81197,1,4,0:0:0:0:
329,137,81412,1,8,0:0:0:0:
282,177,81626,1,0,0:0:0:0:
282,177,81679,1,0,0:0:0:0:
282,177,81733,1,8,0:0:0:0:
282,177,81947,1,0,0:0:0:0:
282,177,82054,1,8,0:0:0:0:
282,177,82269,1,4,0:0:0:0:
292,75,82590,1,4,0:0:0:0:
292,75,82912,1,4,0:0:0:0:
210,120,83126,1,8,0:0:0:0:
373,137,83340,1,0,0:0:0:0:
196,125,83394,1,0,0:0:0:0:
373,137,83448,1,0,0:0:0:0:
192,86,83555,1,12,0:0:0:0:
333,159,83769,1,8,0:0:0:0:
211,152,83983,1,4,0:0:0:0:
365,160,84305,1,4,0:0:0:0:
365,160,84626,1,8,0:0:0:0:
369,233,84733,1,0,0:0:0:0:
369,233,84840,1,8,0:0:0:0:
368,237,84912,1,0,0:0:0:0:
369,233,84983,1,0,0:0:0:0:
222,177,85055,1,8,0:0:0:0:
271,157,85269,1,8,0:0:0:0:
271,157,85590,1,8,0:0:0:0:
271,157,85698,1,4,0:0:0:0:
250,116,86019,1,4,0:0:0:0:
250,116,86340,1,8,0:0:0:0:
199,162,86448,1,0,0:0:0:0:
199,162,86555,1,8,0:0:0:0:
199,162,86626,1,8,0:0:0:0:
199,162,86698,1,8,0:0:0:0:
199,162,86769,1,0,0:0:0:0:
356,204,86876,1,0,0:0:0:0:
356,204,86983,1,8,0:0:0:0:
216,152,87198,1,8,0:0:0:0:
216,152,87305,1,8,0:0:0:0:
216,152,87412,1,4,0:0:0:0:
437,93,87733,1,4,0:0:0:0:
437,93,88055,1,8,0:0:0:0:
241,144,88269,1,8,0:0:0:0:
363,93,88376,1,0,0:0:0:0:
241,144,88430,1,0,0:0:0:0:
241,144,88483,1,0,0:0:0:0:
276,187,88698,1,8,0:0:0:0:
225,134,89019,1,8,0:0:0:0:
225,134,89126,1,4,0:0:0:0:
169,113,89448,1,4,0:0:0:0:
169,113,89769,1,8,0:0:0:0:
169,113,89983,1,8,0:0:0:0:
169,113,90037,1,8,0:0:0:0:
169,113,90090,1,0,0:0:0:0:
191,143,90198,1,8,0:0:0:0:
191,143,90305,1,0,0:0:0:0:
191,143,90358,1,0,0:0:0:0:
191,143,90412,1,8,0:0:0:0:
153,109,90626,1,8,0:0:0:0:
153,109,90698,1,8,0:0:0:0:
6,112,90769,1,8,0:0:0:0:
153,109,90840,1,4,0:0:0:0:
246,191,91162,1,4,0:0:0:0:
246,191,91483,1,8,0:0:0:0:
258,155,91590,1,0,0:0:0:0:
290,129,91698,1,8,0:0:0:0:
290,129,91769,1,8,0:0:0:0:
290,129,91840,1,8,0:0:0:0:
290,129,91912,1,0,0:0:0:0:
392,82,92126,1,8,0:0:0:0:
392,82,92448,1,8,0:0:0:0:
392,82,92555,1,4,0:0:0:0:
392,82,92876,1,4,0:0:0:0:
392,82,93198,1,8,0:0:0:0:
239,144,93305,1,0,0:0:0:0:
239,144,93412,1,8,0:0:0:0:
239,144,93483,1,0,0:0:0:0:
303,100,93555,1,0,0:0:0:0:
303,100,93626,1,8,0:0:0:0:
126,135,93733,1,0,0:0:0:0:
137,130,93840,1,8,0:0:0:0:
328,98,94055,1,8,0:0:0:0:
284,68,94269,1,4,0:0:0:0:
245,146,94590,1,4,0:0:0:0:
245,152,94912,1,8,0:0:0:0:
441,81,95126,1,8,0:0:0:0:
366,63,95198,1,8,0:0:0:0:
366,63,95269,1,8,0:0:0:0:
441,81,95340,1,0,0:0:0:0:
320,130,95555,1,8,0:0:0:0:
259,79,95876,1,8,0:0:0:0:
259,79,95983,1,4,0:0:0:0:
205,149,96305,1,4,0:0:0:0:
205,149,96626,1,8,0:0:0:0:
367,72,96733,1,0,0:0:0:0:
205,149,96840,1,8,0:0:0:0:
414,63,96912,1,8,0:0:0:0:
414,63,96983,1,8,0:0:0:0:
414,63,97055,1,0,0:0:0:0:
444,45,97162,1,0,0:0:0:0:
444,45,97269,1,8,0:0:0:0:
444,45,97483,1,8,0:0:0:0:
444,45,97698,1,4,0:0:0:0:
365,160,98019,1,4,0:0:0:0:
365,160,98340,1,8,0:0:0:0:
369,233,98447,1,0,0:0:0:0:
369,233,98554,1,8,0:0:0:0:
368,237,98626,1,0,0:0:0:0:
369,233,98697,1,0,0:0:0:0:
222,177,98769,1,8,0:0:0:0:
271,157,98983,1,8,0:0:0:0:
219,124,99090,1,0,0:0:0:0:
364,98,99198,1,8,0:0:0:0:
364,98,99269,1,8,0:0:0:0:
364,98,99340,1,8,0:0:0:0:
271,157,99412,1,4,0:0:0:0:
250,116,99733,1,4,0:0:0:0:
250,116,100054,1,8,0:0:0:0:
199,162,100162,1,0,0:0:0:0:
199,162,100269,1,8,0:0:0:0:
199,162,100340,1,8,0:0:0:0:
199,162,100412,1,8,0:0:0:0:
199,162,100483,1,0,0:0:0:0:
356,204,100590,1,0,0:0:0:0:
356,204,100697,1,8,0:0:0:0:
279,117,100769,1,0,0:0:0:0:
279,117,100840,1,0,0:0:0:0:
216,152,100912,1,8,0:0:0:0:
216,152,101126,1,4,0:0:0:0:
437,93,101447,1,4,0:0:0:0:
437,93,101769,1,8,0:0:0:0:
241,144,101983,1,8,0:0:0:0:
363,93,102090,1,0,0:0:0:0:
241,144,102144,1,0,0:0:0:0:
241,144,102197,1,0,0:0:0:0:
276,187,102412,1,8,0:0:0:0:
225,134,102733,1,8,0:0:0:0:
225,134,102840,1,4,0:0:0:0:
169,113,103162,1,4,0:0:0:0:
169,113,103483,1,8,0:0:0:0:
169,113,103697,1,8,0:0:0:0:
169,113,103751,1,0,0:0:0:0:
169,113,103804,1,0,0:0:0:0:
191,143,103912,1,8,0:0:0:0:
191,143,104019,1,0,0:0:0:0:
191,143,104072,1,0,0:0:0:0:
191,143,104126,1,8,0:0:0:0:
153,109,104340,1,8,0:0:0:0:
153,109,104412,1,8,0:0:0:0:
6,112,104483,1,8,0:0:0:0:
153,109,104554,1,4,0:0:0:0:
246,191,104876,1,4,0:0:0:0:
246,191,105197,1,8,0:0:0:0:
258,155,105304,1,0,0:0:0:0:
290,129,105412,1,8,0:0:0:0:
290,129,105483,1,8,0:0:0:0:
290,129,105554,1,8,0:0:0:0:
290,129,105626,1,0,0:0:0:0:
392,82,105840,1,8,0:0:0:0:
392,82,106162,1,8,0:0:0:0:
392,82,106269,1,4,0:0:0:0:
392,82,106590,1,4,0:0:0:0:
392,82,106912,1,8,0:0:0:0:
239,144,107019,1,0,0:0:0:0:
239,144,107126,1,8,0:0:0:0:
239,144,107197,1,0,0:0:0:0:
303,100,107269,1,0,0:0:0:0:
303,100,107340,1,8,0:0:0:0:
126,135,107447,1,0,0:0:0:0:
137,130,107554,1,8,0:0:0:0:
214,163,107626,1,8,0:0:0:0:
214,163,107698,1,0,0:0:0:0:
328,98,107769,1,8,0:0:0:0:
284,68,107983,1,4,0:0:0:0:
245,146,108304,1,4,0:0:0:0:
245,152,108626,1,8,0:0:0:0:
441,81,108840,1,8,0:0:0:0:
366,63,108912,1,8,0:0:0:0:
366,63,108983,1,8,0:0:0:0:
441,81,109054,1,0,0:0:0:0:
320,130,109269,1,8,0:0:0:0:
259,79,109590,1,8,0:0:0:0:
259,79,109697,1,4,0:0:0:0:
205,149,110019,1,4,0:0:0:0:
205,149,110340,1,8,0:0:0:0:
367,72,110447,1,0,0:0:0:0:
205,149,110554,1,8,0:0:0:0:
414,63,110626,1,0,0:0:0:0:
414,63,110697,1,0,0:0:0:0:
414,63,110769,1,8,0:0:0:0:
444,45,110876,1,8,0:0:0:0:
444,45,110983,1,0,0:0:0:0:
288,100,111055,1,8,0:0:0:0:
288,100,111126,1,8,0:0:0:0:
444,45,111197,1,0,0:0:0:0:
288,100,111305,1,8,0:0:0:0:
288,100,111412,1,4,0:0:0:0:
256,192,112269,12,0,114840,0:0:0:0:
205,197,118269,5,0,0:0:0:0:
144,59,119769,1,8,0:0:0:0:
144,53,120412,1,0,0:0:0:0:
144,59,120840,1,0,0:0:0:0:
144,59,121483,1,8,0:0:0:0:
258,96,121912,1,0,0:0:0:0:
246,170,122555,1,0,0:0:0:0:
219,144,123198,1,8,0:0:0:0:
229,166,123840,1,0,0:0:0:0:
267,167,124055,1,8,0:0:0:0:
228,138,124269,1,0,0:0:0:0:
267,167,124483,1,8,0:0:0:0:
228,138,124698,1,8,0:0:0:0:
267,167,124912,1,0,0:0:0:0:
267,167,125019,1,8,0:0:0:0:
205,146,125126,5,4,0:0:0:0:
359,57,125769,1,0,0:0:0:0:
359,57,125983,1,8,0:0:0:0:
359,57,126198,1,8,0:0:0:0:
359,57,126305,1,0,0:0:0:0:
359,57,126412,1,8,0:0:0:0:
359,57,126626,1,8,0:0:0:0:
359,57,126733,1,8,0:0:0:0:
276,146,127269,1,0,0:0:0:0:
276,146,127698,1,0,0:0:0:0:
276,146,127805,1,8,0:0:0:0:
276,146,127912,1,0,0:0:0:0:
276,146,128126,1,0,0:0:0:0:
276,146,128340,1,8,0:0:0:0:
276,146,128448,1,8,0:0:0:0:
216,86,128769,1,8,0:0:0:0:
216,86,129198,1,0,0:0:0:0:
216,86,129412,1,0,0:0:0:0:
216,86,129626,1,8,0:0:0:0:
216,86,129733,1,0,0:0:0:0:
216,86,129840,1,8,0:0:0:0:
216,86,130055,1,8,0:0:0:0:
216,86,130162,1,8,0:0:0:0:
216,86,130698,1,0,0:0:0:0:
216,86,130912,1,8,0:0:0:0:
216,86,131126,1,0,0:0:0:0:
216,86,131340,1,8,0:0:0:0:
216,86,131448,1,0,0:0:0:0:
216,86,131555,1,8,0:0:0:0:
216,86,131769,1,0,0:0:0:0:
216,86,131876,1,8,0:0:0:0:
238,182,131983,1,4,0:0:0:0:
264,5,132626,1,0,0:0:0:0:
264,5,132840,1,0,0:0:0:0:
264,5,133055,1,8,0:0:0:0:
265,120,133162,1,0,0:0:0:0:
264,5,133269,1,8,0:0:0:0:
265,120,133483,1,8,0:0:0:0:
265,120,133590,1,8,0:0:0:0:
265,120,133912,1,8,0:0:0:0:
265,120,134126,1,0,0:0:0:0:
265,120,134555,1,0,0:0:0:0:
258,159,134662,1,8,0:0:0:0:
258,159,134769,1,0,0:0:0:0:
258,159,134983,1,0,0:0:0:0:
258,159,135198,1,8,0:0:0:0:
258,159,135305,1,8,0:0:0:0:
321,94,135626,1,8,0:0:0:0:
321,94,136055,1,8,0:0:0:0:
321,94,136269,1,0,0:0:0:0:
321,94,136483,1,8,0:0:0:0:
321,94,136590,1,0,0:0:0:0:
321,94,136698,1,8,0:0:0:0:
321,94,136912,1,8,0:0:0:0:
321,94,137019,1,8,0:0:0:0:
321,94,137555,1,0,0:0:0:0:
321,94,137769,1,8,0:0:0:0:
321,94,137983,1,0,0:0:0:0:
321,94,138198,1,8,0:0:0:0:
321,94,138412,1,8,0:0:0:0:
321,94,138626,1,0,0:0:0:0:
321,94,138733,1,8,0:0:0:0:
321,94,138840,1,4,0:0:0:0:
283,198,139055,1,8,0:0:0:0:
283,198,139376,1,8,0:0:0:0:
245,223,139805,1,8,0:0:0:0:
245,223,139858,1,8,0:0:0:0:
245,223,140233,1,8,0:0:0:0:
245,223,140769,1,8,0:0:0:0:
245,223,141090,1,8,0:0:0:0:
245,223,141412,1,8,0:0:0:0:
245,223,141465,1,8,0:0:0:0:
245,223,141733,1,8,0:0:0:0:
245,223,141787,1,8,0:0:0:0:
103,162,142483,1,8,0:0:0:0:
238,134,142805,1,8,0:0:0:0:
238,134,143233,1,8,0:0:0:0:
281,216,143287,1,8,0:0:0:0:
281,216,143662,1,8,0:0:0:0:
336,190,144198,1,8,0:0:0:0:
336,190,144519,1,8,0:0:0:0:
270,184,144840,1,8,0:0:0:0:
270,184,144894,1,8,0:0:0:0:
270,184,145162,1,8,0:0:0:0:
270,184,145215,1,8,0:0:0:0:
270,184,145698,1,4,0:0:0:0:
283,198,145912,1,8,0:0:0:0:
283,198,146233,1,8,0:0:0:0:
245,223,146662,1,8,0:0:0:0:
245,223,146715,1,8,0:0:0:0:
245,223,147090,1,8,0:0:0:0:
245,223,147626,1,8,0:0:0:0:
245,223,147947,1,8,0:0:0:0:
245,223,148269,1,8,0:0:0:0:
245,223,148322,1,8,0:0:0:0:
245,223,148590,1,8,0:0:0:0:
245,223,148644,1,8,0:0:0:0:
103,162,149340,1,8,0:0:0:0:
238,134,149662,1,8,0:0:0:0:
238,134,150090,1,8,0:0:0:0:
281,216,150144,1,8,0:0:0:0:
281,216,150519,1,8,0:0:0:0:
336,190,151055,1,8,0:0:0:0:
336,190,151376,1,8,0:0:0:0:
270,184,151697,1,8,0:0:0:0:
270,184,151751,1,8,0:0:0:0:
191,81,152555,5,4,0:0:0:0:
283,198,152769,1,8,0:0:0:0:
133,111,152876,1,4,0:0:0:0:
283,198,153090,1,8,0:0:0:0:
245,223,153626,1,8,0:0:0:0:
245,223,153680,1,8,0:0:0:0:
245,223,153947,1,8,0:0:0:0:
269,125,154269,1,4,0:0:0:0:
245,223,154483,1,8,0:0:0:0:
269,125,154590,1,4,0:0:0:0:
245,223,154804,1,8,0:0:0:0:
264,120,155340,1,8,0:0:0:0:
264,120,155394,1,8,0:0:0:0:
245,223,155447,1,8,0:0:0:0:
245,223,155501,1,8,0:0:0:0:
250,84,155983,1,4,0:0:0:0:
103,162,156197,1,8,0:0:0:0:
250,84,156305,1,4,0:0:0:0:
238,134,156519,1,8,0:0:0:0:
238,134,157055,1,8,0:0:0:0:
281,216,157108,1,8,0:0:0:0:
281,216,157376,1,8,0:0:0:0:
219,131,157698,1,4,0:0:0:0:
336,190,157912,1,8,0:0:0:0:
219,131,158019,1,4,0:0:0:0:
336,190,158233,1,8,0:0:0:0:
270,184,158769,1,8,0:0:0:0:
270,184,158823,1,8,0:0:0:0:
270,184,158876,1,8,0:0:0:0:
270,184,158929,1,8,0:0:0:0:
441,247,159198,1,8,0:0:0:0:
270,184,159412,1,4,0:0:0:0:
283,198,159626,1,8,0:0:0:0:
186,21,159733,1,4,0:0:0:0:
283,198,159948,1,8,0:0:0:0:
287,138,160055,1,0,0:0:0:0:
245,223,160484,1,8,0:0:0:0:
245,223,160537,1,8,0:0:0:0:
245,223,160590,1,8,0:0:0:0:
248,96,160644,1,8,0:0:0:0:
248,96,160698,1,0,0:0:0:0:
217,127,161019,1,8,0:0:0:0:
348,61,161126,1,4,0:0:0:0:
245,223,161340,1,8,0:0:0:0:
348,61,161448,1,4,0:0:0:0:
245,223,161662,1,8,0:0:0:0:
196,10,161769,1,0,0:0:0:0:
245,223,162198,1,0,0:0:0:0:
245,223,162251,1,0,0:0:0:0:
245,223,162304,1,0,0:0:0:0:
245,223,162412,1,12,0:0:0:0:
357,151,162840,1,4,0:0:0:0:
103,162,163054,1,8,0:0:0:0:
357,151,163162,1,4,0:0:0:0:
238,134,163376,1,8,0:0:0:0:
357,151,163483,1,0,0:0:0:0:
246,147,163698,1,8,0:0:0:0:
246,147,163805,1,0,0:0:0:0:
246,147,163912,1,8,0:0:0:0:
244,142,163965,1,8,0:0:0:0:
244,142,164019,1,8,0:0:0:0:
244,142,164073,1,8,0:0:0:0:
241,145,164126,1,0,0:0:0:0:
227,25,164340,1,0,0:0:0:0:
196,137,164448,1,8,0:0:0:0:
196,137,164555,1,4,0:0:0:0:
336,190,164769,1,8,0:0:0:0:
292,129,164876,1,4,0:0:0:0:
336,190,165090,1,8,0:0:0:0:
292,129,165198,1,4,0:0:0:0:
270,184,165411,1,12,0:0:0:0:
307,211,165573,1,0,0:0:0:0:
307,211,165653,1,0,0:0:0:0:
307,211,165733,1,8,0:0:0:0:
307,211,165814,1,8,0:0:0:0:
307,211,165894,1,0,0:0:0:0:
307,211,165948,1,0,0:0:0:0:
307,211,166001,1,0,0:0:0:0:
307,211,166055,1,8,0:0:0:0:
215,122,166269,1,4,0:0:0:0:
365,160,166590,1,4,0:0:0:0:
365,160,166911,1,8,0:0:0:0:
369,233,167018,1,0,0:0:0:0:
369,233,167125,1,8,0:0:0:0:
368,237,167197,1,0,0:0:0:0:
369,233,167268,1,0,0:0:0:0:
222,177,167340,1,8,0:0:0:0:
271,157,167554,1,8,0:0:0:0:
219,124,167661,1,0,0:0:0:0:
364,98,167769,1,8,0:0:0:0:
364,98,167840,1,0,0:0:0:0:
364,98,167911,1,8,0:0:0:0:
271,157,167983,1,4,0:0:0:0:
250,116,168304,1,4,0:0:0:0:
250,116,168625,1,8,0:0:0:0:
199,162,168733,1,0,0:0:0:0:
199,162,168840,1,8,0:0:0:0:
199,162,168911,1,8,0:0:0:0:
199,162,168983,1,8,0:0:0:0:
199,162,169054,1,0,0:0:0:0:
356,204,169161,1,0,0:0:0:0:
356,204,169268,1,8,0:0:0:0:
279,117,169340,1,0,0:0:0:0:
279,117,169411,1,0,0:0:0:0:
216,152,169483,1,8,0:0:0:0:
216,152,169697,1,4,0:0:0:0:
437,93,170018,1,4,0:0:0:0:
437,93,170340,1,8,0:0:0:0:
241,144,170554,1,8,0:0:0:0:
363,93,170661,1,0,0:0:0:0:
241,144,170715,1,0,0:0:0:0:
241,144,170768,1,0,0:0:0:0:
276,187,170983,1,8,0:0:0:0:
225,134,171304,1,8,0:0:0:0:
225,134,171411,1,4,0:0:0:0:
169,113,171733,1,4,0:0:0:0:
169,113,172054,1,8,0:0:0:0:
169,113,172268,1,8,0:0:0:0:
169,113,172322,1,0,0:0:0:0:
169,113,172375,1,0,0:0:0:0:
191,143,172483,1,8,0:0:0:0:
191,143,172590,1,0,0:0:0:0:
191,143,172643,1,0,0:0:0:0:
191,143,172697,1,8,0:0:0:0:
153,109,172911,1,8,0:0:0:0:
153,109,172983,1,8,0:0:0:0:
6,112,173054,1,8,0:0:0:0:
153,109,173125,1,4,0:0:0:0:
246,191,173447,1,4,0:0:0:0:
246,191,173768,1,8,0:0:0:0:
258,155,173875,1,0,0:0:0:0:
290,129,173983,1,8,0:0:0:0:
290,129,174054,1,8,0:0:0:0:
290,129,174125,1,8,0:0:0:0:
290,129,174197,1,0,0:0:0:0:
392,82,174411,1,8,0:0:0:0:
392,82,174733,1,8,0:0:0:0:
392,82,174840,1,4,0:0:0:0:
392,82,175161,1,4,0:0:0:0:
392,82,175483,1,8,0:0:0:0:
239,144,175590,1,0,0:0:0:0:
239,144,175697,1,8,0:0:0:0:
239,144,175768,1,0,0:0:0:0:
303,100,175840,1,0,0:0:0:0:
303,100,175911,1,8,0:0:0:0:
126,135,176018,1,0,0:0:0:0:
137,130,176125,1,8,0:0:0:0:
214,163,176197,1,8,0:0:0:0:
214,163,176269,1,0,0:0:0:0:
328,98,176340,1,8,0:0:0:0:
284,68,176554,1,4,0:0:0:0:
245,146,176875,1,4,0:0:0:0:
245,152,177197,1,8,0:0:0:0:
441,81,177411,1,8,0:0:0:0:
366,63,177483,1,8,0:0:0:0:
366,63,177554,1,8,0:0:0:0:
441,81,177625,1,0,0:0:0:0:
320,130,177840,1,8,0:0:0:0:
259,79,178161,1,8,0:0:0:0:
259,79,178269,1,4,0:0:0:0:
205,149,178590,1,4,0:0:0:0:
177,142,178912,1,8,0:0:0:0:
318,139,179019,1,8,0:0:0:0:
324,52,179126,1,0,0:0:0:0:
324,52,179233,1,0,0:0:0:0:
324,52,179340,1,8,0:0:0:0:
291,82,179412,1,0,0:0:0:0:
291,82,179483,1,0,0:0:0:0:
368,15,179555,1,8,0:0:0:0:
61,102,179662,1,0,0:0:0:0:
287,29,179769,1,8,0:0:0:0:
287,29,179840,1,8,0:0:0:0:
287,29,179912,1,8,0:0:0:0:
287,29,179983,1,4,0:0:0:0:
365,160,180305,1,4,0:0:0:0:
365,160,180626,1,8,0:0:0:0:
369,233,180733,1,0,0:0:0:0:
369,233,180840,1,8,0:0:0:0:
368,237,180912,1,0,0:0:0:0:
369,233,180983,1,0,0:0:0:0:
222,177,181055,1,8,0:0:0:0:
271,157,181269,1,8,0:0:0:0:
271,157,181590,1,8,0:0:0:0:
271,157,181698,1,4,0:0:0:0:
250,116,182019,1,4,0:0:0:0:
250,116,182340,1,8,0:0:0:0:
199,162,182448,1,0,0:0:0:0:
199,162,182555,1,8,0:0:0:0:
199,162,182626,1,8,0:0:0:0:
199,162,182698,1,8,0:0:0:0:
199,162,182769,1,0,0:0:0:0:
356,204,182876,1,0,0:0:0:0:
356,204,182983,1,8,0:0:0:0:
216,152,183198,1,8,0:0:0:0:
216,152,183305,1,8,0:0:0:0:
216,152,183412,1,4,0:0:0:0:
437,93,183733,1,4,0:0:0:0:
437,93,184055,1,8,0:0:0:0:
241,144,184269,1,8,0:0:0:0:
363,93,184376,1,0,0:0:0:0:
241,144,184430,1,0,0:0:0:0:
241,144,184483,1,0,0:0:0:0:
276,187,184698,1,8,0:0:0:0:
225,134,185019,1,8,0:0:0:0:
225,134,185126,1,4,0:0:0:0:
169,113,185448,1,4,0:0:0:0:
169,113,185769,1,8,0:0:0:0:
169,113,185983,1,8,0:0:0:0:
169,113,186037,1,8,0:0:0:0:
169,113,186090,1,0,0:0:0:0:
191,143,186198,1,8,0:0:0:0:
191,143,186305,1,0,0:0:0:0:
191,143,186358,1,0,0:0:0:0:
191,143,186412,1,8,0:0:0:0:
153,109,186626,1,8,0:0:0:0:
153,109,186698,1,8,0:0:0:0:
6,112,186769,1,8,0:0:0:0:
153,109,186840,1,4,0:0:0:0:
246,191,187162,1,4,0:0:0:0:
246,191,187483,1,8,0:0:0:0:
258,155,187590,1,0,0:0:0:0:
290,129,187698,1,8,0:0:0:0:
290,129,187769,1,8,0:0:0:0:
290,129,187840,1,8,0:0:0:0:
290,129,187912,1,0,0:0:0:0:
392,82,188126,1,8,0:0:0:0:
392,82,188448,1,8,0:0:0:0:
392,82,188555,1,4,0:0:0:0:
392,82,188876,1,4,0:0:0:0:
392,82,189198,1,8,0:0:0:0:
239,144,189305,1,0,0:0:0:0:
239,144,189412,1,8,0:0:0:0:
239,144,189483,1,0,0:0:0:0:
303,100,189555,1,0,0:0:0:0:
303,100,189626,1,8,0:0:0:0:
126,135,189733,1,0,0:0:0:0:
137,130,189840,1,8,0:0:0:0:
328,98,190055,1,8,0:0:0:0:
284,68,190269,1,4,0:0:0:0:
245,146,190590,1,4,0:0:0:0:
245,152,190912,1,8,0:0:0:0:
441,81,191126,1,8,0:0:0:0:
366,63,191198,1,8,0:0:0:0:
366,63,191269,1,8,0:0:0:0:
441,81,191340,1,0,0:0:0:0:
320,130,191555,1,8,0:0:0:0:
259,79,191876,1,8,0:0:0:0:
259,79,191983,1,4,0:0:0:0:
205,149,192305,1,4,0:0:0:0:
316,171,192626,1,8,0:0:0:0:
316,171,192733,1,0,0:0:0:0:
303,191,192840,1,8,0:0:0:0:
245,98,192894,1,0,0:0:0:0:
245,98,192948,1,0,0:0:0:0:
245,98,193055,1,8,0:0:0:0:
245,98,193108,1,8,0:0:0:0:
245,98,193162,1,0,0:0:0:0:
245,98,193215,1,0,0:0:0:0:
245,98,193269,1,8,0:0:0:0:
245,98,193376,1,8,0:0:0:0:
245,98,193483,1,8,0:0:0:0:
213,123,193537,1,8,0:0:0:0:
213,123,193590,1,0,0:0:0:0:
213,123,193698,1,4,0:0:0:0:
329,152,194019,1,4,0:0:0:0:
329,152,194341,1,4,0:0:0:0:
329,152,194555,1,8,0:0:0:0:
418,78,194769,1,0,0:0:0:0:
418,78,194823,1,0,0:0:0:0:
418,78,194876,1,8,0:0:0:0:
418,78,195091,1,0,0:0:0:0:
418,78,195198,1,8,0:0:0:0:
289,139,195412,1,4,0:0:0:0:
306,144,195733,1,4,0:0:0:0:
306,188,196055,1,4,0:0:0:0:
303,176,196269,1,8,0:0:0:0:
303,176,196483,1,8,0:0:0:0:
303,176,196537,1,8,0:0:0:0:
303,176,196591,1,0,0:0:0:0:
303,176,196644,1,0,0:0:0:0:
303,176,196698,1,8,0:0:0:0:
349,152,196805,1,0,0:0:0:0:
102,200,196912,1,8,0:0:0:0:
349,152,197126,1,4,0:0:0:0:
256,147,197448,1,4,0:0:0:0:
256,147,197769,1,4,0:0:0:0:
454,216,197983,1,8,0:0:0:0:
454,216,198198,1,0,0:0:0:0:
454,216,198251,1,0,0:0:0:0:
454,216,198305,1,8,0:0:0:0:
454,216,198519,1,0,0:0:0:0:
454,216,198626,1,8,0:0:0:0:
454,216,198841,1,4,0:0:0:0:
252,168,199162,1,4,0:0:0:0:
252,168,199483,1,4,0:0:0:0:
235,147,199698,1,8,0:0:0:0:
232,141,199912,1,8,0:0:0:0:
232,141,199966,1,8,0:0:0:0:
232,141,200019,1,0,0:0:0:0:
232,141,200126,1,12,0:0:0:0:
296,108,200341,1,0,0:0:0:0:
296,108,200448,1,8,0:0:0:0:
296,108,200555,1,4,0:0:0:0:
291,103,200876,1,4,0:0:0:0:
291,103,201198,1,4,0:0:0:0:
193,153,201412,1,8,0:0:0:0:
193,153,201626,1,0,0:0:0:0:
193,153,201680,1,0,0:0:0:0:
193,153,201733,1,8,0:0:0:0:
193,153,201948,1,0,0:0:0:0:
193,153,202055,1,8,0:0:0:0:
218,147,202269,1,4,0:0:0:0:
261,155,202591,1,4,0:0:0:0:
261,155,202912,1,4,0:0:0:0:
261,155,203126,1,8,0:0:0:0:
427,120,203341,1,0,0:0:0:0:
427,120,203394,1,0,0:0:0:0:
427,120,203448,1,0,0:0:0:0:
427,120,203501,1,0,0:0:0:0:
427,120,203555,1,8,0:0:0:0:
427,120,203662,1,0,0:0:0:0:
424,112,203716,1,0,0:0:0:0:
424,112,203769,1,8,0:0:0:0:
424,112,203983,1,4,0:0:0:0:
329,137,204305,1,4,0:0:0:0:
329,137,204626,1,4,0:0:0:0:
329,137,204841,1,8,0:0:0:0:
282,177,205055,1,0,0:0:0:0:
282,177,205108,1,0,0:0:0:0:
282,177,205162,1,8,0:0:0:0:
282,177,205376,1,0,0:0:0:0:
282,177,205483,1,8,0:0:0:0:
282,177,205698,1,4,0:0:0:0:
292,75,206019,1,4,0:0:0:0:
292,75,206341,1,4,0:0:0:0:
210,120,206555,1,8,0:0:0:0:
373,137,206769,1,0,0:0:0:0:
196,125,206823,1,0,0:0:0:0:
373,137,206877,1,0,0:0:0:0:
192,86,206984,1,12,0:0:0:0:
333,159,207198,1,8,0:0:0:0:
131,22,207412,1,4,0:0:0:0:
329,152,207733,1,4,0:0:0:0:
329,152,208055,1,4,0:0:0:0:
329,152,208269,1,8,0:0:0:0:
418,78,208483,1,0,0:0:0:0:
418,78,208537,1,0,0:0:0:0:
418,78,208590,1,8,0:0:0:0:
418,78,208805,1,0,0:0:0:0:
418,78,208912,1,8,0:0:0:0:
289,139,209126,1,4,0:0:0:0:
306,144,209447,1,4,0:0:0:0:
306,188,209769,1,4,0:0:0:0:
303,176,209983,1,8,0:0:0:0:
303,176,210197,1,8,0:0:0:0:
303,176,210251,1,8,0:0:0:0:
303,176,210305,1,0,0:0:0:0:
303,176,210358,1,0,0:0:0:0:
303,176,210412,1,8,0:0:0:0:
349,152,210519,1,0,0:0:0:0:
102,200,210626,1,8,0:0:0:0:
349,152,210840,1,4,0:0:0:0:
256,147,211162,1,4,0:0:0:0:
256,147,211483,1,4,0:0:0:0:
454,216,211697,1,8,0:0:0:0:
454,216,211912,1,0,0:0:0:0:
454,216,211965,1,0,0:0:0:0:
454,216,212019,1,8,0:0:0:0:
454,216,212233,1,0,0:0:0:0:
454,216,212340,1,8,0:0:0:0:
454,216,212555,1,4,0:0:0:0:
252,168,212876,1,4,0:0:0:0:
252,168,213197,1,4,0:0:0:0:
235,147,213412,1,8,0:0:0:0:
232,141,213626,1,8,0:0:0:0:
232,141,213680,1,8,0:0:0:0:
232,141,213733,1,0,0:0:0:0:
232,141,213840,1,12,0:0:0:0:
296,108,214055,1,0,0:0:0:0:
296,108,214162,1,8,0:0:0:0:
296,108,214269,1,4,0:0:0:0:
291,103,214590,1,4,0:0:0:0:
291,103,214912,1,4,0:0:0:0:
193,153,215126,1,8,0:0:0:0:
193,153,215340,1,0,0:0:0:0:
193,153,215394,1,0,0:0:0:0:
193,153,215447,1,8,0:0:0:0:
193,153,215662,1,0,0:0:0:0:
193,153,215769,1,8,0:0:0:0:
218,147,215983,1,4,0:0:0:0:
261,155,216305,1,4,0:0:0:0:
261,155,216626,1,4,0:0:0:0:
261,155,216840,1,8,0:0:0:0:
427,120,217055,1,0,0:0:0:0:
427,120,217108,1,0,0:0:0:0:
427,120,217162,1,0,0:0:0:0:
427,120,217215,1,0,0:0:0:0:
427,120,217269,1,8,0:0:0:0:
427,120,217376,1,0,0:0:0:0:
424,112,217430,1,0,0:0:0:0:
424,112,217483,1,8,0:0:0:0:
424,112,217697,1,4,0:0:0:0:
329,137,218019,1,4,0:0:0:0:
329,137,218340,1,4,0:0:0:0:
329,137,218555,1,8,0:0:0:0:
282,177,218769,1,0,0:0:0:0:
282,177,218822,1,0,0:0:0:0:
282,177,218876,1,8,0:0:0:0:
282,177,219090,1,0,0:0:0:0:
282,177,219197,1,8,0:0:0:0:
282,177,219412,1,4,0:0:0:0:
292,75,219733,1,4,0:0:0:0:
292,75,220055,1,0,0:0:0:0:
307,143,220162,1,0,0:0:0:0:
307,143,220215,1,0,0:0:0:0:
307,143,220269,1,8,0:0:0:0:
261,132,220376,1,8,0:0:0:0:
261,132,220483,1,0,0:0:0:0:
261,132,220590,1,0,0:0:0:0:
261,132,220644,1,0,0:0:0:0:
261,132,220698,1,8,0:0:0:0:
304,125,220912,1,8,0:0:0:0:
304,125,221019,1,8,0:0:0:0:
304,125,221126,1,4,0:0:0:0:
329,152,221448,1,0,0:0:0:0:
329,152,221770,1,0,0:0:0:0:
329,152,221984,1,8,0:0:0:0:
418,78,222198,1,0,0:0:0:0:
418,78,222252,1,0,0:0:0:0:
418,78,222305,1,8,0:0:0:0:
418,78,222520,1,0,0:0:0:0:
418,78,222627,1,8,0:0:0:0:
289,139,222841,1,0,0:0:0:0:
306,144,223162,1,0,0:0:0:0:
306,188,223484,1,0,0:0:0:0:
303,176,223698,1,8,0:0:0:0:
303,176,223912,1,8,0:0:0:0:
303,176,223966,1,8,0:0:0:0:
303,176,224020,1,0,0:0:0:0:
303,176,224127,1,8,0:0:0:0:
349,152,224234,1,0,0:0:0:0:
102,200,224341,1,8,0:0:0:0:
349,152,224555,1,0,0:0:0:0:
256,147,224877,1,0,0:0:0:0:
256,147,225198,1,0,0:0:0:0:
454,216,225412,1,8,0:0:0:0:
454,216,225627,1,0,0:0:0:0:
454,216,225680,1,0,0:0:0:0:
454,216,225734,1,8,0:0:0:0:
454,216,225948,1,0,0:0:0:0:
454,216,226055,1,8,0:0:0:0:
454,216,226270,1,0,0:0:0:0:
252,168,226591,1,0,0:0:0:0:
252,168,226912,1,0,0:0:0:0:
235,147,227127,1,8,0:0:0:0:
232,141,227341,1,8,0:0:0:0:
232,141,227395,1,8,0:0:0:0:
232,141,227448,1,0,0:0:0:0:
232,141,227555,1,12,0:0:0:0:
296,108,227770,1,0,0:0:0:0:
296,108,227984,1,4,0:0:0:0:
291,103,228305,1,0,0:0:0:0:
291,103,228627,1,0,0:0:0:0:
193,153,228841,1,8,0:0:0:0:
193,153,229055,1,0,0:0:0:0:
193,153,229162,1,8,0:0:0:0:
193,153,229377,1,0,0:0:0:0:
193,153,229484,1,8,0:0:0:0:
218,147,229698,1,0,0:0:0:0:
261,155,230020,1,0,0:0:0:0:
261,155,230341,1,0,0:0:0:0:
261,155,230555,1,8,0:0:0:0:
427,120,230770,1,0,0:0:0:0:
427,120,230823,1,0,0:0:0:0:
427,120,230877,1,0,0:0:0:0:
427,120,230984,1,8,0:0:0:0:
424,112,231198,1,8,0:0:0:0:
424,112,231412,1,0,0:0:0:0:
329,137,231734,1,0,0:0:0:0:
329,137,232055,1,0,0:0:0:0:
329,137,232270,1,8,0:0:0:0:
282,177,232484,1,0,0:0:0:0:
282,177,232591,1,8,0:0:0:0:
282,177,232805,1,0,0:0:0:0:
282,177,232912,1,8,0:0:0:0:
282,177,233127,1,0,0:0:0:0:
292,75,233448,1,0,0:0:0:0:
176,74,233769,1,0,0:0:0:0:
176,74,233983,1,8,0:0:0:0:
293,157,234198,1,0,0:0:0:0:
293,157,234412,1,12,0:0:0:0:
293,157,234840,1,0,0:0:0:0:
384,152,235162,1,0,0:0:0:0:
384,152,235483,1,0,0:0:0:0:
384,152,235698,1,8,0:0:0:0:
384,152,236019,1,8,0:0:0:0:
384,152,236340,1,8,0:0:0:0:
384,152,236555,1,0,0:0:0:0:
384,152,236876,1,0,0:0:0:0:
384,152,237198,1,0,0:0:0:0:
384,152,237412,1,8,0:0:0:0:
384,152,237840,1,8,0:0:0:0:
384,152,238055,1,8,0:0:0:0:
384,152,238269,1,0,0:0:0:0:
384,152,238912,1,0,0:0:0:0:
384,152,239126,1,8,0:0:0:0:
332,178,239769,1,8,0:0:0:0:
384,152,239983,1,0,0:0:0:0:
332,178,240840,1,8,0:0:0:0:
321,178,241698,5,4,0:0:0:0:
256,192,241912,12,0,246840,0:0:0:0:
256,192,247055,12,0,248340,0:0:0:0:
137,74,248555,5,4,0:0:0:0:
