osu file format v14

[General]
AudioFilename: audio.mp3
AudioLeadIn: 0
PreviewTime: -1
Countdown: 0
SampleSet: Soft
StackLeniency: 0.7
Mode: 3
LetterboxInBreaks: 0
SpecialStyle: 0
WidescreenStoryboard: 0

[Editor]
DistanceSpacing: 0.7
BeatDivisor: 4
GridSize: 32
TimelineZoom: 1.9

[Metadata]
Title:Siva
TitleUnicode:Śiva
Artist:Diceros Bicornis(xi+BlackY)
ArtistUnicode:Diceros Bicornis(xi+BlackY)
Creator:Purrinya
Version:1
Source:
Tags:
BeatmapID:916164
BeatmapSetID:424057

[Difficulty]
HPDrainRate:8
CircleSize:4
OverallDifficulty:8
ApproachRate:5
SliderMultiplier:1.4
SliderTickRate:1

[Events]
//Background and Video events
0,0,"Scenic dark building.jpg",0,0
//Break Periods
//Storyboard Layer 0 (Background)
//Storyboard Layer 1 (Fail)
//Storyboard Layer 2 (Pass)
//Storyboard Layer 3 (Foreground)
//Storyboard Sound Samples

[TimingPoints]
7669,283.018867924528,4,2,1,25,1,0
38235,-50,4,2,1,25,0,0
38270,-200,4,2,1,25,0,0
38447,-50,4,2,1,25,0,0
38482,-200,4,2,1,25,0,0
38659,-50,4,2,1,25,0,0
38694,-200,4,2,1,25,0,0
38801,-50,4,2,1,25,0,0
38836,-200,4,2,1,25,0,0
38942,-50,4,2,1,25,0,0
38977,-200,4,2,1,25,0,0
39084,-100,4,2,1,25,0,0
40499,-50,4,2,1,25,0,0
40534,-200,4,2,1,25,0,0
40782,-50,4,2,1,25,0,0
40817,-200,4,2,1,25,0,0
41065,-50,4,2,1,25,0,0
41100,-200,4,2,1,25,0,0
41277,-50,4,2,1,25,0,0
41312,-200,4,2,1,25,0,0
41489,-50,4,2,1,25,0,0
41525,-200,4,2,1,25,0,0
41631,-50,4,2,1,25,0,0
41666,-200,4,2,1,25,0,0
41772,-100,4,2,1,25,0,0
42197,-50,4,2,1,25,0,0
42232,-200,4,2,1,25,0,0
42338,-100,4,2,1,25,0,0
42763,-50,4,2,1,25,0,0
42798,-200,4,2,1,25,0,0
42904,-100,4,2,1,25,0,0
45876,-50,4,2,1,25,0,0
45947,-200,4,2,1,25,0,0
46159,-100,4,2,1,25,0,0
52952,-333.333333333333,4,2,1,25,0,0
53235,-100,4,2,1,25,0,0
54933,-50,4,2,1,25,0,0
55003,-200,4,2,1,25,0,0
55216,-100,4,2,1,25,0,0
126819,-133.333333333333,4,2,1,25,0,0
127952,-100,4,2,1,25,0,0
132197,-66.6666666666667,4,2,1,25,0,0
132480,-100,4,2,1,25,0,0
137008,-50,4,2,1,25,0,0
137150,-1000,4,2,1,25,0,0
137291,-100,4,2,1,25,0,0
142668,-50,4,2,1,25,0,0
142810,-200,4,2,1,25,0,0
142952,-50,4,2,1,25,0,0
143093,-100,4,2,1,25,0,0
146065,283.018867924528,4,2,1,25,1,0

[HitObjects]
64,192,7668,5,0,0:0:0:0:
192,192,7668,1,0,0:0:0:0:
320,192,7668,1,0,0:0:0:0:
64,192,7809,1,0,0:0:0:0:
192,192,7809,1,0,0:0:0:0:
320,192,7809,1,0,0:0:0:0:
448,192,7951,1,0,0:0:0:0:
320,192,8021,1,0,0:0:0:0:
192,192,8092,1,0,0:0:0:0:
64,192,8234,1,0,0:0:0:0:
192,192,8304,1,0,0:0:0:0:
320,192,8375,1,0,0:0:0:0:
448,192,8517,1,0,0:0:0:0:
320,192,8587,1,0,0:0:0:0:
192,192,8658,1,0,0:0:0:0:
320,192,8729,1,0,0:0:0:0:
64,192,8800,1,0,0:0:0:0:
192,192,8870,1,0,0:0:0:0:
320,192,8941,1,0,0:0:0:0:
448,192,9012,1,0,0:0:0:0:
192,192,9083,1,0,0:0:0:0:
320,192,9153,1,0,0:0:0:0:
192,192,9224,1,0,0:0:0:0:
64,192,9295,1,0,0:0:0:0:
192,192,9366,1,0,0:0:0:0:
320,192,9366,1,0,0:0:0:0:
448,192,9366,1,0,0:0:0:0:
64,192,9649,1,0,0:0:0:0:
320,192,9649,1,0,0:0:0:0:
448,192,9649,1,0,0:0:0:0:
64,192,9790,1,0,0:0:0:0:
192,192,9790,1,0,0:0:0:0:
448,192,9790,1,0,0:0:0:0:
192,192,10073,1,0,0:0:0:0:
320,192,10073,1,0,0:0:0:0:
448,192,10073,1,0,0:0:0:0:
64,192,10215,1,0,0:0:0:0:
448,192,10286,1,0,0:0:0:20:LR_Kick Drum Fast.wav
192,192,10356,1,0,0:0:0:0:
448,192,10428,1,0,0:0:0:20:LR_Kick Drum Fast.wav
320,192,10498,1,0,0:0:0:0:
448,192,10569,1,0,0:0:0:20:LR_Kick Drum Fast.wav
64,192,10639,1,0,0:0:0:0:
192,192,10711,1,0,0:0:0:0:
320,192,10782,1,0,0:0:0:0:
448,192,10852,1,0,0:0:0:0:
64,192,10923,1,0,0:0:0:0:
192,192,10994,1,0,0:0:0:0:
320,192,11065,1,0,0:0:0:0:
448,192,11135,1,0,0:0:0:0:
320,192,11206,1,0,0:0:0:0:
448,192,11277,1,0,0:0:0:0:
192,192,11348,1,0,0:0:0:0:
448,192,11418,1,0,0:0:0:0:
320,192,11489,1,0,0:0:0:0:
448,192,11560,1,0,0:0:0:0:
192,192,11631,1,0,0:0:0:0:
320,192,11702,1,0,0:0:0:0:
192,192,11772,1,0,0:0:0:0:
64,192,11843,1,0,0:0:0:0:
448,192,11914,1,0,0:0:0:0:
320,192,11985,1,0,0:0:0:0:
192,192,12055,1,0,0:0:0:0:
64,192,12126,1,0,0:0:0:0:
192,192,12197,1,0,0:0:0:0:
320,192,12197,1,0,0:0:0:0:
448,192,12197,1,0,0:0:0:0:
64,192,12338,1,0,0:0:0:0:
192,192,12338,1,0,0:0:0:0:
320,192,12338,1,0,0:0:0:0:
448,192,12480,1,0,0:0:0:0:
320,192,12551,1,0,0:0:0:0:
192,192,12621,1,0,0:0:0:0:
320,192,12692,1,0,0:0:0:0:
64,192,12763,1,0,0:0:0:0:
192,192,12834,1,0,0:0:0:0:
320,192,12904,1,0,0:0:0:0:
448,192,12975,1,0,0:0:0:0:
320,192,13046,1,0,0:0:0:0:
192,192,13117,1,0,0:0:0:0:
448,192,13187,1,0,0:0:0:0:
320,192,13258,1,0,0:0:0:0:
64,192,13329,1,0,0:0:0:0:
192,192,13400,1,0,0:0:0:0:
320,192,13470,1,0,0:0:0:0:
448,192,13541,1,0,0:0:0:0:
320,192,13612,1,0,0:0:0:0:
192,192,13683,1,0,0:0:0:0:
448,192,13753,1,0,0:0:0:0:
320,192,13824,1,0,0:0:0:0:
192,192,13895,1,0,0:0:0:0:
64,192,13895,1,0,0:0:0:0:
448,192,13895,1,0,0:0:0:0:
192,192,14178,1,0,0:0:0:0:
448,192,14178,1,0,0:0:0:0:
320,192,14178,1,0,0:0:0:0:
64,192,14319,1,0,0:0:0:0:
320,192,14319,1,0,0:0:0:0:
448,192,14319,1,0,0:0:0:0:
64,192,14602,1,0,0:0:0:0:
320,192,14602,1,0,0:0:0:0:
448,192,14602,1,0,0:0:0:0:
448,192,14744,1,0,0:0:0:0:
64,192,14815,1,0,0:0:0:20:LR_Kick Drum Fast.wav
320,192,14885,1,0,0:0:0:0:
64,192,14956,1,0,0:0:0:20:LR_Kick Drum Fast.wav
192,192,15027,1,0,0:0:0:0:
64,192,15098,1,0,0:0:0:20:LR_Kick Drum Fast.wav
448,192,15168,1,0,0:0:0:0:
320,192,15239,1,0,0:0:0:0:
192,192,15310,1,0,0:0:0:0:
64,192,15381,1,0,0:0:0:0:
448,192,15452,1,0,0:0:0:0:
320,192,15522,1,0,0:0:0:0:
192,192,15593,1,0,0:0:0:0:
64,192,15664,1,0,0:0:0:0:
192,192,15735,1,0,0:0:0:0:
64,192,15805,1,0,0:0:0:0:
320,192,15876,1,0,0:0:0:0:
64,192,15947,1,0,0:0:0:0:
192,192,16018,1,0,0:0:0:0:
64,192,16088,1,0,0:0:0:0:
448,192,16159,1,0,0:0:0:0:
320,192,16194,1,0,0:0:0:0:
64,192,16230,1,0,0:0:0:0:
192,192,16265,1,0,0:0:0:0:
448,192,16301,1,0,0:0:0:0:
320,192,16336,1,0,0:0:0:0:
64,192,16371,1,0,0:0:0:0:
192,192,16407,1,0,0:0:0:0:
448,192,16442,1,0,0:0:0:0:
320,192,16477,1,0,0:0:0:0:
64,192,16513,1,0,0:0:0:0:
192,192,16548,1,0,0:0:0:0:
448,192,16584,1,0,0:0:0:0:
320,192,16619,1,0,0:0:0:0:
64,192,16654,1,0,0:0:0:0:
192,192,16690,1,0,0:0:0:0:
320,192,16725,1,0,0:0:0:0:
448,192,16725,1,0,0:0:0:0:
64,192,16725,1,0,0:0:0:0:
192,192,17008,1,0,0:0:0:0:
320,192,17008,1,0,0:0:0:0:
448,192,17008,1,0,0:0:0:0:
64,192,17291,1,0,0:0:0:0:
192,192,17291,1,0,0:0:0:0:
320,192,17291,1,0,0:0:0:0:
320,192,17574,1,0,0:0:0:0:
448,192,17574,1,0,0:0:0:0:
64,192,17574,1,0,0:0:0:0:
192,192,17857,1,0,0:0:0:0:
64,192,17857,1,0,0:0:0:0:
448,192,17857,1,0,0:0:0:0:
320,192,18140,1,0,0:0:0:0:
192,192,18140,1,0,0:0:0:0:
64,192,18140,1,0,0:0:0:0:
320,192,18423,1,0,0:0:0:0:
448,192,18423,1,0,0:0:0:0:
192,192,18423,1,0,0:0:0:0:
64,192,18706,1,0,0:0:0:0:
192,192,18706,1,0,0:0:0:0:
320,192,18706,1,0,0:0:0:0:
192,192,18989,1,0,0:0:0:0:
448,192,18989,1,0,0:0:0:0:
64,192,18989,1,0,0:0:0:0:
448,192,19272,1,0,0:0:0:0:
192,192,19272,1,0,0:0:0:0:
320,192,19272,1,0,0:0:0:0:
320,192,19555,1,0,0:0:0:0:
192,192,19555,1,0,0:0:0:0:
64,192,19555,1,0,0:0:0:0:
64,192,19838,1,0,0:0:0:0:
320,192,19838,1,0,0:0:0:0:
448,192,19838,1,0,0:0:0:0:
192,192,20121,1,0,0:0:0:0:
448,192,20121,1,0,0:0:0:0:
320,192,20121,1,0,0:0:0:0:
192,192,20404,1,0,0:0:0:0:
64,192,20404,1,0,0:0:0:0:
448,192,20404,1,0,0:0:0:0:
64,192,20687,1,0,0:0:0:0:
320,192,20687,1,0,0:0:0:0:
448,192,20687,1,0,0:0:0:0:
192,192,20829,1,0,0:0:0:0:
320,192,20829,1,0,0:0:0:0:
320,192,20970,1,0,0:0:0:0:
448,192,20970,1,0,0:0:0:0:
64,192,21112,1,0,0:0:0:0:
192,192,21112,1,0,0:0:0:0:
192,192,21253,1,0,0:0:0:0:
320,192,21253,1,0,0:0:0:0:
320,192,21395,1,0,0:0:0:0:
448,192,21395,1,0,0:0:0:0:
320,192,21536,1,0,0:0:0:0:
192,192,21536,1,0,0:0:0:0:
64,192,21678,1,0,0:0:0:0:
192,192,21678,1,0,0:0:0:0:
320,192,21819,1,0,0:0:0:0:
448,192,21819,1,0,0:0:0:0:
192,192,21890,1,0,0:0:0:0:
320,192,21961,1,0,0:0:0:0:
448,192,21961,1,0,0:0:0:0:
64,192,22032,1,0,0:0:0:0:
192,192,22102,1,0,0:0:0:0:
320,192,22102,1,0,0:0:0:0:
448,192,22173,1,0,0:0:0:0:
192,192,22244,1,0,0:0:0:0:
64,192,22244,1,0,0:0:0:0:
320,192,22315,1,0,0:0:0:0:
192,192,22385,1,0,0:0:0:0:
64,192,22385,1,0,0:0:0:0:
320,192,22456,1,0,0:0:0:0:
448,192,22456,1,0,0:0:0:0:
192,192,22527,1,0,0:0:0:0:
64,192,22527,1,0,0:0:0:0:
320,192,22598,1,0,0:0:0:0:
448,192,22598,1,0,0:0:0:0:
192,192,22668,1,0,0:0:0:0:
64,192,22668,1,0,0:0:0:0:
320,192,22739,1,0,0:0:0:0:
448,192,22739,1,0,0:0:0:0:
192,192,22810,1,0,0:0:0:0:
64,192,22810,1,0,0:0:0:0:
320,192,22881,1,0,0:0:0:0:
448,192,22881,1,0,0:0:0:0:
64,192,22952,1,0,0:0:0:0:
448,192,22952,1,0,0:0:0:0:
192,192,23022,1,0,0:0:0:0:
320,192,23022,1,0,0:0:0:0:
64,192,23093,1,0,0:0:0:0:
448,192,23093,1,0,0:0:0:0:
192,192,23164,1,0,0:0:0:0:
320,192,23164,1,0,0:0:0:0:
64,192,23235,1,0,0:0:0:0:
448,192,23235,1,0,0:0:0:0:
320,192,23305,1,0,0:0:0:0:
192,192,23305,1,0,0:0:0:0:
64,192,23376,1,0,0:0:0:0:
448,192,23376,1,0,0:0:0:0:
320,192,23447,1,0,0:0:0:0:
192,192,23447,1,0,0:0:0:0:
64,192,23518,1,0,0:0:0:0:
448,192,23518,1,0,0:0:0:0:
320,192,23518,1,0,0:0:0:0:
192,192,23659,1,0,0:0:0:0:
64,192,23659,1,0,0:0:0:0:
448,192,23659,1,0,0:0:0:0:
320,192,23730,1,0,0:0:0:0:
192,192,23801,1,0,0:0:0:0:
64,192,23871,1,0,0:0:0:0:
320,192,23871,1,0,0:0:0:0:
448,192,23871,1,0,0:0:0:0:
192,192,23942,1,0,0:0:0:0:
64,192,24013,1,0,0:0:0:0:
192,192,24084,1,0,0:0:0:0:
320,192,24084,1,0,0:0:0:0:
448,192,24084,1,0,0:0:0:0:
64,192,24154,1,0,0:0:0:0:
192,192,24225,1,0,0:0:0:0:
64,192,24296,1,0,0:0:0:0:
320,192,24296,1,0,0:0:0:0:
448,192,24296,1,0,0:0:0:0:
192,192,24367,1,0,0:0:0:0:
320,192,24508,1,0,0:0:0:0:
448,192,24508,1,0,0:0:0:0:
64,192,24508,1,0,0:0:0:0:
64,192,24650,1,0,0:0:0:0:
192,192,24650,1,0,0:0:0:0:
320,192,24720,1,0,0:0:0:0:
448,192,24791,1,0,0:0:0:0:
64,192,24862,1,0,0:0:0:0:
192,192,24862,1,0,0:0:0:0:
320,192,24933,1,0,0:0:0:0:
448,192,25003,1,0,0:0:0:0:
192,192,25074,1,0,0:0:0:0:
64,192,25074,1,0,0:0:0:0:
320,192,25145,1,0,0:0:0:0:
448,192,25216,1,0,0:0:0:0:
64,192,25216,1,0,0:0:0:0:
320,192,25286,1,0,0:0:0:0:
192,192,25286,1,0,0:0:0:0:
192,192,25357,1,0,0:0:0:0:
448,192,25357,1,0,0:0:0:0:
64,192,25428,1,0,0:0:0:0:
320,192,25428,1,0,0:0:0:0:
192,192,25499,1,0,0:0:0:0:
320,192,25569,1,0,0:0:0:0:
448,192,25640,1,0,0:0:0:0:
320,192,25711,1,0,0:0:0:0:
192,192,25782,1,0,0:0:0:0:
64,192,25782,1,0,0:0:0:0:
448,192,25782,1,0,0:0:0:0:
192,192,26065,1,0,0:0:0:0:
320,192,26277,1,0,0:0:0:20:LR2_KickSynth.wav
448,192,26348,1,0,0:0:0:0:
320,192,26631,1,0,0:0:0:0:
192,192,26914,1,0,0:0:0:0:
64,192,27197,1,0,0:0:0:0:
448,192,27268,1,0,0:0:0:0:
320,192,27303,1,0,0:0:0:0:
192,192,27338,1,0,0:0:0:0:
320,192,27480,1,0,0:0:0:20:LR2_KickSynth.wav
448,192,27551,1,0,0:0:0:0:
64,192,27763,1,0,0:0:0:20:LR2_KickSynth.wav
192,192,27834,1,0,0:0:0:0:
448,192,28046,1,0,0:0:0:20:LR_Kick Total beat.wav
192,192,28046,1,0,0:0:0:20:LR_Kick Total beat.wav
192,192,28187,1,0,0:0:0:20:LR_Kick Total beat.wav
448,192,28187,1,0,0:0:0:20:LR_Kick Total beat.wav
64,192,28329,1,0,0:0:0:0:
320,192,28329,1,0,0:0:0:0:
448,192,28612,1,0,0:0:0:0:
192,192,28683,1,0,0:0:0:0:
320,192,28753,1,0,0:0:0:0:
64,192,28824,1,0,0:0:0:0:
448,192,28895,1,0,0:0:0:0:
192,192,28966,1,0,0:0:0:0:
320,192,29036,1,0,0:0:0:0:
64,192,29107,1,0,0:0:0:0:
192,192,29178,1,0,0:0:0:0:
448,192,29178,1,0,0:0:0:0:
448,192,29461,1,0,0:0:0:0:
320,192,29602,1,0,0:0:0:0:
192,192,29744,1,0,0:0:0:0:
64,192,29885,1,0,0:0:0:0:
448,192,30027,1,0,0:0:0:0:
320,192,30098,1,0,0:0:0:0:
192,192,30168,1,0,0:0:0:0:
64,192,30239,1,0,0:0:0:0:
192,192,30310,1,0,0:0:0:0:
448,192,30310,1,0,0:0:0:0:
320,192,30452,1,0,0:0:0:0:
192,192,30522,1,0,0:0:0:0:
64,192,30593,1,0,0:0:0:0:
448,192,30593,1,0,0:0:0:0:
192,192,30735,1,0,0:0:0:0:
320,192,30805,1,0,0:0:0:0:
448,192,30876,1,0,0:0:0:0:
192,192,30876,1,0,0:0:0:0:
448,192,31018,1,0,0:0:0:0:
320,192,31088,1,0,0:0:0:0:
192,192,31159,1,0,0:0:0:0:
320,192,31230,1,0,0:0:0:0:
64,192,31301,1,0,0:0:0:0:
192,192,31371,1,0,0:0:0:0:
320,192,31442,1,0,0:0:0:0:
448,192,31442,1,0,0:0:0:0:
64,192,31584,1,0,0:0:0:0:
192,192,31654,1,0,0:0:0:0:
320,192,31725,1,0,0:0:0:0:
64,192,31725,1,0,0:0:0:0:
448,192,32008,1,0,0:0:0:0:
320,192,32079,1,0,0:0:0:0:
192,192,32150,1,0,0:0:0:0:
64,192,32220,1,0,0:0:0:0:
448,192,32291,1,0,0:0:0:0:
320,192,32362,1,0,0:0:0:0:
64,192,32433,1,0,0:0:0:0:
192,192,32503,1,0,0:0:0:0:
320,192,32574,1,0,0:0:0:0:
448,192,32574,1,0,0:0:0:0:
64,192,32857,1,0,0:0:0:0:
320,192,32857,1,0,0:0:0:0:
64,192,33140,1,0,0:0:0:0:
192,192,33211,1,0,0:0:0:0:
448,192,33282,1,0,0:0:0:0:
320,192,33352,1,0,0:0:0:0:
192,192,33423,1,0,0:0:0:0:
320,192,33494,1,0,0:0:0:0:
64,192,33565,1,0,0:0:0:0:
192,192,33635,1,0,0:0:0:0:
320,192,33706,1,0,0:0:0:0:
64,192,33706,1,0,0:0:0:0:
448,192,33989,1,0,0:0:0:0:
320,192,34060,1,0,0:0:0:0:
192,192,34131,1,0,0:0:0:0:
64,192,34202,1,0,0:0:0:0:
448,192,34272,128,0,34343:0:0:0:0:
320,192,34343,128,0,34414:0:0:0:0:
192,192,34414,128,0,34485:0:0:0:0:
64,192,34485,128,0,34555:0:0:0:0:
192,192,34555,1,0,0:0:0:0:
320,192,34555,1,0,0:0:0:0:
448,192,34555,1,0,0:0:0:0:
64,192,34626,1,0,0:0:0:0:
192,192,34697,1,0,0:0:0:0:
320,192,34768,1,0,0:0:0:0:
64,192,34838,1,0,0:0:0:0:
192,192,34838,1,0,0:0:0:0:
448,192,34838,1,0,0:0:0:0:
192,192,35121,1,0,0:0:0:0:
448,192,35121,1,0,0:0:0:0:
320,192,35121,1,0,0:0:0:0:
192,192,35263,1,0,0:0:0:40:LR2_KickSynth.wav
64,192,35404,1,0,0:0:0:0:
448,192,35404,1,0,0:0:0:0:
320,192,35404,1,0,0:0:0:0:
192,192,35687,1,0,0:0:0:0:
64,192,35687,1,0,0:0:0:0:
448,192,35687,1,0,0:0:0:0:
320,192,35970,1,0,0:0:0:0:
64,192,35970,1,0,0:0:0:0:
448,192,35970,1,0,0:0:0:0:
192,192,36041,1,0,0:0:0:20:
320,192,36112,1,0,0:0:0:20:
448,192,36183,1,0,0:0:0:20:
320,192,36253,1,0,0:0:0:0:
192,192,36253,1,0,0:0:0:0:
64,192,36253,1,0,0:0:0:0:
64,192,36536,1,0,0:0:0:0:
448,192,36536,1,0,0:0:0:0:
192,192,36536,1,0,0:0:0:0:
320,192,36607,1,0,0:0:0:0:
448,192,36678,1,0,0:0:0:0:
64,192,36749,1,0,0:0:0:0:
192,192,36819,1,0,0:0:0:0:
320,192,36819,1,0,0:0:0:0:
448,192,36819,1,0,0:0:0:0:
64,192,36890,1,0,0:0:0:0:
448,192,36961,1,0,0:0:0:0:
192,192,36961,1,0,0:0:0:0:
320,192,37032,1,0,0:0:0:0:
192,192,37102,1,0,0:0:0:0:
64,192,37102,1,0,0:0:0:0:
448,192,37102,1,0,0:0:0:0:
192,192,37244,1,0,0:0:0:0:
320,192,37244,1,0,0:0:0:0:
448,192,37244,1,0,0:0:0:0:
64,192,37315,1,0,0:0:0:0:
192,192,37385,1,0,0:0:0:40:LR2_KickSynth.wav
192,192,37527,1,0,0:0:0:0:
448,192,37527,1,0,0:0:0:0:
64,192,37527,1,0,0:0:0:0:
320,192,37598,1,0,0:0:0:0:
192,192,37668,1,0,0:0:0:40:LR2_KickSynth.wav
192,192,37810,1,0,0:0:0:0:
320,192,37810,1,0,0:0:0:0:
64,192,37810,1,0,0:0:0:0:
448,192,37881,1,0,0:0:0:0:
320,192,37952,1,0,0:0:0:40:LR2_KickSynth.wav
64,192,38093,1,0,0:0:0:0:
448,192,38093,1,0,0:0:0:0:
320,192,38093,1,0,0:0:0:0:
192,192,38164,1,0,0:0:0:0:
320,192,38235,1,0,0:0:0:0:
64,192,38235,1,0,0:0:0:0:
448,192,38235,1,0,0:0:0:0:
64,192,38447,1,0,0:0:0:0:
192,192,38447,1,0,0:0:0:0:
448,192,38447,1,0,0:0:0:0:
192,192,38659,1,0,0:0:0:0:
320,192,38659,1,0,0:0:0:0:
448,192,38659,1,0,0:0:0:0:
64,192,38801,1,0,0:0:0:0:
192,192,38801,1,0,0:0:0:0:
320,192,38801,1,0,0:0:0:0:
320,192,38942,1,0,0:0:0:0:
192,192,38942,1,0,0:0:0:0:
64,192,38942,1,0,0:0:0:0:
192,192,39084,1,0,0:0:0:0:
448,192,39084,1,0,0:0:0:0:
64,192,39084,1,0,0:0:0:0:
320,192,39154,1,0,0:0:0:0:
192,192,39225,1,0,0:0:0:0:
64,192,39296,1,0,0:0:0:0:
192,192,39367,1,0,0:0:0:0:
320,192,39367,1,0,0:0:0:0:
448,192,39367,1,0,0:0:0:0:
64,192,39650,1,0,0:0:0:0:
192,192,39650,1,0,0:0:0:0:
320,192,39650,1,0,0:0:0:0:
448,192,39720,1,0,0:0:0:0:
64,192,39791,1,0,0:0:0:0:
192,192,39862,1,0,0:0:0:0:
448,192,39933,1,0,0:0:0:0:
64,192,39933,1,0,0:0:0:0:
320,192,39933,1,0,0:0:0:0:
320,192,40216,1,0,0:0:0:0:
64,192,40216,1,0,0:0:0:0:
448,192,40216,1,0,0:0:0:0:
192,192,40286,1,0,0:0:0:0:
64,192,40357,1,0,0:0:0:0:
448,192,40428,1,0,0:0:0:0:
192,192,40499,1,0,0:0:0:0:
64,192,40499,1,0,0:0:0:0:
320,192,40499,1,0,0:0:0:0:
64,192,40782,1,0,0:0:0:0:
320,192,40782,1,0,0:0:0:0:
448,192,40782,1,0,0:0:0:0:
192,192,41065,1,0,0:0:0:0:
64,192,41065,1,0,0:0:0:0:
320,192,41065,1,0,0:0:0:0:
64,192,41277,1,0,0:0:0:0:
320,192,41277,1,0,0:0:0:0:
448,192,41277,1,0,0:0:0:0:
448,192,41489,1,0,0:0:0:0:
320,192,41489,1,0,0:0:0:0:
192,192,41489,1,0,0:0:0:0:
64,192,41631,1,0,0:0:0:0:
320,192,41631,1,0,0:0:0:0:
192,192,41631,1,0,0:0:0:0:
64,192,41772,1,0,0:0:0:0:
192,192,41772,1,0,0:0:0:0:
448,192,41772,1,0,0:0:0:0:
320,192,41843,1,0,0:0:0:0:
192,192,41914,1,0,0:0:0:0:
448,192,41985,1,0,0:0:0:0:
320,192,42055,1,0,0:0:0:0:
192,192,42126,1,0,0:0:0:0:
64,192,42197,1,0,0:0:0:0:
320,192,42197,1,0,0:0:0:0:
448,192,42197,1,0,0:0:0:0:
192,192,42338,1,0,0:0:0:0:
64,192,42338,1,0,0:0:0:0:
320,192,42338,1,0,0:0:0:0:
448,192,42480,1,0,0:0:0:0:
320,192,42551,1,0,0:0:0:0:
192,192,42621,1,0,0:0:0:0:
64,192,42692,1,0,0:0:0:0:
192,192,42763,1,0,0:0:0:0:
320,192,42763,1,0,0:0:0:0:
448,192,42763,1,0,0:0:0:0:
64,192,42904,1,0,0:0:0:0:
192,192,42904,1,0,0:0:0:0:
320,192,42904,1,0,0:0:0:0:
448,192,43046,1,0,0:0:0:0:
320,192,43117,1,0,0:0:0:0:
192,192,43187,1,0,0:0:0:0:
64,192,43258,1,0,0:0:0:0:
192,192,43329,1,0,0:0:0:0:
320,192,43329,1,0,0:0:0:0:
448,192,43329,1,0,0:0:0:0:
192,192,43541,1,0,0:0:0:0:
320,192,43541,1,0,0:0:0:0:
448,192,43541,1,0,0:0:0:0:
64,192,43612,1,0,0:0:0:0:
192,192,43647,1,0,0:0:0:0:
448,192,43683,1,0,0:0:0:0:
320,192,43718,1,0,0:0:0:0:
64,192,43753,1,0,0:0:0:0:
192,192,43789,1,0,0:0:0:0:
448,192,43824,1,0,0:0:0:0:
320,192,43860,1,0,0:0:0:0:
64,192,43895,1,0,0:0:0:0:
192,192,43895,1,0,0:0:0:0:
192,192,45876,1,0,0:0:0:0:
320,192,45876,1,0,0:0:0:0:
64,192,46159,1,0,0:0:0:0:
448,192,46159,1,0,0:0:0:0:
320,192,46301,1,0,0:0:0:0:
192,192,46442,1,0,0:0:0:0:
64,192,46584,1,0,0:0:0:0:
64,192,46867,1,0,0:0:0:0:
192,192,47008,1,0,0:0:0:0:
320,192,47150,1,0,0:0:0:0:
64,192,47291,1,0,0:0:0:0:
448,192,47291,1,0,0:0:0:0:
192,192,47433,1,0,0:0:0:0:
448,192,47716,1,0,0:0:0:0:
320,192,47716,1,0,0:0:0:0:
192,192,47857,1,0,0:0:0:0:
64,192,47999,1,0,0:0:0:0:
448,192,48069,1,0,0:0:0:0:
192,192,48140,1,0,0:0:0:0:
320,192,48211,1,0,0:0:0:0:
448,192,48282,1,0,0:0:0:0:
64,192,48352,1,0,0:0:0:0:
320,192,48423,1,0,0:0:0:0:
192,192,48706,1,0,0:0:0:0:
448,192,48706,1,0,0:0:0:0:
64,192,48989,1,0,0:0:0:0:
448,192,49131,1,0,0:0:0:0:
320,192,49202,1,0,0:0:0:0:
192,192,49272,1,0,0:0:0:0:
64,192,49414,1,0,0:0:0:0:
64,192,49697,1,0,0:0:0:0:
320,192,49697,1,0,0:0:0:0:
192,192,49980,1,0,0:0:0:0:
448,192,49980,1,0,0:0:0:0:
64,192,50263,1,0,0:0:0:0:
192,192,50334,1,0,0:0:0:0:
320,192,50404,1,0,0:0:0:0:
448,192,50404,1,0,0:0:0:0:
64,192,50687,1,0,0:0:0:0:
320,192,50687,1,0,0:0:0:0:
448,192,50829,1,0,0:0:0:0:
320,192,50970,1,0,0:0:0:0:
320,192,51112,1,0,0:0:0:0:
320,192,51253,1,0,0:0:0:0:
192,192,51395,1,0,0:0:0:0:
192,192,51536,1,0,0:0:0:0:
64,192,51678,1,0,0:0:0:0:
64,192,51819,1,0,0:0:0:0:
320,192,51819,1,0,0:0:0:0:
448,192,51961,1,0,0:0:0:0:
320,192,52244,1,0,0:0:0:0:
448,192,52244,1,0,0:0:0:0:
64,192,52385,1,0,0:0:0:0:
192,192,52527,1,0,0:0:0:0:
320,192,52668,1,0,0:0:0:0:
448,192,52810,1,0,0:0:0:0:
64,192,52952,1,0,0:0:0:0:
192,192,53235,1,0,0:0:0:0:
448,192,53235,1,0,0:0:0:0:
64,192,53518,1,0,0:0:0:0:
320,192,53518,1,0,0:0:0:0:
448,192,53659,1,0,0:0:0:0:
320,192,53730,1,0,0:0:0:0:
192,192,53801,1,0,0:0:0:0:
64,192,53942,1,0,0:0:0:0:
320,192,53942,1,0,0:0:0:0:
64,192,54225,1,0,0:0:0:0:
192,192,54225,1,0,0:0:0:0:
320,192,54296,1,0,0:0:0:0:
448,192,54296,1,0,0:0:0:0:
192,192,54367,1,0,0:0:0:0:
64,192,54367,1,0,0:0:0:0:
320,192,54437,1,0,0:0:0:0:
448,192,54437,1,0,0:0:0:0:
192,192,54508,1,0,0:0:0:0:
64,192,54508,1,0,0:0:0:0:
320,192,54579,1,0,0:0:0:0:
448,192,54579,1,0,0:0:0:0:
64,192,54650,1,0,0:0:0:0:
192,192,54650,1,0,0:0:0:0:
320,192,54720,1,0,0:0:0:0:
448,192,54720,1,0,0:0:0:0:
192,192,54791,1,0,0:0:0:0:
64,192,54791,1,0,0:0:0:0:
320,192,54862,1,0,0:0:0:0:
448,192,54862,1,0,0:0:0:0:
64,192,54933,1,0,0:0:0:0:
192,192,54933,1,0,0:0:0:0:
448,192,54933,1,0,0:0:0:0:
64,192,55216,128,0,55357:0:0:0:0:
448,192,55216,128,0,55357:0:0:0:0:
320,192,55357,1,0,0:0:0:0:
448,192,55499,1,0,0:0:0:0:
320,192,55499,1,0,0:0:0:0:
192,192,55499,1,0,0:0:0:0:
64,192,55640,128,0,55782:0:0:0:0:
320,192,55640,128,0,55782:0:0:0:0:
448,192,55923,1,0,0:0:0:0:
320,192,56065,1,0,0:0:0:0:
192,192,56065,1,0,0:0:0:0:
64,192,56065,1,0,0:0:0:0:
192,192,56206,1,0,0:0:0:0:
64,192,56348,1,0,0:0:0:0:
320,192,56348,1,0,0:0:0:0:
448,192,56348,1,0,0:0:0:0:
192,192,56489,1,0,0:0:0:0:
320,192,56489,1,0,0:0:0:0:
448,192,56489,1,0,0:0:0:0:
64,192,56631,1,0,0:0:0:0:
192,192,56631,1,0,0:0:0:0:
448,192,56631,1,0,0:0:0:0:
64,192,56772,1,0,0:0:0:0:
192,192,56772,1,0,0:0:0:0:
320,192,56772,1,0,0:0:0:0:
448,192,56914,1,0,0:0:0:0:
64,192,57055,1,0,0:0:0:0:
192,192,57055,1,0,0:0:0:0:
320,192,57055,1,0,0:0:0:0:
320,192,57197,1,0,0:0:0:0:
448,192,57197,1,0,0:0:0:0:
192,192,57268,1,0,0:0:0:0:
64,192,57268,1,0,0:0:0:0:
320,192,57338,1,0,0:0:0:0:
448,192,57338,1,0,0:0:0:0:
64,192,57409,1,0,0:0:0:0:
192,192,57409,1,0,0:0:0:0:
320,192,57480,1,0,0:0:0:0:
448,192,57480,1,0,0:0:0:0:
64,192,57763,1,0,0:0:0:0:
320,192,57763,1,0,0:0:0:0:
448,192,57763,1,0,0:0:0:0:
192,192,58046,1,0,0:0:0:0:
64,192,58187,1,0,0:0:0:0:
320,192,58187,1,0,0:0:0:0:
448,192,58187,1,0,0:0:0:0:
192,192,58329,1,0,0:0:0:0:
320,192,58329,1,0,0:0:0:0:
448,192,58329,1,0,0:0:0:0:
64,192,58470,1,0,0:0:0:0:
192,192,58470,1,0,0:0:0:0:
320,192,58470,1,0,0:0:0:0:
192,192,58753,1,0,0:0:0:0:
64,192,58753,1,0,0:0:0:0:
448,192,58753,1,0,0:0:0:0:
320,192,58895,1,0,0:0:0:0:
192,192,58895,1,0,0:0:0:0:
192,192,59036,1,0,0:0:0:0:
320,192,59036,1,0,0:0:0:0:
448,192,59036,1,0,0:0:0:0:
192,192,59319,1,0,0:0:0:0:
320,192,59319,1,0,0:0:0:0:
448,192,59390,1,0,0:0:0:0:
64,192,59390,1,0,0:0:0:0:
192,192,59461,1,0,0:0:0:0:
320,192,59461,1,0,0:0:0:0:
320,192,59744,1,0,0:0:0:0:
448,192,59744,1,0,0:0:0:0:
64,192,59744,1,0,0:0:0:0:
192,192,59885,1,0,0:0:0:0:
192,192,60027,1,0,0:0:0:0:
320,192,60027,1,0,0:0:0:0:
448,192,60027,1,0,0:0:0:0:
64,192,60168,1,0,0:0:0:0:
192,192,60168,1,0,0:0:0:0:
320,192,60168,1,0,0:0:0:0:
64,192,60452,1,0,0:0:0:0:
320,192,60452,1,0,0:0:0:0:
448,192,60452,1,0,0:0:0:0:
192,192,60593,1,0,0:0:0:0:
64,192,60593,1,0,0:0:0:0:
448,192,60593,1,0,0:0:0:0:
320,192,60735,1,0,0:0:0:0:
64,192,60876,1,0,0:0:0:0:
192,192,60876,1,0,0:0:0:0:
320,192,60876,1,0,0:0:0:0:
64,192,61018,1,0,0:0:0:0:
192,192,61018,1,0,0:0:0:0:
320,192,61018,1,0,0:0:0:0:
192,192,61159,1,0,0:0:0:0:
320,192,61159,1,0,0:0:0:0:
448,192,61159,1,0,0:0:0:0:
64,192,61301,1,0,0:0:0:0:
320,192,61301,1,0,0:0:0:0:
448,192,61301,1,0,0:0:0:0:
64,192,61584,1,0,0:0:0:0:
320,192,61584,1,0,0:0:0:0:
448,192,61584,1,0,0:0:0:0:
64,192,61725,1,0,0:0:0:0:
192,192,61725,1,0,0:0:0:0:
320,192,61796,1,0,0:0:0:0:
448,192,61796,1,0,0:0:0:0:
192,192,61867,1,0,0:0:0:0:
64,192,61867,1,0,0:0:0:0:
448,192,61937,1,0,0:0:0:0:
320,192,61937,1,0,0:0:0:0:
64,192,62291,1,0,0:0:0:0:
320,192,62291,1,0,0:0:0:0:
448,192,62291,1,0,0:0:0:0:
192,192,62433,1,0,0:0:0:0:
192,192,62574,1,0,0:0:0:0:
64,192,62716,1,0,0:0:0:0:
448,192,62716,1,0,0:0:0:0:
192,192,62716,1,0,0:0:0:0:
320,192,62786,1,0,0:0:0:0:
64,192,62857,1,0,0:0:0:0:
192,192,62857,1,0,0:0:0:0:
320,192,62928,1,0,0:0:0:0:
448,192,62928,1,0,0:0:0:0:
192,192,62999,1,0,0:0:0:0:
64,192,62999,1,0,0:0:0:0:
448,192,62999,1,0,0:0:0:0:
320,192,63069,1,0,0:0:0:0:
192,192,63140,1,0,0:0:0:0:
64,192,63140,1,0,0:0:0:0:
320,192,63140,1,0,0:0:0:0:
320,192,63282,1,0,0:0:0:0:
448,192,63282,1,0,0:0:0:0:
320,192,63423,1,0,0:0:0:0:
448,192,63423,1,0,0:0:0:0:
64,192,63565,1,0,0:0:0:0:
64,192,63706,1,0,0:0:0:0:
320,192,63706,1,0,0:0:0:0:
192,192,63777,1,0,0:0:0:0:
448,192,63777,1,0,0:0:0:0:
64,192,63848,1,0,0:0:0:0:
320,192,63848,1,0,0:0:0:0:
448,192,63918,1,0,0:0:0:0:
192,192,63918,1,0,0:0:0:0:
64,192,63989,1,0,0:0:0:0:
320,192,63989,1,0,0:0:0:0:
192,192,64060,1,0,0:0:0:0:
320,192,64060,1,0,0:0:0:0:
64,192,64131,1,0,0:0:0:0:
448,192,64131,1,0,0:0:0:0:
192,192,64202,1,0,0:0:0:0:
320,192,64202,1,0,0:0:0:0:
64,192,64414,1,0,0:0:0:0:
192,192,64485,1,0,0:0:0:0:
64,192,64555,1,0,0:0:0:0:
320,192,64555,1,0,0:0:0:0:
448,192,64626,1,0,0:0:0:0:
320,192,64697,1,0,0:0:0:0:
192,192,64768,1,0,0:0:0:0:
64,192,64838,1,0,0:0:0:0:
448,192,64838,1,0,0:0:0:0:
320,192,64909,1,0,0:0:0:0:
192,192,64980,1,0,0:0:0:0:
64,192,65121,1,0,0:0:0:0:
320,192,65121,1,0,0:0:0:0:
448,192,65192,1,0,0:0:0:0:
64,192,65263,1,0,0:0:0:0:
192,192,65334,1,0,0:0:0:0:
320,192,65404,1,0,0:0:0:0:
448,192,65404,1,0,0:0:0:0:
320,192,65546,1,0,0:0:0:0:
192,192,65617,1,0,0:0:0:0:
64,192,65687,1,0,0:0:0:0:
448,192,65687,1,0,0:0:0:0:
320,192,65758,1,0,0:0:0:0:
192,192,65829,1,0,0:0:0:0:
320,192,65900,1,0,0:0:0:0:
448,192,65970,1,0,0:0:0:0:
64,192,65970,1,0,0:0:0:0:
192,192,65970,1,0,0:0:0:0:
192,192,66112,1,0,0:0:0:0:
320,192,66112,1,0,0:0:0:0:
320,192,66253,1,0,0:0:0:0:
448,192,66253,1,0,0:0:0:0:
192,192,66253,1,0,0:0:0:0:
192,192,66395,1,0,0:0:0:0:
64,192,66395,1,0,0:0:0:0:
320,192,66395,1,0,0:0:0:0:
320,192,66536,1,0,0:0:0:0:
448,192,66536,1,0,0:0:0:0:
192,192,66678,1,0,0:0:0:0:
320,192,66678,1,0,0:0:0:0:
192,192,66819,1,0,0:0:0:0:
64,192,66819,1,0,0:0:0:0:
448,192,66819,1,0,0:0:0:0:
320,192,66890,1,0,0:0:0:0:
448,192,66961,1,0,0:0:0:0:
64,192,67032,1,0,0:0:0:0:
192,192,67102,1,0,0:0:0:0:
320,192,67102,1,0,0:0:0:0:
448,192,67197,128,0,67244:0:0:0:0:
320,192,67291,128,0,67338:0:0:0:0:
64,192,67385,1,0,0:0:0:0:
448,192,67385,1,0,0:0:0:0:
320,192,67668,1,0,0:0:0:0:
192,192,67668,1,0,0:0:0:0:
64,192,67763,128,0,67810:0:0:0:0:
192,192,67857,128,0,67904:0:0:0:0:
320,192,67952,1,0,0:0:0:0:
448,192,67952,1,0,0:0:0:0:
64,192,68093,1,0,0:0:0:0:
192,192,68093,1,0,0:0:0:0:
320,192,68235,1,0,0:0:0:0:
448,192,68235,1,0,0:0:0:0:
192,192,68305,1,0,0:0:0:0:
64,192,68305,1,0,0:0:0:0:
320,192,68376,1,0,0:0:0:0:
448,192,68376,1,0,0:0:0:0:
64,192,68447,1,0,0:0:0:0:
192,192,68447,1,0,0:0:0:0:
320,192,68518,1,0,0:0:0:0:
448,192,68518,1,0,0:0:0:0:
192,192,68659,1,0,0:0:0:0:
320,192,68659,1,0,0:0:0:0:
64,192,68730,1,0,0:0:0:0:
448,192,68730,1,0,0:0:0:0:
320,192,68801,1,0,0:0:0:0:
192,192,68801,1,0,0:0:0:0:
64,192,68942,1,0,0:0:0:0:
448,192,69084,1,0,0:0:0:0:
64,192,69084,1,0,0:0:0:0:
192,192,69154,1,0,0:0:0:0:
320,192,69225,1,0,0:0:0:0:
192,192,69296,1,0,0:0:0:0:
448,192,69367,1,0,0:0:0:0:
64,192,69367,1,0,0:0:0:0:
320,192,69437,1,0,0:0:0:0:
192,192,69508,1,0,0:0:0:0:
320,192,69579,1,0,0:0:0:0:
448,192,69650,1,0,0:0:0:0:
64,192,69650,1,0,0:0:0:0:
192,192,69720,1,0,0:0:0:0:
320,192,69791,1,0,0:0:0:0:
448,192,69862,1,0,0:0:0:0:
64,192,69933,1,0,0:0:0:0:
192,192,69950,1,0,0:0:0:0:
448,192,70074,1,0,0:0:0:0:
320,192,70092,1,0,0:0:0:0:
64,192,70216,1,0,0:0:0:0:
320,192,70216,1,0,0:0:0:0:
192,192,70286,1,0,0:0:0:0:
320,192,70357,1,0,0:0:0:0:
448,192,70428,1,0,0:0:0:0:
320,192,70499,1,0,0:0:0:0:
64,192,70499,1,0,0:0:0:0:
192,192,70569,1,0,0:0:0:0:
64,192,70640,1,0,0:0:0:0:
448,192,70711,1,0,0:0:0:0:
320,192,70782,1,0,0:0:0:0:
64,192,70782,1,0,0:0:0:0:
448,192,70852,1,0,0:0:0:0:
64,192,70923,1,0,0:0:0:0:
192,192,70994,1,0,0:0:0:0:
320,192,71065,1,0,0:0:0:0:
448,192,71065,1,0,0:0:0:0:
64,192,71065,1,0,0:0:0:0:
64,192,71206,1,0,0:0:0:0:
192,192,71206,1,0,0:0:0:0:
320,192,71206,1,0,0:0:0:0:
64,192,71348,1,0,0:0:0:0:
192,192,71418,1,0,0:0:0:0:
320,192,71489,1,0,0:0:0:0:
64,192,71560,1,0,0:0:0:0:
192,192,71560,1,0,0:0:0:0:
320,192,71631,1,0,0:0:0:0:
448,192,71631,1,0,0:0:0:0:
64,192,71772,1,0,0:0:0:0:
192,192,71843,1,0,0:0:0:0:
448,192,71843,1,0,0:0:0:0:
320,192,71914,1,0,0:0:0:0:
192,192,72055,1,0,0:0:0:0:
64,192,72055,1,0,0:0:0:0:
448,192,72197,1,0,0:0:0:0:
64,192,72338,1,0,0:0:0:0:
192,192,72338,1,0,0:0:0:0:
320,192,72480,1,0,0:0:0:0:
192,192,72480,1,0,0:0:0:0:
448,192,72551,1,0,0:0:0:0:
64,192,72551,1,0,0:0:0:0:
192,192,72621,1,0,0:0:0:0:
320,192,72621,1,0,0:0:0:0:
64,192,72692,1,0,0:0:0:0:
448,192,72692,1,0,0:0:0:0:
320,192,72763,1,0,0:0:0:0:
192,192,72763,1,0,0:0:0:0:
448,192,72834,1,0,0:0:0:0:
320,192,72904,1,0,0:0:0:0:
64,192,72904,1,0,0:0:0:0:
192,192,72975,1,0,0:0:0:0:
320,192,73046,1,0,0:0:0:0:
448,192,73046,1,0,0:0:0:0:
192,192,73117,1,0,0:0:0:0:
64,192,73117,1,0,0:0:0:0:
320,192,73187,1,0,0:0:0:0:
448,192,73187,1,0,0:0:0:0:
192,192,73258,1,0,0:0:0:0:
64,192,73329,128,0,74461:0:0:0:0:
320,192,73612,1,0,0:0:0:0:
448,192,73612,1,0,0:0:0:0:
320,192,73895,1,0,0:0:0:0:
448,192,73895,1,0,0:0:0:0:
448,192,74178,1,0,0:0:0:0:
192,192,74178,1,0,0:0:0:0:
192,192,74461,128,0,75027:0:0:0:0:
448,192,74461,1,0,0:0:0:0:
448,192,74744,1,0,0:0:0:0:
64,192,74744,1,0,0:0:0:0:
320,192,75027,128,0,75593:0:0:0:0:
448,192,75027,1,0,0:0:0:0:
64,192,75310,1,0,0:0:0:0:
192,192,75310,1,0,0:0:0:0:
64,192,75452,1,0,0:0:0:0:
192,192,75452,1,0,0:0:0:0:
448,192,75593,128,0,76725:0:0:0:0:
192,192,75593,1,0,0:0:0:0:
192,192,75735,1,0,0:0:0:0:
320,192,75735,1,0,0:0:0:0:
64,192,75876,1,0,0:0:0:0:
320,192,75876,1,0,0:0:0:0:
64,192,76159,1,0,0:0:0:0:
192,192,76159,1,0,0:0:0:0:
192,192,76442,1,0,0:0:0:0:
320,192,76442,1,0,0:0:0:0:
64,192,76725,128,0,77291:0:0:0:0:
192,192,76725,1,0,0:0:0:0:
320,192,77008,1,0,0:0:0:0:
448,192,77008,1,0,0:0:0:0:
192,192,77220,1,0,0:0:0:0:
320,192,77220,1,0,0:0:0:0:
448,192,77291,128,0,77857:0:0:0:0:
192,192,77433,1,0,0:0:0:0:
320,192,77433,1,0,0:0:0:0:
64,192,77574,1,0,0:0:0:0:
192,192,77574,1,0,0:0:0:0:
320,192,77645,1,0,0:0:0:0:
192,192,77716,1,0,0:0:0:0:
320,192,77786,1,0,0:0:0:0:
64,192,77857,128,0,78848:0:0:0:0:
192,192,77857,1,0,0:0:0:0:
320,192,77999,1,0,0:0:0:0:
448,192,77999,1,0,0:0:0:0:
192,192,78140,1,0,0:0:0:0:
448,192,78140,1,0,0:0:0:0:
192,192,78282,1,0,0:0:0:0:
320,192,78282,1,0,0:0:0:0:
320,192,78423,1,0,0:0:0:0:
448,192,78423,1,0,0:0:0:0:
320,192,78565,1,0,0:0:0:0:
192,192,78565,1,0,0:0:0:0:
192,192,78706,1,0,0:0:0:0:
448,192,78706,1,0,0:0:0:0:
192,192,78848,128,0,78918:0:0:0:0:
320,192,78848,1,0,0:0:0:0:
320,192,78918,128,0,78989:0:0:0:0:
448,192,78918,1,0,0:0:0:0:
448,192,78989,128,0,79555:0:0:0:0:
64,192,78989,1,0,0:0:0:0:
192,192,79131,1,0,0:0:0:0:
320,192,79131,1,0,0:0:0:0:
64,192,79272,1,0,0:0:0:0:
192,192,79272,1,0,0:0:0:0:
320,192,79414,1,0,0:0:0:0:
64,192,79414,1,0,0:0:0:0:
192,192,79555,128,0,79838:0:0:0:0:
320,192,79555,1,0,0:0:0:0:
320,192,79697,1,0,0:0:0:0:
448,192,79697,1,0,0:0:0:0:
64,192,79768,1,0,0:0:0:0:
320,192,79838,128,0,80121:0:0:0:0:
448,192,79838,1,0,0:0:0:0:
64,192,79909,1,0,0:0:0:0:
192,192,79909,1,0,0:0:0:0:
448,192,79980,1,0,0:0:0:0:
192,192,80051,1,0,0:0:0:0:
64,192,80051,1,0,0:0:0:0:
64,192,80121,128,0,81253:0:0:0:0:
448,192,80121,1,0,0:0:0:0:
448,192,80404,1,0,0:0:0:0:
320,192,80475,1,0,0:0:0:0:
192,192,80687,1,0,0:0:0:0:
320,192,80687,1,0,0:0:0:0:
320,192,80970,1,0,0:0:0:0:
448,192,81041,1,0,0:0:0:0:
448,192,81253,128,0,82385:0:0:0:0:
192,192,81253,1,0,0:0:0:0:
320,192,81324,1,0,0:0:0:0:
192,192,81395,1,0,0:0:0:0:
320,192,81466,1,0,0:0:0:0:
192,192,81536,1,0,0:0:0:0:
64,192,81607,1,0,0:0:0:0:
192,192,81678,1,0,0:0:0:0:
64,192,81749,1,0,0:0:0:0:
192,192,81819,1,0,0:0:0:0:
320,192,81890,1,0,0:0:0:0:
64,192,81961,1,0,0:0:0:0:
320,192,82032,1,0,0:0:0:0:
64,192,82102,1,0,0:0:0:0:
320,192,82173,1,0,0:0:0:0:
192,192,82244,1,0,0:0:0:0:
64,192,82315,1,0,0:0:0:0:
192,192,82385,1,0,0:0:0:0:
320,192,82385,1,0,0:0:0:0:
448,192,82527,1,0,0:0:0:0:
64,192,82668,1,0,0:0:0:0:
192,192,82668,1,0,0:0:0:0:
320,192,82668,1,0,0:0:0:0:
192,192,82810,1,0,0:0:0:0:
320,192,82952,1,0,0:0:0:0:
448,192,82952,1,0,0:0:0:0:
64,192,83093,1,0,0:0:0:0:
192,192,83235,1,0,0:0:0:0:
320,192,83235,1,0,0:0:0:0:
448,192,83235,1,0,0:0:0:0:
192,192,83376,1,0,0:0:0:0:
64,192,83518,1,0,0:0:0:0:
320,192,83518,1,0,0:0:0:0:
448,192,83659,1,0,0:0:0:0:
64,192,83801,1,0,0:0:0:0:
320,192,83801,1,0,0:0:0:0:
448,192,83801,1,0,0:0:0:0:
192,192,83942,1,0,0:0:0:0:
192,192,84084,1,0,0:0:0:0:
320,192,84084,1,0,0:0:0:0:
64,192,84225,1,0,0:0:0:0:
192,192,84367,1,0,0:0:0:0:
320,192,84367,1,0,0:0:0:0:
448,192,84367,1,0,0:0:0:0:
320,192,84508,1,0,0:0:0:0:
192,192,84650,1,0,0:0:0:0:
64,192,84650,1,0,0:0:0:0:
320,192,84791,1,0,0:0:0:0:
448,192,84933,1,0,0:0:0:0:
192,192,84933,1,0,0:0:0:0:
64,192,84933,1,0,0:0:0:0:
192,192,85074,1,0,0:0:0:0:
320,192,85216,1,0,0:0:0:0:
448,192,85216,1,0,0:0:0:0:
448,192,85357,1,0,0:0:0:0:
320,192,85499,1,0,0:0:0:0:
192,192,85499,1,0,0:0:0:0:
64,192,85499,1,0,0:0:0:0:
448,192,85640,1,0,0:0:0:0:
64,192,85711,1,0,0:0:0:0:
192,192,85782,1,0,0:0:0:0:
448,192,85782,1,0,0:0:0:0:
448,192,86277,1,0,0:0:0:0:
320,192,86348,1,0,0:0:0:0:
64,192,86843,1,0,0:0:0:0:
192,192,86914,1,0,0:0:0:0:
448,192,86914,128,0,87055:0:0:0:0:
320,192,87338,1,0,0:0:0:0:
64,192,87338,128,0,87480:0:0:0:0:
192,192,87763,1,0,0:0:0:0:
320,192,87763,128,0,87904:0:0:0:0:
64,192,88258,1,0,0:0:0:0:
192,192,88329,1,0,0:0:0:0:
448,192,88895,1,0,0:0:0:0:
448,192,89178,1,0,0:0:0:0:
320,192,89319,1,0,0:0:0:0:
192,192,89461,1,0,0:0:0:0:
64,192,89602,1,0,0:0:0:0:
448,192,89744,1,0,0:0:0:0:
320,192,89885,1,0,0:0:0:0:
192,192,90027,1,0,0:0:0:0:
64,192,90168,1,0,0:0:0:0:
192,192,90310,1,0,0:0:0:0:
320,192,90452,1,0,0:0:0:0:
448,192,90593,1,0,0:0:0:0:
64,192,90735,1,0,0:0:0:0:
192,192,90876,1,0,0:0:0:0:
320,192,90876,128,0,90947:0:0:0:0:
448,192,90876,1,0,0:0:0:0:
320,192,91018,1,0,0:0:0:0:
64,192,91018,1,0,0:0:0:0:
192,192,91018,128,0,91088:0:0:0:0:
192,192,91159,1,0,0:0:0:0:
320,192,91159,1,0,0:0:0:0:
448,192,91159,128,0,91230:0:0:0:0:
64,192,91301,128,0,91371:0:0:0:0:
192,192,91301,1,0,0:0:0:0:
320,192,91301,1,0,0:0:0:0:
192,192,92008,1,0,0:0:0:0:
64,192,92008,128,0,92150:0:0:0:0:
320,192,92574,1,0,0:0:0:0:
448,192,92574,128,0,92716:0:0:0:0:
192,192,93140,1,0,0:0:0:0:
320,192,93140,128,0,93282:0:0:0:0:
64,192,93706,1,0,0:0:0:0:
320,192,93706,128,0,93848:0:0:0:0:
192,192,94131,128,0,94272:0:0:0:0:
448,192,94131,1,0,0:0:0:0:
320,192,94555,1,0,0:0:0:0:
192,192,94555,128,0,94697:0:0:0:0:
192,192,95121,128,0,95970:0:0:0:0:
64,192,95452,128,0,95782:0:0:0:0:
448,192,95593,128,0,95970:0:0:0:0:
320,192,95782,128,0,95970:0:0:0:0:
64,192,95970,1,0,0:0:0:0:
320,192,96536,1,0,0:0:0:0:
64,192,96536,128,0,96678:0:0:0:0:
320,192,97102,1,0,0:0:0:0:
448,192,97102,128,0,97244:0:0:0:0:
320,192,97668,1,0,0:0:0:0:
64,192,97668,128,0,97810:0:0:0:0:
192,192,98235,1,0,0:0:0:0:
448,192,98235,128,0,98376:0:0:0:0:
320,192,98659,1,0,0:0:0:0:
192,192,98659,128,0,98801:0:0:0:0:
448,192,98659,128,0,98801:0:0:0:0:
64,192,99084,128,0,99225:0:0:0:0:
192,192,99084,128,0,99225:0:0:0:0:
320,192,99084,128,0,99225:0:0:0:0:
448,192,99367,128,0,99437:0:0:0:0:
320,192,99437,128,0,99508:0:0:0:0:
192,192,99508,128,0,99579:0:0:0:0:
64,192,99579,128,0,99650:0:0:0:0:
448,192,99650,128,0,99791:0:0:0:0:
320,192,99720,128,0,99862:0:0:0:0:
192,192,99791,128,0,99933:0:0:0:0:
64,192,99862,128,0,100003:0:0:0:0:
448,192,99933,128,0,100145:0:0:0:0:
320,192,100003,128,0,100216:0:0:0:0:
192,192,100074,128,0,100286:0:0:0:0:
64,192,100145,128,0,100357:0:0:0:0:
448,192,100216,128,0,100286:0:0:0:0:
320,192,100286,128,0,100357:0:0:0:0:
192,192,100357,128,0,100428:0:0:0:0:
64,192,100428,128,0,100499:0:0:0:0:
320,192,100499,1,0,0:0:0:0:
448,192,100499,128,0,100569:0:0:0:0:
192,192,100640,1,0,0:0:0:0:
320,192,100640,1,0,0:0:0:0:
64,192,100782,1,0,0:0:0:0:
192,192,100782,1,0,0:0:0:0:
448,192,100782,1,0,0:0:0:0:
192,192,100923,1,0,0:0:0:0:
320,192,100923,1,0,0:0:0:0:
320,192,101065,1,0,0:0:0:0:
64,192,101065,128,0,101135:0:0:0:0:
192,192,101206,1,0,0:0:0:0:
448,192,101206,1,0,0:0:0:0:
320,192,101348,1,0,0:0:0:0:
192,192,101348,1,0,0:0:0:0:
64,192,101348,1,0,0:0:0:0:
448,192,101489,1,0,0:0:0:0:
192,192,101489,1,0,0:0:0:0:
64,192,101631,1,0,0:0:0:0:
320,192,101631,128,0,101702:0:0:0:0:
448,192,101772,1,0,0:0:0:0:
64,192,101772,1,0,0:0:0:0:
192,192,101914,1,0,0:0:0:0:
320,192,101914,1,0,0:0:0:0:
448,192,101914,1,0,0:0:0:0:
64,192,102055,1,0,0:0:0:0:
192,192,102055,1,0,0:0:0:0:
320,192,102197,1,0,0:0:0:0:
192,192,102197,128,0,102268:0:0:0:0:
320,192,102338,1,0,0:0:0:0:
448,192,102338,1,0,0:0:0:0:
448,192,102480,1,0,0:0:0:0:
192,192,102480,1,0,0:0:0:0:
64,192,102480,1,0,0:0:0:0:
320,192,102621,1,0,0:0:0:0:
448,192,102621,1,0,0:0:0:0:
320,192,102763,1,0,0:0:0:0:
192,192,102763,128,0,102834:0:0:0:0:
64,192,102834,1,0,0:0:0:0:
448,192,102834,1,0,0:0:0:0:
192,192,102904,1,0,0:0:0:0:
320,192,102904,1,0,0:0:0:0:
64,192,102975,1,0,0:0:0:0:
448,192,102975,1,0,0:0:0:0:
320,192,103046,1,0,0:0:0:0:
192,192,103046,1,0,0:0:0:0:
64,192,103117,1,0,0:0:0:0:
448,192,103117,1,0,0:0:0:0:
192,192,103187,1,0,0:0:0:0:
320,192,103187,128,0,103258:0:0:0:0:
64,192,103258,1,0,0:0:0:0:
448,192,103258,1,0,0:0:0:0:
320,192,103329,1,0,0:0:0:0:
192,192,103329,1,0,0:0:0:0:
64,192,103400,1,0,0:0:0:0:
448,192,103400,1,0,0:0:0:0:
320,192,103470,1,0,0:0:0:0:
192,192,103470,1,0,0:0:0:0:
64,192,103541,1,0,0:0:0:0:
448,192,103541,1,0,0:0:0:0:
320,192,103612,1,0,0:0:0:0:
192,192,103612,128,0,103683:0:0:0:0:
448,192,103683,1,0,0:0:0:0:
64,192,103683,1,0,0:0:0:0:
320,192,103753,1,0,0:0:0:0:
192,192,103753,1,0,0:0:0:0:
64,192,103824,1,0,0:0:0:0:
448,192,103824,1,0,0:0:0:0:
192,192,103895,1,0,0:0:0:0:
320,192,103895,1,0,0:0:0:0:
448,192,105027,1,0,0:0:0:0:
320,192,105098,1,0,0:0:0:0:
192,192,105168,1,0,0:0:0:0:
64,192,105239,1,0,0:0:0:0:
448,192,105310,1,0,0:0:0:0:
320,192,105381,1,0,0:0:0:0:
192,192,105452,1,0,0:0:0:0:
64,192,105522,1,0,0:0:0:0:
192,192,105593,1,0,0:0:0:0:
320,192,105664,1,0,0:0:0:0:
448,192,105735,1,0,0:0:0:0:
64,192,105805,1,0,0:0:0:0:
192,192,105876,1,0,0:0:0:0:
320,192,105947,1,0,0:0:0:0:
448,192,106018,1,0,0:0:0:0:
320,192,106088,1,0,0:0:0:0:
192,192,106159,1,0,0:0:0:0:
64,192,106159,1,0,0:0:0:0:
64,192,106301,1,0,0:0:0:0:
192,192,106301,1,0,0:0:0:0:
64,192,106442,1,0,0:0:0:0:
192,192,106442,1,0,0:0:0:0:
320,192,106584,1,0,0:0:0:0:
448,192,106654,1,0,0:0:0:0:
192,192,106725,1,0,0:0:0:0:
320,192,106796,1,0,0:0:0:0:
64,192,106867,1,0,0:0:0:0:
192,192,106937,1,0,0:0:0:0:
320,192,107008,1,0,0:0:0:0:
448,192,107008,1,0,0:0:0:0:
320,192,107150,1,0,0:0:0:0:
448,192,107150,1,0,0:0:0:0:
320,192,107291,1,0,0:0:0:0:
448,192,107291,1,0,0:0:0:0:
64,192,107433,1,0,0:0:0:0:
192,192,107503,1,0,0:0:0:0:
320,192,107574,1,0,0:0:0:0:
448,192,107645,1,0,0:0:0:0:
320,192,107716,1,0,0:0:0:0:
192,192,107786,1,0,0:0:0:0:
64,192,107857,1,0,0:0:0:0:
320,192,107857,1,0,0:0:0:0:
192,192,107999,1,0,0:0:0:0:
448,192,107999,1,0,0:0:0:0:
320,192,108140,1,0,0:0:0:0:
64,192,108140,1,0,0:0:0:0:
192,192,108282,1,0,0:0:0:0:
320,192,108282,1,0,0:0:0:0:
448,192,108282,1,0,0:0:0:0:
64,192,108423,1,0,0:0:0:0:
192,192,108494,1,0,0:0:0:0:
320,192,108565,1,0,0:0:0:0:
448,192,108635,1,0,0:0:0:0:
192,192,108706,1,0,0:0:0:0:
320,192,108777,1,0,0:0:0:0:
192,192,108848,1,0,0:0:0:0:
64,192,108918,1,0,0:0:0:0:
448,192,108989,1,0,0:0:0:0:
320,192,109036,1,0,0:0:0:0:
192,192,109084,1,0,0:0:0:0:
64,192,109131,1,0,0:0:0:0:
320,192,109178,1,0,0:0:0:0:
192,192,109225,1,0,0:0:0:0:
64,192,109272,1,0,0:0:0:0:
192,192,109319,1,0,0:0:0:0:
320,192,109367,1,0,0:0:0:0:
448,192,109414,1,0,0:0:0:0:
192,192,109461,1,0,0:0:0:0:
320,192,109508,1,0,0:0:0:0:
448,192,109555,1,0,0:0:0:0:
192,192,109591,1,0,0:0:0:0:
320,192,109626,1,0,0:0:0:0:
64,192,109697,1,0,0:0:0:0:
192,192,109732,1,0,0:0:0:0:
320,192,109768,1,0,0:0:0:0:
448,192,109838,1,0,0:0:0:0:
320,192,109874,1,0,0:0:0:0:
64,192,109980,1,0,0:0:0:0:
192,192,110121,1,0,0:0:0:0:
320,192,110121,1,0,0:0:0:0:
448,192,110121,1,0,0:0:0:0:
320,192,110404,1,0,0:0:0:0:
448,192,110404,1,0,0:0:0:0:
320,192,110546,1,0,0:0:0:0:
448,192,110546,1,0,0:0:0:0:
320,192,110687,1,0,0:0:0:0:
448,192,110687,1,0,0:0:0:0:
64,192,110829,1,0,0:0:0:0:
320,192,110900,1,0,0:0:0:0:
192,192,110970,1,0,0:0:0:0:
448,192,111041,1,0,0:0:0:0:
320,192,111112,1,0,0:0:0:0:
64,192,111183,1,0,0:0:0:0:
448,192,111253,1,0,0:0:0:0:
192,192,111253,1,0,0:0:0:0:
192,192,111395,1,0,0:0:0:0:
448,192,111395,1,0,0:0:0:0:
192,192,111536,1,0,0:0:0:0:
448,192,111536,1,0,0:0:0:0:
320,192,111678,1,0,0:0:0:0:
192,192,111749,1,0,0:0:0:0:
64,192,111819,1,0,0:0:0:0:
448,192,111890,1,0,0:0:0:0:
320,192,111961,1,0,0:0:0:0:
192,192,112032,1,0,0:0:0:0:
64,192,112102,1,0,0:0:0:0:
320,192,112102,1,0,0:0:0:0:
64,192,112244,1,0,0:0:0:0:
320,192,112244,1,0,0:0:0:0:
64,192,112385,1,0,0:0:0:0:
320,192,112385,1,0,0:0:0:0:
192,192,112527,1,0,0:0:0:0:
320,192,112527,1,0,0:0:0:0:
448,192,112527,1,0,0:0:0:0:
64,192,112668,1,0,0:0:0:0:
192,192,112739,1,0,0:0:0:0:
320,192,112810,1,0,0:0:0:0:
192,192,112881,1,0,0:0:0:0:
448,192,112952,1,0,0:0:0:0:
320,192,113022,1,0,0:0:0:0:
192,192,113093,1,0,0:0:0:0:
64,192,113164,1,0,0:0:0:0:
192,192,113235,1,0,0:0:0:0:
320,192,113282,1,0,0:0:0:0:
448,192,113329,1,0,0:0:0:0:
64,192,113376,1,0,0:0:0:0:
192,192,113423,1,0,0:0:0:0:
320,192,113470,1,0,0:0:0:0:
448,192,113518,1,0,0:0:0:0:
64,192,113565,1,0,0:0:0:0:
192,192,113612,1,0,0:0:0:0:
448,192,113659,1,0,0:0:0:0:
320,192,113706,1,0,0:0:0:0:
192,192,113753,1,0,0:0:0:0:
64,192,113801,1,0,0:0:0:0:
448,192,113848,1,0,0:0:0:0:
320,192,113895,1,0,0:0:0:0:
192,192,113942,1,0,0:0:0:0:
64,192,113989,1,0,0:0:0:0:
448,192,114036,1,0,0:0:0:0:
320,192,114084,128,0,114154:0:0:0:0:
192,192,114154,128,0,114225:0:0:0:0:
320,192,114225,128,0,114296:0:0:0:0:
192,192,114296,128,0,114367:0:0:0:0:
320,192,114367,128,0,114437:0:0:0:0:
192,192,114437,128,0,114508:0:0:0:0:
320,192,114508,128,0,114579:0:0:0:0:
192,192,114579,128,0,114650:0:0:0:0:
320,192,114650,128,0,114720:0:0:0:0:
448,192,114650,1,0,0:0:0:0:
320,192,114791,1,0,0:0:0:0:
448,192,114791,1,0,0:0:0:0:
192,192,114862,1,0,0:0:0:0:
64,192,114862,1,0,0:0:0:0:
320,192,114933,1,0,0:0:0:0:
448,192,114933,1,0,0:0:0:0:
64,192,115074,1,0,0:0:0:0:
192,192,115074,1,0,0:0:0:0:
320,192,115145,1,0,0:0:0:0:
448,192,115216,1,0,0:0:0:0:
192,192,115286,1,0,0:0:0:0:
320,192,115286,1,0,0:0:0:0:
448,192,115357,1,0,0:0:0:0:
64,192,115428,1,0,0:0:0:0:
192,192,115499,1,0,0:0:0:0:
320,192,115499,1,0,0:0:0:0:
192,192,115640,1,0,0:0:0:0:
320,192,115640,1,0,0:0:0:0:
448,192,115711,1,0,0:0:0:0:
64,192,115711,1,0,0:0:0:0:
192,192,115782,1,0,0:0:0:0:
320,192,115782,1,0,0:0:0:0:
64,192,115923,1,0,0:0:0:0:
320,192,115923,1,0,0:0:0:0:
192,192,115994,1,0,0:0:0:0:
448,192,115994,1,0,0:0:0:0:
320,192,116065,1,0,0:0:0:0:
64,192,116065,1,0,0:0:0:0:
448,192,116135,1,0,0:0:0:0:
320,192,116206,1,0,0:0:0:0:
192,192,116206,1,0,0:0:0:0:
64,192,116277,1,0,0:0:0:0:
192,192,116348,1,0,0:0:0:0:
448,192,116348,1,0,0:0:0:0:
320,192,116418,1,0,0:0:0:0:
64,192,116418,1,0,0:0:0:0:
192,192,116489,1,0,0:0:0:0:
448,192,116489,1,0,0:0:0:0:
64,192,116560,1,0,0:0:0:0:
320,192,116560,1,0,0:0:0:0:
192,192,116631,1,0,0:0:0:0:
448,192,116631,1,0,0:0:0:0:
320,192,116772,1,0,0:0:0:0:
192,192,116772,1,0,0:0:0:0:
64,192,116772,1,0,0:0:0:0:
320,192,116914,1,0,0:0:0:0:
448,192,116914,1,0,0:0:0:0:
192,192,116985,1,0,0:0:0:0:
64,192,117055,1,0,0:0:0:0:
320,192,117055,1,0,0:0:0:0:
192,192,117126,1,0,0:0:0:0:
64,192,117197,1,0,0:0:0:0:
448,192,117197,1,0,0:0:0:0:
320,192,117268,1,0,0:0:0:0:
192,192,117338,1,0,0:0:0:0:
64,192,117338,1,0,0:0:0:0:
320,192,117409,1,0,0:0:0:0:
448,192,117480,1,0,0:0:0:0:
64,192,117480,1,0,0:0:0:0:
192,192,117527,1,0,0:0:0:0:
320,192,117574,1,0,0:0:0:0:
64,192,117621,1,0,0:0:0:0:
192,192,117668,1,0,0:0:0:0:
64,192,117763,1,0,0:0:0:0:
448,192,117763,1,0,0:0:0:0:
320,192,117810,1,0,0:0:0:0:
192,192,117857,1,0,0:0:0:0:
448,192,117904,1,0,0:0:0:0:
320,192,117952,1,0,0:0:0:0:
64,192,118046,1,0,0:0:0:0:
448,192,118046,1,0,0:0:0:0:
192,192,118081,1,0,0:0:0:0:
320,192,118117,1,0,0:0:0:0:
448,192,118117,1,0,0:0:0:0:
448,192,118187,1,0,0:0:0:0:
192,192,118187,1,0,0:0:0:0:
64,192,118258,1,0,0:0:0:0:
320,192,118258,1,0,0:0:0:0:
192,192,118329,1,0,0:0:0:0:
448,192,118329,1,0,0:0:0:0:
320,192,118400,1,0,0:0:0:0:
64,192,118400,1,0,0:0:0:0:
192,192,118470,1,0,0:0:0:0:
448,192,118470,1,0,0:0:0:0:
64,192,118541,1,0,0:0:0:0:
320,192,118541,1,0,0:0:0:0:
192,192,118612,1,0,0:0:0:0:
448,192,118612,1,0,0:0:0:0:
64,192,118612,1,0,0:0:0:0:
320,192,118683,1,0,0:0:0:0:
192,192,118683,1,0,0:0:0:0:
64,192,118753,1,0,0:0:0:0:
448,192,118753,1,0,0:0:0:0:
320,192,118824,1,0,0:0:0:0:
192,192,118824,1,0,0:0:0:0:
64,192,118895,1,0,0:0:0:0:
448,192,118895,1,0,0:0:0:0:
192,192,119178,1,0,0:0:0:0:
320,192,119178,1,0,0:0:0:0:
64,192,119319,1,0,0:0:0:0:
448,192,119319,1,0,0:0:0:0:
320,192,119461,1,0,0:0:0:0:
192,192,119602,1,0,0:0:0:0:
448,192,119602,1,0,0:0:0:0:
320,192,119744,1,0,0:0:0:0:
64,192,119744,1,0,0:0:0:0:
192,192,120027,1,0,0:0:0:0:
448,192,120027,1,0,0:0:0:0:
320,192,120168,1,0,0:0:0:0:
64,192,120168,1,0,0:0:0:0:
192,192,120310,1,0,0:0:0:0:
448,192,120452,1,0,0:0:0:0:
64,192,120452,1,0,0:0:0:0:
320,192,120593,1,0,0:0:0:0:
192,192,120593,1,0,0:0:0:0:
320,192,120735,1,0,0:0:0:0:
448,192,120735,1,0,0:0:0:0:
192,192,120876,1,0,0:0:0:0:
64,192,120876,1,0,0:0:0:0:
320,192,120947,1,0,0:0:0:0:
448,192,120947,1,0,0:0:0:0:
192,192,121018,1,0,0:0:0:0:
64,192,121018,1,0,0:0:0:0:
320,192,121088,1,0,0:0:0:0:
448,192,121088,1,0,0:0:0:0:
192,192,121159,1,0,0:0:0:0:
64,192,121159,1,0,0:0:0:0:
320,192,121442,1,0,0:0:0:0:
448,192,121442,1,0,0:0:0:0:
64,192,121584,1,0,0:0:0:0:
320,192,121725,1,0,0:0:0:0:
192,192,121725,1,0,0:0:0:0:
448,192,121867,1,0,0:0:0:0:
64,192,122008,1,0,0:0:0:0:
320,192,122008,1,0,0:0:0:0:
192,192,122291,1,0,0:0:0:0:
448,192,122291,1,0,0:0:0:0:
320,192,122433,1,0,0:0:0:0:
192,192,122574,1,0,0:0:0:0:
64,192,122574,1,0,0:0:0:0:
448,192,122716,1,0,0:0:0:0:
320,192,122716,1,0,0:0:0:0:
320,192,122857,1,0,0:0:0:0:
192,192,122857,1,0,0:0:0:0:
64,192,122999,1,0,0:0:0:0:
192,192,122999,1,0,0:0:0:0:
320,192,123140,1,0,0:0:0:0:
448,192,123140,1,0,0:0:0:0:
192,192,123211,1,0,0:0:0:0:
64,192,123211,1,0,0:0:0:0:
320,192,123282,1,0,0:0:0:0:
448,192,123282,1,0,0:0:0:0:
192,192,123352,1,0,0:0:0:0:
64,192,123352,1,0,0:0:0:0:
320,192,123423,1,0,0:0:0:0:
448,192,123423,1,0,0:0:0:0:
64,192,123565,1,0,0:0:0:0:
320,192,123565,1,0,0:0:0:0:
192,192,123706,1,0,0:0:0:0:
448,192,123706,1,0,0:0:0:0:
320,192,123848,1,0,0:0:0:0:
448,192,123848,1,0,0:0:0:0:
64,192,123989,1,0,0:0:0:0:
448,192,123989,1,0,0:0:0:0:
64,192,124131,1,0,0:0:0:0:
320,192,124131,1,0,0:0:0:0:
192,192,124272,1,0,0:0:0:0:
320,192,124272,1,0,0:0:0:0:
64,192,124414,1,0,0:0:0:0:
320,192,124414,1,0,0:0:0:0:
448,192,124555,1,0,0:0:0:0:
64,192,124555,1,0,0:0:0:0:
192,192,124626,1,0,0:0:0:0:
320,192,124626,1,0,0:0:0:0:
64,192,124697,1,0,0:0:0:0:
448,192,124697,1,0,0:0:0:0:
320,192,124768,1,0,0:0:0:0:
192,192,124768,1,0,0:0:0:0:
64,192,124838,1,0,0:0:0:0:
448,192,124838,1,0,0:0:0:0:
192,192,124909,1,0,0:0:0:0:
320,192,124909,1,0,0:0:0:0:
64,192,124980,1,0,0:0:0:0:
448,192,124980,1,0,0:0:0:0:
320,192,125051,1,0,0:0:0:0:
192,192,125051,1,0,0:0:0:0:
448,192,125121,1,0,0:0:0:0:
64,192,125121,1,0,0:0:0:0:
192,192,125192,1,0,0:0:0:0:
448,192,125192,128,0,125263:0:0:0:0:
64,192,125263,1,0,0:0:0:0:
320,192,125263,128,0,125334:0:0:0:0:
192,192,125334,1,0,0:0:0:0:
448,192,125334,1,0,0:0:0:0:
64,192,125404,1,0,0:0:0:0:
192,192,125404,128,0,125475:0:0:0:0:
320,192,125475,1,0,0:0:0:0:
448,192,125475,1,0,0:0:0:0:
192,192,125546,1,0,0:0:0:0:
64,192,125546,128,0,125617:0:0:0:0:
320,192,125617,1,0,0:0:0:0:
448,192,125617,1,0,0:0:0:0:
192,192,125687,1,0,0:0:0:0:
64,192,125687,128,0,125758:0:0:0:0:
448,192,126253,1,0,0:0:0:0:
320,192,126289,1,0,0:0:0:0:
192,192,126819,1,0,0:0:0:0:
448,192,127102,1,0,0:0:0:0:
320,192,127173,1,0,0:0:0:0:
192,192,127244,1,0,0:0:0:0:
64,192,127315,1,0,0:0:0:0:
448,192,127385,1,0,0:0:0:0:
320,192,127456,1,0,0:0:0:0:
192,192,127527,1,0,0:0:0:0:
320,192,127598,1,0,0:0:0:0:
448,192,127668,1,0,0:0:0:0:
64,192,127668,1,0,0:0:0:0:
192,192,127739,1,0,0:0:0:0:
320,192,127810,1,0,0:0:0:0:
448,192,127881,1,0,0:0:0:0:
320,192,127952,1,0,0:0:0:0:
64,192,127952,128,0,128235:0:0:0:0:
320,192,128235,1,0,0:0:0:0:
192,192,128235,1,0,0:0:0:0:
448,192,128376,128,0,128659:0:0:0:0:
64,192,128518,1,0,0:0:0:0:
192,192,128518,1,0,0:0:0:0:
192,192,128801,128,0,129084:0:0:0:0:
64,192,128801,1,0,0:0:0:0:
448,192,129084,1,0,0:0:0:0:
64,192,129084,1,0,0:0:0:0:
320,192,129367,128,0,129650:0:0:0:0:
64,192,129367,1,0,0:0:0:0:
64,192,129650,1,0,0:0:0:0:
192,192,129650,128,0,129933:0:0:0:0:
64,192,129933,128,0,130216:0:0:0:0:
448,192,129933,1,0,0:0:0:0:
448,192,130216,1,0,0:0:0:0:
320,192,130216,128,0,130499:0:0:0:0:
192,192,130499,128,0,130782:0:0:0:0:
64,192,130499,1,0,0:0:0:0:
320,192,130782,128,0,131065:0:0:0:0:
448,192,130782,1,0,0:0:0:0:
192,192,131065,1,0,0:0:0:0:
448,192,131065,128,0,131348:0:0:0:0:
320,192,131348,128,0,131631:0:0:0:0:
64,192,131348,1,0,0:0:0:0:
192,192,131631,128,0,131914:0:0:0:0:
64,192,131631,1,0,0:0:0:0:
320,192,131843,1,0,0:0:0:0:
448,192,131843,1,0,0:0:0:0:
64,192,131914,128,0,132197:0:0:0:0:
448,192,131914,1,0,0:0:0:0:
192,192,132055,1,0,0:0:0:0:
320,192,132055,1,0,0:0:0:0:
448,192,132197,128,0,132480:0:0:0:0:
320,192,132197,1,0,0:0:0:0:
192,192,132480,128,0,132763:0:0:0:0:
64,192,132480,1,0,0:0:0:0:
320,192,132763,1,0,0:0:0:0:
448,192,132763,1,0,0:0:0:0:
64,192,132904,128,0,133187:0:0:0:0:
192,192,133046,128,0,133329:0:0:0:0:
448,192,133046,1,0,0:0:0:0:
320,192,133329,1,0,0:0:0:0:
64,192,133329,1,0,0:0:0:0:
192,192,133612,1,0,0:0:0:0:
448,192,133612,1,0,0:0:0:0:
64,192,133612,128,0,133895:0:0:0:0:
192,192,133895,1,0,0:0:0:0:
448,192,133895,128,0,134178:0:0:0:0:
192,192,134178,128,0,134461:0:0:0:0:
320,192,134178,1,0,0:0:0:0:
64,192,134249,128,0,134390:0:0:0:0:
448,192,134319,128,0,134461:0:0:0:0:
320,192,134390,128,0,134461:0:0:0:0:
64,192,134461,128,0,134744:0:0:0:0:
192,192,134602,1,0,0:0:0:0:
448,192,134602,1,0,0:0:0:0:
320,192,134744,1,0,0:0:0:0:
448,192,134744,128,0,135027:0:0:0:0:
192,192,134885,1,0,0:0:0:0:
320,192,134885,1,0,0:0:0:0:
192,192,135027,1,0,0:0:0:0:
64,192,135027,128,0,135310:0:0:0:0:
320,192,135310,128,0,135593:0:0:0:0:
192,192,135310,1,0,0:0:0:0:
448,192,135593,128,0,135876:0:0:0:0:
64,192,135593,1,0,0:0:0:0:
64,192,135735,1,0,0:0:0:0:
192,192,135805,1,0,0:0:0:0:
320,192,135876,1,0,0:0:0:0:
192,192,135876,1,0,0:0:0:0:
192,192,136018,1,0,0:0:0:0:
320,192,136018,1,0,0:0:0:0:
320,192,136159,1,0,0:0:0:0:
448,192,136159,1,0,0:0:0:0:
64,192,136301,1,0,0:0:0:0:
192,192,136318,1,0,0:0:0:0:
320,192,136336,1,0,0:0:0:0:
448,192,136354,1,0,0:0:0:0:
64,192,136442,1,0,0:0:0:0:
320,192,136442,1,0,0:0:0:0:
192,192,136513,1,0,0:0:0:0:
448,192,136513,1,0,0:0:0:0:
320,192,136584,1,0,0:0:0:0:
64,192,136584,1,0,0:0:0:0:
192,192,136654,1,0,0:0:0:0:
448,192,136654,1,0,0:0:0:0:
320,192,136725,1,0,0:0:0:0:
64,192,136725,1,0,0:0:0:0:
448,192,136796,1,0,0:0:0:0:
192,192,136796,1,0,0:0:0:0:
320,192,136867,1,0,0:0:0:0:
64,192,136867,1,0,0:0:0:0:
192,192,136937,1,0,0:0:0:0:
64,192,137008,128,0,137291:0:0:0:0:
320,192,137291,1,0,0:0:0:0:
192,192,137291,1,0,0:0:0:0:
448,192,137433,128,0,137716:0:0:0:0:
64,192,137574,1,0,0:0:0:0:
192,192,137574,1,0,0:0:0:0:
192,192,137857,128,0,138140:0:0:0:0:
320,192,137857,1,0,0:0:0:0:
448,192,138140,1,0,0:0:0:0:
64,192,138140,1,0,0:0:0:0:
320,192,138423,128,0,138706:0:0:0:0:
64,192,138423,1,0,0:0:0:0:
192,192,138706,128,0,138989:0:0:0:0:
448,192,138706,1,0,0:0:0:0:
320,192,138777,1,0,0:0:0:0:
448,192,138848,1,0,0:0:0:0:
320,192,138918,1,0,0:0:0:0:
64,192,138989,128,0,139272:0:0:0:0:
448,192,138989,1,0,0:0:0:0:
320,192,139060,1,0,0:0:0:0:
192,192,139131,1,0,0:0:0:0:
320,192,139202,1,0,0:0:0:0:
192,192,139272,1,0,0:0:0:0:
448,192,139272,128,0,139555:0:0:0:0:
320,192,139414,1,0,0:0:0:0:
192,192,139414,1,0,0:0:0:0:
320,192,139555,128,0,139838:0:0:0:0:
64,192,139555,1,0,0:0:0:0:
192,192,139697,1,0,0:0:0:0:
64,192,139697,1,0,0:0:0:0:
448,192,139838,128,0,140121:0:0:0:0:
192,192,139980,1,0,0:0:0:0:
320,192,139980,1,0,0:0:0:0:
64,192,140121,128,0,140404:0:0:0:0:
192,192,140121,1,0,0:0:0:0:
320,192,140263,1,0,0:0:0:0:
448,192,140263,1,0,0:0:0:0:
192,192,140404,1,0,0:0:0:0:
320,192,140404,128,0,140475:0:0:0:0:
448,192,140404,128,0,140475:0:0:0:0:
192,192,140617,1,0,0:0:0:0:
320,192,140617,128,0,140687:0:0:0:0:
64,192,140617,128,0,140687:0:0:0:0:
192,192,140829,1,0,0:0:0:0:
320,192,140829,128,0,140900:0:0:0:0:
448,192,140829,128,0,140900:0:0:0:0:
448,192,140970,1,0,0:0:0:0:
320,192,140970,128,0,141041:0:0:0:0:
64,192,140970,128,0,141041:0:0:0:0:
192,192,141112,128,0,141183:0:0:0:0:
320,192,141112,1,0,0:0:0:0:
448,192,141112,128,0,141183:0:0:0:0:
64,192,141253,128,0,141536:0:0:0:0:
192,192,141253,128,0,141466:0:0:0:0:
320,192,141253,128,0,141395:0:0:0:0:
448,192,141253,128,0,141324:0:0:0:0:
320,192,141536,1,0,0:0:0:0:
448,192,141536,128,0,142385:0:0:0:0:
64,192,141819,1,0,0:0:0:0:
192,192,141819,1,0,0:0:0:0:
192,192,142102,1,0,0:0:0:0:
320,192,142102,1,0,0:0:0:0:
64,192,142385,128,0,142668:0:0:0:0:
320,192,142385,1,0,0:0:0:0:
192,192,142668,128,0,142952:0:0:0:0:
448,192,142668,1,0,0:0:0:0:
320,192,142952,128,0,143235:0:0:0:0:
64,192,142952,1,0,0:0:0:0:
192,192,143235,1,0,0:0:0:0:
448,192,143235,128,0,143305:0:0:0:0:
64,192,143235,128,0,143305:0:0:0:0:
192,192,143447,128,0,143518:0:0:0:0:
64,192,143518,128,0,143588:0:0:0:0:
320,192,143518,128,0,143588:0:0:0:0:
448,192,143518,1,0,0:0:0:0:
64,192,143801,128,0,143871:0:0:0:0:
192,192,143801,128,0,143871:0:0:0:0:
320,192,143801,1,0,0:0:0:0:
192,192,143942,1,0,0:0:0:0:
320,192,143942,128,0,144013:0:0:0:0:
448,192,143942,128,0,144013:0:0:0:0:
64,192,144367,1,0,0:0:0:0:
192,192,144367,128,0,144437:0:0:0:0:
448,192,144367,128,0,144437:0:0:0:0:
320,192,144508,128,0,144579:0:0:0:0:
64,192,144508,1,0,0:0:0:0:
448,192,144508,128,0,144579:0:0:0:0:
64,192,144933,128,0,145003:0:0:0:0:
320,192,144933,128,0,145003:0:0:0:0:
448,192,144933,1,0,0:0:0:0:
192,192,145074,1,0,0:0:0:0:
320,192,145074,128,0,145145:0:0:0:0:
448,192,145074,128,0,145145:0:0:0:0:
192,192,145357,128,0,145428:0:0:0:0:
320,192,145428,128,0,145499:0:0:0:0:
192,192,145499,128,0,145569:0:0:0:0:
320,192,145569,128,0,145640:0:0:0:0:
192,192,145640,128,0,145711:0:0:0:0:
320,192,145711,128,0,145782:0:0:0:0:
64,192,145782,1,0,0:0:0:0:
192,192,145799,1,0,0:0:0:0:
320,192,145817,1,0,0:0:0:0:
448,192,145835,1,0,0:0:0:0:
64,192,145852,1,0,0:0:0:0:
192,192,145870,1,0,0:0:0:0:
320,192,145888,1,0,0:0:0:0:
448,192,145906,1,0,0:0:0:0:
64,192,146065,128,0,146135:0:0:0:0:
192,192,146065,1,0,0:0:0:0:
320,192,146065,128,0,146135:0:0:0:0:
192,192,146206,1,0,0:0:0:0:
320,192,146206,128,0,146277:0:0:0:0:
448,192,146206,128,0,146277:0:0:0:0:
192,192,146348,1,0,0:0:0:0:
64,192,146418,1,0,0:0:0:0:
192,192,146489,1,0,0:0:0:0:
320,192,146560,1,0,0:0:0:0:
448,192,146631,1,0,0:0:0:0:
192,192,146701,1,0,0:0:0:0:
320,192,146772,1,0,0:0:0:0:
64,192,146843,1,0,0:0:0:0:
192,192,146914,1,0,0:0:0:0:
448,192,146984,1,0,0:0:0:0:
320,192,147055,1,0,0:0:0:0:
192,192,147126,1,0,0:0:0:0:
64,192,147197,1,0,0:0:0:0:
320,192,147267,1,0,0:0:0:0:
192,192,147338,1,0,0:0:0:0:
320,192,147409,1,0,0:0:0:0:
448,192,147480,1,0,0:0:0:0:
64,192,147550,1,0,0:0:0:0:
192,192,147621,1,0,0:0:0:0:
320,192,147692,1,0,0:0:0:0:
448,192,147763,1,0,0:0:0:0:
192,192,147763,128,0,147833:0:0:0:0:
64,192,147763,128,0,147833:0:0:0:0:
320,192,148046,128,0,148116:0:0:0:0:
64,192,148046,128,0,148116:0:0:0:0:
192,192,148046,1,0,0:0:0:0:
192,192,148187,1,0,0:0:0:0:
320,192,148187,128,0,148258:0:0:0:0:
448,192,148187,128,0,148258:0:0:0:0:
64,192,148470,1,0,0:0:0:0:
192,192,148470,128,0,148541:0:0:0:0:
448,192,148470,128,0,148541:0:0:0:0:
64,192,148612,1,0,0:0:0:0:
192,192,148682,1,0,0:0:0:0:
320,192,148753,1,0,0:0:0:0:
192,192,148824,1,0,0:0:0:0:
320,192,148895,1,0,0:0:0:0:
64,192,148965,1,0,0:0:0:0:
192,192,149036,1,0,0:0:0:0:
320,192,149107,1,0,0:0:0:0:
448,192,149178,1,0,0:0:0:0:
320,192,149248,1,0,0:0:0:0:
192,192,149319,1,0,0:0:0:0:
64,192,149390,1,0,0:0:0:0:
192,192,149461,1,0,0:0:0:0:
448,192,149531,1,0,0:0:0:0:
320,192,149602,1,0,0:0:0:0:
448,192,149673,1,0,0:0:0:0:
192,192,149744,1,0,0:0:0:0:
448,192,149815,1,0,0:0:0:0:
320,192,149885,1,0,0:0:0:0:
448,192,149956,1,0,0:0:0:0:
64,192,150027,1,0,0:0:0:0:
192,192,150098,1,0,0:0:0:0:
320,192,150168,1,0,0:0:0:0:
448,192,150239,1,0,0:0:0:0:
320,192,150310,1,0,0:0:0:0:
448,192,150381,1,0,0:0:0:0:
192,192,150451,1,0,0:0:0:0:
320,192,150522,1,0,0:0:0:0:
64,192,150593,128,0,150664:0:0:0:0:
192,192,150593,128,0,150664:0:0:0:0:
448,192,150593,1,0,0:0:0:0:
320,192,150734,1,0,0:0:0:0:
192,192,150734,128,0,150805:0:0:0:0:
448,192,150734,128,0,150805:0:0:0:0:
