osu file format v14

[General]
AudioFilename: audio.ogg
AudioLeadIn: 0
PreviewTime: 68884
Countdown: 0
SampleSet: Normal
StackLeniency: 0.7
Mode: 1
LetterboxInBreaks: 0
WidescreenStoryboard: 1

[Editor]
Bookmarks: 15106,25190,31240,35777,39557,43591,47625,51658,57708,63758,69052,76867,84934,88968,97035,99052,117707
DistanceSpacing: 0.6
BeatDivisor: 4
GridSize: 32
TimelineZoom: 2.130004

[Metadata]
Title:ReviveR
TitleUnicode:ЯeviveR
Artist:Diceros Bicornis
ArtistUnicode:Diceros Bicornis
Creator:Dusk-
Version:Capu's ADVANCED
Source:SOUND VOLTEX VIVID WAVE
Tags:sdvx xi blacky the 9th kac konami arcade championship hexadiver electronic instrumental paz08 hivie gaston_2199 capu
BeatmapID:4044831
BeatmapSetID:1912084

[Difficulty]
HPDrainRate:6.5
CircleSize:2
OverallDifficulty:5
ApproachRate:10
SliderMultiplier:1.4
SliderTickRate:1

[Events]
//Background and Video events
0,0,"bg.png",0,60
//Break Periods
//Storyboard Layer 0 (Background)
//Storyboard Layer 1 (Fail)
//Storyboard Layer 2 (Pass)
//Storyboard Layer 3 (Foreground)
//Storyboard Layer 4 (Overlay)
//Storyboard Sound Samples

[TimingPoints]
-20,252.100840336134,4,1,0,100,1,0
25190,252.100840336134,3,1,0,80,1,0
25190,-111.111111111111,3,1,0,80,0,0
31240,-99.9999999999999,3,1,0,80,0,0
35777,252.100840336134,7,1,0,100,1,0
37541,252.100840336134,4,1,0,100,1,0
43843,-111.111111111111,4,1,0,100,0,0
51658,-100,4,1,0,100,0,0
55692,252.100840336134,3,1,0,100,1,0
57708,252.100840336134,4,1,0,100,1,0
59724,-100,4,1,0,100,0,1
61741,-100,4,1,0,100,0,0
69052,-100,4,1,0,100,0,1
76111,-100,4,1,0,100,0,0
76363,-100,4,1,0,100,0,0
76615,-100,4,1,0,100,0,0
76867,-100,4,1,0,100,0,1
88968,-100,4,1,0,100,0,0
89724,-111.111111111111,4,1,0,100,0,0
90859,-100,4,1,0,100,0,0
99052,-100,4,1,0,100,0,1
104976,-100,4,1,0,100,0,0
105355,-100,4,1,0,100,0,1
115186,-100,4,1,0,100,0,0

[HitObjects]
256,192,1996,5,4,0:0:0:0:
256,192,2122,12,0,5904,0:0:0:0:
256,192,6030,5,12,0:0:0:0:
256,192,6282,1,0,0:0:0:0:
256,192,6534,1,0,0:0:0:0:
256,192,6786,1,12,0:0:0:0:
256,192,7038,1,4,0:0:0:0:
256,192,7416,1,0,0:0:0:0:
256,192,7795,1,8,0:0:0:0:
256,192,8173,1,0,0:0:0:0:
256,192,8299,1,8,0:0:0:0:
256,192,8425,1,8,0:0:0:0:
256,192,8551,1,0,0:0:0:0:
256,192,8803,1,8,0:0:0:0:
256,192,9055,1,0,0:0:0:0:
256,192,9433,1,0,0:0:0:0:
256,192,9811,1,8,0:0:0:0:
256,192,10190,1,0,0:0:0:0:
256,192,10442,1,8,0:0:0:0:
256,192,10568,1,8,0:0:0:0:
256,192,10820,1,0,0:0:0:0:
256,192,11072,1,8,0:0:0:0:
256,192,11198,1,8,0:0:0:0:
256,192,11324,1,8,0:0:0:0:
256,192,11450,1,0,0:0:0:0:
256,192,11702,1,8,0:0:0:0:
256,192,11954,1,0,0:0:0:0:
256,192,12206,1,0,0:0:0:0:
256,192,12458,1,8,0:0:0:0:
256,192,12585,1,0,0:0:0:0:
256,192,12711,1,0,0:0:0:0:
256,192,12837,1,8,0:0:0:0:
256,192,13215,1,0,0:0:0:0:
256,192,13341,1,0,0:0:0:0:
256,192,13467,1,8,0:0:0:0:
256,192,13719,1,0,0:0:0:0:
256,192,13971,1,8,0:0:0:0:
256,192,14223,1,0,0:0:0:0:
256,192,14475,1,0,0:0:0:0:
256,192,14601,1,0,0:0:0:0:
256,192,14727,1,8,0:0:0:0:
256,192,14853,1,0,0:0:0:0:
256,192,14916,1,0,0:0:0:0:
256,192,14979,1,0,0:0:0:0:
256,192,15106,1,12,0:0:0:0:
256,192,15358,1,0,0:0:0:0:
256,192,15484,1,8,0:0:0:0:
256,192,15610,1,0,0:0:0:0:
256,192,15862,1,0,0:0:0:0:
256,192,16114,1,0,0:0:0:0:
256,192,16366,1,8,0:0:0:0:
256,192,16618,1,0,0:0:0:0:
256,192,16744,1,0,0:0:0:0:
256,192,16870,1,8,0:0:0:0:
256,192,16933,1,8,0:0:0:0:
256,192,16996,1,8,0:0:0:0:
256,192,17374,1,4,0:0:0:0:
256,192,17627,1,0,0:0:0:0:
256,192,17879,1,8,0:0:0:0:
256,192,18131,1,0,0:0:0:0:
256,192,18383,1,8,0:0:0:0:
256,192,18509,1,8,0:0:0:0:
256,192,18635,1,0,0:0:0:0:
256,192,18761,1,0,0:0:0:0:
256,192,18887,1,8,0:0:0:0:
256,192,18950,1,8,0:0:0:0:
256,192,19013,1,8,0:0:0:0:
256,192,19139,1,4,0:0:0:0:
256,192,19391,1,8,0:0:0:0:
256,192,19643,1,0,0:0:0:0:
256,192,19895,1,8,0:0:0:0:
256,192,20022,1,8,0:0:0:0:
256,192,20274,1,0,0:0:0:0:
256,192,20400,1,8,0:0:0:0:
256,192,20526,1,0,0:0:0:0:
256,192,20652,1,12,0:0:0:0:
256,192,20841,1,12,0:0:0:0:
256,192,21030,1,12,0:0:0:0:
256,192,21156,1,0,0:0:0:0:
256,192,21219,1,0,0:0:0:0:
256,192,21282,1,0,0:0:0:0:
256,192,21408,1,8,0:0:0:0:
256,192,21660,1,0,0:0:0:0:
256,192,21912,1,8,0:0:0:0:
256,192,22164,1,0,0:0:0:0:
256,192,22416,1,8,0:0:0:0:
256,192,22543,1,0,0:0:0:0:
256,192,22669,1,8,0:0:0:0:
256,192,22795,1,8,0:0:0:0:
256,192,22921,1,0,0:0:0:0:
256,192,22984,1,0,0:0:0:0:
256,192,23047,1,0,0:0:0:0:
256,192,23173,12,0,23551,0:0:0:0:
256,192,23677,5,4,0:0:0:0:
256,192,24433,12,0,25064,0:0:0:0:
256,192,25190,5,8,0:0:0:0:
256,192,25442,1,0,0:0:0:0:
256,192,25568,1,0,0:0:0:0:
256,192,25694,1,8,0:0:0:0:
256,192,25757,1,8,0:0:0:0:
256,192,25820,1,8,0:0:0:0:
256,192,25946,1,0,0:0:0:0:
256,192,26198,1,8,0:0:0:0:
256,192,26324,1,8,0:0:0:0:
256,192,26450,1,0,0:0:0:0:
256,192,26576,1,0,0:0:0:0:
256,192,26702,1,8,0:0:0:0:
256,192,26954,1,0,0:0:0:0:
256,192,27080,1,0,0:0:0:0:
256,192,27206,1,8,0:0:0:0:
256,192,27269,1,8,0:0:0:0:
256,192,27332,1,8,0:0:0:0:
256,192,27458,1,0,0:0:0:0:
256,192,27711,1,0,0:0:0:0:
256,192,27963,1,8,0:0:0:0:
256,192,28215,1,0,0:0:0:0:
256,192,28467,1,8,0:0:0:0:
256,192,28593,1,8,0:0:0:0:
256,192,28719,1,0,0:0:0:0:
256,192,28845,1,8,0:0:0:0:
256,192,28971,1,0,0:0:0:0:
256,192,29223,1,8,0:0:0:0:
256,192,29349,1,8,0:0:0:0:
256,192,29475,1,0,0:0:0:0:
256,192,29538,1,0,0:0:0:0:
256,192,29601,1,0,0:0:0:0:
256,192,29727,1,8,0:0:0:0:
256,192,29979,1,0,0:0:0:0:
256,192,30105,1,8,0:0:0:0:
256,192,30232,1,0,0:0:0:0:
256,192,30358,1,0,0:0:0:0:
256,192,30484,1,8,0:0:0:0:
256,192,30736,1,0,0:0:0:0:
256,192,30862,1,0,0:0:0:0:
256,192,31240,1,12,0:0:0:0:
256,192,31492,1,0,0:0:0:0:
256,192,31618,1,0,0:0:0:0:
256,192,31744,1,8,0:0:0:0:
256,192,31807,1,8,0:0:0:0:
256,192,31870,1,8,0:0:0:0:
256,192,31996,1,4,0:0:0:0:
256,192,32248,1,8,0:0:0:0:
256,192,32374,1,0,0:0:0:0:
256,192,32500,1,8,0:0:0:0:
256,192,32563,1,8,0:0:0:0:
256,192,32626,1,8,0:0:0:0:
256,192,32753,1,4,0:0:0:0:
256,192,33005,1,0,0:0:0:0:
256,192,33131,1,8,0:0:0:0:
256,192,33257,1,0,0:0:0:0:
256,192,33320,1,0,0:0:0:0:
256,192,33383,1,0,0:0:0:0:
256,192,33509,1,12,0:0:0:0:
256,192,33761,1,0,0:0:0:0:
256,192,33887,1,8,0:0:0:0:
256,192,34013,1,8,0:0:0:0:
256,192,34076,1,8,0:0:0:0:
256,192,34139,1,8,0:0:0:0:
256,192,34265,1,4,0:0:0:0:
256,192,34517,1,8,0:0:0:0:
256,192,34643,1,8,0:0:0:0:
256,192,34769,1,0,0:0:0:0:
256,192,34832,1,0,0:0:0:0:
256,192,34895,1,0,0:0:0:0:
256,192,35021,1,12,0:0:0:0:
256,192,35274,1,8,0:0:0:0:
256,192,35400,1,0,0:0:0:0:
256,192,35526,1,0,0:0:0:0:
256,192,35589,1,0,0:0:0:0:
256,192,35652,1,0,0:0:0:0:
256,192,35778,1,12,0:0:0:0:
256,192,36281,1,0,0:0:0:0:
256,192,36407,1,0,0:0:0:0:
256,192,36533,1,8,0:0:0:0:
256,192,36596,1,8,0:0:0:0:
256,192,36659,1,8,0:0:0:0:
256,192,36785,1,0,0:0:0:0:
256,192,36911,1,0,0:0:0:0:
256,192,37037,1,8,0:0:0:0:
256,192,37100,1,8,0:0:0:0:
256,192,37163,1,8,0:0:0:0:
256,192,37289,1,0,0:0:0:0:
256,192,37415,1,0,0:0:0:0:
256,192,37541,1,12,0:0:0:0:
256,192,37793,1,0,0:0:0:0:
256,192,37919,1,8,0:0:0:0:
256,192,38045,1,0,0:0:0:0:
256,192,38171,1,8,0:0:0:0:
256,192,38297,1,0,0:0:0:0:
256,192,38423,1,0,0:0:0:0:
256,192,38549,1,8,0:0:0:0:
256,192,38612,1,8,0:0:0:0:
256,192,38675,1,8,0:0:0:0:
256,192,38801,1,4,0:0:0:0:
256,192,39053,1,4,0:0:0:0:
256,192,39305,1,12,0:0:0:0:
256,192,39557,1,4,0:0:0:0:
256,192,40314,1,0,0:0:0:0:
256,192,40818,1,8,0:0:0:0:
256,192,40944,1,0,0:0:0:0:
256,192,41070,1,8,0:0:0:0:
256,192,41322,1,0,0:0:0:0:
256,192,41574,1,12,0:0:0:0:
256,192,41826,1,8,0:0:0:0:
256,192,41952,1,0,0:0:0:0:
256,192,42078,1,8,0:0:0:0:
256,192,42330,1,8,0:0:0:0:
256,192,42456,1,8,0:0:0:0:
256,192,42583,1,4,0:0:0:0:
256,192,42835,1,4,0:0:0:0:
256,192,43087,1,4,0:0:0:0:
256,192,43339,1,4,0:0:0:0:
256,192,43591,1,12,0:0:0:0:
256,192,44095,1,0,0:0:0:0:
256,192,44221,1,0,0:0:0:0:
256,192,44347,1,0,0:0:0:0:
256,192,44599,1,12,0:0:0:0:
256,192,44851,1,0,0:0:0:0:
256,192,45104,1,8,0:0:0:0:
256,192,45356,1,8,0:0:0:0:
256,192,45482,1,8,0:0:0:0:
256,192,45608,1,4,0:0:0:0:
256,192,46112,1,0,0:0:0:0:
256,192,46364,1,8,0:0:0:0:
256,192,46490,1,0,0:0:0:0:
256,192,46616,1,12,0:0:0:0:
256,192,46868,1,0,0:0:0:0:
256,192,47120,1,8,0:0:0:0:
256,192,47183,1,8,0:0:0:0:
256,192,47246,1,8,0:0:0:0:
256,192,47372,1,8,0:0:0:0:
256,192,47625,1,4,0:0:0:0:
256,192,48129,1,8,0:0:0:0:
256,192,48255,1,0,0:0:0:0:
256,192,48381,1,8,0:0:0:0:
256,192,48633,1,4,0:0:0:0:
256,192,48885,1,0,0:0:0:0:
256,192,49011,1,0,0:0:0:0:
256,192,49137,1,8,0:0:0:0:
256,192,49326,1,8,0:0:0:0:
256,192,49515,1,8,0:0:0:0:
256,192,49641,1,4,0:0:0:0:
256,192,49893,1,0,0:0:0:0:
256,192,50146,1,8,0:0:0:0:
256,192,50272,1,8,0:0:0:0:
256,192,50398,1,0,0:0:0:0:
256,192,50650,1,12,0:0:0:0:
256,192,51154,1,0,0:0:0:0:
256,192,51343,1,0,0:0:0:0:
256,192,51532,1,0,0:0:0:0:
256,192,51658,1,12,0:0:0:0:
256,192,51910,1,0,0:0:0:0:
256,192,51973,1,0,0:0:0:0:
256,192,52162,1,8,0:0:0:0:
256,192,52351,1,8,0:0:0:0:
256,192,52477,1,0,0:0:0:0:
256,192,52540,1,0,0:0:0:0:
256,192,52667,1,12,0:0:0:0:
256,192,52919,1,8,0:0:0:0:
256,192,52982,1,8,0:0:0:0:
256,192,53171,1,0,0:0:0:0:
256,192,53255,1,0,0:0:0:0:
256,192,53339,1,0,0:0:0:0:
256,192,53423,1,0,0:0:0:0:
256,192,53675,1,12,0:0:0:0:
256,192,53927,1,8,0:0:0:0:
256,192,54179,1,0,0:0:0:0:
256,192,54431,1,0,0:0:0:0:
256,192,54557,1,8,0:0:0:0:
256,192,54683,1,0,0:0:0:0:
256,192,54746,1,0,0:0:0:0:
256,192,54809,1,0,0:0:0:0:
256,192,54935,1,8,0:0:0:0:
256,192,55062,1,0,0:0:0:0:
256,192,55188,1,8,0:0:0:0:
256,192,55314,1,8,0:0:0:0:
256,192,55440,1,0,0:0:0:0:
256,192,55503,1,0,0:0:0:0:
256,192,55566,1,0,0:0:0:0:
256,192,55692,1,12,0:0:0:0:
256,192,56070,1,8,0:0:0:0:
256,192,56448,1,0,0:0:0:0:
256,192,56826,1,0,0:0:0:0:
256,192,57204,1,8,0:0:0:0:
256,192,57456,1,8,0:0:0:0:
256,192,57708,1,4,0:0:0:0:
256,192,59220,1,8,0:0:0:0:
256,192,59472,1,0,0:0:0:0:
256,192,59598,1,0,0:0:0:0:
256,192,59724,1,8,0:0:0:0:
256,192,59787,1,8,0:0:0:0:
256,192,59850,1,8,0:0:0:0:
256,192,60102,1,8,0:0:0:0:
256,192,60229,1,0,0:0:0:0:
256,192,60355,1,0,0:0:0:0:
256,192,60481,1,8,0:0:0:0:
256,192,60544,1,8,0:0:0:0:
256,192,60607,1,8,0:0:0:0:
256,192,60859,1,8,0:0:0:0:
256,192,60985,1,0,0:0:0:0:
256,192,61111,1,0,0:0:0:0:
256,192,61237,1,8,0:0:0:0:
256,192,61363,1,8,0:0:0:0:
256,192,61426,1,8,0:0:0:0:
256,192,61489,1,8,0:0:0:0:
256,192,61741,1,4,0:0:0:0:
256,192,61993,1,12,0:0:0:0:
256,192,62245,12,0,65018,0:0:0:0:
256,192,65271,5,0,0:0:0:0:
256,192,65775,1,0,0:0:0:0:
256,192,65901,1,0,0:0:0:0:
256,192,66027,1,8,0:0:0:0:
256,192,66090,1,8,0:0:0:0:
256,192,66153,1,8,0:0:0:0:
256,192,66279,1,0,0:0:0:0:
256,192,66783,1,0,0:0:0:0:
256,192,67287,1,8,0:0:0:0:
256,192,67792,1,12,0:0:0:0:
256,192,68800,1,0,0:0:0:0:
256,192,68926,1,0,0:0:0:0:
256,192,69052,5,12,0:0:0:0:
256,192,69304,1,0,0:0:0:0:
256,192,69430,1,8,0:0:0:0:
256,192,69493,1,8,0:0:0:0:
256,192,69556,1,8,0:0:0:0:
256,192,69682,1,8,0:0:0:0:
256,192,69808,1,0,0:0:0:0:
256,192,70060,1,0,0:0:0:0:
256,192,70186,1,8,0:0:0:0:
256,192,70439,1,8,0:0:0:0:
256,192,70565,1,0,0:0:0:0:
256,192,70628,1,0,0:0:0:0:
256,192,70691,1,0,0:0:0:0:
256,192,70817,1,8,0:0:0:0:
256,192,71069,1,0,0:0:0:0:
256,192,71195,1,8,0:0:0:0:
256,192,71321,1,0,0:0:0:0:
256,192,71447,1,8,0:0:0:0:
256,192,71573,1,0,0:0:0:0:
256,192,71699,1,0,0:0:0:0:
256,192,71825,1,8,0:0:0:0:
256,192,72077,1,8,0:0:0:0:
256,192,72329,1,0,0:0:0:0:
256,192,72581,1,0,0:0:0:0:
256,192,72707,1,0,0:0:0:0:
256,192,72834,1,12,0:0:0:0:
256,192,73086,1,0,0:0:0:0:
256,192,73212,1,8,0:0:0:0:
256,192,73338,1,0,0:0:0:0:
256,192,73401,1,0,0:0:0:0:
256,192,73464,1,0,0:0:0:0:
256,192,73590,1,8,0:0:0:0:
256,192,73842,1,0,0:0:0:0:
256,192,73968,1,8,0:0:0:0:
256,192,74031,1,8,0:0:0:0:
256,192,74094,1,8,0:0:0:0:
256,192,74220,1,8,0:0:0:0:
256,192,74346,1,0,0:0:0:0:
256,192,74598,1,0,0:0:0:0:
256,192,74850,1,12,0:0:0:0:
256,192,75102,1,0,0:0:0:0:
256,192,75292,1,8,0:0:0:0:
256,192,75355,1,8,0:0:0:0:
256,192,75481,1,8,0:0:0:0:
256,192,75607,1,0,0:0:0:0:
256,192,75670,1,0,0:0:0:0:
256,192,75733,1,0,0:0:0:0:
256,192,75859,1,8,0:0:0:0:
256,192,76111,1,4,0:0:0:0:
256,192,76363,1,4,0:0:0:0:
256,192,76615,1,4,0:0:0:0:
256,192,76867,1,12,0:0:0:0:
256,192,77119,1,0,0:0:0:0:
256,192,77245,1,0,0:0:0:0:
256,192,77371,1,8,0:0:0:0:
256,192,77434,1,8,0:0:0:0:
256,192,77497,1,8,0:0:0:0:
256,192,77623,1,0,0:0:0:0:
256,192,77750,1,0,0:0:0:0:
256,192,77876,1,8,0:0:0:0:
256,192,78128,1,0,0:0:0:0:
256,192,78254,1,8,0:0:0:0:
256,192,78380,1,0,0:0:0:0:
256,192,78443,1,0,0:0:0:0:
256,192,78506,1,0,0:0:0:0:
256,192,78632,1,8,0:0:0:0:
256,192,78758,1,8,0:0:0:0:
256,192,78884,1,0,0:0:0:0:
256,192,79136,1,8,0:0:0:0:
256,192,79262,1,8,0:0:0:0:
256,192,79514,1,0,0:0:0:0:
256,192,79640,1,8,0:0:0:0:
256,192,79766,1,0,0:0:0:0:
256,192,79892,1,8,0:0:0:0:
256,192,80144,1,0,0:0:0:0:
256,192,80397,1,0,0:0:0:0:
256,192,80649,1,8,0:0:0:0:
256,192,80775,1,8,0:0:0:0:
256,192,80901,1,0,0:0:0:0:
256,192,81153,1,8,0:0:0:0:
256,192,81216,1,8,0:0:0:0:
256,192,81279,1,8,0:0:0:0:
256,192,81405,1,0,0:0:0:0:
256,192,81531,1,0,0:0:0:0:
256,192,81657,1,8,0:0:0:0:
256,192,81909,1,8,0:0:0:0:
256,192,82035,1,0,0:0:0:0:
256,192,82098,1,0,0:0:0:0:
256,192,82161,1,0,0:0:0:0:
256,192,82287,1,0,0:0:0:0:
256,192,82413,1,8,0:0:0:0:
256,192,82665,1,0,0:0:0:0:
256,192,82792,1,0,0:0:0:0:
256,192,82918,1,8,0:0:0:0:
256,192,83107,1,0,0:0:0:0:
256,192,83296,1,0,0:0:0:0:
256,192,83422,1,8,0:0:0:0:
256,192,83611,1,0,0:0:0:0:
256,192,83800,1,0,0:0:0:0:
256,192,83926,1,8,0:0:0:0:
256,192,83989,1,8,0:0:0:0:
256,192,84052,1,8,0:0:0:0:
256,192,84178,1,0,0:0:0:0:
256,192,84304,1,8,0:0:0:0:
256,192,84367,1,8,0:0:0:0:
256,192,84430,1,8,0:0:0:0:
256,192,84556,1,0,0:0:0:0:
256,192,84682,1,8,0:0:0:0:
256,192,84808,1,8,0:0:0:0:
256,192,84934,1,4,0:0:0:0:
256,192,85313,1,8,0:0:0:0:
256,192,85565,1,0,0:0:0:0:
256,192,85691,1,8,0:0:0:0:
256,192,85817,1,8,0:0:0:0:
256,192,85943,1,0,0:0:0:0:
256,192,86195,1,0,0:0:0:0:
256,192,86447,1,8,0:0:0:0:
256,192,86573,1,8,0:0:0:0:
256,192,86699,1,0,0:0:0:0:
256,192,86825,1,0,0:0:0:0:
256,192,86951,1,12,0:0:0:0:
256,192,87203,1,0,0:0:0:0:
256,192,87329,1,8,0:0:0:0:
256,192,87581,1,8,0:0:0:0:
256,192,87707,1,8,0:0:0:0:
256,192,87834,1,0,0:0:0:0:
256,192,87960,1,8,0:0:0:0:
256,192,88212,1,0,0:0:0:0:
256,192,88464,1,8,0:0:0:0:
256,192,88716,1,0,0:0:0:0:
256,192,88842,1,0,0:0:0:0:
256,192,88968,1,12,0:0:0:0:
256,192,89976,1,8,0:0:0:0:
256,192,90481,1,8,0:0:0:0:
256,192,90985,1,0,0:0:0:0:
256,192,91111,1,0,0:0:0:0:
256,192,91363,1,8,0:0:0:0:
256,192,91489,1,8,0:0:0:0:
256,192,91741,1,0,0:0:0:0:
256,192,91867,1,0,0:0:0:0:
256,192,92119,1,8,0:0:0:0:
256,192,92245,1,8,0:0:0:0:
256,192,92497,1,0,0:0:0:0:
256,192,92623,1,8,0:0:0:0:
256,192,92750,1,0,0:0:0:0:
256,192,92876,1,8,0:0:0:0:
256,192,93128,1,0,0:0:0:0:
256,192,93317,1,0,0:0:0:0:
256,192,93506,1,0,0:0:0:0:
256,192,93695,1,0,0:0:0:0:
256,192,93884,1,8,0:0:0:0:
256,192,93947,1,8,0:0:0:0:
256,192,94010,1,8,0:0:0:0:
256,192,94199,1,0,0:0:0:0:
256,192,94388,1,0,0:0:0:0:
256,192,94514,1,8,0:0:0:0:
256,192,94640,1,0,0:0:0:0:
256,192,94703,1,0,0:0:0:0:
256,192,94766,1,0,0:0:0:0:
256,192,94892,1,8,0:0:0:0:
256,192,95018,1,0,0:0:0:0:
256,192,95102,1,0,0:0:0:0:
256,192,95186,1,0,0:0:0:0:
256,192,95607,1,8,0:0:0:0:
256,192,95691,1,8,0:0:0:0:
256,192,95775,1,8,0:0:0:0:
256,192,95859,1,8,0:0:0:0:
256,192,96111,1,0,0:0:0:0:
256,192,96195,1,0,0:0:0:0:
256,192,96279,1,0,0:0:0:0:
256,192,96363,1,0,0:0:0:0:
256,192,96615,1,8,0:0:0:0:
256,192,96699,1,8,0:0:0:0:
256,192,96783,1,8,0:0:0:0:
256,192,96867,1,8,0:0:0:0:
256,192,97287,1,12,0:0:0:0:
256,192,98044,1,4,0:0:0:0:
256,192,98548,1,4,0:0:0:0:
256,192,99052,1,12,0:0:0:0:
256,192,99304,1,0,0:0:0:0:
256,192,99430,1,0,0:0:0:0:
256,192,99682,1,8,0:0:0:0:
256,192,99934,1,0,0:0:0:0:
256,192,100186,1,8,0:0:0:0:
256,192,100439,1,8,0:0:0:0:
256,192,100565,1,0,0:0:0:0:
256,192,100691,1,8,0:0:0:0:
256,192,100817,1,0,0:0:0:0:
256,192,100943,1,0,0:0:0:0:
256,192,101069,1,0,0:0:0:0:
256,192,101321,1,0,0:0:0:0:
256,192,101447,1,8,0:0:0:0:
256,192,101699,1,8,0:0:0:0:
256,192,101951,1,0,0:0:0:0:
256,192,102203,1,8,0:0:0:0:
256,192,102455,1,0,0:0:0:0:
256,192,102581,1,8,0:0:0:0:
256,192,102707,1,0,0:0:0:0:
256,192,102771,1,0,0:0:0:0:
256,192,102834,1,0,0:0:0:0:
256,192,102960,1,8,0:0:0:0:
256,192,103086,1,0,0:0:0:0:
256,192,103212,1,0,0:0:0:0:
256,192,103338,1,0,0:0:0:0:
256,192,103464,1,8,0:0:0:0:
256,192,103716,1,8,0:0:0:0:
256,192,103968,1,0,0:0:0:0:
256,192,104220,1,8,0:0:0:0:
256,192,104472,1,0,0:0:0:0:
256,192,104598,1,8,0:0:0:0:
256,192,104724,1,8,0:0:0:0:
256,192,104850,1,0,0:0:0:0:
256,192,104976,1,0,0:0:0:0:
256,192,105355,1,4,0:0:0:0:
256,192,105481,1,8,0:0:0:0:
256,192,105733,1,0,0:0:0:0:
256,192,105985,1,8,0:0:0:0:
256,192,106111,1,0,0:0:0:0:
256,192,106237,1,8,0:0:0:0:
256,192,106489,1,0,0:0:0:0:
256,192,106552,1,0,0:0:0:0:
256,192,106615,1,0,0:0:0:0:
256,192,106741,1,0,0:0:0:0:
256,192,106867,1,8,0:0:0:0:
256,192,106993,1,0,0:0:0:0:
256,192,107119,1,12,0:0:0:0:
256,192,107371,1,0,0:0:0:0:
256,192,107434,1,0,0:0:0:0:
256,192,107623,1,8,0:0:0:0:
256,192,107813,1,0,0:0:0:0:
256,192,107939,1,0,0:0:0:0:
256,192,108128,1,0,0:0:0:0:
256,192,108254,1,8,0:0:0:0:
256,192,108380,1,0,0:0:0:0:
256,192,108569,1,8,0:0:0:0:
256,192,108632,1,8,0:0:0:0:
256,192,108758,1,0,0:0:0:0:
256,192,108884,1,8,0:0:0:0:
256,192,108947,1,8,0:0:0:0:
256,192,109136,1,0,0:0:0:0:
256,192,109325,1,0,0:0:0:0:
256,192,109514,1,0,0:0:0:0:
256,192,109892,1,8,0:0:0:0:
256,192,110018,1,0,0:0:0:0:
256,192,110081,1,0,0:0:0:0:
256,192,110144,1,0,0:0:0:0:
256,192,110271,1,0,0:0:0:0:
256,192,110460,1,8,0:0:0:0:
256,192,110649,1,0,0:0:0:0:
256,192,110838,1,8,0:0:0:0:
256,192,111027,1,8,0:0:0:0:
256,192,111153,1,0,0:0:0:0:
256,192,111216,1,0,0:0:0:0:
256,192,111279,1,0,0:0:0:0:
256,192,111405,1,8,0:0:0:0:
256,192,111531,1,8,0:0:0:0:
256,192,111657,1,0,0:0:0:0:
256,192,111909,1,0,0:0:0:0:
256,192,112035,1,0,0:0:0:0:
256,192,112161,1,8,0:0:0:0:
256,192,112287,1,0,0:0:0:0:
256,192,112413,1,8,0:0:0:0:
256,192,112539,1,8,0:0:0:0:
256,192,112665,1,0,0:0:0:0:
256,192,112918,1,8,0:0:0:0:
256,192,113170,1,8,0:0:0:0:
256,192,113296,1,8,0:0:0:0:
256,192,113422,1,0,0:0:0:0:
256,192,113548,1,8,0:0:0:0:
256,192,113674,1,0,0:0:0:0:
256,192,113737,1,0,0:0:0:0:
256,192,113800,1,0,0:0:0:0:
256,192,113926,1,8,0:0:0:0:
256,192,114178,1,8,0:0:0:0:
256,192,114304,1,8,0:0:0:0:
256,192,114430,1,0,0:0:0:0:
256,192,114493,1,0,0:0:0:0:
256,192,114556,1,0,0:0:0:0:
256,192,114682,1,8,0:0:0:0:
256,192,114808,1,0,0:0:0:0:
256,192,114934,1,8,0:0:0:0:
256,192,114997,1,8,0:0:0:0:
256,192,115060,1,8,0:0:0:0:
256,192,115186,1,4,0:0:0:0:
256,192,115691,1,0,0:0:0:0:
256,192,115943,1,8,0:0:0:0:
256,192,116069,1,8,0:0:0:0:
256,192,116195,1,0,0:0:0:0:
256,192,116321,1,0,0:0:0:0:
256,192,116447,1,8,0:0:0:0:
256,192,116699,1,8,0:0:0:0:
256,192,116825,1,8,0:0:0:0:
256,192,116951,1,0,0:0:0:0:
256,192,117077,1,8,0:0:0:0:
256,192,117203,1,0,0:0:0:0:
256,192,117266,1,0,0:0:0:0:
256,192,117329,1,0,0:0:0:0:
256,192,117455,1,8,0:0:0:0:
256,192,117707,1,8,0:0:0:0:
256,192,117960,1,0,0:0:0:0:
256,192,118086,1,0,0:0:0:0:
256,192,118212,1,8,0:0:0:0:
256,192,118338,1,0,0:0:0:0:
256,192,118464,1,8,0:0:0:0:
256,192,118527,1,8,0:0:0:0:
256,192,118590,1,8,0:0:0:0:
256,192,118716,1,0,0:0:0:0:
256,192,118842,1,0,0:0:0:0:
256,192,118968,1,8,0:0:0:0:
256,192,119031,1,8,0:0:0:0:
256,192,119094,1,8,0:0:0:0:
256,192,119220,1,0,0:0:0:0:
