osu file format v14

[General]
AudioFilename: audio.ogg
AudioLeadIn: 0
PreviewTime: 68884
Countdown: 0
SampleSet: Normal
StackLeniency: 0.7
Mode: 1
LetterboxInBreaks: 0
WidescreenStoryboard: 1

[Editor]
DistanceSpacing: 0.8
BeatDivisor: 4
GridSize: 32
TimelineZoom: 3.199999

[Metadata]
Title:ReviveR
TitleUnicode:ЯeviveR
Artist:Diceros Bicornis
ArtistUnicode:Diceros Bicornis
Creator:Dusk-
Version:BASIC
Source:SOUND VOLTEX VIVID WAVE
Tags:sdvx xi blacky the 9th kac konami arcade championship hexadiver electronic instrumental paz08 hivie gaston_2199 capu
BeatmapID:3946848
BeatmapSetID:1912084

[Difficulty]
HPDrainRate:8
CircleSize:5
OverallDifficulty:3
ApproachRate:9
SliderMultiplier:1.3
SliderTickRate:1

[Events]
//Background and Video events
0,0,"bg.png",0,60
//Break Periods
//Storyboard Layer 0 (Background)
//Storyboard Layer 1 (Fail)
//Storyboard Layer 2 (Pass)
//Storyboard Layer 3 (Foreground)
//Storyboard Layer 4 (Overlay)
//Storyboard Sound Samples

[TimingPoints]
-20,252.100840336134,4,1,0,100,1,0
25190,252.100840336134,3,1,0,80,1,0
35777,252.100840336134,7,1,0,100,1,0
37541,252.100840336134,4,1,0,100,1,0
55692,252.100840336134,3,1,0,100,1,0
57708,252.100840336134,4,1,0,100,1,0
59724,-100,4,1,0,100,0,1
61741,-100,4,1,0,100,0,0
69052,-100,4,1,0,100,0,1
88968,-100,4,1,0,100,0,0
99052,-100,4,1,0,100,0,1
104976,-100,4,1,0,100,0,0
105355,-100,4,1,0,100,0,1
115186,-100,4,1,0,100,0,0

[HitObjects]
256,192,1996,5,4,0:0:0:0:
256,192,2248,12,0,5526,0:0:0:0:
256,192,6030,5,4,0:0:0:0:
256,192,7038,1,0,0:0:0:0:
256,192,7795,1,0,0:0:0:0:
256,192,9055,1,8,0:0:0:0:
256,192,9811,1,8,0:0:0:0:
256,192,11072,1,0,0:0:0:0:
256,192,11828,1,8,0:0:0:0:
256,192,13215,1,8,0:0:0:0:
256,192,13593,1,0,0:0:0:0:
256,192,14601,1,8,0:0:0:0:
256,192,14853,1,8,0:0:0:0:
256,192,15106,1,0,0:0:0:0:
256,192,15610,1,8,0:0:0:0:
256,192,16114,1,0,0:0:0:0:
256,192,17122,1,8,0:0:0:0:
256,192,17627,1,0,0:0:0:0:
256,192,18131,1,8,0:0:0:0:
256,192,19139,1,0,0:0:0:0:
256,192,19643,1,0,0:0:0:0:
256,192,19895,1,0,0:0:0:0:
256,192,20148,1,8,0:0:0:0:
256,192,20652,1,0,0:0:0:0:
256,192,21156,1,8,0:0:0:0:
256,192,21408,1,8,0:0:0:0:
256,192,21660,1,8,0:0:0:0:
256,192,22164,1,0,0:0:0:0:
256,192,22669,1,0,0:0:0:0:
256,192,22921,1,0,0:0:0:0:
256,192,23173,1,8,0:0:0:0:
256,192,23677,1,4,0:0:0:0:
256,192,25190,1,8,0:0:0:0:
256,192,25946,1,8,0:0:0:0:
256,192,26702,1,8,0:0:0:0:
256,192,27458,1,8,0:0:0:0:
256,192,28215,1,8,0:0:0:0:
256,192,28971,1,8,0:0:0:0:
256,192,29727,1,8,0:0:0:0:
256,192,31240,1,4,0:0:0:0:
256,192,31996,1,4,0:0:0:0:
256,192,32753,1,4,0:0:0:0:
256,192,33509,1,4,0:0:0:0:
256,192,34265,1,4,0:0:0:0:
256,192,35021,1,4,0:0:0:0:
256,192,35778,1,12,0:0:0:0:
256,192,37541,1,0,0:0:0:0:
256,192,38045,1,0,0:0:0:0:
256,192,38549,1,8,0:0:0:0:
256,192,38801,1,8,0:0:0:0:
256,192,39053,1,8,0:0:0:0:
256,192,39557,1,4,0:0:0:0:
256,192,41574,1,0,0:0:0:0:
256,192,42078,1,0,0:0:0:0:
256,192,42583,1,8,0:0:0:0:
256,192,42835,1,0,0:0:0:0:
256,192,43087,1,8,0:0:0:0:
256,192,43591,1,4,0:0:0:0:
256,192,44599,1,8,0:0:0:0:
256,192,45608,1,0,0:0:0:0:
256,192,46112,1,0,0:0:0:0:
256,192,46616,1,8,0:0:0:0:
256,192,47120,1,8,0:0:0:0:
256,192,47625,1,0,0:0:0:0:
256,192,48633,1,8,0:0:0:0:
256,192,49641,1,0,0:0:0:0:
256,192,50650,1,8,0:0:0:0:
256,192,51154,1,8,0:0:0:0:
256,192,51406,1,8,0:0:0:0:
256,192,51658,1,0,0:0:0:0:
256,192,52162,1,0,0:0:0:0:
256,192,52667,1,8,0:0:0:0:
256,192,53171,1,0,0:0:0:0:
256,192,53423,1,0,0:0:0:0:
256,192,53675,1,8,0:0:0:0:
256,192,53927,1,8,0:0:0:0:
256,192,54179,1,0,0:0:0:0:
256,192,54683,1,8,0:0:0:0:
256,192,55692,1,8,0:0:0:0:
256,192,56448,1,8,0:0:0:0:
256,192,57204,1,8,0:0:0:0:
256,192,57708,1,4,0:0:0:0:
256,192,59724,1,8,0:0:0:0:
256,192,60481,1,8,0:0:0:0:
256,192,61237,1,8,0:0:0:0:
256,192,61741,1,0,0:0:0:0:
256,192,61993,12,0,63758,0:0:0:0:
256,192,66279,5,4,0:0:0:0:
256,192,66783,1,4,0:0:0:0:
256,192,67287,1,12,0:0:0:0:
256,192,69052,1,12,0:0:0:0:
256,192,69556,1,0,0:0:0:0:
256,192,70060,1,8,0:0:0:0:
256,192,70565,1,0,0:0:0:0:
256,192,70817,1,8,0:0:0:0:
256,192,71573,1,8,0:0:0:0:
256,192,71825,1,0,0:0:0:0:
256,192,72329,1,0,0:0:0:0:
256,192,72834,1,8,0:0:0:0:
256,192,73338,1,0,0:0:0:0:
256,192,73842,1,8,0:0:0:0:
256,192,74346,1,0,0:0:0:0:
256,192,74598,1,0,0:0:0:0:
256,192,74850,1,8,0:0:0:0:
256,192,75355,1,0,0:0:0:0:
256,192,75859,1,8,0:0:0:0:
256,192,76111,1,0,0:0:0:0:
256,192,76363,1,8,0:0:0:0:
256,192,76867,1,4,0:0:0:0:
256,192,77876,1,8,0:0:0:0:
256,192,78380,1,8,0:0:0:0:
256,192,78632,1,8,0:0:0:0:
256,192,78884,1,0,0:0:0:0:
256,192,79640,1,0,0:0:0:0:
256,192,79892,1,8,0:0:0:0:
256,192,80397,1,8,0:0:0:0:
256,192,80649,1,0,0:0:0:0:
256,192,80901,1,8,0:0:0:0:
256,192,81405,1,0,0:0:0:0:
256,192,81909,1,8,0:0:0:0:
256,192,82413,1,8,0:0:0:0:
256,192,82665,1,8,0:0:0:0:
256,192,82918,1,0,0:0:0:0:
256,192,83422,1,0,0:0:0:0:
256,192,83926,1,8,0:0:0:0:
256,192,84178,1,8,0:0:0:0:
256,192,84430,1,8,0:0:0:0:
256,192,84934,1,0,0:0:0:0:
256,192,85943,1,8,0:0:0:0:
256,192,86447,1,8,0:0:0:0:
256,192,86951,1,0,0:0:0:0:
256,192,87960,1,0,0:0:0:0:
256,192,88464,1,8,0:0:0:0:
256,192,88716,1,8,0:0:0:0:
256,192,88968,1,0,0:0:0:0:
256,192,89976,1,0,0:0:0:0:
256,192,90985,1,8,0:0:0:0:
256,192,91741,1,8,0:0:0:0:
256,192,92497,1,8,0:0:0:0:
256,192,93128,1,0,0:0:0:0:
256,192,94010,1,0,0:0:0:0:
256,192,95018,1,0,0:0:0:0:
256,192,95523,1,0,0:0:0:0:
256,192,96027,1,0,0:0:0:0:
256,192,97287,1,8,0:0:0:0:
256,192,98044,1,8,0:0:0:0:
256,192,98548,1,8,0:0:0:0:
256,192,99052,1,4,0:0:0:0:
256,192,100060,1,0,0:0:0:0:
256,192,100313,1,0,0:0:0:0:
256,192,100565,1,8,0:0:0:0:
256,192,101069,1,0,0:0:0:0:
256,192,101573,1,8,0:0:0:0:
256,192,101825,1,8,0:0:0:0:
256,192,102077,1,0,0:0:0:0:
256,192,103086,1,0,0:0:0:0:
256,192,103590,1,8,0:0:0:0:
256,192,104094,1,0,0:0:0:0:
256,192,104346,1,8,0:0:0:0:
256,192,104598,1,0,0:0:0:0:
256,192,105355,1,8,0:0:0:0:
256,192,105607,1,0,0:0:0:0:
256,192,105859,1,8,0:0:0:0:
256,192,106111,1,0,0:0:0:0:
256,192,107119,1,0,0:0:0:0:
256,192,107623,1,8,0:0:0:0:
256,192,108128,1,0,0:0:0:0:
256,192,108380,1,0,0:0:0:0:
256,192,108632,1,0,0:0:0:0:
256,192,109136,1,8,0:0:0:0:
256,192,109640,1,0,0:0:0:0:
256,192,109892,1,0,0:0:0:0:
256,192,110144,1,8,0:0:0:0:
256,192,111153,1,0,0:0:0:0:
256,192,111657,1,8,0:0:0:0:
256,192,111909,1,8,0:0:0:0:
256,192,112161,1,0,0:0:0:0:
256,192,112413,1,0,0:0:0:0:
256,192,112665,1,8,0:0:0:0:
256,192,113170,1,8,0:0:0:0:
256,192,113674,1,0,0:0:0:0:
256,192,113926,1,0,0:0:0:0:
256,192,114178,1,8,0:0:0:0:
256,192,114430,1,8,0:0:0:0:
256,192,114682,1,0,0:0:0:0:
256,192,115691,1,0,0:0:0:0:
256,192,115943,1,0,0:0:0:0:
256,192,116195,1,0,0:0:0:0:
256,192,116699,1,0,0:0:0:0:
256,192,116951,1,8,0:0:0:0:
256,192,117203,1,0,0:0:0:0:
256,192,117707,1,8,0:0:0:0:
256,192,117960,1,8,0:0:0:0:
256,192,118212,1,8,0:0:0:0:
256,192,118716,1,8,0:0:0:0:
256,192,118968,1,0,0:0:0:0:
256,192,119220,1,8,0:0:0:0:
