osu file format v14

[General]
AudioFilename: audio.ogg
AudioLeadIn: 0
PreviewTime: 68884
Countdown: 0
SampleSet: Normal
StackLeniency: 0.7
Mode: 1
LetterboxInBreaks: 0
WidescreenStoryboard: 1

[Editor]
Bookmarks: 1996,6030,15106,25190,31240,37541,43591,51658,57708,69052,76867,84934,99052,107119
DistanceSpacing: 0.8
BeatDivisor: 9
GridSize: 32
TimelineZoom: 2.1

[Metadata]
Title:ReviveR
TitleUnicode:ЯeviveR
Artist:Diceros Bicornis
ArtistUnicode:Diceros Bicornis
Creator:Dusk-
Version:2199's NOVICE
Source:SOUND VOLTEX VIVID WAVE
Tags:sdvx xi blacky the 9th kac konami arcade championship hexadiver electronic instrumental paz08 hivie gaston_2199 capu
BeatmapID:3965849
BeatmapSetID:1912084

[Difficulty]
HPDrainRate:7
CircleSize:2
OverallDifficulty:4
ApproachRate:10
SliderMultiplier:1.3
SliderTickRate:1

[Events]
//Background and Video events
0,0,"bg.png",0,60
//Break Periods
//Storyboard Layer 0 (Background)
//Storyboard Layer 1 (Fail)
//Storyboard Layer 2 (Pass)
//Storyboard Layer 3 (Foreground)
//Storyboard Layer 4 (Overlay)
//Storyboard Sound Samples

[TimingPoints]
-20,252.100840336134,4,1,0,100,1,0
7038,-111.111111111111,4,1,0,100,0,0
15106,-100,4,1,0,100,0,0
25190,252.100840336134,3,1,0,80,1,0
25190,-125,4,1,0,80,0,0
31240,-111.111111111111,4,1,0,100,0,0
35777,252.100840336134,7,1,0,100,1,0
37541,252.100840336134,4,1,0,100,1,0
43843,-111.111111111111,4,1,0,100,0,0
51658,-100,4,1,0,100,0,0
55692,252.100840336134,3,1,0,100,1,0
57708,252.100840336134,4,1,0,100,1,0
66279,-111.111111111111,4,1,0,100,0,0
69052,-100,4,1,0,100,0,1
88968,-100,4,1,0,100,0,0
97287,-111.111111111111,4,1,0,100,0,0
99052,-100,4,1,0,100,0,1
104976,-100,4,1,0,100,0,0
105355,-100,4,1,0,100,0,1
115186,-100,4,1,0,100,0,0

[HitObjects]
256,192,1996,5,4,0:0:0:0:
256,192,2248,12,0,5778,0:0:0:0:
256,192,6030,5,4,0:0:0:0:
256,192,7038,1,12,0:0:0:0:
256,192,7416,1,0,0:0:0:0:
256,192,7795,1,8,0:0:0:0:
256,192,8173,1,0,0:0:0:0:
256,192,8551,1,8,0:0:0:0:
256,192,9055,1,8,0:0:0:0:
256,192,9433,1,0,0:0:0:0:
256,192,9811,1,8,0:0:0:0:
256,192,10190,1,0,0:0:0:0:
256,192,10568,1,8,0:0:0:0:
256,192,10820,1,8,0:0:0:0:
256,192,11072,1,0,0:0:0:0:
256,192,11450,1,0,0:0:0:0:
256,192,11828,1,8,0:0:0:0:
256,192,12206,1,0,0:0:0:0:
256,192,12585,1,8,0:0:0:0:
256,192,13215,1,8,0:0:0:0:
256,192,13593,1,0,0:0:0:0:
256,192,13971,1,8,0:0:0:0:
256,192,14223,1,0,0:0:0:0:
256,192,14475,1,8,0:0:0:0:
256,192,14601,1,0,0:0:0:0:
224,160,15106,1,8,0:0:0:0:
224,160,15358,1,0,0:0:0:0:
224,160,15610,1,8,0:0:0:0:
224,160,15862,1,8,0:0:0:0:
224,160,15988,1,8,0:0:0:0:
224,160,16114,1,0,0:0:0:0:
224,160,16366,1,8,0:0:0:0:
224,160,16618,1,0,0:0:0:0:
224,160,16870,1,8,0:0:0:0:
224,160,17374,1,8,0:0:0:0:
224,160,17627,1,0,0:0:0:0:
238,169,17879,1,8,0:0:0:0:
192,64,18005,1,0,0:0:0:0:
192,64,18257,1,0,0:0:0:0:
192,64,18383,1,8,0:0:0:0:
192,64,18509,1,8,0:0:0:0:
192,64,18635,1,0,0:0:0:0:
192,64,18887,1,8,0:0:0:0:
160,64,19391,1,8,0:0:0:0:
160,64,19643,1,0,0:0:0:0:
160,64,19769,1,0,0:0:0:0:
160,64,19895,1,8,0:0:0:0:
160,64,20148,1,0,0:0:0:0:
160,64,20400,1,8,0:0:0:0:
160,64,20652,1,0,0:0:0:0:
160,64,21156,1,8,0:0:0:0:
192,32,21282,1,8,0:0:0:0:
160,64,21408,1,0,0:0:0:0:
160,64,21660,1,8,0:0:0:0:
160,64,21912,1,0,0:0:0:0:
160,64,22164,1,8,0:0:0:0:
160,64,22416,1,0,0:0:0:0:
160,64,22669,1,8,0:0:0:0:
160,32,22795,1,8,0:0:0:0:
160,64,22921,1,8,0:0:0:0:
160,32,23047,1,8,0:0:0:0:
160,64,23677,1,4,0:0:0:0:
160,64,25190,1,8,0:0:0:0:
192,96,25946,1,0,0:0:0:0:
192,96,26702,1,8,0:0:0:0:
192,96,27458,1,0,0:0:0:0:
192,96,28215,1,8,0:0:0:0:
192,96,28971,1,0,0:0:0:0:
192,96,29727,1,8,0:0:0:0:
192,96,30484,1,0,0:0:0:0:
224,96,31240,1,4,0:0:0:0:
192,96,31744,1,8,0:0:0:0:
224,96,31996,1,4,0:0:0:0:
224,96,32753,1,4,0:0:0:0:
192,96,33257,1,8,0:0:0:0:
224,96,33509,1,4,0:0:0:0:
224,96,34265,1,4,0:0:0:0:
192,96,34769,1,8,0:0:0:0:
224,96,35021,1,4,0:0:0:0:
224,96,35778,1,4,0:0:0:0:
224,96,36029,1,8,0:0:0:0:
224,96,36281,1,0,0:0:0:0:
224,96,36533,1,8,0:0:0:0:
224,96,36785,1,0,0:0:0:0:
224,96,37037,1,8,0:0:0:0:
224,96,37289,1,0,0:0:0:0:
224,96,37541,1,8,0:0:0:0:
224,64,37667,1,8,0:0:0:0:
224,96,37793,1,0,0:0:0:0:
224,96,38045,1,8,0:0:0:0:
224,96,38297,1,0,0:0:0:0:
198,40,38423,1,0,0:0:0:0:
224,96,38549,1,8,0:0:0:0:
224,96,38801,1,4,0:0:0:0:
224,96,39053,1,4,0:0:0:0:
224,96,39305,1,12,0:0:0:0:
224,96,39557,1,4,0:0:0:0:
224,192,41574,1,8,0:0:0:0:
224,192,41826,1,0,0:0:0:0:
224,192,41952,1,0,0:0:0:0:
224,192,42078,1,8,0:0:0:0:
224,192,42330,1,0,0:0:0:0:
224,192,42583,1,8,0:0:0:0:
224,192,42835,1,0,0:0:0:0:
224,192,43087,1,8,0:0:0:0:
224,192,43339,1,8,0:0:0:0:
224,192,43591,1,4,0:0:0:0:
224,160,44095,1,8,0:0:0:0:
224,160,44599,1,0,0:0:0:0:
224,160,45104,1,8,0:0:0:0:
224,160,45608,1,0,0:0:0:0:
224,160,46112,1,8,0:0:0:0:
224,160,46616,1,0,0:0:0:0:
224,160,47120,1,0,0:0:0:0:
224,160,47625,1,0,0:0:0:0:
224,160,48129,1,8,0:0:0:0:
224,160,48633,1,0,0:0:0:0:
224,160,49137,1,8,0:0:0:0:
224,160,49641,1,0,0:0:0:0:
224,160,50146,1,8,0:0:0:0:
224,160,50650,1,0,0:0:0:0:
224,160,51154,1,8,0:0:0:0:
224,160,51658,1,0,0:0:0:0:
224,160,51910,1,8,0:0:0:0:
224,160,52162,1,0,0:0:0:0:
224,160,52667,1,0,0:0:0:0:
224,160,52919,1,0,0:0:0:0:
224,160,53171,1,8,0:0:0:0:
224,160,53423,1,8,0:0:0:0:
224,160,53675,1,0,0:0:0:0:
224,160,53927,1,8,0:0:0:0:
224,160,54179,1,0,0:0:0:0:
224,160,54683,1,0,0:0:0:0:
191,56,54809,1,0,0:0:0:0:
224,160,54935,1,8,0:0:0:0:
224,160,55188,1,0,0:0:0:0:
224,160,55440,1,8,0:0:0:0:
224,160,55692,1,0,0:0:0:0:
224,160,56448,1,0,0:0:0:0:
224,160,57204,1,8,0:0:0:0:
224,160,57456,1,8,0:0:0:0:
224,160,57708,1,4,0:0:0:0:
224,160,59724,1,8,0:0:0:0:
224,160,60102,1,8,0:0:0:0:
224,160,60481,1,8,0:0:0:0:
224,160,60859,1,8,0:0:0:0:
224,160,61237,1,8,0:0:0:0:
224,160,61363,1,8,0:0:0:0:
224,160,61489,1,8,0:0:0:0:
224,160,61741,1,0,0:0:0:0:
224,160,61993,1,12,0:0:0:0:
256,192,62245,12,0,65775,0:0:0:0:
224,160,66279,5,0,0:0:0:0:
224,160,66783,1,0,0:0:0:0:
224,160,67287,1,0,0:0:0:0:
224,160,67792,1,8,0:0:0:0:
224,160,69052,1,8,0:0:0:0:
224,160,69430,1,8,0:0:0:0:
192,128,69682,1,0,0:0:0:0:
224,160,69808,1,8,0:0:0:0:
224,160,70060,1,0,0:0:0:0:
236,169,70313,1,8,0:0:0:0:
192,96,70439,1,0,0:0:0:0:
236,169,70565,1,8,0:0:0:0:
236,169,70817,1,0,0:0:0:0:
224,128,71321,1,0,0:0:0:0:
224,128,71573,1,8,0:0:0:0:
224,128,71699,1,8,0:0:0:0:
224,128,71825,1,0,0:0:0:0:
224,128,72077,1,8,0:0:0:0:
224,128,72329,1,0,0:0:0:0:
224,128,72455,1,0,0:0:0:0:
224,128,72581,1,8,0:0:0:0:
224,128,72707,1,8,0:0:0:0:
224,128,72834,1,0,0:0:0:0:
224,128,73338,1,8,0:0:0:0:
224,128,73590,1,0,0:0:0:0:
224,128,73842,1,8,0:0:0:0:
224,128,74094,1,8,0:0:0:0:
224,128,74346,1,0,0:0:0:0:
224,128,74598,1,0,0:0:0:0:
224,128,74850,1,8,0:0:0:0:
224,128,75102,1,0,0:0:0:0:
224,128,75229,1,0,0:0:0:0:
224,128,75355,1,8,0:0:0:0:
224,128,75607,1,0,0:0:0:0:
224,128,75733,1,8,0:0:0:0:
224,128,75859,1,0,0:0:0:0:
224,128,76111,1,0,0:0:0:0:
224,128,76363,1,8,0:0:0:0:
224,128,76615,1,8,0:0:0:0:
224,128,76867,1,0,0:0:0:0:
224,128,77497,1,8,0:0:0:0:
224,128,77750,1,0,0:0:0:0:
224,128,77876,1,8,0:0:0:0:
224,128,78128,1,0,0:0:0:0:
224,128,78380,1,8,0:0:0:0:
216,103,78506,1,0,0:0:0:0:
224,128,78632,1,8,0:0:0:0:
224,128,78884,1,0,0:0:0:0:
224,128,79388,1,0,0:0:0:0:
224,128,79640,1,8,0:0:0:0:
215,136,79766,1,8,0:0:0:0:
224,128,79892,1,0,0:0:0:0:
224,128,80144,1,8,0:0:0:0:
224,128,80397,1,0,0:0:0:0:
215,136,80523,1,0,0:0:0:0:
224,128,80649,1,8,0:0:0:0:
215,136,80775,1,8,0:0:0:0:
224,128,80901,1,0,0:0:0:0:
224,128,81405,1,8,0:0:0:0:
224,128,81657,1,0,0:0:0:0:
224,128,81909,1,8,0:0:0:0:
224,128,82035,1,0,0:0:0:0:
224,128,82161,1,8,0:0:0:0:
224,128,82413,1,0,0:0:0:0:
224,128,82665,1,0,0:0:0:0:
224,128,82917,1,8,0:0:0:0:
224,128,83296,1,0,0:0:0:0:
224,128,83422,1,8,0:0:0:0:
224,128,83800,1,8,0:0:0:0:
224,128,83926,1,0,0:0:0:0:
224,128,84178,1,0,0:0:0:0:
224,128,84430,1,8,0:0:0:0:
224,128,84682,1,8,0:0:0:0:
224,128,84934,1,0,0:0:0:0:
224,128,85313,1,8,0:0:0:0:
224,128,85691,1,0,0:0:0:0:
224,128,86447,1,8,0:0:0:0:
224,128,86699,1,8,0:0:0:0:
224,128,86951,1,0,0:0:0:0:
232,138,87329,1,8,0:0:0:0:
232,138,87707,1,0,0:0:0:0:
232,138,88464,1,8,0:0:0:0:
232,138,88716,1,8,0:0:0:0:
232,138,88968,1,4,0:0:0:0:
232,138,89976,1,12,0:0:0:0:
232,138,90985,1,8,0:0:0:0:
232,138,91111,1,8,0:0:0:0:
232,138,91363,1,8,0:0:0:0:
232,138,91741,1,8,0:0:0:0:
232,138,91867,1,8,0:0:0:0:
232,138,92119,1,8,0:0:0:0:
232,138,92497,1,8,0:0:0:0:
232,138,92750,1,8,0:0:0:0:
232,138,93128,1,0,0:0:0:0:
232,138,93884,1,0,0:0:0:0:
256,192,94640,12,0,96909,0:0:0:0:
230,202,97287,5,4,0:0:0:0:
208,183,98044,1,4,0:0:0:0:
208,183,98548,1,12,0:0:0:0:
208,183,99052,1,4,0:0:0:0:
217,173,99556,1,0,0:0:0:0:
217,173,99682,1,8,0:0:0:0:
217,173,99808,1,0,0:0:0:0:
217,173,100060,1,8,0:0:0:0:
217,173,100313,1,0,0:0:0:0:
217,173,100565,1,8,0:0:0:0:
217,173,100691,1,8,0:0:0:0:
217,173,100817,1,0,0:0:0:0:
189,165,101321,1,0,0:0:0:0:
189,165,101573,1,8,0:0:0:0:
193,104,101699,1,8,0:0:0:0:
189,165,101825,1,0,0:0:0:0:
198,170,102077,1,8,0:0:0:0:
203,171,102329,1,0,0:0:0:0:
203,171,102581,1,8,0:0:0:0:
203,171,102834,1,8,0:0:0:0:
203,171,103086,1,0,0:0:0:0:
203,171,103212,1,0,0:0:0:0:
203,171,103338,1,0,0:0:0:0:
203,171,103590,1,8,0:0:0:0:
203,171,103842,1,0,0:0:0:0:
198,170,104094,1,8,0:0:0:0:
204,145,104346,1,0,0:0:0:0:
207,154,104598,1,8,0:0:0:0:
203,171,104724,1,0,0:0:0:0:
207,154,104850,1,8,0:0:0:0:
205,168,105355,1,0,0:0:0:0:
205,168,105607,1,8,0:0:0:0:
205,168,105859,1,0,0:0:0:0:
205,168,106111,1,0,0:0:0:0:
205,168,106237,1,8,0:0:0:0:
205,168,106363,1,0,0:0:0:0:
205,168,106615,1,8,0:0:0:0:
205,168,106867,1,0,0:0:0:0:
205,168,107119,1,8,0:0:0:0:
224,174,107623,1,0,0:0:0:0:
224,174,107876,1,8,0:0:0:0:
224,174,108128,1,0,0:0:0:0:
224,174,108506,1,8,0:0:0:0:
224,174,108632,1,0,0:0:0:0:
224,174,108884,1,0,0:0:0:0:
224,174,109136,1,8,0:0:0:0:
217,155,109640,1,0,0:0:0:0:
234,164,110018,1,8,0:0:0:0:
234,164,110144,1,0,0:0:0:0:
234,164,110397,1,0,0:0:0:0:
217,155,110523,1,0,0:0:0:0:
217,155,110649,1,8,0:0:0:0:
217,155,110901,1,0,0:0:0:0:
217,155,111153,1,8,0:0:0:0:
212,170,111657,1,0,0:0:0:0:
217,155,111783,1,0,0:0:0:0:
212,170,111909,1,0,0:0:0:0:
212,170,112161,1,8,0:0:0:0:
212,170,112413,1,0,0:0:0:0:
212,170,112665,1,8,0:0:0:0:
212,170,112918,1,8,0:0:0:0:
212,170,113170,1,0,0:0:0:0:
212,170,113674,1,0,0:0:0:0:
212,170,113800,1,0,0:0:0:0:
212,170,113926,1,0,0:0:0:0:
212,170,114178,1,8,0:0:0:0:
212,170,114430,1,0,0:0:0:0:
212,170,114682,1,8,0:0:0:0:
212,170,114808,1,0,0:0:0:0:
212,170,114934,1,8,0:0:0:0:
212,170,115186,1,0,0:0:0:0:
256,192,115691,12,0,119094,0:0:0:0:
267,187,119220,5,4,0:0:0:0:
