osu file format v14

[General]
AudioFilename: [SDVX II ] Innocent Tempest [NOFX].mp3
AudioLeadIn: 0
PreviewTime: 85607
Countdown: 0
SampleSet: None
StackLeniency: 0.7
Mode: 3
LetterboxInBreaks: 0
SpecialStyle: 0
WidescreenStoryboard: 0

[Editor]
Bookmarks: 18610,86274
DistanceSpacing: 1
BeatDivisor: 4
GridSize: 4
TimelineZoom: 2.5

[Metadata]
Title:Innocent Tempest
TitleUnicode:Innocent Tempest
Artist:Diceros Bicornis
ArtistUnicode:Diceros Bicornis
Creator:Valentrixe
Version:NOVICE
Source:SOUND VOLTEX II -infinite infection-
Tags:SDVX BlackY xi ortlinde
BeatmapID:807669
BeatmapSetID:366355

[Difficulty]
HPDrainRate:7
CircleSize:4
OverallDifficulty:7
ApproachRate:5
SliderMultiplier:1.4
SliderTickRate:1

[Events]
//Background and Video events
0,0,"Anubis1982918.full.1179056 (1).jpg",0,0
//Break Periods
//Storyboard Layer 0 (Background)
//Storyboard Layer 1 (Fail)
//Storyboard Layer 2 (Pass)
//Storyboard Layer 3 (Foreground)
//Storyboard Sound Samples

[TimingPoints]
948,333.333333333333,4,1,0,30,1,0
2281,333.333333333333,6,1,0,30,1,0
4280,333.333333333333,4,1,0,30,1,0
8279,333.333333333333,7,1,0,30,1,0
15278,333.333333333333,4,1,0,30,1,0
17944,333.333333333333,4,1,0,30,1,0
18610,333.333333333333,4,1,0,30,1,0
41276,333.333333333333,3,1,0,30,1,0
42276,333.333333333333,4,1,0,30,1,0
46275,333.333333333333,3,1,0,30,1,0
47275,333.333333333333,4,1,0,30,1,0
61941,-100,4,1,0,30,0,1
75274,333.333333333333,7,1,0,30,1,0
82274,333.333333333333,4,1,0,30,1,0
86274,-100,4,1,0,30,0,1
107607,333.333333333333,3,1,0,30,1,0

[HitObjects]
448,192,614,5,0,0:0:0:0:
64,192,614,1,0,0:0:0:0:
320,192,947,1,0,0:0:0:0:
448,192,947,1,0,0:0:0:0:
192,192,1197,1,0,0:0:0:0:
64,192,1197,1,0,0:0:0:0:
320,192,1447,1,0,0:0:0:0:
448,192,1447,1,0,0:0:0:0:
192,192,1947,1,0,0:0:0:0:
64,192,2197,1,0,0:0:0:0:
448,192,2197,1,0,0:0:0:0:
320,192,2447,1,0,0:0:0:0:
192,192,2697,1,0,0:0:0:0:
448,192,2697,1,0,0:0:0:0:
320,192,2947,1,0,0:0:0:0:
448,192,3197,1,0,0:0:0:0:
64,192,3197,1,0,0:0:0:0:
192,192,3447,128,0,3614:0:0:0:0:
320,192,3947,1,0,0:0:0:0:
64,192,3947,1,0,0:0:0:0:
64,192,4197,1,0,0:0:0:0:
192,192,4197,1,0,0:0:0:0:
448,192,4446,1,0,0:0:0:0:
320,192,4446,1,0,0:0:0:0:
448,192,4946,1,0,0:0:0:0:
192,192,4946,1,0,0:0:0:0:
64,192,5113,128,0,5279:0:0:0:0:
320,192,5279,1,0,0:0:0:0:
448,192,5279,1,0,0:0:0:0:
192,192,5446,1,0,0:0:0:0:
448,192,5613,128,0,6613:0:0:0:0:
192,192,6613,128,0,6946:0:0:0:0:
320,192,6946,1,0,0:0:0:0:
448,192,6946,1,0,0:0:0:0:
64,192,7946,1,0,0:0:0:0:
448,192,7946,1,0,0:0:0:0:
320,192,8279,1,0,0:0:0:0:
448,192,8279,1,0,0:0:0:0:
192,192,8529,1,0,0:0:0:0:
320,192,8779,1,0,0:0:0:0:
64,192,9112,1,0,0:0:0:0:
192,192,9278,1,0,0:0:0:0:
320,192,9445,1,0,0:0:0:0:
448,192,9612,1,0,0:0:0:0:
320,192,9778,1,0,0:0:0:0:
192,192,9945,1,0,0:0:0:0:
64,192,10112,1,0,0:0:0:0:
192,192,10278,1,0,0:0:0:0:
320,192,10445,1,0,0:0:0:0:
448,192,10612,1,0,0:0:0:0:
320,192,10862,1,0,0:0:0:0:
192,192,11112,1,0,0:0:0:0:
448,192,11445,1,0,0:0:0:0:
320,192,11612,1,0,0:0:0:0:
192,192,11778,1,0,0:0:0:0:
64,192,11945,1,0,0:0:0:0:
192,192,12112,1,0,0:0:0:0:
320,192,12278,1,0,0:0:0:0:
448,192,12445,128,0,12945:0:0:0:0:
64,192,12612,1,0,0:0:0:0:
192,192,12778,1,0,0:0:0:0:
320,192,12945,1,0,0:0:0:0:
320,192,13278,1,0,0:0:0:0:
320,192,13612,1,0,0:0:0:0:
192,192,13945,1,0,0:0:0:0:
320,192,14278,1,0,0:0:0:0:
64,192,14612,1,0,0:0:0:0:
448,192,14945,1,0,0:0:0:0:
192,192,15278,128,0,16277:0:0:0:0:
448,192,16277,128,0,17277:0:0:0:0:
64,192,17277,1,0,0:0:0:0:
192,192,17500,1,0,0:0:0:0:
320,192,17722,1,0,0:0:0:0:
448,192,17722,1,0,0:0:0:0:
320,192,18610,1,0,0:0:0:0:
192,192,18610,1,0,0:0:0:0:
64,192,18943,1,0,0:0:0:0:
448,192,18943,1,0,0:0:0:0:
320,192,19276,1,0,0:0:0:0:
192,192,19610,1,0,0:0:0:0:
64,192,19776,1,0,0:0:0:0:
448,192,19776,1,0,0:0:0:0:
320,192,20110,1,0,0:0:0:0:
192,192,20276,1,0,0:0:0:0:
448,192,20443,1,0,0:0:0:0:
192,192,20609,1,0,0:0:0:0:
64,192,20609,1,0,0:0:0:0:
448,192,20776,1,0,0:0:0:0:
320,192,20943,1,0,0:0:0:0:
192,192,21109,1,0,0:0:0:0:
64,192,21276,1,0,0:0:0:0:
448,192,21276,1,0,0:0:0:0:
192,192,21776,1,0,0:0:0:0:
448,192,21776,1,0,0:0:0:0:
64,192,22109,1,0,0:0:0:0:
448,192,22109,1,0,0:0:0:0:
320,192,22443,1,0,0:0:0:0:
64,192,22443,1,0,0:0:0:0:
192,192,22776,1,0,0:0:0:0:
448,192,22943,1,0,0:0:0:0:
320,192,23193,1,0,0:0:0:0:
64,192,23443,128,0,23943:0:0:0:0:
448,192,23943,1,0,0:0:0:0:
192,192,23943,1,0,0:0:0:0:
448,192,24193,1,0,0:0:0:0:
64,192,24193,1,0,0:0:0:0:
64,192,24443,1,0,0:0:0:0:
320,192,24443,1,0,0:0:0:0:
64,192,24943,1,0,0:0:0:0:
320,192,24943,1,0,0:0:0:0:
64,192,25193,1,0,0:0:0:0:
448,192,25193,1,0,0:0:0:0:
192,192,25443,1,0,0:0:0:0:
448,192,25443,1,0,0:0:0:0:
320,192,26109,1,0,0:0:0:0:
448,192,26109,1,0,0:0:0:0:
192,192,26443,1,0,0:0:0:0:
64,192,26443,1,0,0:0:0:0:
320,192,26776,128,0,26943:0:0:0:0:
64,192,27276,1,0,0:0:0:0:
192,192,27443,1,0,0:0:0:0:
320,192,27609,1,0,0:0:0:0:
448,192,27776,1,0,0:0:0:0:
64,192,28109,1,0,0:0:0:0:
320,192,28276,1,0,0:0:0:0:
64,192,28443,1,0,0:0:0:0:
320,192,28609,128,0,29276:0:0:0:0:
64,192,29276,1,0,0:0:0:0:
192,192,29609,1,0,0:0:0:0:
448,192,29609,1,0,0:0:0:0:
320,192,29943,1,0,0:0:0:0:
64,192,30276,1,0,0:0:0:0:
192,192,30443,1,0,0:0:0:0:
448,192,30443,1,0,0:0:0:0:
448,192,30776,1,0,0:0:0:0:
320,192,30943,1,0,0:0:0:0:
64,192,31109,1,0,0:0:0:0:
320,192,31276,1,0,0:0:0:0:
192,192,31443,1,0,0:0:0:0:
320,192,31609,1,0,0:0:0:0:
448,192,31776,1,0,0:0:0:0:
64,192,31776,1,0,0:0:0:0:
64,192,32109,1,0,0:0:0:0:
192,192,32276,1,0,0:0:0:0:
320,192,32443,1,0,0:0:0:0:
192,192,32609,1,0,0:0:0:0:
448,192,32776,1,0,0:0:0:0:
64,192,32776,1,0,0:0:0:0:
64,192,33109,1,0,0:0:0:0:
448,192,33109,1,0,0:0:0:0:
448,192,33609,1,0,0:0:0:0:
320,192,33776,1,0,0:0:0:0:
192,192,33943,1,0,0:0:0:0:
64,192,34109,128,0,34609:0:0:0:0:
192,192,34609,1,0,0:0:0:0:
448,192,34609,1,0,0:0:0:0:
192,192,34943,1,0,0:0:0:0:
448,192,34943,1,0,0:0:0:0:
448,192,35193,1,0,0:0:0:0:
64,192,35193,1,0,0:0:0:0:
192,192,35443,1,0,0:0:0:0:
448,192,35609,1,0,0:0:0:0:
320,192,35776,1,0,0:0:0:0:
192,192,35943,1,0,0:0:0:0:
64,192,35943,1,0,0:0:0:0:
192,192,36276,1,0,0:0:0:0:
448,192,36276,1,0,0:0:0:0:
448,192,36526,1,0,0:0:0:0:
64,192,36526,1,0,0:0:0:0:
192,192,36776,1,0,0:0:0:0:
320,192,36943,1,0,0:0:0:0:
448,192,37109,1,0,0:0:0:0:
320,192,37276,1,0,0:0:0:0:
64,192,37276,1,0,0:0:0:0:
64,192,38609,1,0,0:0:0:0:
448,192,38609,1,0,0:0:0:0:
320,192,38776,1,0,0:0:0:0:
64,192,38943,1,0,0:0:0:0:
448,192,38943,1,0,0:0:0:0:
320,192,39109,1,0,0:0:0:0:
64,192,39276,1,0,0:0:0:0:
448,192,39276,1,0,0:0:0:0:
320,192,39443,1,0,0:0:0:0:
64,192,39609,1,0,0:0:0:0:
448,192,39609,1,0,0:0:0:0:
192,192,39943,1,0,0:0:0:0:
320,192,39943,1,0,0:0:0:0:
448,192,40276,1,0,0:0:0:0:
64,192,40276,1,0,0:0:0:0:
320,192,40609,1,0,0:0:0:0:
64,192,40943,1,0,0:0:0:0:
192,192,41276,1,0,0:0:0:0:
448,192,41276,1,0,0:0:0:0:
320,192,41609,1,0,0:0:0:0:
64,192,41942,1,0,0:0:0:0:
448,192,41942,1,0,0:0:0:0:
192,192,42109,1,0,0:0:0:0:
320,192,42276,1,0,0:0:0:0:
448,192,42609,1,0,0:0:0:0:
64,192,42609,1,0,0:0:0:0:
320,192,42942,1,0,0:0:0:0:
192,192,43276,1,0,0:0:0:0:
320,192,43609,1,0,0:0:0:0:
448,192,43942,1,0,0:0:0:0:
64,192,43942,1,0,0:0:0:0:
192,192,44276,1,0,0:0:0:0:
320,192,44526,1,0,0:0:0:0:
192,192,44776,1,0,0:0:0:0:
320,192,44942,1,0,0:0:0:0:
448,192,45276,1,0,0:0:0:0:
64,192,45276,1,0,0:0:0:0:
320,192,45609,1,0,0:0:0:0:
192,192,45942,1,0,0:0:0:0:
320,192,46275,1,0,0:0:0:0:
64,192,46275,1,0,0:0:0:0:
192,192,46608,1,0,0:0:0:0:
64,192,46941,1,0,0:0:0:0:
448,192,46941,1,0,0:0:0:0:
320,192,47108,1,0,0:0:0:0:
192,192,47275,1,0,0:0:0:0:
192,192,47608,1,0,0:0:0:0:
448,192,47608,1,0,0:0:0:0:
64,192,47941,1,0,0:0:0:0:
192,192,48275,1,0,0:0:0:0:
320,192,48608,1,0,0:0:0:0:
64,192,48775,1,0,0:0:0:0:
192,192,48775,1,0,0:0:0:0:
320,192,49025,1,0,0:0:0:0:
448,192,49025,1,0,0:0:0:0:
64,192,49275,1,0,0:0:0:0:
192,192,49275,1,0,0:0:0:0:
320,192,49525,1,0,0:0:0:0:
448,192,49525,1,0,0:0:0:0:
320,192,49775,1,0,0:0:0:0:
64,192,49775,128,0,50608:0:0:0:0:
320,192,50608,1,0,0:0:0:0:
320,192,50775,1,0,0:0:0:0:
320,192,50941,1,0,0:0:0:0:
64,192,50941,1,0,0:0:0:0:
192,192,51108,1,0,0:0:0:0:
320,192,51274,1,0,0:0:0:0:
448,192,51274,1,0,0:0:0:0:
192,192,52441,1,0,0:0:0:0:
448,192,52441,1,0,0:0:0:0:
192,192,52774,1,0,0:0:0:0:
448,192,52774,1,0,0:0:0:0:
64,192,53858,1,0,0:0:0:0:
448,192,53858,1,0,0:0:0:0:
192,192,54191,1,0,0:0:0:0:
320,192,54191,1,0,0:0:0:0:
448,192,54441,1,0,0:0:0:0:
64,192,54441,1,0,0:0:0:0:
64,192,55108,1,0,0:0:0:0:
320,192,55274,1,0,0:0:0:0:
448,192,55274,1,0,0:0:0:0:
320,192,55608,1,0,0:0:0:0:
448,192,55608,1,0,0:0:0:0:
192,192,55941,1,0,0:0:0:0:
448,192,55941,1,0,0:0:0:0:
320,192,56108,1,0,0:0:0:0:
64,192,56108,1,0,0:0:0:0:
192,192,56274,1,0,0:0:0:0:
448,192,56274,128,0,56608:0:0:0:0:
64,192,56608,1,0,0:0:0:0:
64,192,56774,1,0,0:0:0:0:
320,192,57524,1,0,0:0:0:0:
320,192,57774,1,0,0:0:0:0:
64,192,58691,1,0,0:0:0:0:
64,192,58858,1,0,0:0:0:0:
64,192,59108,128,0,60774:0:0:0:0:
448,192,59441,1,0,0:0:0:0:
320,192,59774,1,0,0:0:0:0:
192,192,60108,1,0,0:0:0:0:
320,192,60441,1,0,0:0:0:0:
192,192,60774,1,0,0:0:0:0:
448,192,60774,1,0,0:0:0:0:
320,192,60941,1,0,0:0:0:0:
448,192,61108,1,0,0:0:0:0:
64,192,61108,1,0,0:0:0:0:
320,192,61274,1,0,0:0:0:0:
192,192,61441,1,0,0:0:0:0:
448,192,61441,1,0,0:0:0:0:
320,192,61608,1,0,0:0:0:0:
64,192,61608,1,0,0:0:0:0:
192,192,61774,1,0,0:0:0:0:
448,192,61774,1,0,0:0:0:0:
320,192,61941,1,0,0:0:0:0:
64,192,61941,1,0,0:0:0:0:
192,192,62108,1,0,0:0:0:0:
320,192,62274,1,0,0:0:0:0:
448,192,62441,1,0,0:0:0:0:
64,192,62441,1,0,0:0:0:0:
320,192,62608,1,0,0:0:0:0:
192,192,62774,1,0,0:0:0:0:
448,192,62941,1,0,0:0:0:0:
64,192,62941,1,0,0:0:0:0:
64,192,63274,1,0,0:0:0:0:
448,192,63274,1,0,0:0:0:0:
192,192,63441,1,0,0:0:0:0:
320,192,63608,1,0,0:0:0:0:
64,192,63774,1,0,0:0:0:0:
192,192,63941,1,0,0:0:0:0:
320,192,64108,1,0,0:0:0:0:
192,192,64274,1,0,0:0:0:0:
448,192,64441,1,0,0:0:0:0:
320,192,64608,1,0,0:0:0:0:
64,192,64608,1,0,0:0:0:0:
64,192,64941,1,0,0:0:0:0:
448,192,64941,1,0,0:0:0:0:
448,192,65274,128,0,65941:0:0:0:0:
64,192,65941,1,0,0:0:0:0:
320,192,65941,1,0,0:0:0:0:
192,192,66108,1,0,0:0:0:0:
64,192,66274,1,0,0:0:0:0:
448,192,66274,1,0,0:0:0:0:
192,192,66441,1,0,0:0:0:0:
320,192,66608,1,0,0:0:0:0:
448,192,66858,1,0,0:0:0:0:
320,192,67108,1,0,0:0:0:0:
192,192,67274,1,0,0:0:0:0:
64,192,67274,1,0,0:0:0:0:
192,192,68608,1,0,0:0:0:0:
64,192,68608,1,0,0:0:0:0:
192,192,69941,1,0,0:0:0:0:
64,192,69941,1,0,0:0:0:0:
192,192,70608,1,0,0:0:0:0:
64,192,70608,1,0,0:0:0:0:
192,192,71274,1,0,0:0:0:0:
448,192,71441,1,0,0:0:0:0:
192,192,71608,1,0,0:0:0:0:
448,192,71774,1,0,0:0:0:0:
192,192,71941,1,0,0:0:0:0:
320,192,72191,1,0,0:0:0:0:
448,192,72441,128,0,74941:0:0:0:0:
192,192,73941,128,0,74941:0:0:0:0:
64,192,74941,1,0,0:0:0:0:
320,192,74941,1,0,0:0:0:0:
192,192,75274,1,0,0:0:0:0:
320,192,75274,1,0,0:0:0:0:
448,192,75524,1,0,0:0:0:0:
320,192,75774,1,0,0:0:0:0:
192,192,76107,1,0,0:0:0:0:
64,192,76274,1,0,0:0:0:0:
192,192,76440,1,0,0:0:0:0:
320,192,76607,1,0,0:0:0:0:
448,192,76774,1,0,0:0:0:0:
320,192,76940,1,0,0:0:0:0:
192,192,77107,1,0,0:0:0:0:
64,192,77274,1,0,0:0:0:0:
192,192,77440,1,0,0:0:0:0:
448,192,77607,1,0,0:0:0:0:
320,192,77857,1,0,0:0:0:0:
192,192,78107,1,0,0:0:0:0:
448,192,78440,1,0,0:0:0:0:
320,192,78607,1,0,0:0:0:0:
192,192,78774,1,0,0:0:0:0:
64,192,78940,1,0,0:0:0:0:
192,192,79107,1,0,0:0:0:0:
320,192,79274,1,0,0:0:0:0:
448,192,79440,1,0,0:0:0:0:
320,192,79607,1,0,0:0:0:0:
192,192,79774,1,0,0:0:0:0:
64,192,79940,1,0,0:0:0:0:
192,192,80190,1,0,0:0:0:0:
320,192,80440,1,0,0:0:0:0:
64,192,80774,1,0,0:0:0:0:
192,192,80940,1,0,0:0:0:0:
320,192,81107,1,0,0:0:0:0:
448,192,81274,1,0,0:0:0:0:
320,192,81440,1,0,0:0:0:0:
192,192,81607,1,0,0:0:0:0:
64,192,81774,1,0,0:0:0:0:
192,192,81940,1,0,0:0:0:0:
320,192,82107,1,0,0:0:0:0:
448,192,82274,128,0,83274:0:0:0:0:
192,192,83274,128,0,84274:0:0:0:0:
448,192,84274,1,0,0:0:0:0:
448,192,84524,1,0,0:0:0:0:
448,192,84774,1,0,0:0:0:0:
64,192,84774,1,0,0:0:0:0:
64,192,85607,128,0,85940:0:0:0:0:
192,192,85940,128,0,86274:0:0:0:0:
320,192,86274,1,0,0:0:0:0:
448,192,86274,1,0,0:0:0:0:
448,192,86607,1,0,0:0:0:0:
64,192,86607,1,0,0:0:0:0:
320,192,86940,1,0,0:0:0:0:
192,192,87274,1,0,0:0:0:0:
320,192,87607,1,0,0:0:0:0:
64,192,87940,1,0,0:0:0:0:
192,192,88274,1,0,0:0:0:0:
320,192,88607,1,0,0:0:0:0:
448,192,88940,1,0,0:0:0:0:
64,192,88940,1,0,0:0:0:0:
192,192,89440,1,0,0:0:0:0:
448,192,89440,1,0,0:0:0:0:
448,192,89773,1,0,0:0:0:0:
64,192,89773,1,0,0:0:0:0:
320,192,90107,1,0,0:0:0:0:
64,192,90107,1,0,0:0:0:0:
192,192,90440,128,0,91607:0:0:0:0:
448,192,91607,1,0,0:0:0:0:
448,192,91857,1,0,0:0:0:0:
448,192,92107,1,0,0:0:0:0:
192,192,92607,1,0,0:0:0:0:
192,192,92857,1,0,0:0:0:0:
192,192,93107,1,0,0:0:0:0:
448,192,93773,1,0,0:0:0:0:
192,192,93773,1,0,0:0:0:0:
320,192,94107,1,0,0:0:0:0:
64,192,94107,1,0,0:0:0:0:
192,192,94607,1,0,0:0:0:0:
320,192,94940,1,0,0:0:0:0:
448,192,95273,1,0,0:0:0:0:
64,192,95440,1,0,0:0:0:0:
448,192,95773,1,0,0:0:0:0:
192,192,95773,1,0,0:0:0:0:
64,192,95940,1,0,0:0:0:0:
320,192,95940,1,0,0:0:0:0:
192,192,96107,1,0,0:0:0:0:
448,192,96107,1,0,0:0:0:0:
320,192,96273,128,0,96940:0:0:0:0:
64,192,96940,128,0,97940:0:0:0:0:
448,192,97940,1,0,0:0:0:0:
320,192,98107,1,0,0:0:0:0:
320,192,98440,1,0,0:0:0:0:
64,192,98607,1,0,0:0:0:0:
192,192,98773,1,0,0:0:0:0:
320,192,98940,1,0,0:0:0:0:
448,192,99107,1,0,0:0:0:0:
320,192,99440,1,0,0:0:0:0:
64,192,99440,1,0,0:0:0:0:
64,192,99773,1,0,0:0:0:0:
192,192,99940,1,0,0:0:0:0:
448,192,100107,1,0,0:0:0:0:
320,192,100273,1,0,0:0:0:0:
192,192,100440,1,0,0:0:0:0:
64,192,100773,1,0,0:0:0:0:
448,192,100773,1,0,0:0:0:0:
64,192,101107,1,0,0:0:0:0:
192,192,101273,1,0,0:0:0:0:
448,192,101440,1,0,0:0:0:0:
320,192,101607,1,0,0:0:0:0:
192,192,101773,1,0,0:0:0:0:
64,192,101940,128,0,102273:0:0:0:0:
448,192,102273,1,0,0:0:0:0:
192,192,102607,1,0,0:0:0:0:
448,192,102607,1,0,0:0:0:0:
320,192,102857,1,0,0:0:0:0:
64,192,102857,1,0,0:0:0:0:
64,192,103107,1,0,0:0:0:0:
192,192,103273,1,0,0:0:0:0:
320,192,103440,1,0,0:0:0:0:
448,192,103607,1,0,0:0:0:0:
192,192,103940,1,0,0:0:0:0:
448,192,103940,1,0,0:0:0:0:
320,192,104190,1,0,0:0:0:0:
64,192,104190,1,0,0:0:0:0:
448,192,104440,1,0,0:0:0:0:
320,192,104607,1,0,0:0:0:0:
192,192,104773,1,0,0:0:0:0:
64,192,104940,1,0,0:0:0:0:
448,192,105273,1,0,0:0:0:0:
192,192,105440,1,0,0:0:0:0:
448,192,105607,1,0,0:0:0:0:
192,192,105773,1,0,0:0:0:0:
448,192,105940,1,0,0:0:0:0:
192,192,106107,1,0,0:0:0:0:
448,192,106273,128,0,106940:0:0:0:0:
64,192,106940,128,0,107607:0:0:0:0:
320,192,107273,128,0,107607:0:0:0:0:
192,192,107607,1,0,0:0:0:0:
448,192,107607,1,0,0:0:0:0:
320,192,107940,1,0,0:0:0:0:
192,192,108273,1,0,0:0:0:0:
320,192,108440,1,0,0:0:0:0:
448,192,108607,1,0,0:0:0:0:
320,192,108940,1,0,0:0:0:0:
192,192,109273,1,0,0:0:0:0:
448,192,109440,1,0,0:0:0:0:
320,192,109607,1,0,0:0:0:0:
192,192,109940,1,0,0:0:0:0:
64,192,110273,1,0,0:0:0:0:
448,192,110607,1,0,0:0:0:0:
320,192,110940,1,0,0:0:0:0:
192,192,111273,1,0,0:0:0:0:
64,192,111607,128,0,112273:0:0:0:0:
320,192,112607,128,0,113273:0:0:0:0:
64,192,113607,128,0,114607:0:0:0:0:
448,192,114607,128,0,116606:0:0:0:0:
64,192,115606,128,0,116606:0:0:0:0:
320,192,116606,1,0,0:0:0:0:
192,192,116606,128,0,117606:0:0:0:0:
448,192,117606,1,0,0:0:0:0:
