osu file format v14

[General]
AudioFilename: Diceros Bicornis - Innocent Tempest.mp3
AudioLeadIn: 0
PreviewTime: 50271
Countdown: 0
SampleSet: Soft
StackLeniency: 0.7
Mode: 3
LetterboxInBreaks: 0
SpecialStyle: 0
WidescreenStoryboard: 0

[Editor]
DistanceSpacing: 1
BeatDivisor: 8
GridSize: 32
TimelineZoom: 1.9

[Metadata]
Title:Innocent Tempest
TitleUnicode:Innocent Tempest
Artist:Diceros Bicornis
ArtistUnicode:Diceros Bicornis
Creator:Ichigaki
Version:ADVANCED
Source:SOUND VOLTEX II -infinite infection-
Tags:xi BlackY Zan_- Rizqy SDVX BEMANI KONAMI
BeatmapID:813436
BeatmapSetID:367484

[Difficulty]
HPDrainRate:7.5
CircleSize:4
OverallDifficulty:7.5
ApproachRate:5
SliderMultiplier:1.4
SliderTickRate:1

[Events]
//Background and Video events
0,0,"bg.jpg",0,0
//Break Periods
//Storyboard Layer 0 (Background)
//Storyboard Layer 1 (Fail)
//Storyboard Layer 2 (Pass)
//Storyboard Layer 3 (Foreground)
//Storyboard Sound Samples
Sample,3526,0,"bass.wav",40
Sample,5109,0,"bass.wav",40
Sample,5442,0,"bass.wav",40
Sample,6859,0,"bass.wav",40
Sample,7108,0,"drum.wav",40
Sample,7164,0,"drum.wav",40
Sample,7219,0,"drum.wav",40
Sample,7275,0,"drum.wav",40
Sample,7386,0,"drum.wav",40
Sample,7497,0,"drum.wav",40
Sample,7608,0,"drum.wav",40
Sample,7719,0,"drum.wav",40
Sample,7830,0,"drum.wav",40
Sample,8608,0,"hihat.wav",40
Sample,8941,0,"hihat.wav",40
Sample,10941,0,"hihat.wav",40
Sample,11274,0,"hihat.wav",40
Sample,13274,0,"bass.wav",40
Sample,13274,0,"hihat.wav",40
Sample,13608,0,"bass.wav",40
Sample,13608,0,"hihat.wav",40
Sample,15607,0,"hihat.wav",40
Sample,15607,0,"bass.wav",40
Sample,15940,0,"bass.wav",40
Sample,15940,0,"hihat.wav",40
Sample,16107,0,"bass.wav",40
Sample,16190,0,"bass.wav",40
Sample,16440,0,"bass.wav",40
Sample,16607,0,"bass.wav",40
Sample,16607,0,"hihat.wav",40
Sample,16940,0,"bass.wav",40
Sample,16940,0,"hihat.wav",40
Sample,17024,0,"bass.wav",40
Sample,17107,0,"bass.wav",40
Sample,17190,0,"bass.wav",40
Sample,19106,0,"hihat.wav",40
Sample,19439,0,"hihat.wav",40
Sample,19606,0,"bass.wav",40
Sample,19606,0,"snare.wav",40
Sample,19939,0,"bass.wav",40
Sample,20272,0,"snare.wav",40
Sample,20439,0,"hihat.wav",40
Sample,20606,0,"bass.wav",40
Sample,21522,0,"bass.wav",40
Sample,21606,0,"bass.wav",40
Sample,27106,0,"hihat.wav",40
Sample,27856,0,"bass.wav",40
Sample,27939,0,"bass.wav",40
Sample,29772,0,"hihat.wav",40
Sample,30106,0,"hihat.wav",40
Sample,30272,0,"bass.wav",40
Sample,30272,0,"snare.wav",40
Sample,30606,0,"hihat.wav",40
Sample,30939,0,"snare.wav",40
Sample,31522,0,"bass.wav",40
Sample,31606,0,"snare.wav",40
Sample,31606,0,"bass.wav",40
Sample,31939,0,"hihat.wav",40
Sample,32272,0,"snare.wav",40
Sample,32939,0,"hihat.wav",40
Sample,33272,0,"hihat.wav",40
Sample,34272,0,"snare.wav",40
Sample,34772,0,"hihat.wav",40
Sample,35022,0,"bass.wav",40
Sample,35272,0,"bass.wav",40
Sample,35272,0,"drum.wav",40
Sample,35356,0,"drum.wav",40
Sample,35522,0,"drum.wav",40
Sample,35689,0,"drum.wav",40
Sample,35856,0,"drum.wav",40
Sample,36356,0,"bass.wav",40
Sample,36606,0,"drum.wav",40
Sample,36606,0,"bass.wav",40
Sample,36689,0,"drum.wav",40
Sample,36856,0,"drum.wav",40
Sample,37022,0,"drum.wav",40
Sample,37189,0,"drum.wav",40
Sample,44605,0,"snare.wav",40
Sample,48687,0,"hihat.wav",40
Sample,48937,0,"hihat.wav",40
Sample,49187,0,"hihat.wav",40
Sample,49437,0,"hihat.wav",40
Sample,49687,0,"hihat.wav",40
Sample,50326,0,"drum.wav",40
Sample,50382,0,"drum.wav",40
Sample,50437,0,"drum.wav",40
Sample,50493,0,"drum.wav",40
Sample,50548,0,"drum.wav",40
Sample,50604,0,"drum.wav",40
Sample,50937,0,"boom.wav",40
Sample,51520,0,"bass.wav",40
Sample,51770,0,"drum.wav",40
Sample,51937,0,"drum.wav",40
Sample,52020,0,"drum.wav",40
Sample,52270,0,"drum.wav",40
Sample,52354,0,"drum.wav",40
Sample,53520,0,"drum.wav",40
Sample,53770,0,"drum.wav",40
Sample,53854,0,"bass.wav",40
Sample,54187,0,"drum.wav",40
Sample,54270,0,"drum.wav",40
Sample,54354,0,"drum.wav",40
Sample,54437,0,"drum.wav",40
Sample,54770,0,"drum.wav",40
Sample,54854,0,"drum.wav",40
Sample,55020,0,"drum.wav",40
Sample,55187,0,"drum.wav",40
Sample,55187,0,"bass.wav",40
Sample,55270,0,"crash-cymbol.wav",40
Sample,55520,0,"drum.wav",40
Sample,55854,0,"drum.wav",40
Sample,55854,0,"bass.wav",40
Sample,55937,0,"crash-cymbol.wav",40
Sample,56020,0,"drum.wav",40
Sample,59270,0,"drum.wav",40
Sample,59354,0,"drum.wav",40
Sample,59520,0,"drum.wav",40
Sample,59604,0,"drum.wav",40
Sample,59687,0,"drum.wav",40
Sample,59770,0,"drum.wav",40
Sample,60145,0,"drum.wav",40
Sample,60187,0,"drum.wav",40
Sample,60229,0,"drum.wav",40
Sample,60604,0,"bass.wav",40
Sample,61770,0,"hihat.wav",40
Sample,62270,0,"snare.wav",40
Sample,63604,0,"snare.wav",40
Sample,63604,0,"bass.wav",40
Sample,63770,0,"hihat.wav",40
Sample,64104,0,"hihat.wav",40
Sample,64270,0,"bass.wav",40
Sample,64270,0,"snare.wav",40
Sample,74770,0,"bass.wav",40
Sample,74854,0,"bass.wav",40
Sample,79186,0,"bass.wav",40
Sample,79353,0,"bass.wav",40
Sample,79520,0,"bass.wav",40
Sample,79686,0,"bass.wav",40
Sample,79853,0,"bass.wav",40
Sample,80270,0,"bass.wav",40
Sample,80603,0,"bass.wav",40
Sample,83936,0,"drum.wav",40
Sample,84020,0,"drum.wav",40
Sample,84103,0,"drum.wav",40
Sample,84186,0,"drum.wav",40
Sample,84270,0,"crash-cymbol.wav",40
Sample,86770,0,"hihat.wav",40
Sample,87103,0,"hihat.wav",40
Sample,87270,0,"snare.wav",40
Sample,87270,0,"bass.wav",40
Sample,87603,0,"bass.wav",40
Sample,87936,0,"bass.wav",40
Sample,88103,0,"hihat.wav",40
Sample,88270,0,"bass.wav",40
Sample,89186,0,"bass.wav",40
Sample,89270,0,"bass.wav",40
Sample,91103,0,"crash-cymbol.wav",40
Sample,94519,0,"bass.wav",40
Sample,94769,0,"drum.wav",40
Sample,94769,0,"hihat.wav",40
Sample,94853,0,"drum.wav",40
Sample,94936,0,"crash-cymbol.wav",40
Sample,95019,0,"drum.wav",40
Sample,95103,0,"drum.wav",40
Sample,95103,0,"hihat.wav",40
Sample,95269,0,"bass.wav",40
Sample,95269,0,"drum.wav",40
Sample,95269,0,"crash-cymbol.wav",40
Sample,95353,0,"drum.wav",40
Sample,95436,0,"hihat.wav",40
Sample,95519,0,"bass.wav",40
Sample,95603,0,"bass.wav",40
Sample,95603,0,"crash-cymbol.wav",40
Sample,95603,0,"drum.wav",40
Sample,96186,0,"bass.wav",40
Sample,96603,0,"crash-cymbol.wav",40
Sample,97436,0,"hihat.wav",40
Sample,97769,0,"hihat.wav",40
Sample,97936,0,"snare.wav",40
Sample,99186,0,"bass.wav",40
Sample,99269,0,"snare.wav",40
Sample,99269,0,"bass.wav",40
Sample,100519,0,"bass.wav",40
Sample,100603,0,"snare.wav",40
Sample,100603,0,"bass.wav",40
Sample,101936,0,"snare.wav",40
Sample,102436,0,"hihat.wav",40
Sample,102686,0,"bass.wav",40
Sample,102936,0,"bass.wav",40
Sample,102936,0,"drum.wav",40
Sample,103019,0,"drum.wav",40
Sample,103186,0,"drum.wav",40
Sample,103353,0,"drum.wav",40
Sample,103519,0,"drum.wav",40
Sample,104019,0,"bass.wav",40
Sample,104269,0,"bass.wav",40
Sample,104269,0,"drum.wav",40
Sample,104353,0,"drum.wav",40
Sample,104519,0,"drum.wav",40
Sample,104686,0,"drum.wav",40
Sample,104853,0,"drum.wav",40
Sample,104936,0,"drum.wav",40
Sample,106978,0,"drum.wav",40
Sample,107019,0,"drum.wav",40
Sample,107061,0,"drum.wav",40
Sample,107144,0,"drum.wav",40
Sample,107186,0,"drum.wav",40
Sample,107228,0,"drum.wav",40
Sample,107269,0,"boom.wav",40
Sample,107353,0,"bass.wav",40
Sample,107436,0,"bass.wav",40
Sample,107519,0,"bass.wav",40
Sample,107686,0,"hihat.wav",40
Sample,107769,0,"hihat.wav",40
Sample,107936,0,"hihat.wav",40
Sample,107936,0,"bass.wav",40
Sample,108019,0,"hihat.wav",40
Sample,108186,0,"hihat.wav",40
Sample,108269,0,"hihat.wav",40
Sample,108269,0,"bass.wav",40
Sample,108353,0,"hihat.wav",40
Sample,108436,0,"bass.wav",40
Sample,108436,0,"hihat.wav",40
Sample,108519,0,"hihat.wav",40
Sample,108686,0,"hihat.wav",40
Sample,108769,0,"hihat.wav",40
Sample,108936,0,"bass.wav",40
Sample,108936,0,"hihat.wav",40
Sample,109019,0,"hihat.wav",40
Sample,109186,0,"hihat.wav",40
Sample,109353,0,"hihat.wav",40
Sample,109436,0,"hihat.wav",40
Sample,109519,0,"hihat.wav",40
Sample,109686,0,"hihat.wav",40
Sample,109769,0,"hihat.wav",40
Sample,109936,0,"bass.wav",40
Sample,109936,0,"hihat.wav",40
Sample,110019,0,"hihat.wav",40
Sample,110186,0,"hihat.wav",40
Sample,110269,0,"bass.wav",40
Sample,110269,0,"hihat.wav",40
Sample,110353,0,"hihat.wav",40
Sample,110436,0,"bass.wav",40
Sample,110436,0,"hihat.wav",40
Sample,110519,0,"bass.wav",40
Sample,110519,0,"hihat.wav",40
Sample,110686,0,"hihat.wav",40
Sample,110769,0,"hihat.wav",40
Sample,110936,0,"bass.wav",40
Sample,110936,0,"hihat.wav",40
Sample,111019,0,"hihat.wav",40
Sample,111186,0,"hihat.wav",40
Sample,111269,0,"hihat.wav",40
Sample,111269,0,"bass.wav",40
Sample,111353,0,"hihat.wav",40
Sample,111353,0,"bass.wav",40
Sample,111436,0,"hihat.wav",40
Sample,111436,0,"bass.wav",40
Sample,111519,0,"hihat.wav",40
Sample,111519,0,"bass.wav",40
Sample,111603,0,"hihat.wav",40
Sample,111686,0,"hihat.wav",40
Sample,111769,0,"hihat.wav",40
Sample,111936,0,"hihat.wav",40
Sample,112019,0,"hihat.wav",40
Sample,112186,0,"hihat.wav",40
Sample,112269,0,"hihat.wav",40
Sample,112269,0,"bass.wav",40
Sample,112353,0,"hihat.wav",40
Sample,112436,0,"hihat.wav",40
Sample,112436,0,"bass.wav",40
Sample,112519,0,"bass.wav",40
Sample,112519,0,"hihat.wav",40
Sample,112686,0,"hihat.wav",40
Sample,112769,0,"hihat.wav",40
Sample,112936,0,"hihat.wav",40
Sample,113019,0,"hihat.wav",40
Sample,113186,0,"hihat.wav",40
Sample,113269,0,"hihat.wav",40
Sample,113269,0,"bass.wav",40
Sample,113353,0,"bass.wav",40
Sample,113353,0,"hihat.wav",40
Sample,113436,0,"hihat.wav",40
Sample,113436,0,"bass.wav",40
Sample,113519,0,"hihat.wav",40
Sample,113519,0,"bass.wav",40
Sample,113686,0,"hihat.wav",40
Sample,113769,0,"hihat.wav",40
Sample,113936,0,"hihat.wav",40
Sample,114019,0,"hihat.wav",40
Sample,114186,0,"hihat.wav",40
Sample,114269,0,"hihat.wav",40
Sample,114353,0,"hihat.wav",40
Sample,114436,0,"hihat.wav",40
Sample,114519,0,"hihat.wav",40
Sample,114686,0,"hihat.wav",40
Sample,114769,0,"hihat.wav",40
Sample,114936,0,"hihat.wav",40
Sample,115019,0,"hihat.wav",40
Sample,115186,0,"hihat.wav",40
Sample,115269,0,"hihat.wav",40
Sample,115353,0,"hihat.wav",40
Sample,115436,0,"hihat.wav",40
Sample,115519,0,"hihat.wav",40

[TimingPoints]
944,333.333333333333,3,2,1,40,1,0
5609,333.333333333333,4,2,1,40,1,0
8275,333.333333333333,7,2,1,40,1,0
15274,333.333333333333,6,2,1,40,1,0
17273,333.333333333333,4,2,1,40,1,0
41272,333.333333333333,3,2,1,40,1,0
42272,333.333333333333,4,2,1,40,1,0
46271,333.333333333333,3,2,1,40,1,0
47271,333.333333333333,4,2,1,40,1,0
75270,333.333333333333,7,2,1,40,1,0
82270,333.333333333333,4,2,1,40,1,0
86270,-100,4,2,1,40,0,1
107603,333.333333333333,3,2,1,40,1,0

[HitObjects]
448,192,610,5,0,0:0:0:40:boom.wav
64,192,610,1,0,0:0:0:0:
64,192,943,1,0,0:0:0:40:crash-cymbol.wav
192,192,943,1,0,0:0:0:40:bass.wav
320,192,1193,1,0,0:0:0:40:crash-cymbol.wav
448,192,1193,1,0,0:0:0:40:bass.wav
192,192,1443,1,0,0:0:0:40:crash-cymbol.wav
64,192,1443,1,0,0:0:0:40:bass.wav
448,192,1943,1,0,0:0:0:40:crash-cymbol.wav
64,192,1943,1,0,0:0:0:40:bass.wav
192,192,2193,1,0,0:0:0:40:crash-cymbol.wav
320,192,2193,1,0,0:0:0:40:bass.wav
64,192,2443,1,0,0:0:0:40:crash-cymbol.wav
448,192,2443,1,0,0:0:0:40:bass.wav
192,192,2693,1,0,0:0:0:40:crash-cymbol.wav
320,192,2693,1,0,0:0:0:40:bass.wav
64,192,2943,1,0,0:0:0:40:crash-cymbol.wav
448,192,2943,1,0,0:0:0:40:bass.wav
192,192,3193,1,0,0:0:0:40:crash-cymbol.wav
320,192,3193,1,0,0:0:0:40:bass.wav
64,192,3443,1,0,0:0:0:40:crash-cymbol.wav
448,192,3443,1,0,0:0:0:40:bass.wav
192,192,3527,1,0,0:0:0:40:crash-cymbol.wav
320,192,3610,1,0,0:0:0:0:
64,192,3943,1,0,0:0:0:40:crash-cymbol.wav
192,192,3943,1,0,0:0:0:40:bass.wav
448,192,4193,1,0,0:0:0:40:crash-cymbol.wav
320,192,4193,1,0,0:0:0:40:bass.wav
192,192,4443,1,0,0:0:0:40:crash-cymbol.wav
64,192,4443,1,0,0:0:0:40:bass.wav
64,192,4943,1,0,0:0:0:40:crash-cymbol.wav
320,192,4943,1,0,0:0:0:40:bass.wav
192,192,5193,1,0,0:0:0:40:crash-cymbol.wav
448,192,5193,1,0,0:0:0:40:bass.wav
64,192,5609,1,0,0:0:0:40:crash-cymbol.wav
320,192,5609,1,0,0:0:0:40:bass.wav
448,192,5859,1,0,0:0:0:40:crash-cymbol.wav
192,192,5859,1,0,0:0:0:40:bass.wav
448,192,6108,1,0,0:0:0:40:crash-cymbol.wav
192,192,6108,1,0,0:0:0:40:bass.wav
64,192,6358,1,0,0:0:0:40:crash-cymbol.wav
320,192,6358,1,0,0:0:0:40:bass.wav
448,192,6608,1,0,0:0:0:40:crash-cymbol.wav
320,192,6608,1,0,0:0:0:40:bass.wav
64,192,6775,1,0,0:0:0:40:crash-cymbol.wav
192,192,6775,1,0,0:0:0:40:bass.wav
448,192,6942,1,0,0:0:0:40:crash-cymbol.wav
320,192,6942,1,0,0:0:0:40:bass.wav
448,192,7942,1,0,0:0:0:40:boom.wav
64,192,7942,1,0,0:0:0:40:drum.wav
320,192,8275,1,0,0:0:0:40:crash-cymbol.wav
448,192,8275,1,0,0:0:0:40:hihat.wav
64,192,8275,1,0,0:0:0:0:
192,192,8525,1,0,0:0:0:0:
64,192,8525,1,0,0:0:0:0:
320,192,8775,1,0,0:0:0:0:
448,192,8775,1,0,0:0:0:0:
64,192,9274,1,0,0:0:0:40:hihat.wav
448,192,9274,1,0,0:0:0:0:
320,192,9441,1,0,0:0:0:0:
192,192,9608,1,0,0:0:0:40:hihat.wav
64,192,9608,1,0,0:0:0:0:
320,192,9774,1,0,0:0:0:0:
448,192,9941,1,0,0:0:0:40:hihat.wav
192,192,9941,1,0,0:0:0:0:
64,192,10108,1,0,0:0:0:0:
320,192,10274,1,0,0:0:0:40:hihat.wav
448,192,10274,1,0,0:0:0:0:
192,192,10441,1,0,0:0:0:0:
448,192,10608,1,0,0:0:0:40:hihat.wav
64,192,10608,1,0,0:0:0:0:
320,192,10858,1,0,0:0:0:0:
192,192,10858,1,0,0:0:0:0:
448,192,11108,1,0,0:0:0:0:
64,192,11108,1,0,0:0:0:0:
64,192,11608,1,0,0:0:0:40:hihat.wav
448,192,11608,1,0,0:0:0:0:
192,192,11774,1,0,0:0:0:0:
320,192,11941,1,0,0:0:0:40:hihat.wav
448,192,11941,1,0,0:0:0:0:
192,192,12108,1,0,0:0:0:0:
64,192,12274,1,0,0:0:0:40:hihat.wav
320,192,12274,1,0,0:0:0:0:
448,192,12441,1,0,0:0:0:0:
192,192,12608,1,0,0:0:0:40:hihat.wav
64,192,12608,1,0,0:0:0:0:
320,192,12774,1,0,0:0:0:0:
448,192,12941,1,0,0:0:0:40:hihat.wav
64,192,12941,1,0,0:0:0:40:bass.wav
192,192,13191,1,0,0:0:0:0:
320,192,13191,1,0,0:0:0:0:
448,192,13441,1,0,0:0:0:0:
64,192,13441,1,0,0:0:0:0:
320,192,13774,1,0,0:0:0:0:
64,192,13941,1,0,0:0:0:40:hihat.wav
192,192,13941,1,0,0:0:0:40:bass.wav
448,192,14108,1,0,0:0:0:0:
320,192,14274,1,0,0:0:0:40:bass.wav
192,192,14274,1,0,0:0:0:40:hihat.wav
64,192,14441,1,0,0:0:0:0:
320,192,14608,1,0,0:0:0:40:bass.wav
448,192,14608,1,0,0:0:0:40:hihat.wav
192,192,14774,1,0,0:0:0:0:
64,192,14941,1,0,0:0:0:40:bass.wav
448,192,14941,1,0,0:0:0:40:hihat.wav
320,192,15108,1,0,0:0:0:0:
64,192,15274,1,0,0:0:0:40:bass.wav
192,192,15274,1,0,0:0:0:40:hihat.wav
320,192,15524,1,0,0:0:0:0:
448,192,15524,1,0,0:0:0:0:
64,192,15774,1,0,0:0:0:0:
192,192,15774,1,0,0:0:0:0:
448,192,16273,1,0,0:0:0:40:bass.wav
64,192,16273,1,0,0:0:0:40:hihat.wav
320,192,16524,1,0,0:0:0:0:
192,192,16524,1,0,0:0:0:0:
64,192,16774,1,0,0:0:0:40:bass.wav
448,192,16774,1,0,0:0:0:0:
448,192,17273,1,0,0:0:0:40:bass.wav
64,192,17273,1,0,0:0:0:0:
320,192,17495,1,0,0:0:0:40:bass.wav
192,192,17495,1,0,0:0:0:0:
64,192,17717,1,0,0:0:0:40:bass.wav
320,192,17717,1,0,0:0:0:40:boom.wav
448,192,17717,1,0,0:0:0:0:
192,192,17939,128,0,18273:0:0:0:0:
320,192,18273,128,0,18606:0:0:0:0:
64,192,18606,1,0,0:0:0:40:crash-cymbol.wav
448,192,18606,1,0,0:0:0:0:
320,192,18939,1,0,0:0:0:40:boom.wav
448,192,18939,1,0,0:0:0:40:bass.wav
192,192,18939,1,0,0:0:0:40:snare.wav
64,192,19272,1,0,0:0:0:40:bass.wav
320,192,19272,1,0,0:0:0:0:
192,192,19522,1,0,0:0:0:0:
448,192,19522,1,0,0:0:0:0:
320,192,19772,1,0,0:0:0:40:hihat.wav
64,192,19772,1,0,0:0:0:0:
192,192,20106,1,0,0:0:0:40:hihat.wav
64,192,20106,1,0,0:0:0:0:
448,192,20272,1,0,0:0:0:40:bass.wav
192,192,20356,1,0,0:0:0:0:
448,192,20522,1,0,0:0:0:0:
64,192,20522,1,0,0:0:0:0:
64,192,20772,1,0,0:0:0:40:hihat.wav
320,192,20772,1,0,0:0:0:0:
192,192,20939,1,0,0:0:0:40:snare.wav
448,192,20939,1,0,0:0:0:40:bass.wav
320,192,21106,1,0,0:0:0:40:hihat.wav
64,192,21106,1,0,0:0:0:0:
448,192,21272,1,0,0:0:0:40:bass.wav
64,192,21272,1,0,0:0:0:40:crash-cymbol.wav
192,192,21272,1,0,0:0:0:0:
448,192,21772,1,0,0:0:0:40:bass.wav
320,192,21772,1,0,0:0:0:40:crash-cymbol.wav
192,192,22106,1,0,0:0:0:40:bass.wav
64,192,22106,1,0,0:0:0:40:crash-cymbol.wav
320,192,22439,1,0,0:0:0:40:crash-cymbol.wav
448,192,22439,1,0,0:0:0:40:bass.wav
64,192,22772,1,0,0:0:0:40:snare.wav
192,192,22772,1,0,0:0:0:40:crash-cymbol.wav
448,192,22939,1,0,0:0:0:40:snare.wav
320,192,22939,1,0,0:0:0:40:crash-cymbol.wav
320,192,23189,1,0,0:0:0:40:snare.wav
64,192,23189,1,0,0:0:0:40:crash-cymbol.wav
64,192,23439,1,0,0:0:0:40:bass.wav
448,192,23439,1,0,0:0:0:0:
192,192,23522,1,0,0:0:0:40:bass.wav
320,192,23606,1,0,0:0:0:40:bass.wav
192,192,23689,1,0,0:0:0:40:bass.wav
448,192,23772,1,0,0:0:0:40:bass.wav
320,192,23856,1,0,0:0:0:40:bass.wav
192,192,23939,1,0,0:0:0:40:bass.wav
64,192,23939,1,0,0:0:0:40:crash-cymbol.wav
320,192,24189,1,0,0:0:0:40:bass.wav
448,192,24189,1,0,0:0:0:40:crash-cymbol.wav
192,192,24439,1,0,0:0:0:40:crash-cymbol.wav
64,192,24439,1,0,0:0:0:40:bass.wav
448,192,24939,1,0,0:0:0:40:crash-cymbol.wav
320,192,24939,1,0,0:0:0:40:bass.wav
64,192,25189,1,0,0:0:0:40:crash-cymbol.wav
192,192,25189,1,0,0:0:0:40:bass.wav
320,192,25439,1,0,0:0:0:40:crash-cymbol.wav
448,192,25439,1,0,0:0:0:40:bass.wav
64,192,25939,1,0,0:0:0:40:boom.wav
192,192,25939,1,0,0:0:0:0:
448,192,25939,1,0,0:0:0:0:
320,192,26106,1,0,0:0:0:40:crash-cymbol.wav
192,192,26106,1,0,0:0:0:40:bass.wav
64,192,26439,1,0,0:0:0:40:crash-cymbol.wav
448,192,26439,1,0,0:0:0:40:bass.wav
448,192,26772,1,0,0:0:0:40:bass.wav
320,192,26856,1,0,0:0:0:40:bass.wav
64,192,26939,1,0,0:0:0:40:bass.wav
192,192,26939,1,0,0:0:0:40:crash-cymbol.wav
448,192,27272,1,0,0:0:0:40:bass.wav
192,192,27439,1,0,0:0:0:40:hihat.wav
320,192,27606,1,0,0:0:0:40:bass.wav
64,192,27772,1,0,0:0:0:40:bass.wav
192,192,28106,1,0,0:0:0:40:crash-cymbol.wav
448,192,28106,1,0,0:0:0:40:bass.wav
320,192,28272,1,0,0:0:0:40:bass.wav
64,192,28272,1,0,0:0:0:40:crash-cymbol.wav
192,192,28439,1,0,0:0:0:40:crash-cymbol.wav
448,192,28439,1,0,0:0:0:40:bass.wav
64,192,28606,1,0,0:0:0:40:bass.wav
448,192,28606,1,0,0:0:0:40:crash-cymbol.wav
192,192,28689,1,0,0:0:0:40:bass.wav
320,192,28772,1,0,0:0:0:40:bass.wav
448,192,28856,1,0,0:0:0:40:bass.wav
192,192,28939,1,0,0:0:0:40:bass.wav
64,192,29022,1,0,0:0:0:40:bass.wav
448,192,29106,1,0,0:0:0:40:bass.wav
320,192,29189,1,0,0:0:0:40:bass.wav
64,192,29272,1,0,0:0:0:40:bass.wav
192,192,29272,1,0,0:0:0:40:crash-cymbol.wav
448,192,29606,1,0,0:0:0:40:boom.wav
320,192,29606,1,0,0:0:0:40:bass.wav
64,192,29606,1,0,0:0:0:40:snare.wav
192,192,29939,1,0,0:0:0:40:bass.wav
64,192,29939,1,0,0:0:0:0:
192,192,30189,1,0,0:0:0:0:
320,192,30189,1,0,0:0:0:0:
320,192,30439,1,0,0:0:0:40:crash-cymbol.wav
448,192,30439,1,0,0:0:0:40:bass.wav
64,192,30439,1,0,0:0:0:0:
192,192,30772,1,0,0:0:0:40:hihat.wav
448,192,30939,1,0,0:0:0:40:bass.wav
64,192,31106,1,0,0:0:0:40:hihat.wav
448,192,31272,1,0,0:0:0:40:bass.wav
320,192,31272,1,0,0:0:0:0:
64,192,31439,1,0,0:0:0:40:hihat.wav
192,192,31439,1,0,0:0:0:0:
64,192,31772,1,0,0:0:0:40:bass.wav
448,192,31772,1,0,0:0:0:40:crash-cymbol.wav
192,192,31772,1,0,0:0:0:0:
320,192,32106,1,0,0:0:0:40:hihat.wav
64,192,32272,1,0,0:0:0:40:bass.wav
192,192,32439,1,0,0:0:0:40:hihat.wav
448,192,32606,1,0,0:0:0:40:bass.wav
320,192,32606,1,0,0:0:0:0:
192,192,32772,1,0,0:0:0:40:crash-cymbol.wav
448,192,32772,1,0,0:0:0:40:bass.wav
64,192,32772,1,0,0:0:0:0:
320,192,33106,1,0,0:0:0:40:crash-cymbol.wav
64,192,33106,1,0,0:0:0:40:bass.wav
448,192,33106,1,0,0:0:0:0:
448,192,33439,1,0,0:0:0:40:hihat.wav
64,192,33439,1,0,0:0:0:0:
320,192,33606,1,0,0:0:0:40:bass.wav
192,192,33606,1,0,0:0:0:40:snare.wav
448,192,33772,1,0,0:0:0:40:bass.wav
64,192,33772,1,0,0:0:0:0:
64,192,33939,1,0,0:0:0:40:bass.wav
192,192,33939,1,0,0:0:0:0:
448,192,34106,1,0,0:0:0:40:bass.wav
320,192,34106,1,0,0:0:0:0:
64,192,34189,1,0,0:0:0:40:bass.wav
192,192,34272,1,0,0:0:0:40:bass.wav
320,192,34356,1,0,0:0:0:40:bass.wav
448,192,34439,1,0,0:0:0:40:bass.wav
192,192,34522,1,0,0:0:0:40:bass.wav
320,192,34606,1,0,0:0:0:40:bass.wav
64,192,34606,1,0,0:0:0:40:crash-cymbol.wav
448,192,34606,1,0,0:0:0:0:
64,192,34939,1,0,0:0:0:40:bass.wav
448,192,34939,1,0,0:0:0:40:crash-cymbol.wav
192,192,35189,1,0,0:0:0:40:crash-cymbol.wav
64,192,35189,1,0,0:0:0:40:bass.wav
448,192,35439,1,0,0:0:0:40:drum.wav
320,192,35606,1,0,0:0:0:40:drum.wav
192,192,35772,1,0,0:0:0:40:drum.wav
64,192,35939,1,0,0:0:0:40:bass.wav
320,192,35939,1,0,0:0:0:40:crash-cymbol.wav
448,192,35939,1,0,0:0:0:40:drum.wav
64,192,36272,1,0,0:0:0:40:bass.wav
448,192,36272,1,0,0:0:0:40:crash-cymbol.wav
320,192,36522,1,0,0:0:0:40:bass.wav
448,192,36522,1,0,0:0:0:40:crash-cymbol.wav
64,192,36772,1,0,0:0:0:40:drum.wav
192,192,36939,1,0,0:0:0:40:drum.wav
320,192,37106,1,0,0:0:0:40:drum.wav
448,192,37272,1,0,0:0:0:40:bass.wav
192,192,37272,1,0,0:0:0:40:crash-cymbol.wav
64,192,37272,1,0,0:0:0:40:drum.wav
64,192,37606,1,0,0:0:0:0:
192,192,37772,1,0,0:0:0:0:
320,192,37939,1,0,0:0:0:0:
448,192,38106,1,0,0:0:0:0:
320,192,38272,1,0,0:0:0:0:
192,192,38439,1,0,0:0:0:0:
448,192,38606,1,0,0:0:0:40:drum.wav
64,192,38606,1,0,0:0:0:40:crash-cymbol.wav
192,192,38772,1,0,0:0:0:40:drum.wav
448,192,38772,1,0,0:0:0:40:crash-cymbol.wav
320,192,38939,1,0,0:0:0:40:crash-cymbol.wav
64,192,38939,1,0,0:0:0:40:drum.wav
64,192,39106,1,0,0:0:0:40:drum.wav
448,192,39106,1,0,0:0:0:40:crash-cymbol.wav
192,192,39272,1,0,0:0:0:40:drum.wav
448,192,39272,1,0,0:0:0:40:crash-cymbol.wav
192,192,39439,1,0,0:0:0:40:crash-cymbol.wav
320,192,39439,1,0,0:0:0:40:drum.wav
64,192,39606,1,0,0:0:0:40:crash-cymbol.wav
320,192,39606,1,0,0:0:0:40:drum.wav
448,192,39606,1,0,0:0:0:40:boom.wav
64,192,39939,1,0,0:0:0:40:crash-cymbol.wav
192,192,39939,1,0,0:0:0:0:
192,192,40272,1,0,0:0:0:40:bass.wav
64,192,40272,1,0,0:0:0:40:boom.wav
448,192,40272,1,0,0:0:0:40:snare.wav
320,192,40439,1,0,0:0:0:40:hihat.wav
192,192,40522,1,0,0:0:0:0:
448,192,40606,1,0,0:0:0:40:bass.wav
64,192,40606,1,0,0:0:0:0:
320,192,40772,1,0,0:0:0:40:hihat.wav
192,192,40939,1,0,0:0:0:40:bass.wav
64,192,40939,1,0,0:0:0:40:snare.wav
320,192,41106,1,0,0:0:0:40:hihat.wav
448,192,41272,1,0,0:0:0:40:bass.wav
64,192,41272,1,0,0:0:0:0:
192,192,41438,1,0,0:0:0:40:hihat.wav
320,192,41522,1,0,0:0:0:0:
64,192,41605,1,0,0:0:0:40:bass.wav
448,192,41605,1,0,0:0:0:40:snare.wav
192,192,41772,1,0,0:0:0:40:hihat.wav
320,192,41938,1,0,0:0:0:40:bass.wav
448,192,41938,1,0,0:0:0:0:
64,192,42105,1,0,0:0:0:40:bass.wav
192,192,42105,1,0,0:0:0:0:
320,192,42272,1,0,0:0:0:40:bass.wav
448,192,42272,1,0,0:0:0:0:
64,192,42438,1,0,0:0:0:40:hihat.wav
192,192,42605,1,0,0:0:0:40:snare.wav
320,192,42605,1,0,0:0:0:40:bass.wav
448,192,42772,1,0,0:0:0:40:hihat.wav
320,192,42855,1,0,0:0:0:0:
64,192,42938,1,0,0:0:0:40:bass.wav
192,192,42938,1,0,0:0:0:0:
320,192,43105,1,0,0:0:0:40:hihat.wav
192,192,43272,1,0,0:0:0:40:snare.wav
448,192,43272,1,0,0:0:0:40:bass.wav
64,192,43438,1,0,0:0:0:40:hihat.wav
448,192,43605,1,0,0:0:0:40:bass.wav
320,192,43605,1,0,0:0:0:0:
192,192,43772,1,0,0:0:0:40:hihat.wav
64,192,43938,1,0,0:0:0:40:bass.wav
448,192,43938,1,0,0:0:0:40:snare.wav
320,192,44105,1,0,0:0:0:40:hihat.wav
448,192,44188,1,0,0:0:0:0:
192,192,44272,1,0,0:0:0:40:bass.wav
64,192,44272,1,0,0:0:0:0:
320,192,44438,1,0,0:0:0:40:hihat.wav
192,192,44522,1,0,0:0:0:40:bass.wav
64,192,44605,1,0,0:0:0:40:bass.wav
448,192,44688,1,0,0:0:0:0:
320,192,44772,1,0,0:0:0:40:bass.wav
192,192,44855,1,0,0:0:0:0:
64,192,44938,1,0,0:0:0:40:bass.wav
448,192,44938,1,0,0:0:0:0:
320,192,45105,1,0,0:0:0:40:hihat.wav
64,192,45272,1,0,0:0:0:40:bass.wav
192,192,45272,1,0,0:0:0:40:snare.wav
320,192,45438,1,0,0:0:0:40:hihat.wav
192,192,45522,1,0,0:0:0:0:
64,192,45605,1,0,0:0:0:40:bass.wav
448,192,45605,1,0,0:0:0:0:
320,192,45772,1,0,0:0:0:40:hihat.wav
64,192,45938,1,0,0:0:0:40:snare.wav
192,192,45938,1,0,0:0:0:40:bass.wav
320,192,46105,1,0,0:0:0:40:hihat.wav
64,192,46271,1,0,0:0:0:40:bass.wav
448,192,46271,1,0,0:0:0:0:
192,192,46437,1,0,0:0:0:40:hihat.wav
320,192,46521,1,0,0:0:0:0:
448,192,46604,1,0,0:0:0:40:snare.wav
64,192,46604,1,0,0:0:0:40:bass.wav
192,192,46771,1,0,0:0:0:40:hihat.wav
448,192,46937,1,0,0:0:0:40:bass.wav
320,192,46937,1,0,0:0:0:0:
192,192,47104,1,0,0:0:0:40:bass.wav
64,192,47104,1,0,0:0:0:0:
320,192,47271,1,0,0:0:0:40:bass.wav
448,192,47271,1,0,0:0:0:0:
64,192,47437,1,0,0:0:0:40:hihat.wav
320,192,47604,1,0,0:0:0:40:snare.wav
192,192,47604,1,0,0:0:0:40:bass.wav
448,192,47771,1,0,0:0:0:40:hihat.wav
320,192,47854,1,0,0:0:0:0:
192,192,47937,1,0,0:0:0:40:bass.wav
64,192,47937,1,0,0:0:0:0:
320,192,48104,1,0,0:0:0:40:hihat.wav
64,192,48271,1,0,0:0:0:40:bass.wav
448,192,48271,1,0,0:0:0:40:snare.wav
192,192,48437,1,0,0:0:0:40:hihat.wav
64,192,48604,1,0,0:0:0:40:bass.wav
320,192,48604,1,0,0:0:0:0:
448,192,48771,1,0,0:0:0:40:crash-cymbol.wav
64,192,48771,1,0,0:0:0:40:bass.wav
320,192,49021,1,0,0:0:0:40:bass.wav
192,192,49021,1,0,0:0:0:40:crash-cymbol.wav
64,192,49271,1,0,0:0:0:40:bass.wav
448,192,49271,1,0,0:0:0:40:crash-cymbol.wav
192,192,49521,1,0,0:0:0:40:bass.wav
320,192,49521,1,0,0:0:0:40:crash-cymbol.wav
64,192,49771,1,0,0:0:0:40:crash-cymbol.wav
448,192,49771,1,0,0:0:0:40:bass.wav
320,192,49937,1,0,0:0:0:0:
192,192,50104,1,0,0:0:0:40:bass.wav
64,192,50104,1,0,0:0:0:0:
320,192,50271,1,0,0:0:0:40:drum.wav
448,192,50271,128,0,50604:0:0:0:0:
192,192,50604,1,0,0:0:0:40:bass.wav
64,192,50604,1,0,0:0:0:40:crash-cymbol.wav
448,192,50771,1,0,0:0:0:40:crash-cymbol.wav
320,192,50771,1,0,0:0:0:40:bass.wav
192,192,50937,1,0,0:0:0:40:bass.wav
64,192,50937,1,0,0:0:0:40:crash-cymbol.wav
320,192,51104,1,0,0:0:0:40:crash-cymbol.wav
448,192,51104,1,0,0:0:0:40:bass.wav
192,192,51270,1,0,0:0:0:40:bass.wav
64,192,51270,1,0,0:0:0:40:crash-cymbol.wav
448,192,51270,1,0,0:0:0:0:
320,192,51604,1,0,0:0:0:0:
448,192,51604,1,0,0:0:0:0:
192,192,51854,1,0,0:0:0:40:drum.wav
64,192,51854,1,0,0:0:0:0:
320,192,52104,1,0,0:0:0:40:drum.wav
448,192,52104,1,0,0:0:0:0:
448,192,52437,1,0,0:0:0:40:drum.wav
192,192,52437,1,0,0:0:0:40:bass.wav
64,192,52437,1,0,0:0:0:40:crash-cymbol.wav
64,192,52770,1,0,0:0:0:40:bass.wav
320,192,52770,1,0,0:0:0:40:crash-cymbol.wav
448,192,52770,1,0,0:0:0:0:
192,192,52937,1,0,0:0:0:0:
320,192,53020,1,0,0:0:0:0:
448,192,53104,1,0,0:0:0:40:drum.wav
192,192,53187,1,0,0:0:0:40:drum.wav
64,192,53270,1,0,0:0:0:40:drum.wav
448,192,53437,1,0,0:0:0:40:drum.wav
64,192,53604,1,0,0:0:0:40:drum.wav
320,192,53687,1,0,0:0:0:40:drum.wav
448,192,53854,1,0,0:0:0:40:drum.wav
192,192,53854,1,0,0:0:0:40:crash-cymbol.wav
64,192,54187,1,0,0:0:0:40:crash-cymbol.wav
320,192,54187,1,0,0:0:0:40:bass.wav
192,192,54437,1,0,0:0:0:40:crash-cymbol.wav
448,192,54437,1,0,0:0:0:40:bass.wav
64,192,54937,1,0,0:0:0:40:drum.wav
448,192,54937,1,0,0:0:0:0:
320,192,55104,1,0,0:0:0:40:drum.wav
192,192,55104,1,0,0:0:0:40:bass.wav
448,192,55270,1,0,0:0:0:40:drum.wav
64,192,55270,1,0,0:0:0:40:bass.wav
192,192,55437,1,0,0:0:0:40:drum.wav
320,192,55604,1,0,0:0:0:40:drum.wav
448,192,55604,1,0,0:0:0:0:
192,192,55770,1,0,0:0:0:40:drum.wav
64,192,55937,1,0,0:0:0:40:drum.wav
320,192,55937,1,0,0:0:0:40:bass.wav
448,192,56104,1,0,0:0:0:40:drum.wav
192,192,56104,1,0,0:0:0:40:bass.wav
320,192,56270,1,0,0:0:0:40:bass.wav
192,192,56354,1,0,0:0:0:40:bass.wav
64,192,56437,1,0,0:0:0:40:bass.wav
192,192,56520,1,0,0:0:0:40:bass.wav
320,192,56604,1,0,0:0:0:40:bass.wav
448,192,56604,1,0,0:0:0:40:crash-cymbol.wav
64,192,56770,1,0,0:0:0:40:crash-cymbol.wav
448,192,56770,1,0,0:0:0:40:bass.wav
192,192,56854,1,0,0:0:0:0:
448,192,56937,1,0,0:0:0:0:
192,192,57020,1,0,0:0:0:0:
448,192,57104,1,0,0:0:0:0:
192,192,57187,1,0,0:0:0:0:
448,192,57270,1,0,0:0:0:0:
320,192,57354,1,0,0:0:0:0:
448,192,57520,1,0,0:0:0:40:bass.wav
192,192,57520,1,0,0:0:0:40:crash-cymbol.wav
64,192,57770,1,0,0:0:0:40:bass.wav
320,192,57770,1,0,0:0:0:40:crash-cymbol.wav
64,192,58104,1,0,0:0:0:0:
320,192,58187,1,0,0:0:0:0:
64,192,58270,1,0,0:0:0:0:
320,192,58354,1,0,0:0:0:0:
64,192,58437,1,0,0:0:0:0:
320,192,58520,1,0,0:0:0:0:
64,192,58604,1,0,0:0:0:0:
192,192,58687,1,0,0:0:0:40:bass.wav
448,192,58687,1,0,0:0:0:40:crash-cymbol.wav
320,192,58854,1,0,0:0:0:40:crash-cymbol.wav
64,192,58854,1,0,0:0:0:40:bass.wav
448,192,59104,1,0,0:0:0:40:bass.wav
192,192,59104,1,0,0:0:0:40:crash-cymbol.wav
320,192,59437,1,0,0:0:0:40:drum.wav
64,192,59437,1,0,0:0:0:0:
448,192,59770,1,0,0:0:0:40:bass.wav
192,192,59770,1,0,0:0:0:40:crash-cymbol.wav
64,192,59770,1,0,0:0:0:40:boom.wav
448,192,60104,1,0,0:0:0:40:drum.wav
64,192,60104,1,0,0:0:0:0:
192,192,60270,1,0,0:0:0:40:drum.wav
64,192,60354,1,0,0:0:0:40:drum.wav
320,192,60437,1,0,0:0:0:40:drum.wav
192,192,60520,1,0,0:0:0:40:drum.wav
448,192,60604,1,0,0:0:0:40:drum.wav
64,192,60604,1,0,0:0:0:40:crash-cymbol.wav
320,192,60770,1,0,0:0:0:40:hihat.wav
64,192,60937,1,0,0:0:0:40:crash-cymbol.wav
192,192,60937,1,0,0:0:0:40:bass.wav
320,192,61104,1,0,0:0:0:40:hihat.wav
64,192,61270,1,0,0:0:0:40:bass.wav
448,192,61270,1,0,0:0:0:40:crash-cymbol.wav
192,192,61437,1,0,0:0:0:40:hihat.wav
320,192,61604,1,0,0:0:0:40:bass.wav
448,192,61604,1,0,0:0:0:0:
64,192,61687,1,0,0:0:0:40:bass.wav
192,192,61770,1,0,0:0:0:40:bass.wav
320,192,61854,1,0,0:0:0:40:bass.wav
64,192,61937,1,0,0:0:0:40:bass.wav
448,192,61937,1,0,0:0:0:40:crash-cymbol.wav
192,192,62104,1,0,0:0:0:0:
448,192,62270,1,0,0:0:0:40:boom.wav
320,192,62270,1,0,0:0:0:40:bass.wav
64,192,62270,1,0,0:0:0:0:
192,192,62437,1,0,0:0:0:40:hihat.wav
448,192,62604,1,0,0:0:0:40:bass.wav
64,192,62604,1,0,0:0:0:0:
320,192,62770,1,0,0:0:0:40:hihat.wav
64,192,62937,1,0,0:0:0:40:snare.wav
192,192,62937,1,0,0:0:0:40:bass.wav
320,192,63104,1,0,0:0:0:40:hihat.wav
448,192,63270,1,0,0:0:0:40:bass.wav
64,192,63270,1,0,0:0:0:0:
320,192,63437,1,0,0:0:0:40:hihat.wav
192,192,63437,1,0,0:0:0:0:
192,192,63687,1,0,0:0:0:0:
64,192,63687,1,0,0:0:0:0:
320,192,63937,1,0,0:0:0:40:bass.wav
448,192,63937,1,0,0:0:0:0:
448,192,64187,1,0,0:0:0:0:
64,192,64187,1,0,0:0:0:0:
192,192,64437,1,0,0:0:0:40:hihat.wav
64,192,64437,1,0,0:0:0:0:
320,192,64604,1,0,0:0:0:40:bass.wav
448,192,64604,1,0,0:0:0:0:
448,192,64937,1,0,0:0:0:40:boom.wav
192,192,64937,1,0,0:0:0:40:bass.wav
64,192,64937,1,0,0:0:0:40:crash-cymbol.wav
64,192,65270,1,0,0:0:0:40:bass.wav
320,192,65382,1,0,0:0:0:40:bass.wav
64,192,65493,1,0,0:0:0:40:bass.wav
448,192,65604,1,0,0:0:0:40:bass.wav
192,192,65715,1,0,0:0:0:40:bass.wav
448,192,65826,1,0,0:0:0:40:bass.wav
192,192,65937,1,0,0:0:0:40:bass.wav
64,192,65937,1,0,0:0:0:40:crash-cymbol.wav
320,192,66104,1,0,0:0:0:40:bass.wav
64,192,66270,1,0,0:0:0:40:crash-cymbol.wav
448,192,66270,1,0,0:0:0:40:bass.wav
192,192,66437,1,0,0:0:0:40:bass.wav
320,192,66604,1,0,0:0:0:40:crash-cymbol.wav
448,192,66604,1,0,0:0:0:40:bass.wav
192,192,66854,1,0,0:0:0:40:bass.wav
64,192,66854,1,0,0:0:0:40:crash-cymbol.wav
320,192,67104,1,0,0:0:0:40:crash-cymbol.wav
448,192,67104,1,0,0:0:0:40:bass.wav
64,192,67270,1,0,0:0:0:40:bass.wav
448,192,67270,1,0,0:0:0:40:crash-cymbol.wav
192,192,67604,1,0,0:0:0:0:
448,192,67604,1,0,0:0:0:0:
64,192,67937,1,0,0:0:0:0:
192,192,67937,1,0,0:0:0:0:
64,192,68187,1,0,0:0:0:0:
448,192,68187,1,0,0:0:0:0:
320,192,68437,1,0,0:0:0:40:bass.wav
192,192,68437,1,0,0:0:0:0:
64,192,68604,1,0,0:0:0:40:bass.wav
448,192,68604,1,0,0:0:0:40:crash-cymbol.wav
320,192,68770,1,0,0:0:0:0:
448,192,68770,1,0,0:0:0:0:
64,192,69020,1,0,0:0:0:0:
192,192,69020,1,0,0:0:0:0:
320,192,69437,1,0,0:0:0:0:
64,192,69437,1,0,0:0:0:0:
192,192,69604,1,0,0:0:0:0:
448,192,69604,1,0,0:0:0:0:
320,192,69770,1,0,0:0:0:0:
64,192,69770,1,0,0:0:0:0:
448,192,69937,1,0,0:0:0:40:bass.wav
64,192,69937,1,0,0:0:0:40:crash-cymbol.wav
192,192,70104,1,0,0:0:0:0:
320,192,70104,1,0,0:0:0:0:
64,192,70270,1,0,0:0:0:0:
448,192,70270,1,0,0:0:0:0:
192,192,70354,1,0,0:0:0:0:
320,192,70437,1,0,0:0:0:0:
192,192,70520,1,0,0:0:0:0:
64,192,70604,1,0,0:0:0:40:crash-cymbol.wav
448,192,70604,1,0,0:0:0:40:bass.wav
320,192,70770,1,0,0:0:0:0:
192,192,70937,1,0,0:0:0:0:
64,192,70937,1,0,0:0:0:0:
320,192,71104,1,0,0:0:0:0:
64,192,71270,1,0,0:0:0:40:crash-cymbol.wav
448,192,71270,1,0,0:0:0:40:bass.wav
320,192,71437,1,0,0:0:0:40:bass.wav
192,192,71437,1,0,0:0:0:40:crash-cymbol.wav
64,192,71604,1,0,0:0:0:40:crash-cymbol.wav
448,192,71604,1,0,0:0:0:40:bass.wav
320,192,71770,1,0,0:0:0:40:bass.wav
192,192,71770,1,0,0:0:0:40:crash-cymbol.wav
64,192,71937,1,0,0:0:0:40:bass.wav
192,192,71937,1,0,0:0:0:40:crash-cymbol.wav
448,192,72159,1,0,0:0:0:40:crash-cymbol.wav
320,192,72159,1,0,0:0:0:40:bass.wav
192,192,72382,1,0,0:0:0:40:bass.wav
64,192,72382,1,0,0:0:0:40:crash-cymbol.wav
64,192,72604,1,0,0:0:0:40:bass.wav
448,192,72604,1,0,0:0:0:0:
320,192,72604,1,0,0:0:0:0:
192,192,72770,1,0,0:0:0:0:
448,192,72854,1,0,0:0:0:0:
64,192,72937,1,0,0:0:0:0:
320,192,73020,1,0,0:0:0:0:
448,192,73104,1,0,0:0:0:0:
192,192,73187,1,0,0:0:0:0:
320,192,73270,1,0,0:0:0:0:
64,192,73354,1,0,0:0:0:0:
192,192,73437,1,0,0:0:0:0:
448,192,73520,1,0,0:0:0:0:
320,192,73604,1,0,0:0:0:0:
192,192,73687,1,0,0:0:0:0:
320,192,73770,1,0,0:0:0:0:
448,192,73854,1,0,0:0:0:0:
192,192,73937,1,0,0:0:0:40:bass.wav
64,192,73937,1,0,0:0:0:40:crash-cymbol.wav
448,192,74020,1,0,0:0:0:40:bass.wav
320,192,74020,1,0,0:0:0:0:
448,192,74187,1,0,0:0:0:40:crash-cymbol.wav
192,192,74187,1,0,0:0:0:40:bass.wav
64,192,74354,1,0,0:0:0:40:crash-cymbol.wav
320,192,74354,1,0,0:0:0:40:bass.wav
448,192,74520,1,0,0:0:0:40:bass.wav
320,192,74520,1,0,0:0:0:40:crash-cymbol.wav
192,192,74604,1,0,0:0:0:40:bass.wav
64,192,74604,1,0,0:0:0:0:
448,192,74937,1,0,0:0:0:40:bass.wav
64,192,74937,1,0,0:0:0:40:boom.wav
320,192,74937,1,0,0:0:0:0:
64,192,75270,1,0,0:0:0:40:crash-cymbol.wav
192,192,75270,1,0,0:0:0:40:bass.wav
448,192,75270,1,0,0:0:0:0:
320,192,75520,1,0,0:0:0:40:bass.wav
192,192,75520,1,0,0:0:0:40:crash-cymbol.wav
448,192,75770,1,0,0:0:0:40:crash-cymbol.wav
64,192,75770,1,0,0:0:0:40:bass.wav
192,192,76270,1,0,0:0:0:0:
64,192,76270,1,0,0:0:0:0:
320,192,76436,1,0,0:0:0:0:
448,192,76603,1,0,0:0:0:0:
64,192,76603,1,0,0:0:0:0:
192,192,76770,1,0,0:0:0:0:
448,192,76936,1,0,0:0:0:0:
320,192,76936,1,0,0:0:0:0:
64,192,77103,1,0,0:0:0:0:
192,192,77270,1,0,0:0:0:40:boom.wav
448,192,77270,1,0,0:0:0:0:
320,192,77270,1,0,0:0:0:0:
64,192,77436,1,0,0:0:0:0:
320,192,77603,1,0,0:0:0:40:crash-cymbol.wav
448,192,77603,1,0,0:0:0:40:bass.wav
192,192,77853,1,0,0:0:0:40:crash-cymbol.wav
64,192,77853,1,0,0:0:0:40:bass.wav
320,192,78103,1,0,0:0:0:40:crash-cymbol.wav
448,192,78103,1,0,0:0:0:40:bass.wav
64,192,78603,1,0,0:0:0:0:
448,192,78603,1,0,0:0:0:0:
192,192,78770,1,0,0:0:0:0:
448,192,78936,1,0,0:0:0:0:
320,192,78936,1,0,0:0:0:0:
192,192,79103,1,0,0:0:0:40:bass.wav
448,192,79270,1,0,0:0:0:40:bass.wav
64,192,79270,1,0,0:0:0:0:
320,192,79436,1,0,0:0:0:40:bass.wav
192,192,79603,1,0,0:0:0:40:bass.wav
64,192,79603,1,0,0:0:0:0:
320,192,79770,1,0,0:0:0:40:bass.wav
448,192,79936,1,0,0:0:0:40:bass.wav
192,192,79936,1,0,0:0:0:40:crash-cymbol.wav
320,192,80186,1,0,0:0:0:40:crash-cymbol.wav
64,192,80186,1,0,0:0:0:40:bass.wav
448,192,80436,1,0,0:0:0:40:bass.wav
64,192,80436,1,0,0:0:0:40:crash-cymbol.wav
192,192,80770,1,0,0:0:0:0:
448,192,80770,1,0,0:0:0:0:
320,192,80936,1,0,0:0:0:40:bass.wav
64,192,80936,1,0,0:0:0:0:
192,192,81103,1,0,0:0:0:40:bass.wav
64,192,81103,1,0,0:0:0:0:
448,192,81270,1,0,0:0:0:40:bass.wav
320,192,81270,1,0,0:0:0:0:
192,192,81436,1,0,0:0:0:40:bass.wav
64,192,81436,1,0,0:0:0:0:
320,192,81603,1,0,0:0:0:40:bass.wav
192,192,81603,1,0,0:0:0:0:
64,192,81770,1,0,0:0:0:0:
448,192,81770,1,0,0:0:0:0:
448,192,81936,1,0,0:0:0:40:bass.wav
192,192,81936,1,0,0:0:0:0:
64,192,82103,1,0,0:0:0:40:bass.wav
320,192,82103,1,0,0:0:0:0:
64,192,82270,1,0,0:0:0:40:bass.wav
448,192,82270,1,0,0:0:0:40:crash-cymbol.wav
192,192,82520,1,0,0:0:0:40:crash-cymbol.wav
320,192,82520,1,0,0:0:0:40:bass.wav
448,192,82770,1,0,0:0:0:40:crash-cymbol.wav
64,192,82770,1,0,0:0:0:40:bass.wav
64,192,83270,1,0,0:0:0:40:bass.wav
320,192,83270,1,0,0:0:0:40:crash-cymbol.wav
448,192,83520,1,0,0:0:0:40:crash-cymbol.wav
192,192,83520,1,0,0:0:0:40:bass.wav
64,192,83770,1,0,0:0:0:40:bass.wav
320,192,83770,1,0,0:0:0:40:crash-cymbol.wav
192,192,84270,1,0,0:0:0:40:drum.wav
64,192,84270,1,0,0:0:0:40:bass.wav
448,192,84492,1,0,0:0:0:40:boom.wav
320,192,84492,1,0,0:0:0:40:crash-cymbol.wav
448,192,84714,1,0,0:0:0:40:boom.wav
64,192,84714,1,0,0:0:0:40:boom.wav
192,192,84714,1,0,0:0:0:40:crash-cymbol.wav
192,192,85603,128,0,85936:0:0:0:0:
320,192,85936,128,0,86270:0:0:0:0:
64,192,86270,1,0,0:0:0:40:crash-cymbol.wav
448,192,86270,1,0,0:0:0:0:
192,192,86603,1,0,0:0:0:40:boom.wav
64,192,86603,1,0,0:0:0:40:bass.wav
448,192,86603,1,0,0:0:0:40:snare.wav
320,192,86936,1,0,0:0:0:40:bass.wav
448,192,86936,1,0,0:0:0:0:
192,192,87186,1,0,0:0:0:0:
64,192,87186,1,0,0:0:0:0:
448,192,87436,1,0,0:0:0:40:hihat.wav
320,192,87436,1,0,0:0:0:0:
64,192,87520,1,0,0:0:0:0:
192,192,87770,1,0,0:0:0:40:hihat.wav
448,192,87770,1,0,0:0:0:0:
64,192,87936,1,0,0:0:0:40:snare.wav
320,192,88020,1,0,0:0:0:0:
64,192,88186,1,0,0:0:0:0:
448,192,88186,1,0,0:0:0:0:
192,192,88436,1,0,0:0:0:40:hihat.wav
448,192,88436,1,0,0:0:0:0:
64,192,88603,1,0,0:0:0:40:snare.wav
320,192,88603,1,0,0:0:0:40:bass.wav
192,192,88770,1,0,0:0:0:40:hihat.wav
64,192,88770,1,0,0:0:0:0:
448,192,88936,1,0,0:0:0:40:bass.wav
320,192,88936,1,0,0:0:0:40:crash-cymbol.wav
64,192,89436,1,0,0:0:0:40:bass.wav
448,192,89436,1,0,0:0:0:40:crash-cymbol.wav
320,192,89769,1,0,0:0:0:40:bass.wav
192,192,89769,1,0,0:0:0:40:crash-cymbol.wav
64,192,90103,1,0,0:0:0:40:crash-cymbol.wav
448,192,90103,1,0,0:0:0:40:bass.wav
192,192,90436,1,0,0:0:0:40:bass.wav
448,192,90519,1,0,0:0:0:0:
320,192,90603,1,0,0:0:0:40:bass.wav
64,192,90686,1,0,0:0:0:0:
192,192,90769,1,0,0:0:0:0:
448,192,90853,1,0,0:0:0:40:bass.wav
320,192,90936,1,0,0:0:0:0:
64,192,91019,1,0,0:0:0:0:
448,192,91103,1,0,0:0:0:40:bass.wav
192,192,91186,1,0,0:0:0:40:bass.wav
320,192,91269,1,0,0:0:0:40:bass.wav
64,192,91353,1,0,0:0:0:40:bass.wav
448,192,91436,1,0,0:0:0:40:bass.wav
192,192,91519,1,0,0:0:0:40:bass.wav
64,192,91603,1,0,0:0:0:40:bass.wav
320,192,91603,1,0,0:0:0:40:crash-cymbol.wav
192,192,91853,1,0,0:0:0:40:crash-cymbol.wav
448,192,91853,1,0,0:0:0:40:bass.wav
320,192,92103,1,0,0:0:0:40:crash-cymbol.wav
64,192,92103,1,0,0:0:0:40:bass.wav
64,192,92353,1,0,0:0:0:0:
192,192,92436,1,0,0:0:0:0:
320,192,92519,1,0,0:0:0:0:
64,192,92603,1,0,0:0:0:40:crash-cymbol.wav
448,192,92603,1,0,0:0:0:40:bass.wav
192,192,92853,1,0,0:0:0:40:bass.wav
320,192,92853,1,0,0:0:0:40:crash-cymbol.wav
64,192,93103,1,0,0:0:0:40:crash-cymbol.wav
448,192,93103,1,0,0:0:0:40:bass.wav
192,192,93603,1,0,0:0:0:40:boom.wav
64,192,93603,1,0,0:0:0:0:
448,192,93603,1,0,0:0:0:0:
320,192,93769,1,0,0:0:0:40:crash-cymbol.wav
448,192,93769,1,0,0:0:0:40:bass.wav
64,192,94103,1,0,0:0:0:40:crash-cymbol.wav
320,192,94103,1,0,0:0:0:40:bass.wav
192,192,94436,1,0,0:0:0:40:bass.wav
320,192,94436,1,0,0:0:0:0:
448,192,94603,1,0,0:0:0:40:bass.wav
64,192,94603,1,0,0:0:0:40:crash-cymbol.wav
64,192,94936,1,0,0:0:0:40:drum.wav
320,192,94936,1,0,0:0:0:40:bass.wav
448,192,95186,1,0,0:0:0:40:drum.wav
192,192,95186,1,0,0:0:0:0:
448,192,95436,1,0,0:0:0:40:bass.wav
320,192,95436,1,0,0:0:0:40:drum.wav
64,192,95519,1,0,0:0:0:40:drum.wav
192,192,95769,1,0,0:0:0:40:crash-cymbol.wav
448,192,95769,1,0,0:0:0:40:bass.wav
64,192,95936,1,0,0:0:0:40:crash-cymbol.wav
320,192,95936,1,0,0:0:0:40:bass.wav
448,192,96103,1,0,0:0:0:40:crash-cymbol.wav
192,192,96103,1,0,0:0:0:40:bass.wav
64,192,96269,1,0,0:0:0:40:crash-cymbol.wav
448,192,96269,1,0,0:0:0:40:bass.wav
192,192,96353,1,0,0:0:0:40:bass.wav
320,192,96436,1,0,0:0:0:40:bass.wav
448,192,96519,1,0,0:0:0:40:bass.wav
64,192,96603,1,0,0:0:0:40:bass.wav
192,192,96686,1,0,0:0:0:40:bass.wav
320,192,96769,1,0,0:0:0:40:bass.wav
192,192,96853,1,0,0:0:0:40:bass.wav
448,192,96936,1,0,0:0:0:40:bass.wav
64,192,96936,1,0,0:0:0:40:crash-cymbol.wav
448,192,97269,1,0,0:0:0:40:bass.wav
320,192,97269,1,0,0:0:0:40:crash-cymbol.wav
64,192,97269,1,0,0:0:0:40:snare.wav
320,192,97603,1,0,0:0:0:40:bass.wav
192,192,97603,1,0,0:0:0:0:
64,192,97853,1,0,0:0:0:0:
192,192,97853,1,0,0:0:0:0:
320,192,97936,1,0,0:0:0:40:bass.wav
192,192,98103,1,0,0:0:0:40:crash-cymbol.wav
448,192,98103,1,0,0:0:0:40:bass.wav
64,192,98103,1,0,0:0:0:0:
64,192,98436,1,0,0:0:0:40:hihat.wav
192,192,98436,1,0,0:0:0:0:
320,192,98603,1,0,0:0:0:40:bass.wav
448,192,98603,1,0,0:0:0:40:snare.wav
64,192,98769,1,0,0:0:0:40:hihat.wav
192,192,98769,1,0,0:0:0:0:
64,192,98936,1,0,0:0:0:40:bass.wav
320,192,98936,1,0,0:0:0:0:
192,192,99103,1,0,0:0:0:40:hihat.wav
448,192,99103,1,0,0:0:0:0:
192,192,99436,1,0,0:0:0:40:bass.wav
64,192,99436,1,0,0:0:0:40:crash-cymbol.wav
448,192,99436,1,0,0:0:0:0:
192,192,99769,1,0,0:0:0:40:hihat.wav
64,192,99769,1,0,0:0:0:0:
320,192,99936,1,0,0:0:0:40:bass.wav
448,192,99936,1,0,0:0:0:40:snare.wav
192,192,100103,1,0,0:0:0:40:hihat.wav
64,192,100103,1,0,0:0:0:0:
192,192,100269,1,0,0:0:0:40:bass.wav
320,192,100269,1,0,0:0:0:0:
64,192,100436,1,0,0:0:0:40:hihat.wav
320,192,100436,1,0,0:0:0:0:
448,192,100436,1,0,0:0:0:0:
192,192,100769,1,0,0:0:0:40:bass.wav
64,192,100769,1,0,0:0:0:40:crash-cymbol.wav
448,192,100769,1,0,0:0:0:0:
320,192,101103,1,0,0:0:0:40:hihat.wav
448,192,101103,1,0,0:0:0:0:
448,192,101269,1,0,0:0:0:40:bass.wav
64,192,101269,1,0,0:0:0:40:snare.wav
320,192,101436,1,0,0:0:0:40:bass.wav
192,192,101436,1,0,0:0:0:0:
448,192,101603,1,0,0:0:0:40:bass.wav
64,192,101603,1,0,0:0:0:0:
320,192,101686,1,0,0:0:0:0:
192,192,101769,1,0,0:0:0:40:bass.wav
320,192,101853,1,0,0:0:0:40:bass.wav
448,192,101936,1,0,0:0:0:40:bass.wav
64,192,102019,1,0,0:0:0:40:bass.wav
192,192,102103,1,0,0:0:0:40:bass.wav
320,192,102186,1,0,0:0:0:40:bass.wav
448,192,102269,1,0,0:0:0:40:bass.wav
192,192,102269,1,0,0:0:0:40:crash-cymbol.wav
64,192,102269,1,0,0:0:0:0:
448,192,102603,1,0,0:0:0:40:bass.wav
64,192,102603,1,0,0:0:0:40:crash-cymbol.wav
320,192,102853,1,0,0:0:0:40:crash-cymbol.wav
448,192,102853,1,0,0:0:0:40:bass.wav
64,192,103103,1,0,0:0:0:40:drum.wav
192,192,103269,1,0,0:0:0:40:drum.wav
320,192,103436,1,0,0:0:0:40:drum.wav
448,192,103603,1,0,0:0:0:40:bass.wav
64,192,103603,1,0,0:0:0:40:crash-cymbol.wav
192,192,103603,1,0,0:0:0:40:drum.wav
448,192,103936,1,0,0:0:0:40:bass.wav
64,192,103936,1,0,0:0:0:40:crash-cymbol.wav
192,192,104186,1,0,0:0:0:40:bass.wav
64,192,104186,1,0,0:0:0:40:crash-cymbol.wav
448,192,104436,1,0,0:0:0:40:drum.wav
320,192,104603,1,0,0:0:0:40:drum.wav
192,192,104769,1,0,0:0:0:40:drum.wav
64,192,104936,1,0,0:0:0:40:crash-cymbol.wav
448,192,104936,1,0,0:0:0:40:bass.wav
192,192,105269,1,0,0:0:0:0:
448,192,105436,1,0,0:0:0:0:
64,192,105603,1,0,0:0:0:0:
320,192,105769,1,0,0:0:0:0:
192,192,105936,1,0,0:0:0:0:
448,192,106103,1,0,0:0:0:0:
64,192,106269,1,0,0:0:0:40:drum.wav
192,192,106269,1,0,0:0:0:40:crash-cymbol.wav
448,192,106436,1,0,0:0:0:40:drum.wav
320,192,106436,1,0,0:0:0:40:crash-cymbol.wav
64,192,106603,1,0,0:0:0:40:drum.wav
192,192,106603,1,0,0:0:0:40:crash-cymbol.wav
448,192,106769,1,0,0:0:0:40:drum.wav
320,192,106769,1,0,0:0:0:40:crash-cymbol.wav
320,192,106936,1,0,0:0:0:40:drum.wav
64,192,106936,1,0,0:0:0:0:
192,192,107103,1,0,0:0:0:40:drum.wav
448,192,107103,1,0,0:0:0:0:
64,192,107269,1,0,0:0:0:40:drum.wav
320,192,107269,128,0,107603:0:0:0:40:bass.wav
448,192,107603,1,0,0:0:0:40:bass.wav
192,192,107603,1,0,0:0:0:40:crash-cymbol.wav
64,192,107603,1,0,0:0:0:40:hihat.wav
320,192,107853,1,0,0:0:0:40:hihat.wav
192,192,107853,1,0,0:0:0:0:
64,192,108103,1,0,0:0:0:40:hihat.wav
320,192,108103,1,0,0:0:0:0:
448,192,108103,1,0,0:0:0:0:
448,192,108603,1,0,0:0:0:40:bass.wav
192,192,108603,1,0,0:0:0:40:crash-cymbol.wav
64,192,108603,1,0,0:0:0:40:hihat.wav
320,192,108853,1,0,0:0:0:40:hihat.wav
192,192,108853,1,0,0:0:0:0:
64,192,109103,1,0,0:0:0:40:crash-cymbol.wav
320,192,109103,1,0,0:0:0:40:hihat.wav
448,192,109103,1,0,0:0:0:0:
64,192,109269,1,0,0:0:0:40:bass.wav
192,192,109269,1,0,0:0:0:40:boom.wav
448,192,109269,1,0,0:0:0:40:hihat.wav
320,192,109436,1,0,0:0:0:40:bass.wav
192,192,109519,1,0,0:0:0:40:bass.wav
320,192,109603,1,0,0:0:0:40:bass.wav
448,192,109603,1,0,0:0:0:40:crash-cymbol.wav
64,192,109603,1,0,0:0:0:40:hihat.wav
192,192,109853,1,0,0:0:0:40:bass.wav
64,192,109853,1,0,0:0:0:40:hihat.wav
320,192,110103,1,0,0:0:0:40:bass.wav
448,192,110103,1,0,0:0:0:40:crash-cymbol.wav
64,192,110103,1,0,0:0:0:40:hihat.wav
448,192,110603,1,0,0:0:0:40:bass.wav
192,192,110603,1,0,0:0:0:40:crash-cymbol.wav
64,192,110603,1,0,0:0:0:40:hihat.wav
320,192,110853,1,0,0:0:0:40:bass.wav
448,192,110853,1,0,0:0:0:40:hihat.wav
448,192,111103,1,0,0:0:0:40:crash-cymbol.wav
192,192,111103,1,0,0:0:0:40:bass.wav
64,192,111103,1,0,0:0:0:40:hihat.wav
64,192,111603,1,0,0:0:0:40:bass.wav
320,192,111603,1,0,0:0:0:40:crash-cymbol.wav
448,192,111603,1,0,0:0:0:40:boom.wav
192,192,111853,1,0,0:0:0:40:crash-cymbol.wav
64,192,111853,1,0,0:0:0:40:bass.wav
448,192,111853,1,0,0:0:0:40:hihat.wav
448,192,112103,1,0,0:0:0:40:crash-cymbol.wav
320,192,112103,1,0,0:0:0:40:bass.wav
64,192,112103,1,0,0:0:0:40:hihat.wav
448,192,112603,1,0,0:0:0:40:bass.wav
192,192,112603,1,0,0:0:0:40:crash-cymbol.wav
320,192,112603,1,0,0:0:0:40:hihat.wav
320,192,112853,1,0,0:0:0:40:bass.wav
192,192,112853,1,0,0:0:0:40:crash-cymbol.wav
64,192,112853,1,0,0:0:0:40:hihat.wav
320,192,113103,1,0,0:0:0:40:bass.wav
192,192,113103,1,0,0:0:0:40:crash-cymbol.wav
448,192,113103,1,0,0:0:0:40:hihat.wav
64,192,113603,1,0,0:0:0:40:bass.wav
448,192,113603,1,0,0:0:0:40:crash-cymbol.wav
320,192,113603,1,0,0:0:0:40:hihat.wav
64,192,113853,1,0,0:0:0:40:crash-cymbol.wav
192,192,113853,1,0,0:0:0:40:bass.wav
448,192,113853,1,0,0:0:0:40:hihat.wav
192,192,114103,1,0,0:0:0:40:crash-cymbol.wav
64,192,114103,1,0,0:0:0:40:bass.wav
320,192,114103,128,0,114603:0:0:0:40:hihat.wav
192,192,114603,1,0,0:0:0:40:crash-cymbol.wav
64,192,114603,1,0,0:0:0:40:bass.wav
448,192,114603,1,0,0:0:0:40:hihat.wav
320,192,114852,1,0,0:0:0:40:crash-cymbol.wav
448,192,114852,1,0,0:0:0:40:bass.wav
64,192,114852,1,0,0:0:0:40:hihat.wav
320,192,115102,1,0,0:0:0:40:crash-cymbol.wav
448,192,115102,1,0,0:0:0:40:bass.wav
192,192,115102,128,0,115602:0:0:0:40:hihat.wav
320,192,115602,1,0,0:0:0:40:crash-cymbol.wav
448,192,115602,1,0,0:0:0:40:bass.wav
64,192,115602,1,0,0:0:0:40:hihat.wav
64,192,115825,1,0,0:0:0:40:crash-cymbol.wav
192,192,115825,1,0,0:0:0:40:bass.wav
448,192,115825,1,0,0:0:0:0:
64,192,116047,1,0,0:0:0:40:bass.wav
320,192,116047,1,0,0:0:0:40:crash-cymbol.wav
448,192,116047,1,0,0:0:0:0:
64,192,116602,128,0,117602:0:0:0:40:boom.wav
192,192,116602,1,0,0:0:0:40:crash-cymbol.wav
448,192,116602,1,0,0:0:0:40:bass.wav
448,192,116936,128,0,117602:0:0:0:0:
320,192,117602,1,0,0:0:0:0:
192,192,117602,1,0,0:0:0:40:crash-cymbol.wav
