osu file format v14

[General]
AudioFilename: audio.mp3
AudioLeadIn: 0
PreviewTime: 82412
Countdown: 0
SampleSet: Soft
StackLeniency: 0.7
Mode: 3
LetterboxInBreaks: 0
SpecialStyle: 0
WidescreenStoryboard: 1

[Editor]
Bookmarks: 34740,70071
DistanceSpacing: 1.2
BeatDivisor: 4
GridSize: 32
TimelineZoom: 2

[Metadata]
Title:Calamity Tempest
TitleUnicode:Calamity Tempest
Artist:Diceros Bicornis
ArtistUnicode:Diceros Bicornis
Creator:Ichigaki
Version:ADVANCED
Source:SOUND VOLTEX VIVID WAVE
Tags:xi BlackY HEXA DIVER -侵寇の王女篇- SDVX VW KONAMI BEMANI sequel II -infinite infection- Innocent instrumental video game electronic piano
BeatmapID:2733126
BeatmapSetID:1304666

[Difficulty]
HPDrainRate:7.5
CircleSize:4
OverallDifficulty:7.5
ApproachRate:5
SliderMultiplier:1.4
SliderTickRate:1

[Events]
//Background and Video events
0,0,"bg.png",0,0
//Break Periods
//Storyboard Layer 0 (Background)
//Storyboard Layer 1 (Fail)
//Storyboard Layer 2 (Pass)
//Storyboard Layer 3 (Foreground)
//Storyboard Layer 4 (Overlay)
//Storyboard Sound Samples
Sample,11903,0,"boom.wav",70

[TimingPoints]
1234,309.278350515464,4,2,1,70,1,0
3708,309.278350515464,7,2,1,70,1,0
16697,309.278350515464,6,2,1,70,1,0
18398,309.278350515464,6,2,1,70,1,0
20099,309.278350515464,6,2,1,70,1,0
21800,309.278350515464,3,2,1,70,1,0
25356,309.278350515464,5,2,1,70,1,0
26747,309.278350515464,4,2,1,70,1,0
37881,309.278350515464,7,2,1,70,1,0
44375,309.278350515464,4,2,1,70,1,0
51797,309.278350515464,5,2,1,70,1,0
53188,309.278350515464,5,2,1,70,1,0
54579,309.278350515464,4,2,1,70,1,0
70661,309.278350515464,6,2,1,70,1,0
72516,309.278350515464,4,2,1,70,1,0
82567,-100,4,2,1,70,0,1
92309,309.278350515464,6,2,1,70,1,0
92309,-100,4,2,1,70,0,1
94164,309.278350515464,7,2,1,70,1,0
94164,-100,7,2,1,70,0,0
100658,309.278350515464,4,2,1,70,1,0
103132,-100,4,2,1,70,0,1
114111,-100,4,2,1,70,0,0

[HitObjects]
320,192,1234,1,2,0:0:0:0:
448,192,1234,1,4,0:0:0:0:
320,192,1388,1,2,0:0:0:0:
448,192,1388,1,4,0:0:0:0:
64,192,1543,1,0,0:0:0:0:
192,192,1697,1,0,0:0:0:0:
320,192,1852,1,0,0:0:0:0:
448,192,2007,1,0,0:0:0:0:
192,192,2161,128,0,2316:0:0:0:0:
448,192,2316,1,0,0:0:0:0:
64,192,2471,1,0,0:0:0:0:
192,192,2548,1,0,0:0:0:0:
320,192,2625,1,0,0:0:0:0:
448,192,2703,1,0,0:0:0:0:
64,192,2780,1,0,0:0:0:0:
192,192,2857,1,0,0:0:0:0:
320,192,2935,1,0,0:0:0:0:
448,192,3012,1,0,0:0:0:0:
64,192,3089,1,0,0:0:0:0:
192,192,3166,1,0,0:0:0:0:
320,192,3244,1,0,0:0:0:0:
448,192,3321,1,0,0:0:0:0:
64,192,3398,1,2,0:0:0:0:
192,192,3398,1,8,0:0:0:60:boom.wav
64,192,3708,1,2,0:0:0:0:
320,192,3708,1,4,0:0:0:0:
192,192,3939,1,4,0:0:0:0:
448,192,3939,1,2,0:0:0:0:
64,192,4249,1,2,0:0:0:0:
448,192,4249,1,4,0:0:0:0:
192,192,4429,1,0,0:0:0:0:
320,192,4532,1,0,0:0:0:0:
448,192,4635,1,0,0:0:0:0:
320,192,4738,1,0,0:0:0:0:
192,192,4842,1,0,0:0:0:0:
64,192,4945,1,0,0:0:0:0:
192,192,5048,1,0,0:0:0:0:
320,192,5151,1,0,0:0:0:0:
448,192,5254,1,0,0:0:0:0:
320,192,5357,1,0,0:0:0:0:
192,192,5460,1,0,0:0:0:0:
64,192,5563,1,0,0:0:0:0:
192,192,5666,1,0,0:0:0:0:
320,192,5769,1,0,0:0:0:0:
64,192,5872,1,2,0:0:0:0:
448,192,5872,1,4,0:0:0:0:
192,192,6104,1,4,0:0:0:0:
320,192,6104,1,2,0:0:0:0:
64,192,6336,1,4,0:0:0:0:
448,192,6336,1,2,0:0:0:0:
320,192,6646,1,0,0:0:0:0:
64,192,6800,1,0,0:0:0:0:
192,192,6878,1,0,0:0:0:0:
320,192,6955,1,0,0:0:0:0:
448,192,7032,1,0,0:0:0:0:
320,192,7110,1,0,0:0:0:0:
192,192,7187,1,0,0:0:0:0:
448,192,7264,1,0,0:0:0:0:
320,192,7342,1,0,0:0:0:0:
192,192,7419,1,0,0:0:0:0:
64,192,7496,1,0,0:0:0:0:
448,192,7573,1,2,0:0:0:0:
320,192,7651,1,0,0:0:0:0:
192,192,7728,1,0,0:0:0:0:
64,192,7805,1,0,0:0:0:0:
320,192,7883,1,0,0:0:0:0:
192,192,7960,1,0,0:0:0:0:
64,192,8037,1,2,0:0:0:0:
448,192,8037,1,4,0:0:0:0:
192,192,8269,1,4,0:0:0:0:
320,192,8269,1,2,0:0:0:0:
64,192,8579,1,6,0:0:0:0:
448,192,8579,1,0,0:0:0:60:boom.wav
192,192,8811,1,0,0:0:0:0:
448,192,9017,1,0,0:0:0:0:
320,192,9120,1,0,0:0:0:0:
64,192,9326,1,0,0:0:0:0:
192,192,9429,1,0,0:0:0:0:
320,192,9532,1,0,0:0:0:0:
448,192,9532,1,0,0:0:0:0:
64,192,9738,1,0,0:0:0:0:
192,192,9816,1,0,0:0:0:0:
320,192,9893,1,0,0:0:0:0:
448,192,9970,1,0,0:0:0:0:
192,192,10048,1,0,0:0:0:0:
320,192,10125,1,0,0:0:0:0:
64,192,10202,1,2,0:0:0:0:
448,192,10202,1,4,0:0:0:0:
192,192,10434,1,4,0:0:0:0:
320,192,10434,1,2,0:0:0:0:
64,192,10666,1,2,0:0:0:0:
448,192,10666,1,4,0:0:0:0:
320,192,10898,1,0,0:0:0:0:
192,192,10976,1,0,0:0:0:0:
64,192,11053,1,0,0:0:0:0:
192,192,11130,1,0,0:0:0:0:
320,192,11208,1,0,0:0:0:0:
448,192,11285,1,0,0:0:0:0:
64,192,11362,1,0,0:0:0:0:
192,192,11439,1,10,0:0:0:0:
320,192,11517,1,8,0:0:0:0:
448,192,11594,1,0,0:0:0:0:
320,192,11749,1,8,0:0:0:0:
192,192,11826,1,8,0:0:0:0:
64,192,11903,1,10,0:0:0:0:
448,192,11981,1,0,0:0:0:0:
320,192,12058,1,10,0:0:0:0:
192,192,12135,1,8,0:0:0:0:
320,192,12213,1,10,0:0:0:0:
192,192,12290,1,10,0:0:0:0:
64,192,12367,1,6,0:0:0:0:
448,192,12367,1,8,0:0:0:0:
64,192,12883,1,0,0:0:0:0:
192,192,12883,1,0,0:0:0:0:
192,192,13192,1,0,0:0:0:0:
320,192,13192,1,0,0:0:0:0:
320,192,13501,1,0,0:0:0:0:
448,192,13501,1,0,0:0:0:0:
64,192,13811,1,0,0:0:0:0:
320,192,13914,1,0,0:0:0:0:
192,192,14017,1,0,0:0:0:0:
448,192,14120,1,0,0:0:0:0:
64,192,14223,1,0,0:0:0:0:
192,192,14300,1,0,0:0:0:0:
320,192,14378,1,2,0:0:0:0:
448,192,14455,1,2,0:0:0:0:
64,192,14532,1,2,0:0:0:0:
192,192,14532,1,4,0:0:0:0:
192,192,14764,1,2,0:0:0:0:
320,192,14764,1,0,0:0:0:0:
320,192,14996,1,2,0:0:0:0:
448,192,14996,1,0,0:0:0:0:
192,192,15228,1,2,0:0:0:0:
448,192,15228,1,0,0:0:0:0:
64,192,15460,1,2,0:0:0:0:
320,192,15460,1,0,0:0:0:0:
64,192,15692,1,2,0:0:0:0:
192,192,15692,1,0,0:0:0:0:
448,192,15924,1,2,0:0:0:0:
320,192,16001,1,2,0:0:0:0:
64,192,16079,1,2,0:0:0:0:
192,192,16079,1,4,0:0:0:0:
320,192,16285,1,2,0:0:0:0:
448,192,16285,1,4,0:0:0:0:
64,192,16491,1,2,0:0:0:0:
192,192,16491,1,4,0:0:0:0:
320,192,16697,1,6,0:0:0:0:
448,192,16697,1,8,0:0:0:0:
64,192,16800,1,6,0:0:0:0:
192,192,16800,1,8,0:0:0:0:
320,192,16903,1,6,0:0:0:0:
448,192,16903,1,8,0:0:0:0:
64,192,17006,1,6,0:0:0:0:
192,192,17006,1,8,0:0:0:0:
64,192,17315,1,6,0:0:0:0:
192,192,17315,1,8,0:0:0:0:
320,192,17418,1,6,0:0:0:0:
448,192,17418,1,8,0:0:0:0:
64,192,17521,1,6,0:0:0:0:
192,192,17521,1,8,0:0:0:0:
320,192,17624,1,6,0:0:0:0:
448,192,17624,1,8,0:0:0:0:
64,192,17934,1,6,0:0:0:0:
448,192,17934,1,8,0:0:0:0:
192,192,18037,1,6,0:0:0:0:
320,192,18037,1,8,0:0:0:0:
64,192,18140,1,6,0:0:0:0:
448,192,18140,1,8,0:0:0:0:
64,192,18398,1,6,0:0:0:0:
192,192,18398,1,8,0:0:0:0:
320,192,18501,1,6,0:0:0:0:
448,192,18501,1,8,0:0:0:0:
64,192,18604,1,6,0:0:0:0:
192,192,18604,1,8,0:0:0:0:
320,192,18707,1,6,0:0:0:0:
448,192,18707,1,8,0:0:0:0:
320,192,19016,1,6,0:0:0:0:
448,192,19016,1,8,0:0:0:0:
64,192,19119,1,6,0:0:0:0:
192,192,19119,1,8,0:0:0:0:
320,192,19222,1,6,0:0:0:0:
448,192,19222,1,8,0:0:0:0:
64,192,19325,1,6,0:0:0:0:
192,192,19325,1,8,0:0:0:0:
64,192,19635,1,6,0:0:0:0:
448,192,19635,1,8,0:0:0:0:
192,192,19738,1,6,0:0:0:0:
320,192,19738,1,8,0:0:0:0:
64,192,19841,1,6,0:0:0:0:
448,192,19841,1,8,0:0:0:0:
64,192,20099,1,6,0:0:0:0:
320,192,20099,1,8,0:0:0:0:
64,192,20305,1,6,0:0:0:0:
320,192,20305,1,8,0:0:0:0:
192,192,20511,1,6,0:0:0:0:
448,192,20511,1,8,0:0:0:0:
192,192,20717,1,6,0:0:0:0:
448,192,20717,1,8,0:0:0:0:
64,192,20923,1,6,0:0:0:0:
320,192,20923,1,8,0:0:0:0:
64,192,21129,1,6,0:0:0:0:
320,192,21129,1,8,0:0:0:0:
320,192,21336,1,6,0:0:0:0:
448,192,21336,1,8,0:0:0:0:
320,192,21490,1,6,0:0:0:0:
448,192,21490,1,8,0:0:0:0:
64,192,21645,1,6,0:0:0:0:
192,192,21645,1,8,0:0:0:0:
64,192,21800,1,6,0:0:0:0:
192,192,21800,1,8,0:0:0:0:
320,192,21954,1,6,0:0:0:0:
448,192,21954,1,8,0:0:0:0:
320,192,22109,1,6,0:0:0:0:
448,192,22109,1,8,0:0:0:0:
64,192,22263,1,6,0:0:0:0:
192,192,22263,1,8,0:0:0:0:
64,192,22418,1,6,0:0:0:0:
192,192,22418,1,8,0:0:0:0:
320,192,22573,1,6,0:0:0:0:
448,192,22573,1,8,0:0:0:0:
320,192,22727,1,6,0:0:0:0:
448,192,22727,1,8,0:0:0:0:
64,192,22882,1,6,0:0:0:0:
192,192,22882,1,8,0:0:0:0:
64,192,23037,1,6,0:0:0:0:
192,192,23037,1,8,0:0:0:0:
448,192,23191,1,14,0:0:0:0:
320,192,23307,1,14,0:0:0:0:
192,192,23423,1,14,0:0:0:0:
64,192,23539,1,14,0:0:0:0:
320,192,23655,1,6,0:0:0:0:
448,192,23655,1,8,0:0:0:0:
64,192,23758,1,6,0:0:0:0:
192,192,23758,1,8,0:0:0:0:
320,192,23964,1,6,0:0:0:0:
448,192,23964,1,8,0:0:0:0:
64,192,24068,1,6,0:0:0:0:
192,192,24068,1,8,0:0:0:0:
320,192,24274,1,6,0:0:0:0:
448,192,24274,1,8,0:0:0:0:
64,192,24377,1,6,0:0:0:0:
192,192,24377,1,8,0:0:0:0:
320,192,24583,1,6,0:0:0:0:
448,192,24583,1,8,0:0:0:0:
64,192,24686,1,6,0:0:0:0:
192,192,24686,1,8,0:0:0:0:
192,192,24892,1,6,0:0:0:0:
448,192,24892,1,8,0:0:0:0:
64,192,25124,1,6,0:0:0:0:
320,192,25124,1,8,0:0:0:0:
64,192,25356,1,6,0:0:0:0:
448,192,25356,1,8,0:0:0:0:
192,192,25665,1,0,0:0:0:0:
320,192,25819,1,0,0:0:0:0:
192,192,26129,1,0,0:0:0:0:
320,192,26283,1,0,0:0:0:0:
64,192,26438,128,0,26747:0:0:0:0:
192,192,26747,128,2,27056:0:0:0:0:
448,192,26747,1,0,0:0:0:0:
64,192,27056,1,2,0:0:0:0:
320,192,27056,128,0,27365:0:0:0:0:
64,192,27365,1,2,0:0:0:0:
448,192,27365,128,0,27674:0:0:0:0:
192,192,27520,1,2,0:0:0:0:
64,192,27674,1,6,0:0:0:0:
320,192,27674,1,0,0:0:0:60:boom.wav
192,192,27752,1,2,0:0:0:0:
320,192,27829,1,2,0:0:0:0:
448,192,27906,1,2,0:0:0:0:
64,192,27984,1,2,0:0:0:0:
192,192,27984,1,4,0:0:0:0:
64,192,28138,1,0,0:0:0:0:
192,192,28138,1,0,0:0:0:0:
448,192,28293,1,2,0:0:0:0:
320,192,28370,1,0,0:0:0:0:
192,192,28448,1,0,0:0:0:0:
64,192,28525,1,0,0:0:0:0:
320,192,28602,1,2,0:0:0:0:
448,192,28602,1,0,0:0:0:0:
192,192,28834,1,0,0:0:0:0:
320,192,28834,1,0,0:0:0:0:
64,192,29066,1,0,0:0:0:0:
192,192,29066,1,0,0:0:0:0:
448,192,29375,1,0,0:0:0:0:
192,192,29530,128,2,29685:0:0:0:0:
320,192,29685,1,0,0:0:0:0:
64,192,29839,1,2,0:0:0:0:
448,192,29839,1,0,0:0:0:0:
320,192,29994,1,0,0:0:0:0:
192,192,30071,1,0,0:0:0:0:
64,192,30149,1,2,0:0:0:0:
448,192,30226,1,0,0:0:0:0:
320,192,30303,1,0,0:0:0:0:
192,192,30381,1,0,0:0:0:0:
64,192,30458,1,2,0:0:0:0:
448,192,30458,1,4,0:0:0:0:
192,192,30690,1,2,0:0:0:0:
320,192,30690,1,4,0:0:0:0:
64,192,30922,1,2,0:0:0:0:
448,192,30922,1,4,0:0:0:0:
320,192,31231,1,0,0:0:0:0:
64,192,31386,128,2,31540:0:0:0:0:
448,192,31540,1,2,0:0:0:0:
64,192,31695,1,6,0:0:0:0:
192,192,31772,1,0,0:0:0:0:
320,192,31850,1,0,0:0:0:0:
448,192,31927,1,0,0:0:0:0:
64,192,32004,1,0,0:0:0:0:
192,192,32082,1,0,0:0:0:0:
320,192,32159,1,2,0:0:0:0:
448,192,32236,1,0,0:0:0:0:
64,192,32314,1,4,0:0:0:0:
192,192,32314,1,2,0:0:0:0:
320,192,32545,1,2,0:0:0:0:
448,192,32545,1,4,0:0:0:0:
192,192,32777,1,0,0:0:0:0:
64,192,32932,1,2,0:0:0:0:
448,192,32932,1,4,0:0:0:0:
192,192,33087,1,0,0:0:0:0:
320,192,33087,1,0,0:0:0:0:
448,192,33241,1,2,0:0:0:0:
320,192,33319,1,0,0:0:0:0:
192,192,33396,1,0,0:0:0:0:
64,192,33473,1,0,0:0:0:0:
320,192,33551,1,2,0:0:0:0:
448,192,33551,1,0,0:0:0:0:
192,192,33783,1,0,0:0:0:0:
320,192,33783,1,0,0:0:0:0:
64,192,34015,1,0,0:0:0:0:
192,192,34015,1,0,0:0:0:0:
64,192,34324,1,0,0:0:0:0:
448,192,34478,128,2,34633:0:0:0:0:
320,192,34633,1,0,0:0:0:0:
64,192,34788,1,2,0:0:0:0:
192,192,34788,1,0,0:0:0:0:
448,192,34942,1,0,0:0:0:0:
320,192,35020,1,0,0:0:0:0:
192,192,35097,1,2,0:0:0:0:
448,192,35174,1,0,0:0:0:0:
320,192,35252,1,0,0:0:0:0:
192,192,35329,1,0,0:0:0:0:
64,192,35406,1,2,0:0:0:0:
448,192,35406,1,4,0:0:0:0:
192,192,35638,1,2,0:0:0:0:
448,192,35638,1,4,0:0:0:0:
64,192,35870,1,2,0:0:0:0:
320,192,35870,1,4,0:0:0:0:
64,192,36102,1,2,0:0:0:0:
448,192,36102,1,4,0:0:0:0:
320,192,36334,1,2,0:0:0:0:
448,192,36334,1,4,0:0:0:0:
64,192,36489,1,4,0:0:0:0:
192,192,36489,1,2,0:0:0:0:
320,192,36643,1,2,0:0:0:0:
448,192,36643,1,4,0:0:0:0:
64,192,36798,1,2,0:0:0:0:
192,192,36875,1,2,0:0:0:0:
320,192,36953,1,2,0:0:0:0:
64,192,37030,1,0,0:0:0:0:
192,192,37107,1,2,0:0:0:0:
320,192,37185,1,2,0:0:0:0:
64,192,37262,1,2,0:0:0:0:
448,192,37262,1,4,0:0:0:0:
192,192,37494,1,2,0:0:0:0:
320,192,37494,1,0,0:0:0:0:
64,192,37726,1,2,0:0:0:0:
192,192,37726,1,0,0:0:0:0:
320,192,37881,1,2,0:0:0:0:
448,192,37881,1,4,0:0:0:0:
64,192,38190,1,2,0:0:0:0:
192,192,38190,1,0,0:0:0:0:
448,192,38344,1,0,0:0:0:0:
320,192,38422,1,2,0:0:0:0:
64,192,38499,1,2,0:0:0:0:
192,192,38499,1,0,0:0:0:0:
448,192,38654,1,8,0:0:0:0:
64,192,38808,1,2,0:0:0:0:
192,192,38808,1,0,0:0:0:0:
448,192,38963,1,8,0:0:0:0:
64,192,39118,1,2,0:0:0:0:
192,192,39118,1,0,0:0:0:0:
320,192,39272,1,8,0:0:0:0:
192,192,39427,1,2,0:0:0:0:
448,192,39427,1,0,0:0:0:0:
320,192,39582,1,0,0:0:0:0:
192,192,39659,1,8,0:0:0:0:
64,192,39736,1,2,0:0:0:0:
448,192,39736,1,0,0:0:0:0:
320,192,39891,1,2,0:0:0:0:
64,192,40045,1,2,0:0:0:0:
192,192,40045,1,4,0:0:0:0:
320,192,40355,1,2,0:0:0:0:
448,192,40355,1,0,0:0:0:0:
64,192,40509,1,0,0:0:0:0:
192,192,40587,1,2,0:0:0:0:
320,192,40664,1,2,0:0:0:0:
448,192,40664,1,0,0:0:0:0:
64,192,40819,1,8,0:0:0:0:
320,192,40973,1,2,0:0:0:0:
448,192,40973,1,0,0:0:0:0:
64,192,41128,1,8,0:0:0:0:
320,192,41283,1,2,0:0:0:0:
448,192,41283,1,4,0:0:0:0:
192,192,41437,1,0,0:0:0:0:
64,192,41592,1,2,0:0:0:0:
448,192,41592,1,0,0:0:0:0:
320,192,41746,1,4,0:0:0:0:
448,192,41746,1,2,0:0:0:0:
64,192,41824,1,8,0:0:0:0:
320,192,41978,1,8,0:0:0:0:
64,192,42056,1,2,0:0:0:0:
320,192,42210,1,2,0:0:0:0:
448,192,42210,1,4,0:0:0:0:
64,192,42520,1,2,0:0:0:0:
192,192,42520,1,0,0:0:0:0:
448,192,42674,1,0,0:0:0:0:
320,192,42752,1,2,0:0:0:0:
64,192,42829,1,2,0:0:0:0:
192,192,42829,1,0,0:0:0:0:
448,192,42984,1,8,0:0:0:0:
64,192,43138,1,2,0:0:0:0:
192,192,43138,1,0,0:0:0:0:
320,192,43293,1,8,0:0:0:0:
64,192,43448,1,2,0:0:0:0:
448,192,43448,1,4,0:0:0:0:
192,192,43525,1,8,0:0:0:0:
64,192,43679,1,2,0:0:0:0:
320,192,43679,1,4,0:0:0:0:
192,192,43757,1,8,0:0:0:0:
64,192,43911,1,2,0:0:0:0:
448,192,43911,1,4,0:0:0:0:
320,192,43989,1,8,0:0:0:0:
192,192,44143,1,2,0:0:0:0:
448,192,44143,1,4,0:0:0:0:
320,192,44221,1,8,0:0:0:0:
64,192,44375,1,2,0:0:0:0:
192,192,44375,1,4,0:0:0:0:
320,192,44529,1,2,0:0:0:0:
192,192,44684,1,2,0:0:0:0:
448,192,44684,1,0,0:0:0:0:
64,192,44838,1,0,0:0:0:0:
192,192,44916,1,8,0:0:0:0:
320,192,44993,1,2,0:0:0:0:
448,192,44993,1,0,0:0:0:0:
64,192,45148,1,8,0:0:0:0:
192,192,45148,1,0,0:0:0:0:
448,192,45302,1,2,0:0:0:0:
320,192,45380,1,2,0:0:0:0:
192,192,45457,1,2,0:0:0:0:
64,192,45534,1,2,0:0:0:0:
320,192,45612,1,2,0:0:0:0:
448,192,45612,128,4,45921:0:0:0:0:
64,192,45921,1,10,0:0:0:0:
192,192,46076,128,2,46385:0:0:0:0:
320,192,46076,1,4,0:0:0:0:
448,192,46385,1,14,0:0:0:0:
64,192,46539,1,14,0:0:0:0:
192,192,46617,1,8,0:0:0:0:
320,192,46694,1,8,0:0:0:0:
448,192,46771,1,8,0:0:0:0:
64,192,46849,1,6,0:0:0:0:
192,192,46849,1,8,0:0:0:0:
192,192,47081,1,6,0:0:0:0:
320,192,47081,1,8,0:0:0:0:
320,192,47313,1,14,0:0:0:0:
448,192,47313,128,0,47777:0:0:0:70:boom.wav
64,192,47777,1,0,0:0:0:0:
192,192,47854,1,0,0:0:0:0:
320,192,47931,1,0,0:0:0:0:
448,192,48009,1,0,0:0:0:0:
64,192,48086,1,2,0:0:0:0:
192,192,48086,1,4,0:0:0:0:
320,192,48163,1,0,0:0:0:0:
64,192,48240,1,8,0:0:0:0:
320,192,48318,1,2,0:0:0:0:
192,192,48395,1,2,0:0:0:0:
448,192,48472,1,0,0:0:0:0:
192,192,48550,1,8,0:0:0:0:
448,192,48627,1,0,0:0:0:0:
64,192,48704,1,2,0:0:0:0:
320,192,48782,1,0,0:0:0:0:
64,192,48859,1,8,0:0:0:0:
320,192,48936,1,2,0:0:0:0:
448,192,49014,1,0,0:0:0:0:
64,192,49091,1,2,0:0:0:0:
192,192,49168,1,8,0:0:0:0:
320,192,49246,1,0,0:0:0:0:
64,192,49323,1,2,0:0:0:0:
448,192,49323,1,4,0:0:0:0:
192,192,49478,1,8,0:0:0:0:
320,192,49555,1,0,0:0:0:0:
448,192,49632,1,2,0:0:0:0:
64,192,49710,1,0,0:0:0:0:
192,192,49787,1,8,0:0:0:0:
320,192,49864,1,0,0:0:0:0:
192,192,49942,1,2,0:0:0:0:
448,192,49942,1,4,0:0:0:0:
64,192,50096,1,8,0:0:0:0:
192,192,50173,1,2,0:0:0:0:
448,192,50251,1,0,0:0:0:0:
320,192,50328,1,2,0:0:0:0:
64,192,50405,1,8,0:0:0:0:
192,192,50483,1,2,0:0:0:0:
64,192,50560,1,2,0:0:0:0:
320,192,50560,1,4,0:0:0:0:
448,192,50715,1,8,0:0:0:0:
320,192,50792,1,2,0:0:0:0:
64,192,50869,1,2,0:0:0:0:
192,192,50869,1,4,0:0:0:0:
448,192,50947,1,0,0:0:0:0:
320,192,51024,1,8,0:0:0:0:
192,192,51101,1,0,0:0:0:0:
64,192,51179,1,4,0:0:0:0:
448,192,51179,1,2,0:0:0:0:
320,192,51333,1,10,0:0:0:0:
64,192,51488,1,2,0:0:0:0:
192,192,51565,1,2,0:0:0:0:
448,192,51643,1,10,0:0:0:0:
320,192,51720,1,2,0:0:0:0:
64,192,51797,1,4,0:0:0:0:
192,192,51797,1,2,0:0:0:0:
320,192,52028,1,4,0:0:0:0:
448,192,52028,1,2,0:0:0:0:
64,192,52260,1,2,0:0:0:0:
192,192,52260,1,4,0:0:0:0:
320,192,52492,1,4,0:0:0:0:
448,192,52492,1,2,0:0:0:0:
64,192,52724,1,2,0:0:0:0:
320,192,52724,1,4,0:0:0:0:
192,192,52956,1,2,0:0:0:0:
448,192,52956,1,4,0:0:0:0:
64,192,53188,1,2,0:0:0:0:
320,192,53188,1,4,0:0:0:0:
192,192,53419,1,4,0:0:0:0:
448,192,53419,1,2,0:0:0:0:
320,192,53651,1,4,0:0:0:0:
448,192,53651,1,2,0:0:0:0:
64,192,53883,1,4,0:0:0:0:
192,192,53883,1,2,0:0:0:0:
320,192,54115,1,2,0:0:0:0:
448,192,54115,1,4,0:0:0:0:
64,192,54347,1,2,0:0:0:0:
192,192,54347,1,4,0:0:0:0:
320,192,54579,1,4,0:0:0:0:
448,192,54579,1,2,0:0:0:0:
64,192,54656,1,6,0:0:0:0:
64,192,54810,1,4,0:0:0:0:
192,192,54810,1,2,0:0:0:0:
448,192,54888,1,6,0:0:0:0:
320,192,55042,1,4,0:0:0:0:
448,192,55042,1,2,0:0:0:0:
64,192,55120,1,6,0:0:0:0:
64,192,55274,1,2,0:0:0:0:
192,192,55274,1,4,0:0:0:0:
448,192,55352,1,6,0:0:0:0:
320,192,55506,1,2,0:0:0:0:
448,192,55506,1,4,0:0:0:0:
64,192,55661,128,4,56125:0:0:0:0:
192,192,55661,1,2,0:0:0:0:
448,192,56125,1,0,0:0:0:60:boom.wav
320,192,56202,1,0,0:0:0:0:
192,192,56280,1,0,0:0:0:0:
64,192,56357,1,0,0:0:0:0:
448,192,56434,1,0,0:0:0:0:
320,192,56511,1,0,0:0:0:0:
192,192,56589,1,0,0:0:0:0:
64,192,56666,1,0,0:0:0:0:
448,192,56743,1,0,0:0:0:0:
320,192,56821,1,0,0:0:0:0:
192,192,56898,1,0,0:0:0:0:
64,192,56975,1,0,0:0:0:0:
320,192,57053,1,4,0:0:0:0:
448,192,57053,1,2,0:0:0:0:
64,192,57362,1,0,0:0:0:0:
192,192,57439,1,0,0:0:0:0:
448,192,57517,1,0,0:0:0:0:
320,192,57594,1,0,0:0:0:0:
64,192,57671,1,0,0:0:0:0:
192,192,57749,1,0,0:0:0:0:
448,192,57826,1,0,0:0:0:0:
320,192,57903,1,0,0:0:0:0:
64,192,57981,1,0,0:0:0:0:
192,192,58058,1,0,0:0:0:0:
448,192,58135,1,0,0:0:0:0:
320,192,58213,1,0,0:0:0:0:
64,192,58290,1,2,0:0:0:0:
192,192,58290,1,4,0:0:0:0:
320,192,58444,1,0,0:0:0:0:
192,192,58599,1,0,0:0:0:0:
320,192,58831,1,2,0:0:0:0:
448,192,58831,1,4,0:0:0:0:
64,192,58986,1,4,0:0:0:0:
192,192,58986,1,2,0:0:0:0:
320,192,59218,1,8,0:0:0:0:
192,192,59295,1,8,0:0:0:0:
320,192,59372,1,8,0:0:0:0:
192,192,59450,1,8,0:0:0:0:
64,192,59527,1,2,0:0:0:0:
448,192,59527,1,4,0:0:0:0:
192,192,59759,1,2,0:0:0:0:
448,192,59991,1,2,0:0:0:0:
64,192,60146,1,2,0:0:0:0:
320,192,60300,1,8,0:0:0:0:
448,192,60455,1,2,0:0:0:0:
192,192,60532,1,2,0:0:0:0:
320,192,60687,1,2,0:0:0:0:
64,192,60841,1,8,0:0:0:0:
320,192,60919,1,2,0:0:0:0:
192,192,61073,1,2,0:0:0:0:
64,192,61228,1,8,0:0:0:0:
448,192,61228,1,0,0:0:0:0:
192,192,61383,1,2,0:0:0:0:
320,192,61537,1,8,0:0:0:0:
448,192,61537,1,0,0:0:0:0:
192,192,61692,1,2,0:0:0:0:
320,192,61795,1,2,0:0:0:0:
192,192,61898,1,2,0:0:0:0:
64,192,62001,1,2,0:0:0:0:
448,192,62001,1,4,0:0:0:0:
320,192,62233,1,2,0:0:0:0:
64,192,62465,1,2,0:0:0:0:
448,192,62620,1,2,0:0:0:0:
192,192,62774,1,8,0:0:0:0:
320,192,62929,1,2,0:0:0:0:
64,192,63006,1,2,0:0:0:0:
192,192,63161,1,2,0:0:0:0:
448,192,63316,1,8,0:0:0:0:
192,192,63393,1,2,0:0:0:0:
64,192,63548,1,2,0:0:0:0:
320,192,63702,1,8,0:0:0:0:
448,192,63702,1,0,0:0:0:0:
192,192,63857,1,2,0:0:0:0:
64,192,64011,1,8,0:0:0:0:
448,192,64011,1,0,0:0:0:0:
320,192,64166,1,2,0:0:0:0:
192,192,64269,1,2,0:0:0:0:
320,192,64372,1,2,0:0:0:0:
64,192,64475,1,2,0:0:0:0:
448,192,64475,1,4,0:0:0:0:
192,192,64707,1,2,0:0:0:0:
320,192,64707,1,4,0:0:0:0:
64,192,64939,1,2,0:0:0:0:
192,192,64939,1,4,0:0:0:0:
320,192,65094,1,2,0:0:0:0:
448,192,65094,1,4,0:0:0:0:
192,192,65249,1,8,0:0:0:0:
320,192,65403,1,2,0:0:0:0:
448,192,65403,1,4,0:0:0:0:
64,192,65481,1,2,0:0:0:0:
192,192,65635,1,2,0:0:0:0:
320,192,65635,1,4,0:0:0:0:
448,192,65790,1,8,0:0:0:0:
64,192,65867,1,2,0:0:0:0:
192,192,65867,1,4,0:0:0:0:
320,192,66022,1,2,0:0:0:0:
448,192,66022,1,4,0:0:0:0:
64,192,66176,1,8,0:0:0:0:
192,192,66176,1,0,0:0:0:0:
320,192,66331,1,2,0:0:0:0:
64,192,66486,1,8,0:0:0:0:
448,192,66486,1,0,0:0:0:0:
192,192,66640,1,2,0:0:0:0:
320,192,66743,1,2,0:0:0:0:
192,192,66847,1,2,0:0:0:0:
64,192,66950,1,4,0:0:0:0:
448,192,66950,1,2,0:0:0:0:
320,192,67027,1,0,0:0:0:0:
192,192,67104,1,0,0:0:0:0:
64,192,67182,1,0,0:0:0:0:
448,192,67259,1,0,0:0:0:0:
320,192,67336,1,0,0:0:0:0:
192,192,67414,1,0,0:0:0:0:
448,192,67491,1,0,0:0:0:0:
64,192,67646,1,0,0:0:0:0:
320,192,67800,1,0,0:0:0:0:
64,192,67955,1,0,0:0:0:0:
192,192,68032,1,0,0:0:0:0:
320,192,68109,1,0,0:0:0:0:
64,192,68187,1,2,0:0:0:0:
448,192,68187,1,4,0:0:0:0:
192,192,68264,1,0,0:0:0:0:
320,192,68341,1,0,0:0:0:0:
448,192,68419,1,0,0:0:0:0:
64,192,68496,1,0,0:0:0:0:
192,192,68573,1,0,0:0:0:0:
320,192,68651,1,0,0:0:0:0:
64,192,68728,1,0,0:0:0:0:
320,192,68883,1,0,0:0:0:0:
192,192,69037,1,0,0:0:0:0:
448,192,69192,1,0,0:0:0:0:
320,192,69269,1,0,0:0:0:0:
192,192,69347,1,0,0:0:0:0:
64,192,69424,1,2,0:0:0:0:
448,192,69424,1,4,0:0:0:0:
192,192,69733,1,4,0:0:0:0:
448,192,69733,128,2,70042:0:0:0:0:
64,192,70042,1,2,0:0:0:0:
320,192,70042,128,4,70352:0:0:0:0:
192,192,70352,1,4,0:0:0:0:
448,192,70352,128,2,70661:0:0:0:0:
64,192,70661,1,4,0:0:0:0:
320,192,70661,128,2,70970:0:0:0:0:
64,192,70970,1,4,0:0:0:0:
448,192,70970,1,2,0:0:0:0:
192,192,71047,1,2,0:0:0:0:
320,192,71124,1,2,0:0:0:0:
64,192,71202,1,2,0:0:0:0:
192,192,71279,1,4,0:0:0:0:
448,192,71279,1,2,0:0:0:0:
320,192,71356,1,2,0:0:0:0:
192,192,71434,1,2,0:0:0:0:
448,192,71511,1,2,0:0:0:0:
64,192,71588,1,4,0:0:0:0:
320,192,71588,1,2,0:0:0:0:
192,192,71666,1,2,0:0:0:0:
320,192,71743,1,2,0:0:0:0:
64,192,71820,1,2,0:0:0:0:
448,192,71898,128,0,72516:0:0:0:0:
64,192,72516,1,12,0:0:0:0:
320,192,72516,1,2,0:0:0:0:
192,192,72670,1,0,0:0:0:0:
448,192,72825,1,8,0:0:0:0:
320,192,72902,1,0,0:0:0:0:
192,192,72979,1,0,0:0:0:0:
64,192,73057,1,0,0:0:0:0:
448,192,73134,1,8,0:0:0:0:
320,192,73366,1,0,0:0:0:0:
192,192,73598,1,0,0:0:0:0:
448,192,73907,1,0,0:0:0:0:
320,192,74062,128,8,74217:0:0:0:0:
64,192,74217,1,0,0:0:0:0:
192,192,74294,1,0,0:0:0:0:
448,192,74371,128,8,74526:0:0:0:0:
192,192,74526,1,0,0:0:0:0:
320,192,74603,1,0,0:0:0:0:
64,192,74680,1,8,0:0:0:0:
192,192,74758,1,0,0:0:0:0:
320,192,74835,1,0,0:0:0:0:
448,192,74912,1,0,0:0:0:0:
64,192,74990,128,8,75763:0:0:0:0:
320,192,75222,1,0,0:0:0:0:
448,192,75454,1,0,0:0:0:0:
448,192,75763,1,0,0:0:0:0:
320,192,75840,1,0,0:0:0:0:
64,192,75995,1,0,0:0:0:0:
192,192,76072,128,0,76381:0:0:0:0:
448,192,76381,1,0,0:0:0:0:
64,192,76536,1,8,0:0:0:0:
192,192,76613,1,0,0:0:0:0:
320,192,76691,1,0,0:0:0:0:
448,192,76768,128,0,76923:0:0:0:0:
64,192,77000,128,0,77155:0:0:0:0:
320,192,77155,128,8,77309:0:0:0:0:
192,192,77309,128,0,77464:0:0:0:0:
64,192,77464,1,8,0:0:0:0:
448,192,77464,1,2,0:0:0:0:
320,192,77619,1,2,0:0:0:0:
64,192,77773,1,10,0:0:0:0:
192,192,77851,1,2,0:0:0:0:
448,192,77928,1,2,0:0:0:0:
320,192,78005,1,2,0:0:0:0:
64,192,78083,1,8,0:0:0:0:
192,192,78083,1,2,0:0:0:0:
320,192,78314,1,2,0:0:0:0:
448,192,78314,1,0,0:0:0:0:
64,192,78546,1,2,0:0:0:0:
192,192,78546,1,0,0:0:0:0:
320,192,78856,1,2,0:0:0:0:
448,192,78856,1,0,0:0:0:0:
64,192,79010,1,10,0:0:0:0:
192,192,79088,1,2,0:0:0:0:
320,192,79165,1,2,0:0:0:0:
448,192,79242,1,2,0:0:0:0:
64,192,79320,1,10,0:0:0:0:
192,192,79397,1,10,0:0:0:0:
320,192,79474,1,2,0:0:0:0:
64,192,79552,1,10,0:0:0:0:
192,192,79629,1,2,0:0:0:0:
448,192,79706,1,10,0:0:0:0:
320,192,79784,1,10,0:0:0:0:
192,192,79861,1,10,0:0:0:0:
64,192,79938,1,6,0:0:0:0:
448,192,79938,1,8,0:0:0:0:
192,192,80170,1,4,0:0:0:0:
320,192,80170,1,2,0:0:0:0:
64,192,80402,1,14,0:0:0:0:
448,192,80402,128,0,80866:0:0:0:70:boom.wav
320,192,80711,1,8,0:0:0:0:
64,192,80866,1,2,0:0:0:0:
192,192,80866,1,8,0:0:0:0:
320,192,81021,1,10,0:0:0:0:
192,192,81098,1,10,0:0:0:0:
64,192,81175,128,6,81639:0:0:0:0:
448,192,81175,1,8,0:0:0:0:
320,192,81485,1,10,0:0:0:0:
192,192,81639,1,10,0:0:0:0:
320,192,81794,1,6,0:0:0:0:
448,192,81794,1,8,0:0:0:0:
64,192,81948,128,0,82103:0:0:0:0:
448,192,82103,1,10,0:0:0:0:
320,192,82180,1,10,0:0:0:0:
192,192,82258,1,10,0:0:0:0:
64,192,82335,1,10,0:0:0:0:
320,192,82567,1,2,0:0:0:0:
448,192,82567,1,4,0:0:0:0:
64,192,82722,1,14,0:0:0:0:
192,192,82799,1,2,0:0:0:0:
320,192,82876,1,2,0:0:0:0:
448,192,82954,1,2,0:0:0:0:
64,192,83031,1,2,0:0:0:0:
192,192,83031,1,4,0:0:0:0:
320,192,83263,1,2,0:0:0:0:
448,192,83263,1,4,0:0:0:0:
64,192,83495,1,14,0:0:0:0:
448,192,83495,1,0,0:0:0:70:boom.wav
192,192,83804,1,10,0:0:0:0:
320,192,83804,128,4,83959:0:0:0:0:
64,192,83959,128,2,84113:0:0:0:0:
192,192,84113,128,14,84268:0:0:0:0:
320,192,84268,1,4,0:0:0:0:
448,192,84268,1,2,0:0:0:0:
64,192,84423,1,2,0:0:0:0:
448,192,84423,1,4,0:0:0:0:
192,192,84500,1,0,0:0:0:0:
320,192,84577,1,0,0:0:0:0:
64,192,84655,1,0,0:0:0:0:
192,192,84732,1,0,0:0:0:0:
320,192,84809,1,0,0:0:0:0:
64,192,84887,1,2,0:0:0:0:
448,192,84887,1,4,0:0:0:0:
192,192,85119,1,2,0:0:0:0:
448,192,85119,1,0,0:0:0:0:
64,192,85505,1,2,0:0:0:0:
320,192,85505,1,0,0:0:0:0:
192,192,85737,1,2,0:0:0:0:
448,192,85737,1,0,0:0:0:0:
64,192,85969,1,8,0:0:0:0:
320,192,85969,1,0,0:0:0:0:
64,192,86201,1,0,0:0:0:0:
192,192,86201,1,0,0:0:0:0:
320,192,86433,1,0,0:0:0:0:
448,192,86433,1,0,0:0:0:0:
192,192,86588,1,8,0:0:0:0:
320,192,86665,1,0,0:0:0:0:
192,192,86742,1,2,0:0:0:0:
448,192,86742,1,0,0:0:0:0:
64,192,86974,1,0,0:0:0:0:
320,192,86974,1,0,0:0:0:0:
192,192,87206,1,8,0:0:0:0:
448,192,87206,1,0,0:0:0:0:
64,192,87516,1,8,0:0:0:0:
320,192,87516,1,0,0:0:0:0:
192,192,87670,1,2,0:0:0:0:
320,192,87747,1,2,0:0:0:0:
192,192,87825,1,8,0:0:0:0:
320,192,87902,1,0,0:0:0:0:
64,192,87979,1,2,0:0:0:0:
448,192,87979,1,0,0:0:0:0:
192,192,88211,1,2,0:0:0:0:
320,192,88211,1,0,0:0:0:0:
64,192,88443,1,6,0:0:0:0:
448,192,88443,1,8,0:0:0:60:boom.wav
192,192,88753,1,8,0:0:0:0:
448,192,88753,1,0,0:0:0:0:
320,192,88830,1,0,0:0:0:0:
64,192,88907,1,2,0:0:0:0:
192,192,88985,1,0,0:0:0:0:
320,192,89062,1,8,0:0:0:0:
448,192,89062,1,0,0:0:0:0:
64,192,89139,1,0,0:0:0:0:
192,192,89217,1,2,0:0:0:0:
320,192,89294,1,8,0:0:0:0:
448,192,89294,1,0,0:0:0:0:
192,192,89448,1,8,0:0:0:0:
64,192,89526,1,2,0:0:0:0:
448,192,89526,1,0,0:0:0:0:
320,192,89603,1,2,0:0:0:0:
192,192,89680,1,8,0:0:0:0:
64,192,89758,1,2,0:0:0:0:
320,192,89835,1,2,0:0:0:0:
448,192,89835,1,4,0:0:0:0:
64,192,90067,1,2,0:0:0:0:
192,192,90067,1,4,0:0:0:0:
320,192,90299,1,2,0:0:0:0:
448,192,90299,1,4,0:0:0:0:
64,192,90531,1,2,0:0:0:0:
192,192,90531,1,4,0:0:0:0:
64,192,90763,1,12,0:0:0:0:
448,192,90763,1,2,0:0:0:0:
192,192,90840,1,2,0:0:0:0:
320,192,90918,1,2,0:0:0:0:
448,192,90995,1,2,0:0:0:0:
64,192,91072,128,6,91227:0:0:0:0:
192,192,91072,1,8,0:0:0:0:
320,192,91227,128,0,91381:0:0:0:0:
192,192,91381,128,0,91536:0:0:0:0:
448,192,91536,128,0,91691:0:0:0:0:
320,192,91691,128,0,91845:0:0:0:0:
192,192,91845,128,0,92000:0:0:0:0:
448,192,92000,128,0,92155:0:0:0:0:
320,192,92155,128,0,92309:0:0:0:0:
64,192,92309,1,2,0:0:0:0:
192,192,92309,128,4,92463:0:0:0:0:
320,192,92463,128,0,92618:0:0:0:0:
64,192,92618,128,0,92772:0:0:0:0:
448,192,92772,128,0,92927:0:0:0:0:
192,192,92927,128,0,93082:0:0:0:0:
320,192,93082,128,0,93236:0:0:0:0:
64,192,93236,128,0,93391:0:0:0:0:
192,192,93391,128,0,93546:0:0:0:0:
448,192,93546,1,8,0:0:0:0:
320,192,93623,1,8,0:0:0:0:
64,192,93700,1,8,0:0:0:0:
192,192,93778,1,8,0:0:0:0:
448,192,93855,1,8,0:0:0:0:
320,192,93932,1,8,0:0:0:0:
64,192,94010,1,8,0:0:0:0:
192,192,94087,1,8,0:0:0:0:
320,192,94164,1,4,0:0:0:0:
448,192,94164,1,2,0:0:0:0:
64,192,94395,1,4,0:0:0:0:
192,192,94395,1,2,0:0:0:0:
192,192,94705,1,6,0:0:0:0:
448,192,94705,1,0,0:0:0:60:boom.wav
320,192,94885,1,0,0:0:0:0:
448,192,94988,1,0,0:0:0:0:
320,192,95091,1,0,0:0:0:0:
192,192,95194,1,0,0:0:0:0:
320,192,95298,1,0,0:0:0:0:
192,192,95401,1,0,0:0:0:0:
64,192,95504,1,0,0:0:0:0:
192,192,95607,1,0,0:0:0:0:
448,192,95710,1,0,0:0:0:0:
320,192,95787,1,0,0:0:0:0:
192,192,95865,1,0,0:0:0:0:
448,192,95942,1,0,0:0:0:0:
320,192,96019,1,0,0:0:0:0:
192,192,96096,1,0,0:0:0:0:
448,192,96174,1,0,0:0:0:0:
320,192,96251,1,0,0:0:0:0:
192,192,96328,1,6,0:0:0:0:
64,192,96406,1,0,0:0:0:0:
192,192,96483,1,0,0:0:0:0:
320,192,96560,1,6,0:0:0:0:
64,192,96638,1,0,0:0:0:0:
192,192,96715,1,0,0:0:0:0:
320,192,96792,1,6,0:0:0:0:
64,192,96870,1,0,0:0:0:0:
192,192,96947,1,0,0:0:0:0:
448,192,97024,1,0,0:0:0:0:
320,192,97179,1,0,0:0:0:0:
192,192,97334,1,0,0:0:0:0:
64,192,97488,1,0,0:0:0:0:
448,192,97566,128,0,97669:0:0:0:0:
320,192,97669,128,0,97772:0:0:0:0:
192,192,97772,128,0,97875:0:0:0:0:
448,192,97875,128,0,97978:0:0:0:0:
320,192,97978,128,0,98081:0:0:0:0:
192,192,98081,128,0,98184:0:0:0:0:
448,192,98184,128,0,98493:0:0:0:0:
64,192,98493,1,2,0:0:0:0:
192,192,98493,1,4,0:0:0:0:
320,192,98725,1,4,0:0:0:0:
448,192,98725,1,2,0:0:0:0:
192,192,99035,1,6,0:0:0:0:
448,192,99035,1,0,0:0:0:60:boom.wav
320,192,99267,1,0,0:0:0:0:
64,192,99421,1,0,0:0:0:0:
320,192,99576,1,0,0:0:0:0:
192,192,99653,1,0,0:0:0:0:
64,192,99731,1,0,0:0:0:0:
448,192,99808,1,0,0:0:0:0:
320,192,99962,1,0,0:0:0:0:
64,192,100117,1,0,0:0:0:0:
192,192,100194,1,0,0:0:0:0:
320,192,100272,1,0,0:0:0:0:
64,192,100349,1,0,0:0:0:0:
192,192,100426,1,0,0:0:0:0:
320,192,100504,1,0,0:0:0:0:
448,192,100581,1,0,0:0:0:0:
64,192,100658,1,2,0:0:0:0:
192,192,100658,1,4,0:0:0:0:
320,192,100889,1,2,0:0:0:0:
448,192,100889,1,4,0:0:0:0:
64,192,101121,1,4,0:0:0:0:
448,192,101121,1,2,0:0:0:0:
192,192,101199,1,0,0:0:0:0:
320,192,101276,1,0,0:0:0:0:
448,192,101353,1,0,0:0:0:0:
320,192,101431,1,0,0:0:0:0:
192,192,101508,1,0,0:0:0:0:
64,192,101585,1,0,0:0:0:0:
448,192,101663,1,0,0:0:0:0:
320,192,101740,1,0,0:0:0:0:
192,192,101817,1,0,0:0:0:0:
64,192,101895,1,0,0:0:0:0:
320,192,101972,1,6,0:0:0:0:
448,192,101972,1,8,0:0:0:0:
192,192,102127,1,8,0:0:0:0:
320,192,102281,1,8,0:0:0:0:
64,192,102359,1,8,0:0:0:0:
320,192,102436,1,8,0:0:0:0:
64,192,102513,1,6,0:0:0:0:
448,192,102513,1,8,0:0:0:0:
192,192,102668,1,6,0:0:0:0:
320,192,102668,1,8,0:0:0:0:
64,192,102822,1,6,0:0:0:0:
448,192,102822,1,8,0:0:0:0:
320,192,102900,1,10,0:0:0:0:
192,192,102977,1,10,0:0:0:0:
64,192,103054,1,10,0:0:0:0:
320,192,103132,1,6,0:0:0:0:
448,192,103132,1,8,0:0:0:0:
192,192,103286,1,8,0:0:0:0:
448,192,103364,1,2,0:0:0:0:
64,192,103518,1,2,0:0:0:0:
320,192,103596,1,8,0:0:0:0:
448,192,103596,1,0,0:0:0:0:
192,192,103828,1,2,0:0:0:0:
64,192,103905,1,8,0:0:0:0:
448,192,103905,1,0,0:0:0:0:
320,192,104060,1,2,0:0:0:0:
64,192,104214,1,8,0:0:0:0:
192,192,104214,1,0,0:0:0:0:
320,192,104369,1,2,0:0:0:0:
64,192,104523,1,8,0:0:0:0:
448,192,104523,1,0,0:0:0:0:
192,192,104601,1,2,0:0:0:0:
320,192,104678,1,2,0:0:0:0:
64,192,104833,1,8,0:0:0:0:
448,192,104833,1,0,0:0:0:0:
320,192,104910,1,2,0:0:0:0:
192,192,104987,1,2,0:0:0:0:
320,192,105142,1,8,0:0:0:0:
448,192,105142,1,0,0:0:0:0:
64,192,105219,1,2,0:0:0:0:
192,192,105374,1,2,0:0:0:0:
320,192,105451,1,8,0:0:0:0:
64,192,105529,1,2,0:0:0:0:
448,192,105529,1,4,0:0:0:0:
192,192,105761,1,2,0:0:0:0:
448,192,105761,1,8,0:0:0:0:
320,192,105915,1,2,0:0:0:0:
64,192,106070,1,8,0:0:0:0:
448,192,106070,1,0,0:0:0:0:
192,192,106147,1,2,0:0:0:0:
320,192,106225,1,2,0:0:0:0:
64,192,106379,1,8,0:0:0:0:
192,192,106379,1,0,0:0:0:0:
448,192,106456,1,2,0:0:0:0:
320,192,106611,1,2,0:0:0:0:
64,192,106688,1,8,0:0:0:0:
192,192,106688,1,0,0:0:0:0:
448,192,106766,1,2,0:0:0:0:
64,192,106920,1,2,0:0:0:0:
192,192,106998,1,8,0:0:0:0:
448,192,106998,1,0,0:0:0:0:
320,192,107075,1,2,0:0:0:0:
64,192,107152,1,2,0:0:0:0:
192,192,107307,1,8,0:0:0:0:
320,192,107307,1,0,0:0:0:0:
448,192,107462,1,2,0:0:0:0:
320,192,107539,1,2,0:0:0:0:
64,192,107616,1,2,0:0:0:0:
192,192,107694,1,2,0:0:0:0:
448,192,107771,1,2,0:0:0:0:
320,192,107848,1,2,0:0:0:0:
64,192,107926,1,2,0:0:0:0:
192,192,108003,1,2,0:0:0:0:
448,192,108080,1,6,0:0:0:0:
192,192,108158,1,6,0:0:0:0:
448,192,108235,1,6,0:0:0:0:
192,192,108312,1,6,0:0:0:0:
64,192,108544,1,6,0:0:0:0:
320,192,108621,1,6,0:0:0:0:
64,192,108699,1,6,0:0:0:0:
320,192,108776,1,6,0:0:0:0:
448,192,109008,1,6,0:0:0:0:
64,192,109085,1,6,0:0:0:0:
448,192,109163,1,6,0:0:0:0:
192,192,109317,1,6,0:0:0:0:
448,192,109395,1,6,0:0:0:0:
192,192,109472,1,6,0:0:0:0:
448,192,109549,1,6,0:0:0:0:
64,192,109781,1,6,0:0:0:0:
320,192,109859,1,6,0:0:0:0:
64,192,109936,1,6,0:0:0:0:
320,192,110013,1,6,0:0:0:0:
64,192,110245,1,6,0:0:0:0:
448,192,110322,1,6,0:0:0:0:
64,192,110400,1,6,0:0:0:0:
320,192,110554,1,2,0:0:0:0:
448,192,110554,1,4,0:0:0:0:
64,192,110709,1,4,0:0:0:0:
192,192,110709,1,2,0:0:0:0:
320,192,110864,1,4,0:0:0:0:
448,192,110864,1,2,0:0:0:0:
64,192,111018,1,4,0:0:0:0:
192,192,111018,1,2,0:0:0:0:
320,192,111173,1,4,0:0:0:0:
448,192,111173,1,2,0:0:0:0:
64,192,111328,1,4,0:0:0:0:
192,192,111328,1,2,0:0:0:0:
320,192,111482,1,6,0:0:0:0:
448,192,111482,1,8,0:0:0:0:
64,192,111585,1,10,0:0:0:0:
320,192,111688,1,10,0:0:0:0:
64,192,111792,1,6,0:0:0:0:
192,192,111792,1,8,0:0:0:0:
448,192,111895,1,10,0:0:0:0:
192,192,111998,1,10,0:0:0:0:
320,192,112101,1,6,0:0:0:0:
448,192,112101,1,8,0:0:0:0:
64,192,112204,1,10,0:0:0:0:
320,192,112307,1,10,0:0:0:0:
64,192,112410,1,6,0:0:0:0:
192,192,112410,1,8,0:0:0:0:
448,192,112513,1,10,0:0:0:0:
192,192,112616,1,10,0:0:0:0:
320,192,112719,1,6,0:0:0:0:
448,192,112719,1,8,0:0:0:0:
64,192,112797,1,10,0:0:0:0:
192,192,112874,1,10,0:0:0:0:
320,192,112951,1,10,0:0:0:0:
64,192,113029,1,2,0:0:0:0:
448,192,113029,1,4,0:0:0:0:
192,192,113106,1,6,0:0:0:0:
64,192,113261,1,2,0:0:0:0:
448,192,113261,1,4,0:0:0:0:
320,192,113338,1,6,0:0:0:0:
64,192,113493,1,4,0:0:0:0:
448,192,113493,1,2,0:0:0:0:
192,192,113570,1,6,0:0:0:0:
64,192,113725,1,2,0:0:0:0:
448,192,113725,1,4,0:0:0:0:
320,192,113802,1,6,0:0:0:0:
64,192,113956,1,4,0:0:0:0:
192,192,113956,1,2,0:0:0:0:
320,192,114111,1,4,0:0:0:0:
448,192,114111,1,2,0:0:0:0:
320,192,114575,128,2,114884:0:0:0:0:
448,192,114575,1,4,0:0:0:0:
192,192,114884,128,0,115194:0:0:0:0:
64,192,115194,128,0,115503:0:0:0:0:
448,192,115503,1,0,0:0:0:0:
320,192,115580,1,0,0:0:0:0:
192,192,115658,1,0,0:0:0:0:
64,192,115735,1,0,0:0:0:0:
448,192,115812,1,0,0:0:0:0:
320,192,115889,1,0,0:0:0:0:
192,192,115967,1,0,0:0:0:0:
64,192,116044,1,0,0:0:0:0:
448,192,116121,1,0,0:0:0:0:
320,192,116199,1,0,0:0:0:0:
192,192,116276,1,0,0:0:0:0:
64,192,116353,1,0,0:0:0:0:
320,192,116431,1,6,0:0:0:0:
448,192,116431,1,8,0:0:0:60:boom.wav
64,192,116585,1,4,0:0:0:0:
192,192,116585,1,2,0:0:0:0:
448,192,116585,128,0,116972:0:0:0:0:
