osu file format v14

[General]
AudioFilename: audio.mp3
AudioLeadIn: 0
PreviewTime: 121880
Countdown: 0
SampleSet: None
StackLeniency: 0.7
Mode: 0
LetterboxInBreaks: 0
WidescreenStoryboard: 0

[Editor]
Bookmarks: 56130,108130
DistanceSpacing: 0.8
BeatDivisor: 4
GridSize: 4
TimelineZoom: 1.4

[Metadata]
Title:Yume no Akuma
TitleUnicode:夢の惡魔
Artist:Diarays
ArtistUnicode:Diarays
Creator:SaltKing
Version:Nightmare
Source:
Tags:the dream's devil demon vocaloid megurine luka lily mayu ia -aria on the planetes- shadow play
BeatmapID:1660469
BeatmapSetID:791481

[Difficulty]
HPDrainRate:5
CircleSize:4
OverallDifficulty:8
ApproachRate:9.7
SliderMultiplier:1.9
SliderTickRate:1

[Events]
//Background and Video events
0,0,"0dd579b9-b2f2-49b6-bf81-afae1d511c28.png",0,0
Video,0,"夢の惡魔 ルカIALilyMAYU.mp4"
//Break Periods
//Storyboard Layer 0 (Background)
//Storyboard Layer 1 (Fail)
//Storyboard Layer 2 (Pass)
//Storyboard Layer 3 (Foreground)
//Storyboard Sound Samples

[TimingPoints]
130,250,4,1,0,31,1,0
13630,-133.333333333333,4,1,0,31,0,0
16130,-100,4,3,0,70,0,0
22130,-86.9565217391304,4,3,0,70,0,0
24130,-100,4,3,0,70,0,0
31130,-86.9565217391304,4,3,0,70,0,0
32130,-100,4,3,0,70,0,0
34130,-86.9565217391304,4,3,0,70,0,0
36130,-117.647058823529,4,3,0,70,0,0
52130,-111.111111111111,4,3,0,70,0,0
63130,-86.9565217391304,4,3,0,70,0,0
64130,-95.2380952380952,4,3,0,70,0,0
66130,-86.9565217391304,4,3,0,70,0,0
68130,-86.9565217391304,4,3,0,70,0,1
76067,-86.9565217391304,4,3,0,70,0,0
76130,-86.9565217391304,4,3,0,70,0,1
84067,-83.3333333333333,4,3,0,70,0,0
84130,-83.3333333333333,4,3,0,70,0,1
88130,-95.2380952380952,4,3,0,70,0,0
96130,-90.9090909090909,4,3,0,70,0,1
104130,-100,4,3,0,70,0,0
120130,-166.666666666667,4,3,0,70,0,0
121005,-500,4,3,0,70,0,0
122130,-90.9090909090909,4,3,0,70,0,1
130067,-90.9090909090909,4,3,0,70,0,0
130130,-90.9090909090909,4,3,0,70,0,1
138067,-90.9090909090909,4,3,0,70,0,0
138130,-90.9090909090909,4,3,0,70,0,1
146067,-90.9090909090909,4,3,0,70,0,0
146130,-90.9090909090909,4,3,0,70,0,1
154130,-90.9090909090909,4,3,0,70,0,0
158130,-90.9090909090909,4,3,0,70,0,1
160130,-90.9090909090909,4,3,0,70,0,0
162130,-90.9090909090909,4,3,0,70,0,1
164130,-90.9090909090909,4,3,0,70,0,0

[Colours]
Combo1 : 248,163,211
Combo2 : 113,73,124
Combo3 : 81,61,90
Combo4 : 241,223,97
Combo5 : 252,88,186
Combo6 : 232,66,124
Combo7 : 223,17,33
Combo8 : 236,196,74

[HitObjects]
144,324,130,5,0,0:0:0:0:
86,259,255,1,0,0:0:0:0:
128,186,380,1,0,0:0:0:0:
213,203,505,1,0,0:0:0:0:
248,212,755,1,0,0:0:0:0:
384,160,1005,1,0,0:0:0:0:
349,169,1255,1,0,0:0:0:0:
144,324,1630,5,0,0:0:0:0:
86,259,1755,1,0,0:0:0:0:
128,186,1880,1,0,0:0:0:0:
213,203,2005,1,0,0:0:0:0:
296,316,2130,101,0,0:0:0:0:
346,244,2255,1,0,0:0:0:0:
295,176,2380,1,0,0:0:0:0:
213,203,2505,1,0,0:0:0:0:
180,216,2755,1,0,0:0:0:0:
52,160,3005,1,0,0:0:0:0:
85,173,3255,1,0,0:0:0:0:
297,316,3630,5,0,0:0:0:0:
346,244,3755,1,0,0:0:0:0:
295,176,3880,1,0,0:0:0:0:
213,203,4005,1,0,0:0:0:0:
264,92,4130,101,0,0:0:0:0:
333,39,4255,1,0,0:0:0:0:
403,86,4380,1,0,0:0:0:0:
381,169,4505,1,0,0:0:0:0:
372,200,4755,1,0,0:0:0:0:
364,228,5005,1,0,0:0:0:0:
156,220,5380,5,0,0:0:0:0:
188,224,5630,1,0,0:0:0:0:
272,240,5755,1,0,0:0:0:0:
356,256,5880,1,0,0:0:0:0:
384,260,6130,101,0,0:0:0:0:
311,307,6255,1,0,0:0:0:0:
230,281,6380,1,0,0:0:0:0:
200,201,6505,1,0,0:0:0:0:
244,127,6630,1,0,0:0:0:0:
328,115,6755,1,0,0:0:0:0:
360,108,7005,1,0,0:0:0:0:
424,320,7380,5,0,0:0:0:0:
392,312,7629,1,0,0:0:0:0:
308,296,7754,1,0,0:0:0:0:
224,280,7880,1,0,0:0:0:0:
192,272,8130,101,0,0:0:0:0:
134,207,8255,1,0,0:0:0:0:
176,134,8380,1,0,0:0:0:0:
261,151,8505,1,0,0:0:0:0:
296,160,8755,1,0,0:0:0:0:
448,192,9005,1,0,0:0:0:0:
413,201,9255,1,0,0:0:0:0:
192,272,9630,5,0,0:0:0:0:
134,207,9755,1,0,0:0:0:0:
176,134,9880,1,0,0:0:0:0:
261,151,10005,1,0,0:0:0:0:
362,249,10130,101,0,0:0:0:0:
397,170,10255,1,0,0:0:0:0:
337,113,10380,1,0,0:0:0:0:
261,151,10505,1,0,0:0:0:0:
232,168,10755,1,0,0:0:0:0:
84,232,11005,1,0,0:0:0:0:
113,249,11255,1,0,0:0:0:0:
362,249,11630,5,0,0:0:0:0:
397,170,11755,1,0,0:0:0:0:
337,113,11880,2,0,L|284:140,3,47.5
252,156,12130,101,0,0:0:0:0:
172,192,12255,1,0,0:0:0:0:
180,274,12380,1,0,0:0:0:0:
262,296,12505,1,0,0:0:0:0:
292,304,12755,1,0,0:0:0:0:
320,312,13005,1,0,0:0:0:0:
397,170,13380,5,0,0:0:0:0:
367,178,13630,2,0,L|280:196,1,71.2500027179719
276,200,13817,1,0,0:0:0:0:
260,204,13880,1,0,0:0:0:0:
100,240,14130,21,0,0:0:0:0:
368,312,14630,1,0,0:0:0:0:
176,100,15130,37,0,0:0:0:0:
256,184,15380,1,0,0:0:0:0:
184,272,15630,1,0,0:0:0:0:
268,352,15880,101,0,0:0:0:0:
249,89,16130,86,0,L|258:217,1,95
424,180,16380,2,0,L|308:123,1,95
176,56,16629,1,0,0:0:0:0:
200,264,16755,2,0,P|268:280|328:256,1,95
380,160,17005,1,0,0:0:0:0:
194,169,17130,6,0,P|116:224|116:304,1,142.5
200,264,17380,2,0,L|192:132,1,95
304,300,17630,2,0,L|312:168,1,95
400,344,17880,2,0,L|428:214,1,95
444,88,18130,101,0,0:0:0:0:
444,88,18380,2,0,P|380:104|324:100,1,95
152,72,18630,1,0,0:0:0:0:
264,228,18755,2,0,P|272:300|240:356,1,95
152,172,19005,1,0,0:0:0:0:
144,368,19130,5,0,0:0:0:0:
144,368,19255,1,0,0:0:0:0:
264,228,19380,2,0,P|296:164|284:104,1,95
57,183,19630,2,0,L|157:171,1,95
358,239,19880,2,0,L|258:227,1,95
76,264,20130,101,0,0:0:0:0:
216,80,20255,1,0,0:0:0:0:
216,80,20380,1,0,0:0:0:0:
208,304,20505,5,0,0:0:0:0:
124,88,20630,1,0,0:0:0:0:
124,88,20755,1,0,0:0:0:0:
128,332,20880,2,0,L|168:216,1,95
224,64,21130,101,0,0:0:0:0:
232,232,21255,2,0,P|276:276|336:292,1,95
188,76,21505,1,0,0:0:0:0:
268,236,21630,2,0,P|328:256|388:236,1,95
156,88,21880,1,0,0:0:0:0:
308,220,22005,1,0,0:0:0:0:
344,28,22130,5,0,0:0:0:0:
244,60,22255,1,0,0:0:0:0:
464,44,22380,2,0,P|480:84|484:188,1,109.250002083778
356,248,22630,1,0,0:0:0:0:
456,236,22755,1,0,0:0:0:0:
236,216,22880,1,0,0:0:0:0:
428,320,23005,1,0,0:0:0:0:
428,320,23067,1,0,0:0:0:0:
428,320,23130,6,0,L|432:188,1,109.250002083778
316,40,23380,2,0,L|320:172,1,109.250002083778
324,316,23630,1,0,0:0:0:0:
408,120,23755,1,0,0:0:0:0:
224,320,23880,1,0,0:0:0:0:
431,210,24005,1,0,0:0:0:0:
160,232,24130,102,0,P|88:248|48:236,1,95
96,56,24380,2,0,L|108:184,1,95
76,336,24630,1,0,0:0:0:0:
192,212,24755,2,0,P|252:188|292:192,1,95
416,256,25005,1,0,0:0:0:0:
360,92,25130,101,0,0:0:0:0:
360,92,25255,1,0,0:0:0:0:
312,280,25380,2,0,L|288:388,1,95
228,188,25630,2,0,L|232:298,1,95
124,116,25880,2,0,L|157:221,1,95
220,356,26130,5,0,0:0:0:0:
220,356,26380,2,0,P|280:320|336:316,1,95
440,260,26630,1,0,0:0:0:0:
236,247,26755,2,0,P|190:234|152:206,1,95
252,84,27005,1,0,0:0:0:0:
320,272,27130,101,0,0:0:0:0:
324,276,27255,1,0,0:0:0:0:
336,44,27380,2,0,P|344:84|328:148,1,95
157,89,27630,2,0,L|267:83,1,95
428,141,27880,2,0,L|318:135,1,95
148,172,28130,5,0,0:0:0:0:
344,60,28255,1,0,0:0:0:0:
344,60,28380,1,0,0:0:0:0:
224,232,28505,101,0,0:0:0:0:
276,12,28630,1,0,0:0:0:0:
276,12,28755,1,0,0:0:0:0:
316,228,28880,2,0,L|336:344,1,95
400,140,29130,5,0,0:0:0:0:
228,156,29255,2,0,P|207:200|216:275,1,95
368,116,29505,1,0,0:0:0:0:
231,196,29630,2,0,P|237:255|278:301,1,95
324,80,29880,1,0,0:0:0:0:
268,248,30005,1,0,0:0:0:0:
168,84,30130,101,0,0:0:0:0:
140,184,30255,1,0,0:0:0:0:
284,40,30380,2,0,P|368:48|396:72,1,95
360,216,30630,1,0,0:0:0:0:
440,128,30755,1,0,0:0:0:0:
248,200,30880,1,0,0:0:0:0:
452,216,31005,1,0,0:0:0:0:
452,216,31067,1,0,0:0:0:0:
452,216,31130,22,0,L|440:368,1,109.250002083778
248,200,31380,2,0,L|236:48,1,109.250002083778
336,304,31630,1,0,0:0:0:0:
312,318,31692,1,0,0:0:0:0:
287,327,31755,1,0,0:0:0:0:
260,332,31817,1,0,0:0:0:0:
233,331,31880,1,0,0:0:0:0:
206,325,31942,1,0,0:0:0:0:
181,315,32005,1,0,0:0:0:0:
158,299,32067,1,0,0:0:0:0:
136,280,32130,86,0,P|192:247|215:212,1,95
108,85,32380,2,0,P|106:148|126:187,1,95
283,154,32630,2,0,L|181:123,1,95
288,232,32880,2,0,L|389:201,1,95
244,300,33130,6,0,P|228:284|220:196,1,95
252,69,33380,2,0,P|268:85|276:173,1,95
128,280,33629,1,0,0:0:0:0:
192,126,33755,1,0,0:0:0:0:
244,300,33880,2,0,L|376:316,1,95
476,192,34130,6,0,L|336:208,1,109.250002083778
460,40,34380,2,0,L|320:56,1,109.250002083778
128,80,34630,1,0,0:0:0:0:
328,216,34755,1,0,0:0:0:0:
328,216,34817,1,0,0:0:0:0:
328,216,34880,1,0,0:0:0:0:
236,20,35005,1,0,0:0:0:0:
176,228,35130,54,0,L|140:356,1,109.250002083778
328,216,35380,2,0,L|292:344,1,109.250002083778
252,120,35630,1,0,0:0:0:0:
287,106,35692,1,0,0:0:0:0:
325,103,35755,1,0,0:0:0:0:
363,111,35817,1,0,0:0:0:0:
397,127,35880,1,0,0:0:0:0:
456,340,36005,1,0,0:0:0:0:
232,176,36130,86,0,P|168:156|132:160,1,80.750001540184
120,296,36380,2,0,P|169:250|183:217,1,80.750001540184
176,118,36630,1,0,0:0:0:0:
176,118,36755,2,0,P|198:151|231:175,1,80.750001540184
384,188,37005,54,0,P|343:191|306:207,1,80.750001540184
240,260,37255,1,0,0:0:0:0:
288,128,37380,1,0,0:0:0:0:
364,268,37505,2,0,P|364:304|344:344,2,80.750001540184
288,128,37880,2,0,P|288:168|307:203,1,80.750001540184
348,76,38130,54,0,P|260:52|232:60,1,80.750001540184
136,136,38380,2,0,P|224:112|252:120,1,80.750001540184
307,203,38630,1,0,0:0:0:0:
307,203,38755,2,0,P|219:227|191:219,1,80.750001540184
380,164,39005,54,0,P|390:220|372:256,2,80.750001540184
238,167,39380,1,0,0:0:0:0:
238,167,39505,2,0,P|267:194|306:202,1,80.750001540184
368,80,39755,1,0,0:0:0:0:
368,80,39880,2,0,P|329:91|303:121,1,80.750001540184
164,52,40130,54,0,P|202:63|228:93,1,80.750001540184
306,202,40380,1,0,0:0:0:0:
306,202,40505,2,0,P|332:231|370:243,2,80.750001540184
268,100,40880,1,0,0:0:0:0:
384,156,41005,1,0,0:0:0:0:
240,236,41130,54,0,P|168:256|112:240,1,80.750001540184
120,112,41380,2,0,P|173:164|187:220,1,80.750001540184
76,280,41630,2,0,P|94:207|136:167,1,80.750001540184
256,152,41880,1,0,0:0:0:0:
256,152,42130,70,0,B|304:144|336:156|336:156|388:180|460:140,1,161.500003080368
296,260,42505,2,0,B|248:252|216:264|216:264|164:288|92:248,1,161.500003080368
256,152,42880,2,0,P|336:156|384:184,1,80.750001540184
388,264,43130,5,0,0:0:0:0:
440,180,43255,1,0,0:0:0:0:
296,260,43380,2,0,P|208:280|164:268,1,80.750001540184
197,112,43630,2,0,B|185:136|185:136|189:160|189:208|189:208|181:192|165:176,1,121.125002310276
113,236,43880,2,0,B|125:240|125:240|153:284|201:276|201:276|237:285,1,121.125002310276
292,288,44130,6,0,P|272:232|236:208,1,80.750001540184
248,352,44380,2,0,P|306:362|345:343,1,80.750001540184
448,284,44630,1,0,0:0:0:0:
448,284,44755,2,0,B|424:276|404:284|404:284|368:296|340:280,1,80.750001540184
178,213,45005,38,0,B|202:205|222:213|222:213|258:225|286:209,1,80.750001540184
376,196,45255,1,0,0:0:0:0:
248,132,45380,1,0,0:0:0:0:
290,286,45505,2,0,P|350:294|390:274,2,80.750001540184
121,286,45880,2,0,P|161:293|200:284,1,80.750001540184
160,132,46130,70,0,B|154:150|162:174|162:174|168:198|156:226,1,80.750001540184
268,340,46380,2,0,B|262:322|270:298|270:298|276:274|264:246,1,80.750001540184
237,145,46630,1,0,0:0:0:0:
237,145,46755,2,0,P|167:136|135:108,1,80.750001540184
288,84,47005,38,0,P|315:149|306:190,1,80.750001540184
269,260,47255,1,0,0:0:0:0:
236,148,47380,1,0,0:0:0:0:
200,304,47505,2,0,P|240:340|296:340,2,80.750001540184
128,180,47880,2,0,P|166:191|193:221,1,80.750001540184
60,196,48130,70,0,B|54:178|62:154|62:154|68:130|56:102,1,80.750001540184
193,221,48380,2,0,B|187:239|195:263|195:263|201:287|189:315,1,80.750001540184
148,120,48630,1,0,0:0:0:0:
272,176,48755,1,0,0:0:0:0:
200,48,48880,1,0,0:0:0:0:
256,192,49005,1,0,0:0:0:0:
288,40,49130,38,0,B|306:34|328:40|328:40|354:48|382:36,1,80.750001540184
440,184,49380,2,0,B|422:178|400:184|400:184|374:192|346:180,1,80.750001540184
440,12,49630,2,0,P|440:76|416:112,1,80.750001540184
288,216,49880,2,0,P|288:152|312:116,1,80.750001540184
352,256,50130,69,0,0:0:0:0:
204,248,50255,1,0,0:0:0:0:
288,216,50380,1,0,0:0:0:0:
232,320,50505,1,0,0:0:0:0:
216,180,50630,1,0,0:0:0:0:
312,320,50755,1,0,0:0:0:0:
148,308,50880,38,0,P|72:276|56:248,1,80.750001540184
112,128,51130,1,0,0:0:0:0:
132,228,51255,1,0,0:0:0:0:
184,104,51380,1,0,0:0:0:0:
56,192,51505,1,0,0:0:0:0:
200,248,51630,54,0,L|300:300,1,80.750001540184
184,104,51880,2,0,L|284:156,1,80.750001540184
440,188,52130,70,0,B|396:176|396:176|320:196,1,85.4999973907472
352,332,52380,2,0,B|384:299|384:299|405:224,1,85.4999973907472
268,180,52630,1,0,0:0:0:0:
268,180,52755,2,0,B|279:224|279:224|334:279,1,85.4999973907472
396,104,53005,54,0,L|516:136,2,85.4999973907472
244,80,53380,2,0,L|124:112,1,85.4999973907472
268,180,53630,2,0,B|312:160|312:160|332:120,1,85.4999973907472
188,176,53880,2,0,B|144:196|144:196|124:236,1,85.4999973907472
308,268,54130,54,0,L|212:248,2,85.4999973907472
396,172,54505,2,0,L|492:152,2,85.4999973907472
272,192,54880,1,0,0:0:0:0:
324,60,55005,1,0,0:0:0:0:
324,60,55130,54,0,B|316:104|316:104|336:160,1,85.4999973907472
420,248,55380,1,0,0:0:0:0:
400,100,55505,1,0,0:0:0:0:
340,236,55630,1,0,0:0:0:0:
456,160,55755,1,0,0:0:0:0:
268,200,55880,22,0,B|232:208|208:176|208:176|160:108|160:108,1,128.249996086121
216,60,56130,102,0,P|240:100|272:140,1,85.4999973907472
135,204,56380,2,0,P|156:168|179:113,1,85.4999973907472
320,224,56630,1,0,0:0:0:0:
320,224,56755,2,0,B|296:224|276:236|276:236|248:216|216:228,1,85.4999973907472
368,316,57005,6,0,B|392:316|412:304|412:304|440:324|472:312,2,85.4999973907472
344,140,57380,2,0,P|352:192|356:240,1,85.4999973907472
264,336,57630,2,0,P|268:293|275:251,1,85.4999973907472
188,140,57880,2,0,P|196:192|200:240,1,85.4999973907472
100,64,58130,102,0,B|120:64|140:80|140:80|160:64|188:64,1,85.4999973907472
328,96,58380,1,0,0:0:0:0:
328,96,58505,2,0,B|308:96|288:80|288:80|268:96|240:96,2,85.4999973907472
416,304,58880,1,0,0:0:0:0:
404,180,59005,1,0,0:0:0:0:
404,180,59130,6,0,P|304:184|264:176,1,85.4999973907472
152,168,59380,1,0,0:0:0:0:
276,272,59505,1,0,0:0:0:0:
232,116,59630,1,0,0:0:0:0:
180,264,59755,1,0,0:0:0:0:
316,184,59880,38,0,P|332:136|312:56,1,128.249996086121
232,116,60130,54,0,P|212:172|220:224,1,85.4999973907472
376,241,60380,2,0,P|337:195|288:176,1,85.4999973907472
200,296,60630,1,0,0:0:0:0:
200,296,60755,2,0,P|258:285|299:252,1,85.4999973907472
396,201,61004,54,0,P|324:189|292:165,2,85.4999973907472
304,92,61380,2,0,P|252:116|228:172,1,85.4999973907472
248,304,61630,2,0,P|253:246|216:198,1,85.4999973907472
88,148,61880,2,0,P|134:181|195:173,1,85.4999973907472
356,168,62130,85,0,0:0:0:0:
168,60,62255,1,0,0:0:0:0:
268,244,62380,1,0,0:0:0:0:
296,268,62442,1,0,0:0:0:0:
332,280,62505,1,0,0:0:0:0:
372,280,62567,1,0,0:0:0:0:
408,272,62630,1,0,0:0:0:0:
376,56,62755,1,0,0:0:0:0:
241,222,62880,1,0,0:0:0:0:
213,246,62942,1,0,0:0:0:0:
177,258,63005,1,0,0:0:0:0:
137,258,63067,1,0,0:0:0:0:
101,250,63130,102,0,P|136:164|128:128,1,109.250002083778
128,108,63317,1,0,0:0:0:0:
116,64,63380,2,0,P|184:84|212:84,1,54.6250010418892
392,76,63505,1,0,0:0:0:0:
288,280,63630,2,0,L|280:136,1,109.250002083778
432,324,63880,1,0,0:0:0:0:
432,324,63942,1,0,0:0:0:0:
432,324,64005,1,0,0:0:0:0:
177,258,64130,70,0,P|112:248|56:268,1,99.7499969558717
235,85,64380,2,0,P|258:146|304:184,1,99.7499969558717
324,188,64567,1,0,0:0:0:0:
368,192,64630,1,0,0:0:0:0:
456,40,64755,1,0,0:0:0:0:
456,40,64817,1,0,0:0:0:0:
456,40,64880,1,0,0:0:0:0:
432,272,65005,1,0,0:0:0:0:
333,81,65130,102,0,P|265:89|193:69,1,99.7499969558717
0,188,65380,1,0,0:0:0:0:
176,12,65505,1,0,0:0:0:0:
112,224,65630,1,0,0:0:0:0:
116,264,65692,1,0,0:0:0:0:
144,292,65755,1,0,0:0:0:0:
184,300,65817,1,0,0:0:0:0:
224,288,65880,1,0,0:0:0:0:
260,276,65942,1,0,0:0:0:0:
300,276,66005,1,0,0:0:0:0:
340,284,66067,1,0,0:0:0:0:
372,308,66130,70,0,L|380:160,1,109.250002083778
280,56,66380,2,0,L|285:165,1,109.250002083778
192,308,66630,1,0,0:0:0:0:
192,308,66692,1,0,0:0:0:0:
192,308,66755,2,0,L|200:160,1,109.250002083778
104,36,67005,102,0,L|112:172,1,109.250002083778
92,348,67255,1,0,0:0:0:0:
92,348,67317,1,0,0:0:0:0:
92,348,67380,2,0,P|164:312|236:308,1,109.250002083778
476,220,67630,5,0,0:0:0:0:
448,200,67693,1,0,0:0:0:0:
419,185,67755,1,0,0:0:0:0:
388,174,67818,1,0,0:0:0:0:
357,167,67880,1,0,0:0:0:0:
323,163,67943,1,0,0:0:0:0:
291,163,68005,1,0,0:0:0:0:
259,167,68068,1,0,0:0:0:0:
227,176,68130,6,0,P|152:184|88:160,1,109.250002083778
276,88,68380,2,0,P|320:148|331:216,1,109.250002083778
200,312,68630,1,0,0:0:0:0:
172,96,68755,2,0,P|202:27|255:-16,1,109.250002083778
392,240,69005,101,0,0:0:0:0:
276,88,69130,1,0,0:0:0:0:
304,280,69255,1,0,0:0:0:0:
404,48,69380,2,0,L|396:188,1,109.250002083778
308,336,69630,2,0,L|301:226,1,109.250002083778
212,48,69880,70,0,P|212:152|180:244,1,163.875003125668
132,180,70130,2,0,P|148:112|144:56,1,109.250002083778
232,288,70380,2,0,P|296:312|360:308,1,109.250002083778
408,136,70630,1,0,0:0:0:0:
196,209,70755,2,0,P|132:233|68:229,1,109.250002083778
104,72,71005,37,0,0:0:0:0:
320,192,71130,1,0,0:0:0:0:
120,152,71255,1,0,0:0:0:0:
304,64,71380,2,0,P|352:68|420:128,1,109.250002083778
306,300,71630,2,0,L|322:172,1,109.250002083778
188,44,71880,2,0,L|201:152,1,109.250002083778
224,344,72130,6,0,P|160:320|112:336,1,109.250002083778
108,144,72380,2,0,P|124:212|162:246,1,109.250002083778
392,320,72630,1,0,0:0:0:0:
296,136,72755,2,0,L|177:164,1,109.250002083778
300,40,73005,101,0,0:0:0:0:
360,248,73130,1,0,0:0:0:0:
400,48,73255,1,0,0:0:0:0:
272,220,73380,2,0,P|280:296|320:328,1,109.250002083778
484,152,73630,2,0,L|340:128,1,109.250002083778
164,237,73880,2,0,L|308:213,1,109.250002083778
152,76,74130,5,0,0:0:0:0:
232,300,74255,1,0,0:0:0:0:
284,72,74380,1,0,0:0:0:0:
68,188,74505,1,0,0:0:0:0:
68,188,74567,1,0,0:0:0:0:
68,188,74630,1,0,0:0:0:0:
320,292,74755,2,0,P|376:300|432:288,1,109.250002083778
492,156,75005,1,0,0:0:0:0:
264,176,75130,102,0,L|116:184,1,109.250002083778
428,96,75380,2,0,L|280:104,1,109.250002083778
68,120,75630,1,0,0:0:0:0:
52,158,75692,1,0,0:0:0:0:
48,202,75755,1,0,0:0:0:0:
65,244,75817,1,0,0:0:0:0:
102,271,75880,1,0,0:0:0:0:
388,360,76005,1,0,0:0:0:0:
264,176,76130,6,0,P|232:132|232:60,1,109.250002083778
364,188,76380,2,0,P|341:237|280:272,1,109.250002083778
104,232,76630,1,0,0:0:0:0:
318,101,76755,2,0,P|372:95|432:128,1,109.250002083778
352,352,77005,101,0,0:0:0:0:
264,176,77130,1,0,0:0:0:0:
452,316,77255,1,0,0:0:0:0:
205,255,77380,2,0,L|64:220,1,109.250002083778
264,176,77630,2,0,L|304:312,1,109.250002083778
172,156,77880,6,0,P|240:52|252:4,1,163.875003125668
176,16,78130,2,0,P|132:96|104:120,1,109.250002083778
111,292,78380,2,0,P|175:256|236:260,1,109.250002083778
404,332,78630,1,0,0:0:0:0:
260,192,78755,2,0,P|224:128|228:64,1,109.250002083778
368,216,79005,101,0,0:0:0:0:
148,176,79130,1,0,0:0:0:0:
288,312,79255,1,0,0:0:0:0:
324,108,79380,2,0,L|344:-12,1,109.250002083778
148,176,79630,2,0,P|224:192|276:184,1,109.250002083778
430,121,79880,2,0,P|354:105|305:112,1,109.250002083778
68,132,80130,6,0,L|80:268,1,109.250002083778
296,368,80380,2,0,L|308:260,1,109.250002083778
228,92,80630,1,0,0:0:0:0:
156,272,80755,2,0,P|108:324|56:332,1,109.250002083778
136,72,81005,101,0,0:0:0:0:
232,280,81130,1,0,0:0:0:0:
68,132,81255,1,0,0:0:0:0:
268,188,81380,2,0,P|332:196|384:196,1,109.250002083778
200,100,81630,2,0,L|184:244,1,109.250002083778
388,304,81880,2,0,L|375:195,1,109.250002083778
292,32,82130,5,0,0:0:0:0:
232,280,82255,1,0,0:0:0:0:
360,112,82380,2,0,L|436:16,1,109.250002083778
96,60,82630,1,0,0:0:0:0:
292,197,82755,2,0,L|368:101,1,109.250002083778
76,144,83005,1,0,0:0:0:0:
224,280,83130,102,0,P|300:304|352:284,1,109.250002083778
464,124,83380,2,0,P|368:108|332:124,1,109.250002083778
144,320,83630,1,0,0:0:0:0:
132,280,83692,1,0,0:0:0:0:
144,236,83755,1,0,0:0:0:0:
176,208,83817,1,0,0:0:0:0:
200,172,83880,1,0,0:0:0:0:
192,128,83942,1,0,0:0:0:0:
168,92,84005,1,0,0:0:0:0:
124,84,84067,1,0,0:0:0:0:
88,112,84130,6,0,B|136:144|136:144|208:124,1,113.999996520996
444,104,84380,2,0,B|396:72|396:72|341:87,1,113.999996520996
76,204,84630,2,0,B|124:236|124:236|196:216,1,113.999996520996
432,196,84880,2,0,B|384:164|384:164|329:179,1,113.999996520996
78,289,85130,54,0,B|62:193|62:193|82:209,1,113.999996520996
376,252,85380,2,0,B|392:348|392:348|372:332,1,113.999996520996
75,203,85630,54,0,B|59:107|59:107|79:123,1,113.999996520996
374,167,85880,2,0,B|390:263|390:263|370:247,1,113.999996520996
73,118,86130,101,0,0:0:0:0:
300,216,86255,1,0,0:0:0:0:
132,48,86380,1,0,0:0:0:0:
220,280,86505,1,0,0:0:0:0:
260,28,86630,2,0,L|244:148,1,113.999996520996
144,340,86880,1,0,0:0:0:0:
80,132,87005,1,0,0:0:0:0:
300,216,87130,5,0,0:0:0:0:
316,256,87192,1,0,0:0:0:0:
316,300,87255,1,0,0:0:0:0:
288,336,87317,1,0,0:0:0:0:
244,352,87380,2,0,L|232:216,1,113.999996520996
207,41,87630,101,0,0:0:0:0:
140,315,87755,1,0,0:0:0:0:
356,129,87880,1,0,0:0:0:0:
73,154,88005,2,0,L|128:188,1,56.9999982604981
316,300,88130,38,0,P|296:240|304:196,1,99.7499969558717
344,48,88380,2,0,P|302:95|259:110,1,99.7499969558717
112,148,88630,2,0,P|173:160|208:189,1,99.7499969558717
316,300,88880,1,0,0:0:0:0:
304,272,88942,1,0,0:0:0:0:
296,244,89005,6,0,B|328:256|328:256|368:244|404:264|404:264|424:232|464:236|464:236|448:216,1,199.499993911743
201,182,89380,2,0,P|184:244|196:288,1,99.7499969558717
360,328,89630,1,0,0:0:0:0:
328,132,89755,2,0,L|320:72,1,49.8749984779358
164,60,89880,2,0,L|172:120,1,49.8749984779358
316,216,90005,2,0,L|308:156,1,49.8749984779358
140,136,90129,102,0,L|160:276,1,99.7499969558717
316,216,90379,2,0,L|184:163,1,99.7499969558717
156,332,90629,2,0,B|196:312|196:312|208:296|220:272|220:272|252:288|292:288,1,149.624995433808
360,320,90880,2,0,B|360:288|360:288|400:264|396:204,1,99.7499969558717
344,44,91130,6,0,L|368:152,1,99.7499969558717
220,272,91380,2,0,L|241:174,1,99.7499969558717
148,60,91630,1,0,0:0:0:0:
104,240,91755,1,0,0:0:0:0:
248,80,91880,2,0,B|284:76|316:100|332:136|332:136|348:128|348:128|372:144|372:144,1,149.624995433808
444,140,92130,102,0,P|416:204|360:220,1,99.7499969558717
189,251,92380,2,0,P|217:187|273:171,1,99.7499969558717
428,92,92630,2,0,P|417:161|367:191,1,99.7499969558717
204,302,92880,2,0,P|214:232|264:202,1,99.7499969558717
428,92,93130,6,0,L|312:80,1,99.7499969558717
132,128,93380,2,0,L|248:116,1,99.7499969558717
360,176,93630,1,0,0:0:0:0:
252,28,93755,1,0,0:0:0:0:
300,240,93880,2,0,P|356:264|404:252,1,99.7499969558717
231,117,94130,102,0,L|183:223,1,99.7499969558717
32,138,94380,2,0,L|148:125,1,99.7499969558717
344,108,94630,1,0,0:0:0:0:
176,40,94755,1,0,0:0:0:0:
300,240,94880,2,0,L|376:340,1,99.7499969558717
384,84,95130,6,0,B|384:64|392:56,14,24.9374992389679
432,148,95630,1,0,0:0:0:0:
408,160,95692,1,0,0:0:0:0:
384,164,95755,1,0,0:0:0:0:
360,160,95817,1,0,0:0:0:0:
336,148,95880,1,0,0:0:0:0:
300,128,95942,1,0,0:0:0:0:
260,120,96005,1,0,0:0:0:0:
220,124,96067,1,0,0:0:0:0:
184,144,96130,53,0,0:0:0:0:
72,328,96255,1,0,0:0:0:0:
64,96,96380,1,0,0:0:0:0:
216,328,96505,1,0,0:0:0:0:
236,84,96630,101,0,0:0:0:0:
20,184,96755,1,0,0:0:0:0:
216,328,96880,1,0,0:0:0:0:
312,84,97005,5,0,0:0:0:0:
428,316,97130,1,0,0:0:0:0:
440,64,97255,1,0,0:0:0:0:
320,304,97380,1,0,0:0:0:0:
472,140,97505,1,0,0:0:0:0:
184,144,97630,101,0,0:0:0:0:
448,216,97755,1,0,0:0:0:0:
224,308,97880,2,0,L|80:364,1,104.500003189087
212,60,98130,5,0,0:0:0:0:
328,312,98255,1,0,0:0:0:0:
320,56,98380,1,0,0:0:0:0:
224,308,98505,1,0,0:0:0:0:
376,116,98630,1,0,0:0:0:0:
144,124,98755,1,0,0:0:0:0:
144,124,98817,1,0,0:0:0:0:
144,124,98880,2,0,B|112:132|112:132|76:132,1,52.2500015945435
312,216,99005,102,0,B|344:216|344:216|372:224|372:224|388:196|388:196|436:184|452:132,1,156.750004783631
376,116,99255,1,0,0:0:0:0:
80,228,99380,1,0,0:0:0:0:
336,292,99505,1,0,0:0:0:0:
92,132,99630,1,0,0:0:0:0:
268,352,99755,1,0,0:0:0:0:
240,96,99880,1,0,0:0:0:0:
98,330,100005,1,0,0:0:0:0:
98,330,100067,1,0,0:0:0:0:
98,330,100130,6,0,L|74:198,1,104.500003189087
280,176,100380,2,0,L|177:262,1,104.500003189087
56,100,100630,2,0,L|182:145,1,104.500003189087
458,231,100880,102,0,B|435:193|435:193|351:213|331:177|331:177|299:185|266:171,1,209.000006378174
384,328,101255,1,0,0:0:0:0:
416,120,101380,2,0,B|380:124|380:124|364:108|332:104|332:104|276:108,1,104.500003189087
276,104,101567,1,0,0:0:0:0:
232,104,101630,1,0,0:0:0:0:
40,240,101755,1,0,0:0:0:0:
236,336,101880,2,0,B|224:288|224:288|240:248|224:208|224:208|232:164,1,156.750004783631
232,104,102130,6,0,P|183:121|154:163,1,104.500003189087
332,376,102380,1,0,0:0:0:0:
320,156,102505,1,0,0:0:0:0:
320,156,102567,1,0,0:0:0:0:
320,156,102630,2,0,L|308:32,1,104.500003189087
424,276,102880,1,0,0:0:0:0:
156,248,103005,101,0,0:0:0:0:
156,248,103067,1,0,0:0:0:0:
156,248,103130,2,0,B|116:204|116:204|104:128,1,104.500003189087
340,252,103380,2,0,B|281:238|281:238|228:183,1,104.500003189087
132,43,103630,1,0,0:0:0:0:
144,83,103692,1,0,0:0:0:0:
136,124,103755,1,0,0:0:0:0:
108,159,103817,1,0,0:0:0:0:
92,200,103880,1,0,0:0:0:0:
104,240,103942,1,0,0:0:0:0:
136,268,104005,1,0,0:0:0:0:
176,272,104067,1,0,0:0:0:0:
164,200,104130,5,0,0:0:0:0:
164,192,106005,37,0,0:0:0:0:
164,192,106067,1,0,0:0:0:0:
164,192,106130,1,0,0:0:0:0:
436,244,106630,1,0,0:0:0:0:
188,280,107130,1,0,0:0:0:0:
252,212,107380,1,0,0:0:0:0:
144,68,107880,5,0,0:0:0:0:
140,100,107942,1,0,0:0:0:0:
140,132,108005,1,0,0:0:0:0:
148,164,108067,1,0,0:0:0:0:
164,192,108130,86,0,P|208:236|272:248,1,95
332,116,108380,2,0,P|271:132|229:181,1,95
312,300,108630,1,0,0:0:0:0:
312,300,108755,2,0,P|328:239|306:178,1,95
257,60,109005,54,0,P|241:104|246:151,2,95
424,112,109380,2,0,P|380:124|300:108,1,95
153,143,109630,2,0,P|197:155|277:139,1,95
415,200,109880,2,0,P|371:212|291:196,1,95
164,292,110130,2,0,P|220:260|236:228,1,95
222,85,110380,1,0,0:0:0:0:
222,85,110505,2,0,P|166:117|150:149,2,95
322,208,110880,2,0,P|377:240|413:238,1,95
380,96,111130,53,0,0:0:0:0:
456,172,111255,1,0,0:0:0:0:
316,128,111380,2,0,P|260:128|212:152,1,95
