osu file format v14

[General]
AudioFilename: audio.mp3
AudioLeadIn: 0
PreviewTime: 222223
Countdown: 0
SampleSet: Soft
StackLeniency: 0.7
Mode: 0
LetterboxInBreaks: 0
WidescreenStoryboard: 1

[Editor]
Bookmarks: 43045,89073,130169,209063,223867,301128
DistanceSpacing: 1.2
BeatDivisor: 4
GridSize: 32
TimelineZoom: 2.899999

[Metadata]
Title:The Anonymous
TitleUnicode:ジ・アノニマス
Artist:Diao ye zong feat. Meramipop
ArtistUnicode:凋叶棕 feat. めらみぽっぷ
Creator:Asaiga
Version:Neraidaphobia
Source:東方紅魔郷 ~ Embodiment of Scarlet Devil.
Tags:Karen Kocari Kin Shortthu ~ rd sounds withered leaf merami 求 motome Rumia ルーミア ji anonimasu Touhou Project th6 例大祭 12 Reitaisai
BeatmapID:1283136
BeatmapSetID:543660

[Difficulty]
HPDrainRate:5.8
CircleSize:3.8
OverallDifficulty:8.8
ApproachRate:9.4
SliderMultiplier:2.79999990463257
SliderTickRate:1

[Events]
//Background and Video events
0,0,"rumi chan.jpg",0,0
//Break Periods
//Storyboard Layer 0 (Background)
//Storyboard Layer 1 (Fail)
//Storyboard Layer 2 (Pass)
//Storyboard Layer 3 (Foreground)
//Storyboard Sound Samples

[TimingPoints]
1940,410.958904109589,4,2,2,55,1,0
1940,-200,4,2,2,55,0,0
15090,-142.857142857143,4,2,2,55,0,0
28446,-111.111111111111,4,2,2,70,0,0
29885,-142.857142857143,4,2,1,60,0,0
43035,-200,4,2,1,50,0,0
49097,-200,4,2,1,35,0,0
49200,-200,4,2,1,50,0,0
49405,-200,4,2,1,35,0,0
49611,-200,4,2,1,50,0,0
61118,-181.818181818181,4,2,1,50,0,0
61220,-200,4,2,1,50,0,0
62299,-200,4,2,1,5,0,0
62350,-200,4,2,1,50,0,0
62761,-133.333333333333,4,2,1,50,0,0
70981,-117.647058823529,4,2,1,50,0,0
71186,-117.647058823529,4,2,1,5,0,0
71289,-153.846153846153,4,2,1,50,0,0
71494,-153.846153846153,4,2,1,5,0,0
71597,-86.9565217391303,4,2,1,50,0,0
71700,-86.9565217391303,4,2,1,5,0,0
71803,-133.333333333333,4,2,1,50,0,0
75912,-133.333333333333,4,2,0,60,0,0
78994,-100,4,2,0,60,0,0
79200,-133.333333333333,4,2,0,60,0,0
81666,-133.333333333333,4,2,1,60,0,0
88652,-105.263157894737,4,2,1,70,0,0
89063,-100,4,2,1,70,0,0
103857,-83.3333333333333,4,2,1,70,0,1
114850,-74.0740740740741,4,2,1,70,0,1
115775,-83.3333333333333,4,2,1,70,0,1
128001,-74.0740740740741,4,2,1,70,0,1
128515,-100,4,2,1,70,0,0
130159,-142.857142857143,4,2,1,60,0,0
143309,-200,4,2,1,40,0,0
168789,-142.857142857143,4,2,1,50,0,0
182761,-100,4,2,1,60,0,0
223857,-83.3333333333333,4,2,1,70,0,1
234850,-74.0740740740741,4,2,1,70,0,1
235364,-83.3333333333333,4,2,1,70,0,1
248001,-74.0740740740741,4,2,1,70,0,1
248515,-83.3333333333333,4,2,0,70,0,0
250159,-66.6666666666667,4,2,1,70,0,1
250261,-83.3333333333333,4,2,1,70,0,0
250570,-66.6666666666667,4,2,1,70,0,1
250672,-83.3333333333333,4,2,1,70,0,0
250981,-83.3333333333333,4,2,1,70,0,1
261049,-74.0740740740741,4,2,1,70,0,1
261871,-83.3333333333333,4,2,1,70,0,1
273172,-66.6666666666667,4,2,1,70,0,1
274816,-83.3333333333333,4,2,1,70,0,0
276460,-100,4,2,1,70,0,0
298241,-90.9090909090909,4,2,1,70,0,0
301118,437.956204379562,4,2,1,50,1,0
301118,-133.333333333333,4,2,1,50,0,0
301555,409.556313993174,4,2,1,50,1,0
301555,-133.333333333333,4,2,1,50,0,0
301964,444.444444444444,4,2,1,60,1,0
301964,-133.333333333333,4,2,1,60,0,0
302852,468.75,4,2,1,60,1,0
302852,-133.333333333333,4,2,1,60,0,0
303320,560.747663551402,4,2,1,50,1,0
303320,-133.333333333333,4,2,1,50,0,0
303883,416.666666666667,4,2,1,15,1,0
303883,-200,4,2,1,15,0,0
305445,-200,4,2,1,5,0,0
305549,-200,4,2,0,20,0,0
305653,-200,4,2,1,5,0,0

[Colours]
Combo1 : 237,118,154
Combo2 : 142,206,148
Combo3 : 148,194,197
Combo4 : 213,202,140

[HitObjects]
387,340,1940,5,0,0:0:0:0:
455,263,2145,2,0,L|442:145,1,104.999996423721,2|0,0:0|0:0,0:0:0:0:
320,94,2761,2,0,L|333:212,1,104.999996423721
349,352,3378,1,2,0:0:0:0:
349,352,3789,6,0,L|231:338,1,104.999996423721
96,272,4405,2,0,L|214:258,1,104.999996423721
46,363,5022,1,0,0:0:0:0:
29,193,5227,1,0,0:0:0:0:
96,272,5433,6,0,L|214:258,1,104.999996423721,2|0,0:0|0:0,0:0:0:0:
371,208,6049,2,0,L|253:194,1,104.999996423721
438,273,6666,1,2,0:0:0:0:
438,273,7076,2,0,P|460:220|450:164,2,104.999996423721
438,273,7898,6,0,L|373:265,1,34.9999988079071
344,347,8104,1,0,0:0:0:0:
250,297,8309,1,0,0:0:0:0:
344,347,8515,5,0,0:0:0:0:
170,347,8720,2,0,P|155:282|175:240,1,104.999996423721,2|0,0:0|0:0,0:0:0:0:
169,149,9337,2,0,P|184:198|168:248,1,104.999996423721
332,329,9953,6,0,L|481:316,1,139.999995231629,2|0,0:0|0:0,0:0:0:0:
446,202,10672,2,0,L|312:190,2,104.999996423721
299,106,11597,1,0,0:0:0:0:
210,169,11803,5,0,0:0:0:0:
112,119,12008,2,0,B|94:58|94:58|101:11,1,104.999996423721,2|0,0:0|0:0,0:0:0:0:
199,271,12624,2,0,B|217:210|217:210|210:169,1,104.999996423721
18,339,13241,6,0,L|168:353,1,139.999995231629,2|0,0:0|0:0,0:0:0:0:
271,360,13857,1,0,0:0:0:0:
271,360,13960,1,0,0:0:0:0:
381,365,14166,5,0,0:0:0:0:
414,212,14371,1,0,0:0:0:0:
430,235,14474,1,0,0:0:0:0:
447,256,14576,1,0,0:0:0:0:
465,276,14679,2,0,L|493:269,3,17.4999994039536
350,273,14885,2,0,L|323:236,1,34.9999988079071
404,116,15090,1,2,0:3:0:0:
404,116,15193,1,2,0:3:0:0:
404,116,15296,6,0,P|457:126|491:156,1,97.9999936714175,2|0,0:0|0:0,0:0:0:0:
315,130,15604,2,0,L|212:134,1,97.9999936714175
148,78,15912,2,0,P|102:57|41:66,1,97.9999936714175
86,143,16220,2,0,L|97:241,1,97.9999936714175
68,351,16529,6,0,B|148:332|148:332|214:355,1,146.999990507126,2|0,0:0|0:0,0:0:0:0:
291,321,16940,2,0,P|338:329|393:314,1,97.9999936714175
450,256,17248,2,0,L|460:158,1,97.9999936714175
321,139,17556,2,0,L|331:237,1,97.9999936714175
375,68,17864,2,0,P|322:51|277:63,1,97.9999936714175
321,139,18172,1,0,0:0:0:0:
129,138,18378,5,0,0:0:0:0:
129,138,18583,2,0,L|229:130,1,97.9999936714175,2|0,0:0|0:0,0:0:0:0:
40,80,18892,2,0,L|26:187,1,97.9999936714175
141,235,19200,2,0,L|129:138,1,97.9999936714175
118,333,19508,2,0,P|70:344|24:331,1,97.9999936714175
224,286,19816,5,2,0:0:0:0:
224,286,20227,2,0,L|326:281,1,97.9999936714175
362,167,20535,1,0,0:0:0:0:
362,167,20638,2,0,L|374:218,1,48.9999968357087
406,351,20844,2,0,L|420:284,1,48.9999968357087
437,116,21049,1,0,0:0:0:0:
465,228,21255,1,0,0:0:0:0:
437,116,21460,1,0,0:0:0:0:
373,214,21666,1,0,3:0:0:0:
373,214,21768,1,0,3:0:0:0:
373,214,21871,6,0,B|322:220|322:220|260:196,1,97.9999936714175,2|0,0:0|0:0,0:0:0:0:
187,248,22179,2,0,B|191:283|191:283|181:344,1,97.9999936714175,0|0,3:0|0:0,0:0:0:0:
85,215,22487,2,0,B|75:154|75:154|79:117,1,97.9999936714175
67,4,22796,2,0,L|164:16,1,97.9999936714175
11,79,23104,6,0,L|181:101,1,146.999990507126,2|0,0:0|0:0,0:0:0:0:
156,97,23515,1,0,0:0:0:0:
300,62,23720,1,0,3:0:0:0:
300,62,23823,2,0,L|409:47,1,97.9999936714175,0|0,3:0|0:0,0:0:0:0:
346,143,24131,6,0,L|455:128,1,97.9999936714175,0|0,3:0|0:0,0:0:0:0:
485,208,24440,2,0,L|376:223,1,97.9999936714175
387,221,24748,1,0,0:0:0:0:
269,181,24953,2,0,P|259:132|279:89,1,97.9999936714175,0|2,3:0|0:0,0:0:0:0:
278,89,25261,1,0,0:0:0:0:
278,89,25364,1,0,3:0:0:0:
278,89,25467,2,0,L|386:80,1,97.9999936714175
152,201,25775,2,0,L|249:209,1,97.9999936714175,0|0,3:0|0:0,0:0:0:0:
284,314,26083,2,0,L|381:305,1,97.9999936714175
118,287,26392,6,0,P|141:206|65:129,1,195.999987342835,2|0,0:0|0:0,0:0:0:0:
41,227,27008,1,0,3:0:0:0:
41,227,27111,1,0,0:0:0:0:
32,353,27316,2,0,L|130:342,1,97.9999936714175
155,320,27624,1,2,0:0:0:0:
180,296,27727,1,0,0:0:0:0:
203,271,27830,2,0,L|197:208,1,48.9999968357087,2|0,0:0|0:0,0:0:0:0:
301,331,28035,2,0,L|308:274,1,48.9999968357087,0|0,3:0|3:0,3:0:0:0:
405,217,28241,2,0,L|414:273,1,48.9999968357087
324,136,28446,6,0,L|169:121,1,125.999991863251,2|0,0:0|3:0,0:0:0:0:
174,145,28755,1,8,3:2:0:0:
151,167,28857,1,8,3:2:0:0:
125,185,28960,1,8,3:2:0:0:
101,205,29063,2,0,L|79:78,1,125.999991863251,4|0,3:2|0:0,0:0:0:0:
66,326,29371,2,0,L|100:205,1,125.999991863251,4|0,3:2|0:0,0:0:0:0:
164,368,29679,1,8,3:2:0:0:
164,368,29782,1,0,0:0:0:0:
164,368,29885,6,0,B|270:369,1,97.9999936714175,4|0,0:0|0:0,0:0:0:0:
362,330,30296,1,0,0:0:0:0:
362,330,30501,1,0,0:0:0:0:
460,285,30707,2,0,L|476:174,1,97.9999936714175,8|0,0:0|0:0,0:0:0:0:
486,100,31015,1,0,0:0:0:0:
486,100,31323,1,2,0:3:0:0:
447,106,31426,1,2,0:3:0:0:
413,86,31529,6,0,P|344:74|273:119,1,146.999990507126,8|0,0:0|0:0,0:0:0:0:
254,198,31940,1,2,0:0:0:0:
226,45,32145,1,0,0:0:0:0:
156,192,32350,2,0,L|261:198,1,97.9999936714175,8|0,0:0|0:0,0:0:0:0:
343,201,32659,1,0,0:0:0:0:
343,201,32967,1,2,0:3:0:0:
376,180,33070,1,2,0:3:0:0:
408,201,33172,6,0,B|383:286|383:286|390:349,1,146.999990507126,8|0,0:0|0:0,0:0:0:0:
389,344,33583,1,2,0:0:0:0:
474,281,33789,1,0,0:0:0:0:
298,324,33994,2,0,L|193:313,1,97.9999936714175,8|0,0:0|0:0,0:0:0:0:
112,301,34303,1,0,0:0:0:0:
112,301,34611,1,2,0:3:0:0:
104,262,34713,1,2,0:3:0:0:
96,223,34816,6,0,L|262:241,1,146.999990507126,8|0,0:0|0:0,0:0:0:0:
271,155,35227,1,2,0:0:0:0:
242,238,35433,1,0,0:0:0:0:
207,96,35638,2,0,P|254:68|307:80,1,97.9999936714175,8|8,0:0|0:0,0:0:0:0:
384,118,35946,1,0,0:0:0:0:
384,118,36152,2,0,L|449:111,1,48.9999968357087,8|2,3:2|0:3,0:0:0:0:
491,193,36357,1,2,0:3:0:0:
491,193,36460,6,0,L|475:299,1,97.9999936714175,4|0,0:0|0:0,0:0:0:0:
396,351,36871,2,0,B|352:366|352:366|291:357,1,97.9999936714175,2|0,0:0|0:0,0:0:0:0:
150,257,37282,2,0,L|261:268,1,97.9999936714175,8|0,0:0|0:0,0:0:0:0:
344,280,37590,1,0,0:0:0:0:
344,280,37898,1,2,0:3:0:0:
344,280,38001,1,2,0:3:0:0:
344,280,38104,6,0,L|356:169,1,97.9999936714175,8|0,0:0|0:0,0:0:0:0:
271,340,38515,1,2,0:0:0:0:
410,340,38720,1,0,0:0:0:0:
271,340,38926,2,0,B|211:323|211:323|153:334,1,97.9999936714175,8|0,0:0|0:0,0:0:0:0:
90,353,39234,1,0,0:0:0:0:
90,353,39542,1,2,0:3:0:0:
90,353,39645,1,2,0:3:0:0:
90,353,39748,6,0,L|72:245,1,97.9999936714175,8|0,0:0|0:0,0:0:0:0:
181,227,40159,1,2,0:0:0:0:
73,256,40364,1,0,0:0:0:0:
233,311,40570,2,0,L|335:294,1,97.9999936714175,8|0,0:0|0:0,0:0:0:0:
424,286,40878,1,0,0:0:0:0:
424,286,41186,1,2,0:3:0:0:
424,286,41289,1,2,0:3:0:0:
424,286,41392,6,0,L|408:183,1,97.9999936714175,8|0,0:0|0:0,0:0:0:0:
297,132,41803,1,2,0:0:0:0:
384,84,42008,1,0,0:0:0:0:
211,178,42213,1,8,0:0:0:0:
297,132,42419,1,8,0:0:0:0:
129,221,42624,1,0,0:0:0:0:
128,88,42830,1,2,0:3:0:0:
128,88,42933,1,2,0:3:0:0:
128,88,43035,6,0,L|221:96,1,69.9999976158143,4|0,0:0|0:0,0:0:0:0:
277,152,43344,1,0,0:0:0:0:
298,163,43446,2,0,L|391:155,1,69.9999976158143,2|0,0:0|0:0,0:0:0:0:
472,42,43857,2,0,P|444:89|448:130,1,69.9999976158143,8|0,0:0|0:0,0:0:0:0:
461,188,44166,1,0,0:0:0:0:
457,212,44268,2,0,L|452:260,1,34.9999988079071,2|0,0:0|0:0,0:0:0:0:
394,324,44474,1,2,0:0:0:0:
394,324,44576,1,2,0:0:0:0:
394,324,44679,6,0,L|312:321,1,69.9999976158143,0|0,3:0|0:0,0:0:0:0:
231,284,44987,2,0,L|149:287,1,69.9999976158143,2|0,0:0|0:0,0:0:0:0:
71,338,45296,2,0,L|67:372,1,34.9999988079071,0|0,3:0|0:0,0:0:0:0:
47,245,45501,2,0,L|40:175,1,69.9999976158143,0|0,1:0|0:0,0:0:0:0:
84,84,45809,1,0,0:0:0:0:
99,65,45911,1,2,0:0:0:0:
112,49,46118,6,0,L|108:14,1,34.9999988079071,2|0,0:0|0:0,0:0:0:0:
38,147,46323,6,0,P|81:160|128:147,1,69.9999976158143,0|0,3:0|0:0,0:0:0:0:
195,101,46631,1,0,0:0:0:0:
211,83,46734,2,0,L|298:88,1,69.9999976158143,2|0,0:0|0:0,0:0:0:0:
348,50,47042,1,0,0:0:0:0:
427,129,47145,2,0,P|420:164|427:207,1,69.9999976158143,8|0,0:0|0:0,0:0:0:0:
464,280,47453,1,0,0:0:0:0:
472,300,47556,1,2,0:0:0:0:
480,320,47761,6,0,L|473:373,1,34.9999988079071,2|0,0:0|0:0,0:0:0:0:
437,192,47967,6,0,P|433:158|440:124,1,69.9999976158143,0|0,3:0|0:0,0:0:0:0:
347,187,48275,2,0,P|319:165|300:136,1,69.9999976158143,0|0,3:0|0:0,0:0:0:0:
279,246,48583,2,0,L|244:249,1,34.9999988079071,0|0,3:0|0:0,0:0:0:0:
272,335,48789,2,0,L|250:362,1,34.9999988079071,0|0,1:0|0:0,0:0:0:0:
347,187,48994,5,8,0:0:0:0:
362,147,49097,1,2,0:0:0:0:
362,104,49200,1,2,0:0:0:0:
325,29,49303,5,8,0:0:0:0:
264,45,49405,1,0,1:0:0:0:
201,38,49508,1,0,1:0:0:0:
119,16,49611,6,0,P|135:75|117:152,1,139.999995231629,4|2,0:0|0:0,0:0:0:0:
15,225,50227,2,0,L|26:286,1,34.9999988079071
48,149,50433,2,0,P|82:155|132:145,1,69.9999976158143,8|0,0:0|0:0,0:0:0:0:
189,123,50741,1,0,0:0:0:0:
191,101,50844,1,2,0:0:0:0:
194,80,51049,6,0,L|198:42,1,34.9999988079071,2|0,0:0|0:0,0:0:0:0:
203,203,51255,6,0,L|193:286,1,69.9999976158143,0|0,3:0|0:0,0:0:0:0:
268,297,51563,2,0,L|276:227,1,69.9999976158143,0|0,3:0|0:0,0:0:0:0:
266,151,51871,1,0,3:0:0:0:
275,307,52076,2,0,L|283:237,1,69.9999976158143,0|0,1:0|0:0,0:0:0:0:
340,183,52385,1,0,0:0:0:0:
357,171,52487,1,2,0:0:0:0:
374,159,52693,6,0,B|413:157,1,34.9999988079071,2|0,0:0|0:0,0:0:0:0:
276,227,52898,6,0,L|204:224,1,69.9999976158143,0|0,3:0|0:0,0:0:0:0:
128,273,53207,2,0,L|58:275,1,69.9999976158143,0|0,3:0|0:0,0:0:0:0:
215,305,53515,2,0,L|249:306,1,34.9999988079071,0|0,1:0|0:0,0:0:0:0:
145,361,53720,2,0,L|75:363,1,69.9999976158143,8|0,0:0|0:0,0:0:0:0:
40,293,54029,1,0,0:0:0:0:
30,275,54131,1,2,0:0:0:0:
20,257,54337,6,0,L|26:197,1,34.9999988079071,2|0,0:0|0:0,0:0:0:0:
75,363,54542,6,0,L|145:361,1,69.9999976158143,0|0,3:0|0:0,0:0:0:0:
162,250,54850,2,0,L|223:283,1,69.9999976158143,0|0,3:0|0:0,0:0:0:0:
293,195,55159,2,0,L|311:224,1,34.9999988079071,0|0,3:0|0:0,0:0:0:0:
433,212,55364,2,0,L|434:247,1,34.9999988079071,0|0,1:0|0:0,0:0:0:0:
512,339,55570,2,0,L|509:237,1,69.9999976158143,8|0,0:0|0:0,0:0:0:0:
436,117,55981,1,8,0:0:0:0:
420,103,56083,1,8,0:0:0:0:
380,63,56186,6,0,L|302:67,1,69.9999976158143,4|0,0:0|0:0,0:0:0:0:
252,116,56494,1,0,0:0:0:0:
252,116,56597,2,0,L|174:112,1,69.9999976158143,2|0,0:0|0:0,0:0:0:0:
46,254,57008,2,0,P|32:216|38:168,1,69.9999976158143,8|0,0:0|0:0,0:0:0:0:
52,112,57316,1,0,0:0:0:0:
61,93,57419,1,2,0:0:0:0:
70,74,57624,6,0,L|85:35,1,34.9999988079071,2|0,0:0|0:0,0:0:0:0:
32,186,57830,6,0,P|32:221|46:254,1,69.9999976158143,0|0,3:0|0:0,0:0:0:0:
143,198,58138,2,0,P|160:227|188:249,1,69.9999976158143,0|0,3:0|0:0,0:0:0:0:
244,152,58446,2,0,P|266:166|294:174,1,34.9999988079071,0|0,3:0|0:0,0:0:0:0:
309,61,58652,2,0,P|343:60|376:47,1,69.9999976158143,0|0,1:0|0:0,0:0:0:0:
448,19,58960,1,0,0:0:0:0:
468,13,59063,1,2,0:0:0:0:
488,7,59268,6,0,L|522:10,1,34.9999988079071,2|0,0:0|0:0,0:0:0:0:
376,47,59474,6,0,P|368:93|383:135,1,69.9999976158143,0|0,3:0|0:0,0:0:0:0:
412,182,59782,1,0,0:0:0:0:
412,182,59885,2,0,L|405:225,1,34.9999988079071,2|0,0:0|0:0,0:0:0:0:
313,301,60090,2,0,L|306:258,1,34.9999988079071
219,147,60296,2,0,L|207:216,1,69.9999976158143,8|0,0:0|0:0,0:0:0:0:
193,291,60604,1,0,0:0:0:0:
190,311,60707,1,2,0:0:0:0:
187,331,60912,6,0,L|181:380,1,34.9999988079071,2|0,0:0|0:0,0:0:0:0:
207,216,61118,6,0,B|204:206|204:206|213:202|213:202|210:191|210:191|219:147,1,76.9999997272492,0|0,3:0|0:0,0:0:0:0:
256,63,61426,1,0,0:0:0:0:
280,75,61529,2,0,L|338:71,1,34.9999988079071,2|0,0:0|0:0,0:0:0:0:
449,142,61734,2,0,L|391:138,1,34.9999988079071,2|0,0:0|0:0,0:0:0:0:
256,225,61939,1,0,1:0:0:0:
280,75,62145,2,0,P|289:106|286:142,1,52.4999982118607
256,225,62350,5,8,0:0:0:0:
180,212,62452,1,8,0:0:0:0:
104,199,62555,1,2,0:0:0:0:
28,187,62658,1,2,0:0:0:0:
53,267,62761,6,0,P|66:216|61:164,1,105.000000429154,4|0,0:0|0:0,0:0:0:0:
28,74,63070,1,0,0:0:0:0:
28,74,63172,2,0,L|96:68,1,52.5000002145768,2|0,0:0|0:0,0:0:0:0:
144,123,63378,2,0,L|212:129,1,52.5000002145768,2|0,0:0|0:0,0:0:0:0:
260,32,63583,2,0,P|287:79|276:131,1,105.000000429154,8|0,0:0|0:0,0:0:0:0:
236,200,63892,1,0,0:0:0:0:
214,235,63994,1,2,0:0:0:0:
189,269,64200,6,0,L|154:328,1,52.5000002145768,2|2,0:0|0:0,0:0:0:0:
236,200,64405,6,0,B|285:188|291:207|341:195,1,105.000000429154,0|0,3:0|0:0,0:0:0:0:
396,132,64713,2,0,P|411:82|400:23,1,105.000000429154,0|0,3:0|0:0,0:0:0:0:
327,105,65022,2,0,P|337:76|313:29,1,52.5000002145768,0|0,3:0|0:0,0:0:0:0:
340,195,65227,2,0,P|392:217|478:153,1,157.50000064373,0|0,1:0|0:0,0:0:0:0:
396,132,65638,1,2,0:0:0:0:
335,191,65741,1,0,0:0:0:0:
274,250,65844,1,2,0:0:0:0:
335,191,66049,6,0,P|359:237|337:309,1,105.000000429154,0|0,3:0|0:0,0:0:0:0:
281,334,66357,1,0,0:0:0:0:
281,334,66460,2,0,L|215:326,1,52.5000002145768,2|0,0:0|0:0,0:0:0:0:
148,355,66666,2,0,L|82:347,1,52.5000002145768,2|0,0:0|0:0,0:0:0:0:
22,232,66871,2,0,P|11:183|31:132,1,105.000000429154,8|0,0:0|0:0,0:0:0:0:
84,68,67179,1,0,0:0:0:0:
119,45,67282,1,2,0:0:0:0:
154,22,67487,6,0,L|219:29,1,52.5000002145768,2|2,0:0|0:0,0:0:0:0:
84,68,67693,6,0,P|116:114|109:166,1,105.000000429154,0|0,3:0|0:0,0:0:0:0:
197,199,68001,2,0,B|266:192|266:192|235:217,1,105.000000429154,0|0,3:0|0:0,0:0:0:0:
117,256,68309,2,0,L|53:252,1,52.5000002145768,0|0,3:0|0:0,0:0:0:0:
207,295,68515,2,0,L|271:291,1,52.5000002145768,0|0,1:0|0:0,0:0:0:0:
111,160,68720,2,0,P|118:136|112:103,1,52.5000002145768,8|0,0:0|0:0,0:0:0:0:
197,199,68926,5,0,0:0:0:0:
272,217,69028,1,0,0:0:0:0:
342,181,69131,1,0,0:0:0:0:
364,105,69234,1,0,0:0:0:0:
338,30,69337,6,0,B|443:26,1,105.000000429154,4|0,0:0|0:0,0:0:0:0:
507,113,69645,1,0,0:0:0:0:
507,113,69748,2,0,L|496:187,1,52.5000002145768,2|0,0:0|0:0,0:0:0:0:
376,175,69953,2,0,L|387:249,1,52.5000002145768,2|0,0:0|0:0,0:0:0:0:
512,336,70159,2,0,P|469:311|400:322,1,105.000000429154,8|0,0:0|0:0,0:0:0:0:
324,343,70467,1,0,0:0:0:0:
283,330,70570,1,2,0:0:0:0:
242,317,70775,6,0,L|179:296,1,52.5000002145768,2|2,0:0|0:0,0:0:0:0:
324,343,70981,6,0,B|310:313|310:257|325:226|325:226|338:239|341:254,1,148.749997770786,0|0,3:0|0:0,0:0:0:0:
324,343,71289,2,0,B|276:332|255:288|255:288|274:287|291:292,1,113.749990918637,0|0,3:0|0:0,0:0:0:0:
324,343,71597,6,0,B|376:361|419:339|419:339|401:323|379:324,1,120.749998190403,0|0,3:0|0:0,0:0:0:0:
324,343,71803,6,0,P|220:336|162:329,1,157.50000064373,0|0,1:0|0:0,0:0:0:0:
129,255,72213,1,2,0:0:0:0:
90,180,72316,1,0,0:0:0:0:
51,105,72419,1,2,0:0:0:0:
95,185,72624,6,0,P|148:191|209:184,1,105.000000429154,0|0,3:0|0:0,0:0:0:0:
260,126,72933,1,0,0:0:0:0:
260,126,73035,2,0,L|342:132,1,52.5000002145768,2|0,0:0|0:0,0:0:0:0:
372,190,73241,2,0,L|454:184,1,52.5000002145768,2|0,0:0|0:0,0:0:0:0:
475,36,73446,2,0,P|467:94|490:134,1,105.000000429154,8|0,0:0|0:0,0:0:0:0:
507,217,73755,1,0,0:0:0:0:
492,256,73858,1,2,0:0:0:0:
477,295,74063,6,0,L|454:357,1,52.5000002145768,2|2,0:0|0:0,0:0:0:0:
507,217,74268,5,0,3:0:0:0:
465,215,74371,1,0,0:0:0:0:
429,194,74474,1,0,0:0:0:0:
407,158,74576,1,0,0:0:0:0:
404,117,74679,1,2,0:0:0:0:
422,79,74782,1,0,0:0:0:0:
454,54,74885,5,2,0:0:0:0:
488,131,74987,1,0,0:0:0:0:
429,194,75090,6,0,L|372:188,1,52.5000002145768,0|0,3:0|0:0,0:0:0:0:
267,58,75296,2,0,L|240:60,4,26.2500001072884,8|0|0|0|0,0:0|0:0|0:0|0:0|0:0,0:0:0:0:
152,112,75604,1,8,0:0:0:0:
97,176,75707,1,2,0:0:0:0:
81,257,75809,1,8,0:0:0:0:
129,346,75912,6,0,L|244:340,1,105.000000429154,4|0,0:0|0:0,0:0:0:0:
349,277,76220,2,0,L|296:270,1,52.5000002145768,2|0,0:0|0:0,0:0:0:0:
202,255,76426,2,0,P|187:218|205:138,1,105.000000429154,2|0,0:0|0:0,0:0:0:0:
330,96,76734,2,0,L|277:89,1,52.5000002145768,2|0,0:0|0:0,0:0:0:0:
390,201,76939,1,0,0:0:0:0:
390,201,77042,1,2,0:0:0:0:
390,201,77145,2,0,L|442:194,1,52.5000002145768
195,154,77350,6,0,P|171:93|220:5,1,157.50000064373,2|0,0:0|0:0,0:0:0:0:
277,89,77761,2,0,P|328:103|379:96,1,105.000000429154,2|0,0:0|0:0,0:0:0:0:
195,154,78070,2,0,P|157:191|137:238,1,105.000000429154,2|0,0:0|0:0,0:0:0:0:
292,94,78378,6,0,B|314:106|351:106|379:96|379:96|373:145,1,105.000000429154,2|0,0:0|0:0,0:0:0:0:
357,193,78686,1,2,0:0:0:0:
350,223,78789,2,0,L|358:295,1,52.5000002145768
488,317,78994,6,0,B|482:299|483:279|491:265|491:265|503:273|505:285,1,69.9999976158143,2|0,0:0|0:0,0:0:0:0:
465,360,79200,6,0,L|397:353,1,52.5000002145768,2|0,0:0|0:0,0:0:0:0:
355,275,79405,2,0,L|302:280,1,52.5000002145768,2|0,0:0|0:0,0:0:0:0:
207,293,79611,1,0,0:0:0:0:
265,366,79713,2,0,L|369:355,1,105.000000429154,2|0,0:0|0:0,0:0:0:0:
250,197,80022,2,0,L|207:292,1,105.000000429154,2|0,0:0|0:0,0:0:0:0:
403,267,80330,2,0,L|341:181,1,105.000000429154,2|0,0:0|0:0,0:0:0:0:
456,337,80638,2,0,P|481:342|507:340,1,52.5000002145768,2|0,0:0|0:0,0:0:0:0:
403,267,80844,6,0,B|357:204|357:204|354:168,1,105.000000429154
386,87,81152,1,2,0:0:0:0:
399,58,81255,2,0,L|479:47,1,52.5000002145768,2|0,0:0|0:0,0:0:0:0:
211,86,81460,1,2,0:0:0:0:
122,52,81563,1,0,0:0:0:0:
133,146,81666,2,0,P|134:187|99:237,1,105.000000429154,2|0,0:3|0:0,0:0:0:0:
40,159,81974,1,0,0:0:0:0:
133,146,82076,2,0,L|208:157,1,52.5000002145768,2|2,0:0|0:0,0:0:0:0:
320,175,82282,2,0,L|245:186,1,52.5000002145768,2|2,0:0|0:0,0:0:0:0:
98,238,82487,6,0,B|16:229|16:229|25:252,1,105.000000429154,0|2,3:0|0:0,0:0:0:0:
155,341,82796,1,0,0:0:0:0:
187,345,82898,2,0,B|269:354|269:354|260:331,1,105.000000429154,0|2,3:0|0:0,0:0:0:0:
184,153,83309,2,0,P|168:100|186:37,1,105.000000429154,0|2,3:0|0:0,0:0:0:0:
297,95,83720,1,0,0:0:0:0:
205,181,83926,1,2,0:0:0:0:
423,106,84131,6,0,B|409:171|409:171|422:213,1,105.000000429154,0|2,3:0|0:0,0:0:0:0:
451,285,84439,1,0,0:0:0:0:
467,323,84542,1,0,0:0:0:0:
288,260,84748,2,0,B|237:252|235:274|181:264,1,105.000000429154,2|0,0:0|3:0,0:0:0:0:
270,356,85159,1,2,0:0:0:0:
204,179,85364,1,0,3:0:0:0:
67,310,85570,1,2,0:0:0:0:
183,264,85775,6,0,B|235:274|237:252|288:260,1,105.000000429154,0|2,3:0|0:0,0:0:0:0:
376,294,86083,1,0,0:0:0:0:
402,327,86186,1,0,3:0:0:0:
356,208,86392,1,2,0:0:0:0:
170,344,86597,2,0,P|121:320|103:269,1,105.000000429154,0|2,1:0|0:0,0:0:0:0:
131,152,87008,1,0,3:0:0:0:
357,192,87213,2,0,P|307:237|244:237,1,105.000000429154,2|0,1:2|3:0,0:0:0:0:
131,152,87624,1,2,0:0:0:0:
252,117,87830,5,8,0:0:0:0:
292,105,87933,1,8,2:0:0:0:
332,93,88035,1,8,2:0:0:0:
412,69,88138,2,0,L|478:73,1,52.5000002145768,8|0,0:0|0:0,0:0:0:0:
393,151,88344,5,0,1:0:0:0:
313,175,88446,1,8,0:0:0:0:
252,117,88549,1,8,0:0:0:0:
266,34,88652,5,0,0:0:0:0:
261,61,88755,1,2,0:0:0:0:
256,88,88857,1,2,0:0:0:0:
252,117,88960,1,0,0:0:0:0:
242,204,89063,6,0,B|317:184|380:181|380:181|359:214|329:243,1,209.999992847443,4|0,0:0|0:0,0:0:0:0:
170,327,89474,2,0,B|103:288|43:269|43:269|55:306|76:342,1,209.999992847443,2|0,0:0|0:0,0:0:0:0:
158,212,89885,2,0,P|129:194|94:180,1,69.9999976158143,2|0,0:0|0:0,0:0:0:0:
25,35,90090,2,0,P|55:53|94:67,1,69.9999976158143,8|0,0:0|0:0,0:0:0:0:
234,115,90296,2,0,P|269:107|301:95,1,69.9999976158143,2|0,0:0|0:0,0:0:0:0:
445,237,90501,2,0,P|410:232|375:231,1,69.9999976158143,8|0,0:0|0:0,0:0:0:0:
240,337,90707,6,0,P|205:331|170:327,1,69.9999976158143
56,172,90912,2,0,P|95:180|125:183,1,69.9999976158143,8|0,0:0|0:0,0:0:0:0:
286,261,91118,2,0,B|319:183|301:95|301:95|265:145,1,209.999992847443,2|0,0:0|0:0,0:0:0:0:
195,183,91529,2,0,P|125:183|56:172,1,139.999995231629,2|8,0:0|2:0,2:0:0:0:
0,344,91837,2,0,P|45:297|138:303,1,139.999995231629,2|0,0:0|0:0,0:0:0:0:
258,350,92145,2,0,P|292:347|331:346,1,69.9999976158143,8|0,0:0|0:0,0:0:0:0:
453,222,92350,6,0,P|377:285|405:381,1,209.999992847443,2|0,0:0|0:0,0:0:0:0:
461,312,92761,2,0,B|315:281|402:358|253:324,1,209.999992847443,2|0,2:0|2:0,2:0:0:0:
195,238,93172,2,0,P|195:160|200:81,1,139.999995231629,2|8,0:0|0:0,0:0:0:0:
350,16,93481,2,0,P|350:89|346:157,1,139.999995231629
90,67,93789,2,0,B|110:133|70:206|90:285,1,209.999992847443,8|0,0:0|0:0,0:0:0:0:
199,98,94200,6,0,L|276:89,1,69.9999976158143,8|0,0:0|0:0,0:0:0:0:
359,261,94405,2,0,L|289:251,1,69.9999976158143,2|0,0:0|0:0,0:0:0:0:
48,359,94611,1,8,0:0:0:0:
48,359,94713,2,0,P|51:283|106:242,1,139.999995231629
260,360,95022,1,8,0:0:0:0:
260,360,95125,1,0,0:0:0:0:
260,360,95227,2,0,P|268:292|221:242,1,139.999995231629,2|8,0:0|0:0,0:0:0:0:
59,156,95535,1,0,0:0:0:0:
59,156,95638,6,0,B|111:178|163:158|163:138|214:118|264:148,1,209.999992847443,2|0,2:0|2:0,2:0:0:0:
382,233,96049,2,0,P|297:284|214:228,1,209.999992847443,2|0,0:0|0:0,0:0:0:0:
31,265,96460,2,0,P|99:250|126:181,1,139.999995231629,0|8,0:0|0:0,0:0:0:0:
279,41,96768,2,0,P|216:72|207:146,1,139.999995231629
382,233,97076,2,0,L|299:233,1,69.9999976158143,8|0,0:0|0:0,0:0:0:0:
107,378,97282,6,0,P|134:311|105:249,1,139.999995231629,0|8,0:0|0:0,0:0:0:0:
40,49,97590,2,0,P|16:112|42:175,1,139.999995231629
217,313,97898,2,0,L|287:313,1,69.9999976158143,8|0,0:0|0:0,0:0:0:0:
426,150,98104,2,0,L|356:150,1,69.9999976158143,2|0,0:0|0:0,0:0:0:0:
159,188,98309,2,0,P|144:112|262:112,1,209.999992847443,8|0,0:0|0:0,0:0:0:0:
460,249,98720,2,0,L|390:249,1,69.9999976158143,8|0,0:0|0:0,0:0:0:0:
141,288,98926,6,0,B|210:291|255:220|255:220|230:280|212:324|219:381|320:401|346:326|346:326|386:348|440:325,1,489.9999833107,2|0,0:0|0:0,0:0:0:0:
356,150,99748,2,0,B|314:158|242:80|242:80|233:157|255:221|255:221|154:147|37:219,1,489.9999833107,2|0,0:0|0:0,0:0:0:0:
268,351,100570,2,0,B|277:233|241:206|230:160|241:109|242:80|242:80|174:94|97:74|97:74|130:89|163:118,1,489.9999833107,2|0,0:0|0:0,0:0:0:0:
356,150,101392,6,0,P|411:135|439:121,1,69.9999976158143,2|0,0:0|0:0,0:0:0:0:
251,208,101597,2,0,P|212:204|172:189,1,69.9999976158143,8|0,0:0|0:0,0:0:0:0:
400,252,101803,2,0,P|455:237|483:223,1,69.9999976158143,2|0,0:0|0:0,0:0:0:0:
233,327,102008,1,8,0:0:0:0:
233,327,102111,2,0,P|160:317|95:291,1,139.999995231629
40,160,102419,6,0,L|122:167,1,69.9999976158143,8|0,0:0|0:0,0:0:0:0:
312,278,102624,2,0,L|319:200,1,69.9999976158143,2|0,0:0|0:0,0:0:0:0:
416,38,102830,2,0,L|337:31,1,69.9999976158143,8|0,0:0|0:0,0:0:0:0:
136,21,103035,5,0,3:0:0:0:
84,87,103138,1,0,3:0:0:0:
110,166,103241,1,0,3:0:0:0:
191,185,103344,1,0,3:0:0:0:
254,131,103446,1,0,3:0:0:0:
266,47,103549,1,0,3:0:0:0:
339,5,103652,1,0,3:0:0:0:
416,38,103755,1,0,3:0:0:0:
457,128,103857,6,0,P|382:169|308:119,1,167.999989151001,4|8,0:0|0:0,0:0:0:0:
142,168,104166,1,0,0:0:0:0:
142,168,104268,2,0,P|206:128|190:32,1,167.999989151001,2|8,0:0|0:0,0:0:0:0:
63,125,104576,1,0,0:0:0:0:
63,125,104679,2,0,B|53:168|53:168|68:227,1,83.9999945755007,2|0,0:0|0:0,0:0:0:0:
147,363,104885,1,8,0:0:0:0:
188,289,104987,2,0,B|148:265|108:281|108:297|68:313|12:289,1,167.999989151001,2|0,0:0|2:0,2:0:0:0:
266,328,105296,2,0,B|275:289|275:289|265:246,1,83.9999945755007,8|0,0:0|0:0,0:0:0:0:
139,92,105501,6,0,L|236:107,1,83.9999945755007,2|0,0:0|0:0,0:0:0:0:
380,183,105707,2,0,L|293:169,1,83.9999945755007,8|0,0:0|0:0,0:0:0:0:
62,206,105912,2,0,L|154:182,1,83.9999945755007,2|0,0:0|0:0,0:0:0:0:
371,28,106118,2,0,L|289:42,1,83.9999945755007,8|0,0:0|0:0,0:0:0:0:
43,90,106323,2,0,L|132:105,1,83.9999945755007,2|0,0:0|0:0,0:0:0:0:
213,320,106529,1,8,0:0:0:0:
251,242,106631,2,0,P|170:243|127:317,1,167.999989151001,2|0,0:0|0:0,0:0:0:0:
328,367,106939,2,0,B|328:283,1,83.9999945755007,8|0,0:0|0:0,0:0:0:0:
507,212,107145,6,0,P|490:290|414:314,1,167.999989151001,2|8,0:0|0:0,0:0:0:0:
335,87,107453,1,0,0:0:0:0:
335,87,107556,2,0,P|414:73|465:136,1,167.999989151001,2|8,0:0|0:0,0:0:0:0:
248,127,107864,1,0,0:0:0:0:
248,127,107967,2,0,B|239:88|239:88|249:45,1,83.9999945755007,2|0,0:0|0:0,0:0:0:0:
66,175,108172,2,0,B|148:196,1,83.9999945755007,8|0,0:0|0:0,0:0:0:0:
264,342,108378,2,0,B|242:251,1,83.9999945755007,2|0,0:0|0:0,0:0:0:0:
452,258,108583,1,8,0:0:0:0:
423,333,108686,1,2,0:0:0:0:
345,364,108789,6,0,P|302:349|252:341,1,83.9999945755007,2|0,0:0|0:0,0:0:0:0:
38,265,108994,2,0,P|79:250|125:243,1,83.9999945755007,8|0,0:0|0:0,0:0:0:0:
327,151,109200,2,0,P|286:135|244:126,1,83.9999945755007,2|0,0:0|0:0,0:0:0:0:
117,16,109405,1,8,0:0:0:0:
46,67,109508,2,0,P|116:104|194:57,1,167.999989151001,2|0,0:0|0:0,0:0:0:0:
330,11,109816,5,8,0:0:0:0:
411,32,109919,1,0,0:0:0:0:
458,101,110022,1,2,0:0:0:0:
441,181,110124,1,0,0:0:0:0:
368,224,110227,1,8,0:0:0:0:
283,211,110330,1,0,0:0:0:0:
198,153,110433,6,0,P|116:140|59:211,1,167.999989151001,2|8,0:0|0:0,0:0:0:0:
150,376,110741,1,0,0:0:0:0:
150,376,110844,2,0,B|174:336|158:296|142:296|126:256|145:214,1,167.999989151001,2|8,0:0|0:0,0:0:0:0:
252,72,111152,1,0,0:0:0:0:
252,72,111255,2,0,L|344:87,1,83.9999945755007,2|0,0:0|0:0,0:0:0:0:
469,256,111460,1,8,0:0:0:0:
422,324,111563,2,0,P|343:337|296:256,1,167.999989151001,2|0,0:0|0:0,0:0:0:0:
254,155,111871,2,0,P|251:116|252:68,1,83.9999945755007,8|0,0:0|0:0,0:0:0:0:
128,295,112076,6,0,L|210:273,1,83.9999945755007,2|0,0:0|0:0,0:0:0:0:
371,268,112282,2,0,B|330:250|289:266|289:282|249:298|209:274,1,167.999989151001,10|2,2:0|2:0,2:0:0:0:
63,213,112590,1,0,0:0:0:0:
63,213,112693,2,0,B|102:222|102:222|147:211,1,83.9999945755007,8|0,0:0|0:0,0:0:0:0:
233,76,112898,2,0,P|148:77|104:147,1,167.999989151001,2|8,0:0|0:0,0:0:0:0:
159,338,113207,1,0,0:0:0:0:
159,338,113309,2,0,P|190:310|209:273,1,83.9999945755007,2|0,0:0|0:0,0:0:0:0:
233,76,113515,2,0,P|255:113|292:141,1,83.9999945755007,8|0,0:0|0:0,0:0:0:0:
445,313,113720,6,0,P|404:247|306:257,1,167.999989151001,2|8,0:0|0:0,0:0:0:0:
107,246,114029,1,0,0:0:0:0:
107,246,114131,2,0,P|186:261|244:189,1,167.999989151001,2|8,0:0|0:0,0:0:0:0:
160,36,114439,1,0,0:0:0:0:
160,36,114542,6,0,B|151:79|151:79|165:129,1,83.9999945755007,2|0,0:0|0:0,0:0:0:0:
321,62,114748,5,8,0:0:0:0:
415,65,114850,2,0,B|321:62,1,94.4999971418381,0|2,0:0|0:0,0:0:0:0:
240,201,115056,5,0,0:0:0:0:
146,208,115159,2,0,B|251:200,1,94.4999971418381,8|0,0:0|0:0,0:0:0:0:
397,193,115364,1,2,0:0:0:0:
157,319,115570,1,8,0:0:0:0:
451,332,115775,5,0,3:0:0:0:
369,351,115878,1,0,3:0:0:0:
289,321,115981,1,0,3:0:0:0:
236,256,116083,2,0,P|196:239|141:238,1,83.9999945755007,8|0,0:0|0:0,0:0:0:0:
24,136,116289,5,0,0:0:0:0:
102,167,116392,1,8,3:2:0:0:
184,154,116494,1,0,3:0:0:0:
252,104,116597,1,8,3:2:0:0:
335,97,116700,1,0,3:0:0:0:
409,135,116803,1,8,3:2:0:0:
448,208,116905,1,0,3:0:0:0:
408,291,117008,6,0,P|338:326|259:270,1,167.999989151001,4|0,0:0|0:0,0:0:0:0:
87,286,117316,1,0,0:0:0:0:
87,286,117419,2,0,P|168:275|199:195,1,167.999989151001,2|8,0:0|0:0,0:0:0:0:
339,161,117727,1,0,0:0:0:0:
339,161,117830,2,0,L|339:257,1,83.9999945755007,2|0,0:0|0:0,0:0:0:0:
248,11,118035,1,8,0:0:0:0:
215,89,118138,2,0,B|256:107|297:91|297:75|337:59|377:83,1,167.999989151001,2|0,0:0|0:0,2:0:0:0:
126,127,118446,2,0,B|120:85|120:85|130:39,1,83.9999945755007,8|0,0:0|0:0,0:0:0:0:
339,161,118652,6,0,L|256:180,1,83.9999945755007,2|0,0:0|0:0,0:0:0:0:
62,203,118857,2,0,L|143:222,1,83.9999945755007,8|0,0:0|0:0,0:0:0:0:
364,280,119063,2,0,L|281:259,1,83.9999945755007,2|0,0:0|0:0,0:0:0:0:
42,341,119268,2,0,L|123:320,1,83.9999945755007,8|0,0:0|0:0,0:0:0:0:
339,161,119474,2,0,L|257:180,1,83.9999945755007,2|0,0:0|0:0,0:0:0:0:
341,368,119679,1,8,0:0:0:0:
419,351,119782,2,0,P|452:281|409:201,1,167.999989151001,2|0,0:0|0:0,0:0:0:0:
176,141,120090,2,0,B|167:181|167:181|177:224,1,83.9999945755007,8|0,0:0|0:0,0:0:0:0:
309,83,120296,6,0,P|280:24|169:14,1,167.999989151001,2|8,0:0|0:0,0:0:0:0:
39,148,120604,1,0,0:0:0:0:
39,148,120707,2,0,P|96:185|179:137,1,167.999989151001,2|8,0:0|0:0,0:0:0:0:
104,21,121015,1,0,0:0:0:0:
104,21,121118,2,0,L|108:120,1,83.9999945755007,2|0,0:0|0:0,0:0:0:0:
334,186,121323,2,0,L|238:151,1,83.9999945755007,8|0,0:0|0:0,0:0:0:0:
101,312,121529,2,0,L|169:243,1,83.9999945755007,2|0,0:0|0:0,0:0:0:0:
331,281,121734,1,8,0:0:0:0:
403,333,121837,6,0,P|331:368|248:313,1,167.999989151001,2|0,0:0|0:0,0:0:0:0:
334,186,122145,2,0,P|381:175|429:162,1,83.9999945755007,8|0,0:0|0:0,0:0:0:0:
245,227,122350,2,0,L|163:206,1,83.9999945755007,2|0,0:0|0:0,0:0:0:0:
29,119,122556,1,8,0:0:0:0:
103,83,122659,2,0,B|121:124|105:165|89:165|73:205|97:245,1,167.999989151001,2|0,0:0|0:0,0:0:0:0:
44,349,122967,1,8,0:0:0:0:
82,317,123070,1,0,0:0:0:0:
132,311,123172,5,2,0:0:0:0:
211,344,123275,1,0,0:0:0:0:
295,337,123378,1,8,0:0:0:0:
346,270,123481,1,0,0:0:0:0:
343,162,123583,6,0,P|268:194|240:271,1,167.999989151001,2|8,0:0|0:0,0:0:0:0:
115,141,123892,1,0,0:0:0:0:
115,141,123994,2,0,B|160:129|193:156|189:172|223:199|268:194,1,167.999989151001,2|8,0:0|0:0,0:0:0:0:
370,77,124303,1,0,0:0:0:0:
370,77,124405,2,0,P|323:76|276:90,1,83.9999945755007,2|0,0:0|0:0,0:0:0:0:
66,212,124611,1,8,0:0:0:0:
111,285,124713,2,0,P|149:213|114:140,1,167.999989151001,2|0,0:0|0:0,0:0:0:0:
271,370,125022,1,8,0:0:0:0:
236,293,125124,1,2,0:0:0:0:
277,219,125227,6,0,B|320:209|320:209|380:213,1,83.9999945755007,2|0,0:0|0:0,0:0:0:0:
161,353,125433,2,0,B|119:364|119:364|76:364,1,83.9999945755007,8|0,0:0|0:0,0:0:0:0:
277,130,125638,2,0,L|360:135,1,83.9999945755007,2|0,0:0|0:0,0:0:0:0:
108,284,125844,2,0,L|24:284,1,83.9999945755007,8|0,0:0|0:0,0:0:0:0:
157,67,126049,6,0,P|238:62|272:155,1,167.999989151001,2|8,0:0|0:0,0:0:0:0:
191,228,126357,1,0,0:0:0:0:
191,228,126460,2,0,L|196:144,1,83.9999945755007,2|0,0:0|0:0,0:0:0:0:
339,310,126666,2,0,L|335:227,1,83.9999945755007,8|0,0:0|0:0,0:0:0:0:
450,167,126871,6,0,P|428:92|340:80,1,167.999989151001,2|8,0:0|0:0,0:0:0:0:
194,229,127179,1,0,0:0:0:0:
194,229,127282,2,0,P|201:150|281:131,1,167.999989151001,2|8,0:0|0:0,0:0:0:0:
385,245,127590,1,0,0:0:0:0:
385,245,127693,6,0,L|483:252,1,83.9999945755007,2|0,0:0|0:0,0:0:0:0:
232,311,127898,5,8,0:0:0:0:
138,305,128001,2,0,L|235:312,1,94.4999971418381,2|0,0:0|0:0,0:0:0:0:
465,349,128207,5,8,0:0:0:0:
372,362,128309,2,0,L|475:348,1,94.4999971418381,8|0,0:0|0:0,0:0:0:0:
279,221,128515,5,4,0:0:0:0:
256,192,128618,12,0,130056,0:0:0:0:
150,187,130159,6,0,P|213:182|270:254,1,146.999990507126,6|0,0:0|0:0,0:0:0:0:
272,327,130570,2,0,L|381:300,1,97.9999936714175,2|0,0:3|0:0,0:0:0:0:
506,182,130981,2,0,P|473:211|409:208,1,97.9999936714175,8|0,0:0|0:0,0:0:0:0:
362,142,131289,1,0,0:0:0:0:
492,7,131597,1,2,0:3:0:0:
488,36,131700,1,2,0:3:0:0:
399,57,131803,6,0,L|249:43,1,146.999990507126,2|0,0:0|0:0,0:0:0:0:
185,97,132213,1,2,0:3:0:0:
201,271,132419,1,0,0:0:0:0:
55,193,132624,2,0,P|103:175|156:195,1,97.9999936714175,8|0,0:0|0:0,0:0:0:0:
105,273,132933,1,0,0:0:0:0:
311,369,133241,1,2,0:3:0:0:
311,339,133344,1,2,0:3:0:0:
350,249,133446,6,0,P|419:268|474:204,1,146.999990507126,2|0,0:0|0:0,0:0:0:0:
444,127,133857,2,0,P|433:82|451:21,1,97.9999936714175,2|0,0:3|0:0,0:0:0:0:
324,79,134268,2,0,L|199:72,1,97.9999936714175,8|0,0:0|0:0,0:0:0:0:
147,119,134576,1,0,0:0:0:0:
220,344,134885,1,2,0:3:0:0:
224,315,134987,1,2,0:3:0:0:
172,237,135090,6,0,P|231:220|304:274,1,146.999990507126,2|0,0:0|0:0,0:0:0:0:
373,196,135501,1,2,0:3:0:0:
167,129,135707,1,0,3:0:0:0:
265,44,135912,1,2,0:0:0:0:
265,44,136118,2,0,L|269:109,1,48.9999968357087,8|0,0:0|0:0,0:0:0:0:
167,129,136323,2,0,L|133:119,2,24.4999984178544,8|8|8,3:2|3:2|3:2,3:2:0:0:
221,199,136529,1,8,0:0:0:0:
211,286,136631,1,0,0:0:0:0:
134,331,136734,6,0,B|35:340|35:340|-11:303,1,146.999990507126,4|0,0:0|0:0,0:0:0:0:
65,246,137145,2,0,P|73:184|58:137,1,97.9999936714175,2|0,0:3|0:0,0:0:0:0:
83,9,137556,2,0,P|142:13|173:50,1,97.9999936714175,8|0,0:0|0:0,0:0:0:0:
262,32,137864,2,0,L|375:5,1,97.9999936714175
457,82,138172,1,2,0:3:0:0:
453,111,138275,1,2,0:3:0:0:
376,171,138378,6,0,P|349:237|387:319,1,146.999990507126,2|0,0:0|0:0,0:0:0:0:
445,359,138789,1,2,0:3:0:0:
512,188,138994,1,0,0:0:0:0:
289,343,139200,2,0,L|165:326,1,97.9999936714175,8|0,0:0|0:0,0:0:0:0:
124,258,139508,2,0,P|168:233|228:243,1,97.9999936714175
325,216,139816,1,2,0:3:0:0:
318,187,139919,1,2,0:3:0:0:
396,142,140022,6,0,L|206:125,1,146.999990507126,2|0,0:0|0:0,0:0:0:0:
160,93,140433,2,0,P|155:44|182:-3,1,97.9999936714175,2|0,0:3|0:0,0:0:0:0:
226,222,140844,2,0,L|213:349,1,97.9999936714175,8|0,0:0|0:0,0:0:0:0:
294,377,141152,2,0,P|348:378|403:338,1,97.9999936714175
463,232,141460,1,2,0:3:0:0:
453,259,141563,1,2,0:3:0:0:
442,286,141666,6,0,L|387:266,1,48.9999968357087,0|0,3:0|0:0,0:0:0:0:
373,156,141871,2,0,L|326:172,1,48.9999968357087
229,256,142076,1,0,3:0:0:0:
212,266,142179,1,0,0:0:0:0:
193,271,142282,1,0,0:0:0:0:
173,270,142385,1,0,0:0:0:0:
155,262,142487,6,0,L|139:211,1,48.9999968357087,0|0,3:0|0:0,0:0:0:0:
236,145,142693,2,0,L|252:94,1,48.9999968357087
46,217,142898,2,0,L|61:264,1,48.9999968357087,8|0,3:0|0:0,0:0:0:0:
328,148,143104,2,0,L|314:195,1,48.9999968357087
203,363,143309,5,4,0:0:0:0:
203,363,143720,2,0,L|290:346,1,69.9999976158143,0|0,3:0|0:0,0:0:0:0:
351,294,144131,2,0,P|400:297|466:305,2,104.999996423721,0|0|0,3:0|0:0|0:0,0:0:0:0:
327,171,144953,6,0,P|320:114|349:52,1,104.999996423721,0|0,1:0|0:0,0:0:0:0:
323,53,145364,2,0,L|242:49,1,69.9999976158143,0|0,3:0|0:0,0:0:0:0:
241,57,145672,1,0,0:0:0:0:
228,63,145775,2,0,L|83:53,1,139.999995231629,0|0,1:0|0:0,0:0:0:0:
3,249,146597,6,0,L|13:327,1,69.9999976158143,0|0,3:0|0:0,0:0:0:0:
116,275,147008,2,0,L|106:353,1,69.9999976158143
198,380,147419,1,0,3:0:0:0:
222,365,147624,1,0,0:0:0:0:
239,343,147830,1,0,0:0:0:0:
242,315,148035,1,0,0:0:0:0:
207,224,148241,6,0,P|242:215|304:211,1,69.9999976158143,0|0,1:0|0:0,0:0:0:0:
340,339,148652,2,0,P|382:363|449:367,1,104.999996423721,0|0,3:0|0:0,0:0:0:0:
455,359,149063,2,0,L|458:248,1,104.999996423721,0|0,3:0|1:0,0:0:0:0:
410,34,149885,6,0,P|402:101|397:194,1,139.999995231629,0|0,3:0|3:0,0:0:0:0:
285,122,150501,1,0,0:0:0:0:
285,122,150604,1,0,0:0:0:0:
285,122,150707,2,0,P|224:103|172:105,2,104.999996423721,0|0|0,3:0|3:0|0:0,0:0:0:0:
337,195,151529,6,0,L|325:319,1,104.999996423721,0|0,1:0|0:0,0:0:0:0:
315,316,151940,2,0,P|261:314|226:300,1,69.9999976158143,0|0,3:0|0:0,0:0:0:0:
236,299,152248,1,0,0:0:0:0:
228,287,152350,2,0,L|223:206,1,69.9999976158143,0|0,3:0|0:0,0:0:0:0:
264,136,152659,1,0,1:0:0:0:
264,136,153172,6,0,P|189:133|121:124,1,139.999995231629,0|0,3:0|0:0,0:0:0:0:
42,150,153789,1,0,0:0:0:0:
32,176,153994,1,0,1:0:0:0:
33,204,154200,1,0,0:0:0:0:
106,258,154405,2,0,L|113:347,1,69.9999976158143
232,369,154816,5,0,3:0:0:0:
232,369,155022,1,0,0:0:0:0:
316,316,155227,1,0,1:0:0:0:
408,360,155433,1,0,0:0:0:0:
470,259,155638,2,0,P|456:201|457:141,1,104.999996423721,0|0,3:0|1:0,0:0:0:0:
463,138,156049,2,0,L|474:65,1,69.9999976158143
325,25,156460,6,0,P|334:89|339:189,1,139.999995231629,0|0,3:0|3:0,0:0:0:0:
371,316,157076,1,0,0:0:0:0:
371,316,157179,1,0,0:0:0:0:
371,316,157282,2,0,P|415:297|482:326,2,104.999996423721,0|0|0,3:0|3:0|3:0,0:0:0:0:
285,261,158104,6,0,L|177:232,1,104.999996423721,0|0,1:0|0:0,0:0:0:0:
169,246,158515,2,0,P|140:253|86:243,1,69.9999976158143,0|0,3:0|0:0,0:0:0:0:
90,238,158823,1,0,0:0:0:0:
81,226,158926,2,0,L|75:134,1,69.9999976158143,0|0,1:0|0:0,0:0:0:0:
169,42,159337,1,0,0:0:0:0:
169,42,159748,6,0,L|249:36,1,69.9999976158143,0|0,3:0|0:0,0:0:0:0:
254,135,160159,2,0,L|323:140,1,69.9999976158143,0|0,1:0|0:0,0:0:0:0:
365,234,160570,1,0,3:0:0:0:
353,259,160775,1,0,0:0:0:0:
352,287,160981,1,0,1:0:0:0:
361,313,161186,1,0,3:0:0:0:
463,241,161392,6,0,L|454:130,2,104.999996423721,0|0|0,3:0|0:0|0:0,0:0:0:0:
476,257,162111,1,0,0:0:0:0:
488,273,162213,2,0,L|498:357,1,69.9999976158143,0|0,1:0|0:0,0:0:0:0:
339,374,162624,1,0,0:0:0:0:
339,374,162830,1,0,3:0:0:0:
278,300,163035,6,0,P|337:277|409:316,1,139.999995231629,0|0,3:0|3:0,0:0:0:0:
321,197,163652,1,0,0:0:0:0:
321,197,163755,1,0,0:0:0:0:
321,197,163857,2,0,P|315:137|322:88,2,104.999996423721,0|0|0,1:0|3:0|3:0,0:0:0:0:
193,249,164679,6,0,L|100:243,1,69.9999976158143,0|0,3:0|0:0,0:0:0:0:
2,335,165090,2,0,L|71:330,1,69.9999976158143,0|0,1:0|0:0,0:0:0:0:
167,154,165501,1,0,3:0:0:0:
167,154,165707,1,0,0:0:0:0:
32,237,165912,1,0,1:0:0:0:
64,74,166118,1,0,3:0:0:0:
64,74,166220,1,0,3:0:0:0:
64,74,166323,6,0,L|75:170,1,69.9999976158143,0|0,3:0|0:0,0:0:0:0:
255,204,166734,2,0,L|262:134,1,69.9999976158143
326,23,167145,1,0,1:0:0:0:
167,154,167350,1,0,0:0:0:0:
186,34,167556,1,0,0:0:0:0:
347,184,167761,1,0,3:0:0:0:
510,95,167967,6,0,B|436:59|375:93|375:93|412:106|430:128|447:174,1,244.99999165535,0|0,3:0|0:0,0:0:0:0:
427,249,168789,1,0,1:0:0:0:
427,249,168892,2,0,L|435:321,1,48.9999968357087,0|0,3:0|0:0,0:0:0:0:
307,339,169097,2,0,L|301:290,1,48.9999968357087,8|0,3:2|0:0,0:0:0:0:
289,155,169303,1,0,3:0:0:0:
190,126,169405,2,0,L|192:198,1,48.9999968357087,0|0,3:0|0:0,0:0:0:0:
158,281,169611,6,0,P|81:270|9:268,1,146.999990507126,4|0,0:0|0:0,0:0:0:0:
27,282,170022,2,0,L|10:180,1,97.9999936714175,0|2,3:0|0:0,0:0:0:0:
68,22,170433,2,0,P|124:40|145:95,1,97.9999936714175,0|2,3:0|0:0,0:0:0:0:
137,97,170741,2,0,L|220:93,1,48.9999968357087,0|0,0:0|3:0,0:0:0:0:
364,27,170946,1,0,0:0:0:0:
275,43,171049,2,0,P|268:92|266:173,1,97.9999936714175,2|0,0:0|0:0,0:0:0:0:
165,332,171460,6,0,L|235:321,1,48.9999968357087,2|0,0:0|0:0,0:0:0:0:
259,239,171666,1,0,3:0:0:0:
259,239,171768,2,0,L|329:246,1,48.9999968357087,0|2,0:0|0:0,0:0:0:0:
356,168,171974,1,0,0:0:0:0:
356,168,172076,2,0,L|422:193,1,48.9999968357087,0|0,3:0|0:0,0:0:0:0:
468,319,172282,1,2,0:0:0:0:
468,319,172385,2,0,L|461:254,1,48.9999968357087,0|0,0:0|3:0,0:0:0:0:
512,190,172590,2,0,P|513:131|503:92,1,97.9999936714175
444,29,172898,5,0,3:0:0:0:
268,108,173104,2,0,L|203:97,1,48.9999968357087,2|0,0:0|0:0,0:0:0:0:
167,25,173309,1,0,3:0:0:0:
167,25,173412,2,0,P|116:21|56:38,1,97.9999936714175
17,141,173720,2,0,L|40:215,1,48.9999968357087,0|0,3:0|0:0,0:0:0:0:
144,180,173926,1,2,0:0:0:0:
144,180,174029,2,0,L|129:226,1,48.9999968357087,0|0,0:0|3:0,0:0:0:0:
0,347,174337,6,0,P|45:327|144:356,1,146.999990507126,2|0,0:0|0:0,0:0:0:0:
149,368,174748,2,0,L|257:358,1,97.9999936714175,2|0,0:0|3:0,0:0:0:0:
351,322,175056,1,0,0:0:0:0:
362,294,175159,1,2,0:0:0:0:
361,264,175261,1,0,0:0:0:0:
345,239,175364,2,0,L|281:206,1,48.9999968357087,0|0,3:0|0:0,0:0:0:0:
274,115,175570,2,0,L|230:137,1,48.9999968357087,2|0,0:0|0:0,0:0:0:0:
171,236,175775,5,0,3:0:0:0:
86,262,175878,1,2,0:3:0:0:
23,199,175981,1,2,0:3:0:0:
32,111,176083,1,2,0:3:0:0:
100,55,176186,6,0,P|152:62|210:55,1,97.9999936714175,0|0,1:0|0:0,0:0:0:0:
274,12,176494,1,0,0:0:0:0:
274,12,176597,2,0,L|333:13,1,48.9999968357087,0|0,3:0|0:0,0:0:0:0:
396,67,176803,1,2,0:0:0:0:
396,67,177008,2,0,P|391:113|388:183,1,97.9999936714175,0|2,3:0|0:0,0:0:0:0:
446,234,177316,2,0,L|454:290,1,48.9999968357087,0|0,0:0|3:0,0:0:0:0:
399,374,177522,1,0,0:0:0:0:
345,297,177624,6,0,P|271:279|195:280,1,146.999990507126,2|0,0:0|0:0,0:0:0:0:
188,295,178035,2,0,L|121:307,1,48.9999968357087,2|0,0:0|0:0,0:0:0:0:
56,349,178241,1,0,3:0:0:0:
56,349,178344,2,0,L|21:310,1,48.9999968357087,0|2,0:0|0:0,0:0:0:0:
58,213,178549,1,0,0:0:0:0:
58,213,178652,2,0,P|108:191|161:209,1,97.9999936714175,0|2,3:0|0:0,0:0:0:0:
186,110,178960,2,0,P|145:83|129:37,1,97.9999936714175
38,45,179268,2,0,P|34:93|3:129,1,97.9999936714175,2|0,0:0|3:0,0:0:0:0:
101,173,179576,5,0,0:0:0:0:
101,173,179679,2,0,L|124:298,1,97.9999936714175,2|0,0:0|3:0,0:0:0:0:
198,311,179987,2,0,L|294:293,1,97.9999936714175
355,225,180296,2,0,L|337:128,1,97.9999936714175,0|2,3:0|0:0,0:0:0:0:
260,81,180604,2,0,L|163:98,1,97.9999936714175
227,196,180912,1,8,3:0:0:0:
227,196,181323,6,0,P|224:238|245:298,1,97.9999936714175,0|0,3:0|0:0,0:0:0:0:
399,346,181631,1,0,3:0:0:0:
473,304,181734,2,0,L|482:231,1,48.9999968357087,8|8,3:2|3:2,3:0:0:0:
384,1,182042,1,0,3:0:0:0:
394,88,182145,1,8,3:2:0:0:
402,176,182248,1,8,3:2:0:0:
355,249,182350,5,8,3:2:0:0:
323,263,182453,1,0,3:0:0:0:
288,259,182556,1,0,3:0:0:0:
262,236,182659,1,8,3:2:0:0:
268,135,182761,6,0,L|188:120,1,69.9999976158143,4|0,0:0|0:0,0:0:0:0:
26,332,182967,2,0,P|103:325|240:331,1,209.999992847443,8|0,0:0|0:0,0:0:0:0:
175,230,183378,2,0,P|135:229|92:231,1,69.9999976158143,8|0,0:0|0:0,0:0:0:0:
2,50,183583,6,0,P|64:65|80:137,1,139.999995231629,0|8,0:0|0:0,0:0:0:0:
261,181,183892,1,0,0:0:0:0:
261,181,183994,2,0,P|255:137|275:89,1,69.9999976158143
186,41,184200,2,0,P|221:13|272:7,1,69.9999976158143,8|0,0:0|0:0,0:0:0:0:
365,153,184405,5,0,0:0:0:0:
362,173,184508,1,0,0:0:0:0:
358,193,184611,2,0,L|435:184,1,69.9999976158143,8|0,0:0|0:0,0:0:0:0:
308,288,184816,2,0,L|377:279,1,69.9999976158143
249,384,185022,2,0,L|318:375,1,69.9999976158143,8|0,0:0|0:0,0:0:0:0:
467,92,185227,6,0,L|309:107,1,139.999995231629,0|8,0:0|0:0,0:0:0:0:
159,251,185535,1,0,0:0:0:0:
159,251,185638,2,0,P|236:232|266:172,1,139.999995231629,0|8,0:0|0:0,0:0:0:0:
179,88,185946,1,0,0:0:0:0:
179,88,186049,6,0,L|179:184,1,69.9999976158143,4|0,0:0|0:0,0:0:0:0:
356,269,186255,2,0,L|356:199,1,69.9999976158143,8|0,0:0|0:0,0:0:0:0:
177,273,186460,2,0,L|247:273,1,69.9999976158143
358,96,186666,2,0,L|262:96,1,69.9999976158143,8|0,0:0|0:0,0:0:0:0:
95,208,186871,6,0,P|20:212|-9:140,1,139.999995231629,0|8,0:0|0:0,0:0:0:0:
185,105,187179,1,0,0:0:0:0:
185,105,187282,2,0,P|187:136|189:182,1,69.9999976158143
86,377,187487,2,0,P|87:342|89:307,1,69.9999976158143,8|0,0:0|0:0,0:0:0:0:
255,262,187693,5,0,0:0:0:0:
255,262,187796,1,0,0:0:0:0:
255,262,187898,2,0,P|291:246|335:248,1,69.9999976158143,8|0,0:0|0:0,0:0:0:0:
512,266,188104,2,0,P|476:250|432:252,1,69.9999976158143
313,349,188309,1,8,0:0:0:0:
313,349,188412,1,0,0:0:0:0:
313,349,188515,6,0,L|462:344,1,139.999995231629,0|8,0:0|0:0,0:0:0:0:
375,164,188823,1,0,0:0:0:0:
375,164,188926,2,0,P|369:93|366:19,1,139.999995231629,0|8,0:0|0:0,0:0:0:0:
199,228,189337,6,0,P|196:297|190:367,1,139.999995231629,4|8,0:0|0:0,0:0:0:0:
305,339,189645,1,0,0:0:0:0:
305,339,189748,2,0,P|302:299|307:263,1,69.9999976158143
89,256,189953,2,0,P|92:290|89:325,1,69.9999976158143,8|0,0:0|0:0,0:0:0:0:
143,146,190159,6,0,P|207:127|285:169,1,139.999995231629,0|8,0:0|0:0,0:0:0:0:
405,315,190467,1,0,0:0:0:0:
405,315,190570,2,0,P|446:306|486:290,1,69.9999976158143
414,204,190775,2,0,P|426:163|432:121,1,69.9999976158143,8|0,0:0|0:0,0:0:0:0:
277,25,190981,6,0,L|288:174,1,139.999995231629,0|8,0:0|0:0,0:0:0:0:
213,306,191289,1,0,0:0:0:0:
213,306,191392,2,0,L|130:284,1,69.9999976158143
149,178,191597,2,0,L|56:197,1,69.9999976158143,8|0,0:0|0:0,0:0:0:0:
37,374,191803,5,0,0:0:0:0:
37,374,191905,1,0,0:0:0:0:
37,374,192008,2,0,P|49:336|50:289,1,69.9999976158143,8|0,0:0|0:0,0:0:0:0:
14,126,192213,1,0,0:0:0:0:
14,126,192315,1,0,0:0:0:0:
14,126,192419,2,0,P|2:88|1:41,1,69.9999976158143,8|0,0:0|0:0,0:0:0:0:
132,0,192624,6,0,P|213:8|253:52,1,139.999995231629,4|8,0:0|0:0,0:0:0:0:
223,218,192933,1,0,0:0:0:0:
223,218,193035,2,0,P|217:182|219:148,1,69.9999976158143
340,6,193241,2,0,P|346:42|343:75,1,69.9999976158143,8|0,0:0|0:0,0:0:0:0:
337,282,193446,5,0,0:0:0:0:
341,287,193549,2,0,P|378:279|435:282,1,69.9999976158143,8|0,0:0|0:0,0:0:0:0:
512,195,193755,1,8,0:0:0:0:
512,195,194063,6,0,P|410:196|295:173,1,209.999992847443,4|0,0:0|0:0,0:0:0:0:
263,87,194474,2,0,L|184:92,1,69.9999976158143,8|0,0:0|0:0,0:0:0:0:
112,149,194679,1,8,3:2:0:0:
120,175,194782,1,0,3:2:0:0:
58,248,194885,1,8,3:2:0:0:
64,273,194987,2,0,L|-6:271,1,69.9999976158143,0|0,3:0|0:0,0:0:0:0:
208,357,195296,6,0,L|216:280,1,69.9999976158143,0|0,3:0|0:0,0:0:0:0:
403,364,195501,2,0,L|395:287,1,69.9999976158143,0|0,3:0|0:0,0:0:0:0:
305,100,195707,1,0,3:0:0:0:
305,100,195809,1,0,0:0:0:0:
305,100,195912,6,0,P|304:160|309:260,1,139.999995231629,4|8,0:0|0:0,0:0:0:0:
486,216,196220,1,0,0:0:0:0:
486,216,196323,2,0,P|487:172|486:128,1,69.9999976158143
203,134,196529,2,0,P|202:168|203:203,1,69.9999976158143,8|0,0:0|0:0,0:0:0:0:
384,349,196734,6,0,P|293:324|248:341,1,139.999995231629,0|8,0:0|0:0,0:0:0:0:
168,373,197042,2,0,L|83:362,1,69.9999976158143
4,314,197248,1,0,0:0:0:0:
4,314,197350,2,0,P|-3:279|3:231,1,69.9999976158143,8|0,0:0|0:0,0:0:0:0:
231,120,197556,6,0,L|223:207,1,69.9999976158143
97,272,197761,2,0,L|236:285,1,139.999995231629,8|0,0:0|0:0,0:0:0:0:
119,109,198070,2,0,L|127:196,1,69.9999976158143,0|8,0:0|0:0,0:0:0:0:
324,224,198275,1,0,0:0:0:0:
324,224,198378,6,0,P|356:215|403:216,1,69.9999976158143
482,127,198583,2,0,P|450:118|403:119,1,69.9999976158143,8|0,0:0|0:0,0:0:0:0:
374,311,198789,1,0,0:0:0:0:
381,345,198892,1,0,0:0:0:0:
409,365,198994,1,8,0:0:0:0:
443,373,199097,1,0,0:0:0:0:
474,358,199200,6,0,P|483:320|491:213,1,139.999995231629,4|8,0:0|0:0,0:0:0:0:
380,21,199508,1,0,0:0:0:0:
380,21,199611,2,0,L|383:98,1,69.9999976158143
207,214,199816,2,0,L|209:144,1,69.9999976158143,8|0,0:0|0:0,0:0:0:0:
293,61,200022,6,0,L|132:42,1,139.999995231629,0|8,0:0|0:0,0:0:0:0:
121,182,200330,2,0,P|49:206|-17:168,1,139.999995231629
57,40,200638,2,0,P|62:74|59:119,1,69.9999976158143,8|0,0:0|0:0,0:0:0:0:
17,295,200844,5,0,3:0:0:0:
162,365,201049,1,0,3:0:0:0:
162,365,201152,1,0,0:0:0:0:
162,365,201255,2,0,L|237:348,1,69.9999976158143,0|0,3:0|0:0,0:0:0:0:
376,228,201460,1,0,0:0:0:0:
376,228,201563,6,0,P|297:223|247:274,1,139.999995231629,8|0,3:2|3:0,0:0:0:0:
114,272,201871,2,0,P|120:236|118:195,1,69.9999976158143,8|0,3:2|0:0,0:0:0:0:
331,312,202076,2,0,P|330:346|336:381,1,69.9999976158143,8|0,3:2|0:0,0:0:0:0:
435,340,202282,1,0,0:0:0:0:
492,147,202487,6,0,L|423:147,1,69.9999976158143,4|0,0:0|0:0,0:0:0:0:
228,159,202693,2,0,P|312:172|352:226,1,139.999995231629,8|0,0:0|0:0,0:0:0:0:
476,18,203001,2,0,P|396:29|356:88,1,139.999995231629
253,261,203309,1,0,0:0:0:0:
247,295,203412,1,0,0:0:0:0:
218,315,203515,1,8,0:0:0:0:
183,317,203618,1,0,0:0:0:0:
152,300,203720,6,0,L|74:290,1,69.9999976158143
13,195,203926,1,8,0:0:0:0:
8,146,204029,1,0,0:0:0:0:
41,110,204131,2,0,L|117:120,1,69.9999976158143
256,18,204337,1,8,0:0:0:0:
256,18,204440,1,0,0:0:0:0:
256,18,204542,2,0,P|243:53|242:100,1,69.9999976158143
183,183,204748,2,0,P|189:219|211:261,1,69.9999976158143,8|0,0:0|0:0,0:0:0:0:
349,318,204953,5,0,0:0:0:0:
374,306,205056,1,0,0:0:0:0:
401,309,205159,1,8,0:0:0:0:
425,321,205261,1,0,0:0:0:0:
450,350,205364,5,0,0:0:0:0:
460,309,205467,1,0,0:0:0:0:
467,267,205570,1,8,0:0:0:0:
476,226,205672,1,0,0:0:0:0:
484,184,205775,6,0,P|461:120|505:51,1,139.999995231629,0|8,0:0|0:0,0:0:0:0:
376,140,206083,1,0,0:0:0:0:
376,140,206186,2,0,L|285:126,1,69.9999976158143
176,17,206392,1,8,0:0:0:0:
105,78,206494,2,0,L|108:159,1,69.9999976158143
136,263,206700,5,0,0:0:0:0:
146,289,206803,1,8,0:0:0:0:
143,316,206905,1,0,0:0:0:0:
121,352,207008,5,0,0:0:0:0:
82,367,207111,1,0,0:0:0:0:
40,364,207213,1,8,0:0:0:0:
8,336,207316,1,0,0:0:0:0:
6,281,207419,6,0,P|17:214|21:120,1,139.999995231629,4|0,0:0|0:0,0:0:0:0:
94,21,207727,1,8,3:2:0:0:
146,93,207830,2,0,L|234:88,1,69.9999976158143,0|8,3:0|3:2,0:0:0:0:
420,117,208035,1,0,3:0:0:0:
474,195,208138,6,0,P|390:204|342:171,1,139.999995231629,4|0,0:0|0:0,0:0:0:0:
298,17,208446,2,0,L|311:91,1,69.9999976158143
267,284,208652,5,8,3:2:0:0:
195,341,208755,1,8,3:2:0:0:
106,324,208857,1,8,3:2:0:0:
70,239,208960,1,8,3:2:0:0:
109,156,209063,5,4,0:0:0:0:
109,156,209268,2,0,P|112:80|94:6,1,139.999995231629,8|2,0:0|0:0,0:0:0:0:
255,62,209576,1,0,0:0:0:0:
255,62,209679,2,0,P|246:97|244:146,1,69.9999976158143,8|0,0:0|0:0,0:0:0:0:
147,267,209885,6,0,P|78:255|-4:250,1,139.999995231629,2|8,0:0|0:0,0:0:0:0:
151,379,210193,1,0,0:0:0:0:
151,379,210296,2,0,P|189:376|232:362,1,69.9999976158143,2|0,0:0|0:0,0:0:0:0:
468,261,210501,2,0,P|458:292|454:345,1,69.9999976158143,8|0,0:0|0:0,0:0:0:0:
282,287,210707,6,0,P|278:252|267:218,1,69.9999976158143,2|0,0:0|0:0,0:0:0:0:
475,159,210912,2,0,P|442:166|401:192,1,69.9999976158143,8|0,0:0|0:0,0:0:0:0:
263,121,211118,2,0,P|295:128|337:154,1,69.9999976158143,2|0,0:0|0:0,0:0:0:0:
505,40,211323,6,0,P|429:66|352:42,1,139.999995231629,8|2,0:0|0:0,0:0:0:0:
171,43,211631,1,0,0:0:0:0:
171,43,211734,2,0,P|177:113|177:188,1,139.999995231629,8|2,0:0|0:0,0:0:0:0:
24,259,212042,1,0,0:0:0:0:
24,259,212145,2,0,L|103:249,1,69.9999976158143,8|0,0:0|0:0,0:0:0:0:
260,322,212350,6,0,P|177:309|125:345,1,139.999995231629,2|8,0:0|0:0,0:0:0:0:
272,220,212659,1,0,0:0:0:0:
272,220,212761,2,0,L|362:222,1,69.9999976158143,2|0,0:0|0:0,0:0:0:0:
418,373,212967,2,0,L|328:375,1,69.9999976158143,8|0,0:0|0:0,0:0:0:0:
177,182,213172,5,2,0:0:0:0:
177,182,213275,1,0,0:0:0:0:
177,182,213378,2,0,L|169:109,1,69.9999976158143,8|0,0:0|0:0,0:0:0:0:
331,49,213583,2,0,L|323:118,1,69.9999976158143,2|0,0:0|0:0,0:0:0:0:
186,281,213789,2,0,L|102:268,1,69.9999976158143,8|0,0:0|0:0,0:0:0:0:
316,214,213994,6,0,L|400:201,1,69.9999976158143,2|0,0:0|0:0,0:0:0:0:
462,281,214200,1,8,0:0:0:0:
512,92,214405,1,2,0:0:0:0:
512,92,214508,1,0,0:0:0:0:
512,92,214611,2,0,P|442:118|374:100,1,139.999995231629,8|2,0:0|0:0,0:0:0:0:
222,36,214919,5,0,0:0:0:0:
222,36,215022,2,0,P|154:22|90:47,1,139.999995231629,8|2,0:0|0:0,0:0:0:0:
17,140,215330,2,0,P|21:166|30:222,1,69.9999976158143,0|8,0:0|0:0,0:0:0:0:
142,261,215535,1,0,0:0:0:0:
142,261,215638,6,0,P|147:179|160:108,1,139.999995231629,2|8,0:0|0:0,0:0:0:0:
321,197,215946,1,0,0:0:0:0:
321,197,216049,2,0,P|322:234|312:286,1,69.9999976158143,2|0,0:0|0:0,0:0:0:0:
173,365,216255,1,8,0:0:0:0:
173,365,216357,1,0,0:0:0:0:
173,365,216460,6,0,L|78:348,1,69.9999976158143,2|0,0:0|0:0,0:0:0:0:
0,207,216666,2,0,L|95:190,1,69.9999976158143,8|0,0:0|0:0,0:0:0:0:
231,237,216871,1,2,0:0:0:0:
231,237,216974,1,0,0:0:0:0:
231,237,217076,2,0,L|224:157,1,69.9999976158143,8|0,0:0|0:0,0:0:0:0:
452,147,217282,6,0,L|445:67,1,69.9999976158143,2|0,0:0|0:0,0:0:0:0:
121,220,217487,2,0,L|114:140,1,69.9999976158143,8|0,0:0|0:0,0:0:0:0:
342,130,217693,2,0,L|335:50,1,69.9999976158143,2|0,0:0|0:0,0:0:0:0:
10,189,217898,2,0,L|3:109,1,69.9999976158143,8|0,0:0|0:0,0:0:0:0:
76,23,218104,5,2,0:0:0:0:
145,326,218309,2,0,L|50:320,1,69.9999976158143,8|0,0:0|0:0,0:0:0:0:
190,224,218515,2,0,L|95:218,1,69.9999976158143,2|0,0:0|0:0,0:0:0:0:
239,124,218720,2,0,L|144:118,1,69.9999976158143,8|0,0:0|0:0,0:0:0:0:
248,314,218926,6,0,P|317:331|379:294,1,139.999995231629,2|8,0:0|0:0,0:0:0:0:
512,100,219234,1,0,0:0:0:0:
512,100,219337,2,0,L|501:176,1,69.9999976158143,2|0,0:0|0:0,0:0:0:0:
419,52,219542,2,0,L|408:128,1,69.9999976158143,8|0,0:0|0:0,0:0:0:0:
234,257,219748,6,0,L|164:252,1,69.9999976158143,2|0,0:0|0:0,0:0:0:0:
283,157,219953,2,0,L|213:152,1,69.9999976158143,8|0,0:0|0:0,0:0:0:0:
69,41,220159,2,0,L|138:45,1,69.9999976158143,2|0,0:0|0:0,0:0:0:0:
20,141,220364,2,0,L|89:145,1,69.9999976158143,8|0,0:0|0:0,0:0:0:0:
218,359,220570,5,2,0:0:0:0:
218,359,220775,2,0,P|291:365|360:312,1,139.999995231629,8|2,0:0|0:0,0:0:0:0:
270,192,221083,2,0,P|270:224|266:268,1,69.9999976158143,0|8,0:0|0:0,0:0:0:0:
455,353,221289,1,0,0:0:0:0:
455,353,221392,2,0,P|452:278|459:195,1,139.999995231629,2|8,0:0|0:0,0:0:0:0:
503,86,221700,5,0,0:0:0:0:
475,64,221803,1,2,0:0:0:0:
440,61,221905,1,0,0:0:0:0:
407,73,222008,1,8,0:0:0:0:
387,102,222111,1,0,0:0:0:0:
388,129,222213,5,0,0:0:0:0:
367,133,222316,1,0,0:0:0:0:
346,136,222419,1,0,0:0:0:0:
325,139,222522,1,0,0:0:0:0:
271,66,222625,5,0,3:0:0:0:
243,70,222728,1,0,0:0:0:0:
215,75,222830,1,0,3:0:0:0:
187,80,222933,1,0,0:0:0:0:
125,153,223035,6,0,L|138:221,1,69.9999976158143,8|0,0:0|0:0,0:0:0:0:
371,227,223241,2,0,L|291:240,1,69.9999976158143,8|0,0:0|0:0,0:0:0:0:
82,346,223446,5,8,0:0:0:0:
49,268,223549,1,0,0:0:0:0:
106,206,223652,1,8,0:0:0:0:
73,128,223755,1,0,0:0:0:0:
124,63,223857,6,0,P|198:27|276:69,1,167.999989151001,4|8,0:0|0:0,0:0:0:0:
408,225,224166,1,0,0:0:0:0:
408,225,224268,2,0,P|443:146|386:73,1,167.999989151001,2|8,0:0|0:0,0:0:0:0:
267,158,224576,1,0,0:0:0:0:
267,158,224679,2,0,B|362:158,1,83.9999945755007,2|0,0:0|0:0,0:0:0:0:
155,64,224885,1,8,0:0:0:0:
106,134,224987,2,0,B|88:174|104:215|120:215|136:255|112:295,1,167.999989151001,2|0,0:0|0:0,2:0:0:0:
256,377,225296,2,0,P|264:337|253:289,1,83.9999945755007,8|0,0:0|0:0,0:0:0:0:
408,225,225501,6,0,L|313:215,1,83.9999945755007,2|0,0:0|0:0,0:0:0:0:
186,137,225707,2,0,L|278:146,1,83.9999945755007,8|0,0:0|0:0,0:0:0:0:
439,49,225912,2,0,L|348:60,1,83.9999945755007,2|0,0:0|0:0,0:0:0:0:
126,32,226118,2,0,L|231:22,1,83.9999945755007,8|0,0:0|0:0,0:0:0:0:
408,225,226323,2,0,L|313:216,1,83.9999945755007,2|0,0:0|0:0,0:0:0:0:
72,309,226529,1,8,0:0:0:0:
125,373,226631,2,0,P|201:343|202:252,1,167.999989151001,2|0,0:0|0:0,0:0:0:0:
298,127,226940,2,0,P|294:172|299:219,1,83.9999945755007,8|0,0:0|0:0,0:0:0:0:
417,380,227145,6,0,P|503:281|373:295,1,335.999978302003,2|2,0:0|0:0,0:0:0:0:
294,384,227659,1,0,0:0:0:0:
294,384,227761,2,0,P|284:341|293:296,1,83.9999945755007,8|0,0:0|0:0,0:0:0:0:
389,174,227967,2,0,P|397:134|384:86,1,83.9999945755007,2|0,0:0|0:0,0:0:0:0:
219,214,228172,2,0,L|312:211,1,83.9999945755007,8|0,0:0|0:0,0:0:0:0:
402,6,228378,2,0,L|318:9,1,83.9999945755007,2|0,0:0|0:0,0:0:0:0:
101,45,228583,1,8,0:0:0:0:
155,109,228686,6,0,B|195:85|235:101|235:117|276:133|318:115,1,167.999989151001,2|0,0:0|0:0,2:0:0:0:
474,195,228994,2,0,B|390:195,1,83.9999945755007,8|0,0:0|0:0,0:0:0:0:
280,292,229200,2,0,P|289:250|272:202,1,83.9999945755007,2|0,0:0|0:0,0:0:0:0:
85,271,229405,1,8,0:0:0:0:
137,333,229508,2,0,P|201:288|175:198,1,167.999989151001,2|0,0:0|0:0,0:0:0:0:
61,109,229816,5,8,0:0:0:0:
134,150,229919,1,0,0:0:0:0:
217,135,230022,1,2,0:0:0:0:
285,87,230124,1,0,0:0:0:0:
368,78,230227,1,8,0:0:0:0:
442,117,230330,1,0,0:0:0:0:
449,234,230433,6,0,P|361:224|335:144,1,167.999989151001,2|8,0:0|0:0,0:0:0:0:
186,285,230741,1,0,0:0:0:0:
186,285,230844,2,0,P|218:206|174:133,1,167.999989151001,2|8,0:0|0:0,0:0:0:0:
48,214,231152,1,0,0:0:0:0:
48,214,231255,2,0,L|143:214,1,83.9999945755007,2|0,0:0|0:0,0:0:0:0:
299,98,231460,1,8,0:0:0:0:
219,54,231563,2,0,P|131:59|88:140,1,167.999989151001,2|0,0:0|0:0,0:0:0:0:
299,98,231871,2,0,B|309:55|309:55|299:2,1,83.9999945755007,8|0,0:0|0:0,0:0:0:0:
181,137,232076,6,0,L|259:167,1,83.9999945755007,2|0,0:0|0:0,0:0:0:0:
347,209,232282,2,0,L|425:178,1,83.9999945755007,8|0,0:0|0:0,0:0:0:0:
225,256,232487,2,0,L|148:225,1,83.9999945755007,2|0,0:0|0:0,0:0:0:0:
358,308,232693,2,0,L|435:276,1,83.9999945755007,8|0,0:0|0:0,0:0:0:0:
208,356,232898,2,0,P|129:356|82:286,1,167.999989151001,2|8,0:0|0:0,0:0:0:0:
147,143,233207,1,0,0:0:0:0:
147,143,233309,2,0,P|138:184|154:235,1,83.9999945755007,2|0,0:0|0:0,0:0:0:0:
286,366,233515,2,0,P|294:325|286:284,1,83.9999945755007,8|0,0:0|0:0,0:0:0:0:
491,206,233720,6,0,P|418:244|338:195,1,167.999989151001,2|8,0:0|0:0,0:0:0:0:
147,143,234029,1,0,0:0:0:0:
147,143,234131,2,0,P|226:175|295:132,1,167.999989151001,2|8,0:0|0:0,0:0:0:0:
422,74,234440,1,0,0:0:0:0:
422,74,234542,6,0,P|429:114|418:158,1,83.9999945755007,2|0,0:0|0:0,0:0:0:0:
295,298,234748,5,8,0:0:0:0:
390,307,234850,2,0,L|294:298,1,94.4999971418381,0|2,0:0|0:0,0:0:0:0:
130,166,235056,5,0,0:0:0:0:
36,176,235159,2,0,L|130:167,1,94.4999971418381,8|0,0:0|0:0,0:0:0:0:
310,54,235364,6,0,L|288:146,1,83.9999945755007,2|0,0:0|0:0,0:0:0:0:
203,272,235570,2,0,L|237:163,1,83.9999945755007,8|0,0:0|0:0,0:0:0:0:
184,30,235775,2,0,L|219:121,1,83.9999945755007,2|0,0:0|0:0,0:0:0:0:
335,296,235981,2,0,L|296:202,1,83.9999945755007,8|0,0:0|0:0,0:0:0:0:
310,54,236186,1,2,0:0:0:0:
70,192,236392,5,8,3:2:0:0:
148,165,236494,1,8,3:2:0:0:
228,191,236597,1,8,3:2:0:0:
276,260,236700,1,8,3:2:0:0:
257,342,236803,1,8,3:2:0:0:
257,342,237008,6,0,P|306:279|392:287,1,167.999989151001,4|8,0:0|0:0,0:0:0:0:
512,187,237316,1,0,0:0:0:0:
512,187,237419,2,0,P|430:185|379:104,1,167.999989151001,2|8,0:0|0:0,0:0:0:0:
293,28,237727,1,0,0:0:0:0:
293,28,237830,2,0,L|293:126,1,83.9999945755007,2|0,0:0|0:0,0:0:0:0:
197,258,238035,1,8,0:0:0:0:
159,184,238138,2,0,B|199:160|239:176|239:192|280:208|320:190,1,167.999989151001,2|0,0:0|0:0,2:0:0:0:
453,84,238446,2,0,P|409:95|374:128,1,83.9999945755007,8|0,0:0|0:0,0:0:0:0:
335,357,238652,6,0,L|322:246,1,83.9999945755007,2|0,0:0|0:0,0:0:0:0:
293,111,238857,2,0,L|304:21,1,83.9999945755007,8|0,0:0|0:0,0:0:0:0:
113,263,239063,2,0,L|196:257,1,83.9999945755007,2|0,0:0|0:0,0:0:0:0:
320,190,239268,2,0,L|403:194,1,83.9999945755007,8|0,0:0|0:0,0:0:0:0:
160,135,239474,2,0,L|71:130,1,83.9999945755007,2|0,0:0|0:0,0:0:0:0:
166,342,239679,1,8,0:0:0:0:
246,324,239782,2,0,P|279:260|225:178,1,167.999989151001,2|0,0:0|0:0,2:0:0:0:
323,36,240090,2,0,P|295:74|295:124,1,83.9999945755007,8|0,0:0|0:0,0:0:0:0:
455,273,240296,6,0,P|424:199|336:181,1,167.999989151001,2|8,0:0|0:0,0:0:0:0:
180,260,240604,1,0,0:0:0:0:
180,260,240707,2,0,P|98:249|62:171,1,167.999989151001,2|8,0:0|0:0,0:0:0:0:
158,65,241015,1,0,0:0:0:0:
158,65,241118,2,0,L|62:48,1,83.9999945755007,2|0,0:0|0:0,0:0:0:0:
235,163,241323,2,0,P|277:162|322:136,1,83.9999945755007,8|0,0:0|0:0,0:0:0:0:
451,40,241529,2,0,P|417:65|397:101,1,83.9999945755007,2|0,0:0|0:0,0:0:0:0:
499,308,241734,6,0,P|472:237|391:193,1,167.999989151001,8|2,0:0|0:0,0:0:0:0:
268,336,242042,1,0,0:0:0:0:
268,336,242145,2,0,L|367:328,1,83.9999945755007,8|0,0:0|0:0,0:0:0:0:
205,187,242350,2,0,L|119:182,1,83.9999945755007,2|0,0:0|0:0,0:0:0:0:
384,97,242556,1,8,0:0:0:0:
430,174,242659,2,0,P|339:173|295:109,1,167.999989151001,2|0,0:0|0:0,0:0:0:0:
231,38,242967,1,8,0:0:0:0:
182,25,243070,1,0,0:0:0:0:
132,33,243172,5,2,0:0:0:0:
60,76,243275,1,0,0:0:0:0:
30,154,243378,1,8,0:0:0:0:
61,232,243481,1,0,0:0:0:0:
151,295,243583,6,0,P|238:289|274:214,1,167.999989151001,2|8,0:0|0:0,0:0:0:0:
307,37,243892,1,0,0:0:0:0:
307,37,243994,2,0,P|297:113|367:177,1,167.999989151001,2|8,0:0|0:0,0:0:0:0:
474,96,244303,1,0,0:0:0:0:
474,96,244405,2,0,L|381:87,1,83.9999945755007,2|0,0:0|0:0,0:0:0:0:
189,220,244611,1,8,0:0:0:0:
118,166,244713,2,0,P|173:132|268:181,1,167.999989151001,2|0,0:0|0:0,0:0:0:0:
386,357,245022,1,8,0:0:0:0:
373,274,245124,1,0,0:0:0:0:
431,211,245227,6,0,B|474:211|474:211|516:222,1,83.9999945755007,2|0,0:0|0:0,0:0:0:0:
304,334,245433,2,0,B|263:347|263:347|209:346,1,83.9999945755007,8|0,0:0|0:0,0:0:0:0:
400,123,245638,2,0,L|484:133,1,83.9999945755007,2|0,0:0|0:0,0:0:0:0:
254,258,245844,2,0,L|170:269,1,83.9999945755007,8|0,0:0|0:0,0:0:0:0:
203,75,246049,2,0,P|282:102|311:176,1,167.999989151001,2|8,0:0|0:0,0:0:0:0:
386,357,246357,1,0,0:0:0:0:
386,357,246460,2,0,L|397:269,1,83.9999945755007,2|0,0:0|0:0,0:0:0:0:
483,110,246666,2,0,L|374:126,1,83.9999945755007,8|0,0:0|0:0,0:0:0:0:
254,258,246871,6,0,B|126:238|167:358|19:328,1,251.999983726502,2|0,0:0|0:0,0:0:0:0:
48,170,247282,2,0,B|162:153|162:153|220:171,1,167.999989151001,2|8,0:0|0:0,0:0:0:0:
376,284,247590,1,0,2:0:0:0:
376,284,247693,6,0,L|388:188,1,83.9999945755007,2|0,0:0|0:0,0:0:0:0:
232,67,247898,5,8,0:0:0:0:
326,81,248001,2,0,L|224:66,1,94.4999971418381,0|2,0:0|0:0,0:0:0:0:
48,170,248207,5,0,0:0:0:0:
142,158,248309,2,0,L|49:170,1,94.4999971418381,8|0,0:0|0:0,0:0:0:0:
180,310,248515,5,4,1:0:0:0:
426,168,248789,1,2,0:0:0:0:
131,62,249063,1,2,0:0:0:0:
421,344,249337,5,2,0:0:0:0:
320,0,249611,1,2,0:0:0:0:
45,262,249885,1,2,0:0:0:0:
472,262,250159,6,0,B|484:211|484:211|468:158,1,105.000000429154,4|0,0:0|0:0,0:0:0:0:
45,262,250570,2,0,B|33:211|33:211|49:158,1,105.000000429154,4|0,0:0|0:0,0:0:0:0:
472,262,250981,6,0,L|386:251,1,83.9999945755007,2|0,0:0|0:0,0:0:0:0:
203,272,251186,1,8,0:0:0:0:
138,332,251289,2,0,P|213:359|279:313,1,167.999989151001,2|0,0:0|0:0,0:0:0:0:
341,89,251597,1,8,0:0:0:0:
278,32,251700,1,8,0:0:0:0:
203,71,251803,6,0,B|196:117|196:117|200:159,1,83.9999945755007,2|0,0:0|0:0,0:0:0:0:
388,251,252008,2,0,B|390:205|390:205|380:155,1,83.9999945755007,12|0,0:0|0:0,0:0:0:0:
92,248,252213,2,0,L|191:237,1,83.9999945755007,2|8,0:0|0:0,0:0:0:0:
420,82,252419,2,0,L|329:72,1,83.9999945755007,0|2,0:0|0:0,0:0:0:0:
268,358,252624,2,0,L|268:272,1,83.9999945755007,2|0,0:0|0:0,0:0:0:0:
336,154,252830,1,8,0:0:0:0:
262,112,252933,2,0,B|238:152|254:192|270:192|286:233|268:273,1,167.999989151001,2|0,0:0|0:0,0:0:0:0:
92,248,253241,2,0,L|177:238,1,83.9999945755007,12|0,0:0|0:0,0:0:0:0:
453,144,253446,6,0,P|475:253|364:263,1,251.999983726502,4|0,1:0|0:0,0:0:0:0:
138,203,253857,2,0,L|228:191,1,83.9999945755007,8|0,0:0|0:0,0:0:0:0:
185,99,254063,2,0,L|283:132,1,83.9999945755007,8|0,0:0|0:0,0:0:0:0:
285,29,254268,2,0,L|347:105,1,83.9999945755007,8|0,0:0|0:0,0:0:0:0:
418,23,254474,2,0,L|418:109,1,83.9999945755007,8|0,0:0|0:0,0:0:0:0:
435,247,254679,5,0,3:2:0:0:
355,220,254782,1,0,3:2:0:0:
275,246,254885,1,8,3:2:0:0:
224,312,254987,1,0,3:2:0:0:
150,352,255090,5,0,3:2:0:0:
66,339,255193,1,0,3:2:0:0:
11,274,255296,1,8,3:2:0:0:
12,190,255398,1,0,3:2:0:0:
51,115,255501,5,8,3:2:0:0:
126,78,255604,1,0,3:2:0:0:
209,86,255707,1,0,3:2:0:0:
270,141,255809,1,8,3:2:0:0:
302,218,255912,6,0,P|400:243|448:149,2,223.999985534669,4|4|4,0:1|0:1|0:1,0:0:0:0:
86,350,256734,6,0,P|140:288|221:294,1,167.999989151001,4|8,0:0|0:0,0:0:0:0:
437,165,257042,1,0,0:0:0:0:
437,165,257145,2,0,P|373:227|300:217,1,167.999989151001,2|8,0:0|0:0,0:0:0:0:
143,138,257453,1,0,0:0:0:0:
143,138,257556,2,0,L|238:144,1,83.9999945755007,2|0,0:0|0:0,0:0:0:0:
413,82,257761,1,8,0:0:0:0:
351,141,257864,2,0,B|327:181|343:221|359:221|375:262|358:303,1,167.999989151001,2|0,0:0|0:0,0:0:0:0:
117,350,258172,1,8,0:0:0:0:
196,322,258275,1,0,0:0:0:0:
271,359,258378,6,0,L|280:264,1,83.9999945755007,2|0,0:0|0:0,0:0:0:0:
425,183,258583,2,0,L|416:86,1,83.9999945755007,8|0,0:0|0:0,0:0:0:0:
243,177,258789,2,0,P|201:179|160:188,1,83.9999945755007,2|0,0:0|0:0,0:0:0:0:
382,282,258994,2,0,P|423:281|465:274,1,83.9999945755007,8|0,0:0|0:0,0:0:0:0:
317,84,259200,2,0,B|290:57|319:5|319:5|368:67|325:174,1,251.999983726502,2|0,0:0|0:0,0:0:0:0:
271,359,259611,2,0,P|282:320|278:262,1,83.9999945755007,2|0,0:0|0:0,0:0:0:0:
242,137,259816,2,0,P|225:102|197:68,1,83.9999945755007,8|0,0:0|0:0,0:0:0:0:
160,291,260022,6,0,P|58:271|130:197,1,251.999983726502,2|0,0:0|0:0,0:0:0:0:
357,245,260433,2,0,P|459:235|396:153,1,251.999983726502,2|0,0:0|0:0,0:0:0:0:
271,359,260844,2,0,P|258:315|260:269,1,83.9999945755007,2|0,0:0|0:0,0:0:0:0:
319,79,261049,5,8,0:0:0:0:
312,173,261152,2,0,L|320:64,1,94.4999971418381
124,218,261357,6,0,L|230:205,1,94.4999971418381,2|8,0:0|0:0,0:0:0:0:
396,272,261563,5,0,0:0:0:0:
489,283,261666,2,0,L|387:271,1,94.4999971418381,2|0,0:0|0:0,0:0:0:0:
271,359,261871,5,8,0:0:0:0:
271,359,261974,2,0,B|236:355|211:332|211:332|167:371|98:359,1,167.999989151001,2|0,0:0|0:0,0:0:0:0:
30,261,262282,2,0,L|119:275,1,83.9999945755007,8|0,0:0|0:0,0:0:0:0:
75,161,262487,2,0,L|168:166,1,83.9999945755007,2|0,0:0|0:0,0:0:0:0:
141,67,262693,6,0,P|186:73|236:98,1,83.9999945755007,8|0,0:0|0:0,0:0:0:0:
377,61,262898,2,0,P|349:96|302:127,1,83.9999945755007,2|0,0:0|0:0,0:0:0:0:
273,274,263104,2,0,P|255:232|252:176,1,83.9999945755007,8|0,0:0|0:0,0:0:0:0:
496,283,263309,6,0,B|463:272|463:272|397:272,1,83.9999945755007,4|0,0:0|0:0,0:0:0:0:
97,316,263515,2,0,B|131:316|131:316|187:304,1,83.9999945755007,8|0,0:0|0:0,0:0:0:0:
270,21,263720,2,0,B|270:52|270:52|287:111,1,83.9999945755007,2|0,0:0|0:0,0:0:0:0:
356,201,263926,1,8,0:0:0:0:
386,105,264029,1,0,0:0:0:0:
284,102,264131,2,0,B|193:102,1,83.9999945755007,2|0,0:0|0:0,0:0:0:0:
332,315,264337,2,0,L|418:315,1,83.9999945755007,8|0,0:0|0:0,0:0:0:0:
226,211,264542,2,0,P|218:252|227:293,1,83.9999945755007,2|0,0:0|0:0,0:0:0:0:
386,105,264748,2,0,P|392:62|381:16,1,83.9999945755007,8|0,0:0|0:0,0:0:0:0:
461,245,264953,6,0,B|471:203|471:203|456:150,1,83.9999945755007,2|0,0:0|0:0,0:0:0:0:
226,211,265159,2,0,B|266:235|306:219|306:203|347:187|388:204,1,167.999989151001,8|2,0:0|0:0,0:0:0:0:
351,363,265467,1,0,0:0:0:0:
351,363,265570,2,0,L|351:273,1,83.9999945755007,8|0,0:0|0:0,0:0:0:0:
261,143,265775,2,0,P|183:147|152:240,1,167.999989151001,2|8,0:0|0:0,0:0:0:0:
270,289,266083,2,0,B|229:272|188:288|188:304|148:320|108:296,1,167.999989151001,2|0,0:0|0:0,0:0:0:0:
56,136,266392,2,0,L|56:228,1,83.9999945755007,8|0,0:0|0:0,0:0:0:0:
270,289,266597,6,0,P|349:255|419:290,1,167.999989151001,2|8,0:0|0:0,0:0:0:0:
459,163,266905,1,0,0:0:0:0:
459,163,267008,2,0,L|371:152,1,83.9999945755007,2|0,0:0|0:0,0:0:0:0:
241,60,267213,2,0,L|252:144,1,83.9999945755007,8|0,0:0|0:0,0:0:0:0:
163,305,267419,2,0,P|80:287|50:204,1,167.999989151001,2|8,0:0|0:0,0:0:0:0:
115,53,267727,2,0,L|137:220,1,167.999989151001,2|0,0:0|0:0,0:0:0:0:
324,68,268035,2,0,L|231:58,1,83.9999945755007,8|0,0:0|0:0,0:0:0:0:
257,162,268241,5,2,0:0:0:0:
477,0,268446,1,0,3:0:0:0:
141,49,268652,1,0,3:0:0:0:
397,226,268857,1,0,0:0:0:0:
397,226,268960,1,0,0:0:0:0:
397,226,269063,5,0,3:0:0:0:
356,299,269166,1,0,3:0:0:0:
283,340,269268,1,0,3:0:0:0:
200,324,269371,1,8,3:2:0:0:
138,266,269474,5,0,0:0:0:0:
198,197,269576,1,0,0:0:0:0:
290,197,269679,1,8,3:2:0:0:
364,252,269782,1,8,3:2:0:0:
419,326,269885,6,0,L|503:308,1,83.9999945755007,4|0,0:0|0:0,0:0:0:0:
409,168,270090,2,0,L|326:151,1,83.9999945755007,8|0,0:0|0:0,0:0:0:0:
171,205,270296,2,0,P|147:130|212:74,1,167.999989151001,2|8,0:0|0:0,0:0:0:0:
459,204,270604,1,0,0:0:0:0:
459,204,270707,2,0,P|409:143|317:157,1,167.999989151001,2|8,0:0|0:0,0:0:0:0:
166,306,271015,2,0,L|332:276,1,167.999989151001,2|0,0:0|0:0,0:0:0:0:
496,322,271323,2,0,P|465:298|409:283,1,83.9999945755007,8|0,0:0|0:0,0:0:0:0:
171,205,271529,6,0,P|213:205|263:189,1,83.9999945755007,2|0,0:0|0:0,0:0:0:0:
432,45,271734,2,0,P|390:47|335:67,1,83.9999945755007,8|0,0:0|0:0,0:0:0:0:
156,233,271939,2,0,P|198:233|248:217,1,83.9999945755007,2|0,0:0|0:0,0:0:0:0:
457,146,272145,1,8,0:0:0:0:
397,203,272248,2,0,B|282:194|282:194|222:231,1,167.999989151001,2|0,0:0|0:0,0:0:0:0:
100,316,272556,2,0,L|187:329,1,83.9999945755007,8|0,0:0|0:0,0:0:0:0:
318,381,272761,6,0,P|323:340|310:285,1,83.9999945755007,2|0,0:0|0:0,0:0:0:0:
199,57,272967,2,0,P|184:103|186:147,1,83.9999945755007,8|0,0:0|0:0,0:0:0:0:
12,156,273172,6,0,B|126:144|98:239|214:221,1,210.000000858307,10|0,0:0|0:0,0:0:0:0:
433,173,273481,2,0,P|372:97|263:118,1,210.000000858307,10|0,0:0|0:0,0:0:0:0:
135,328,273789,2,0,B|194:306|235:356|293:334|293:334|275:309|243:294,1,210.000000858307,10|0,0:0|0:0,0:0:0:0:
48,237,274097,6,0,B|178:258|122:182|274:219,1,210.000000858307,10|0,0:0|0:0,0:0:0:0:
367,81,274405,2,0,B|337:100|320:134|320:134|375:189|343:262,1,210.000000858307,10|0,0:0|0:0,0:0:0:0:
193,110,274713,2,0,P|141:119|90:144,1,105.000000429154,10|0,0:0|0:0,0:0:0:0:
450,303,275022,5,8,3:2:0:0:
367,293,275124,1,0,3:2:0:0:
287,320,275227,1,0,3:2:0:0:
213,361,275330,1,8,3:2:0:0:
129,347,275433,1,0,3:2:0:0:
60,299,275535,1,0,3:2:0:0:
50,215,275638,1,8,3:2:0:0:
350,130,275844,5,0,3:0:0:0:
350,130,275946,2,0,L|339:225,1,83.9999945755007,8|0,3:2|0:0,0:0:0:0:
450,303,276152,1,0,3:0:0:0:
450,303,276255,2,0,L|442:199,1,83.9999945755007,8|0,3:2|0:0,0:0:0:0:
324,322,276460,6,0,P|272:354|157:277,1,209.999992847443,4|0,0:0|0:0,0:0:0:0:
89,198,276871,2,0,L|84:123,1,69.9999976158143,2|0,0:0|0:0,0:0:0:0:
184,93,277076,2,0,L|186:23,1,69.9999976158143,8|0,0:0|0:0,0:0:0:0:
267,156,277282,6,0,P|349:155|391:113,1,139.999995231629,2|8,0:0|0:0,0:0:0:0:
512,215,277590,2,0,P|447:205|389:248,1,139.999995231629,2|0,0:0|0:0,0:0:0:0:
297,344,277898,2,0,L|284:259,1,69.9999976158143,8|0,0:0|0:0,0:0:0:0:
163,183,278104,6,0,P|191:207|241:221,1,69.9999976158143,2|0,0:0|0:0,0:0:0:0:
334,160,278309,2,0,P|364:143|388:117,1,69.9999976158143,8|0,0:0|0:0,0:0:0:0:
482,57,278515,2,0,L|472:132,1,69.9999976158143,2|0,0:0|0:0,0:0:0:0:
445,267,278720,2,0,L|430:191,1,69.9999976158143,8|0,0:0|0:0,0:0:0:0:
302,86,278926,2,0,P|268:111|250:151,1,69.9999976158143,2|0,0:0|0:0,0:0:0:0:
315,284,279131,1,8,0:0:0:0:
315,284,279234,2,0,P|350:226|333:159,1,139.999995231629,2|0,0:0|0:0,0:0:0:0:
194,221,279542,2,0,L|273:214,1,69.9999976158143,8|0,0:0|0:0,0:0:0:0:
443,315,279748,6,0,P|383:279|298:293,1,139.999995231629,2|8,0:0|0:0,0:0:0:0:
175,365,280056,2,0,P|124:328|119:251,1,139.999995231629,2|0,0:0|0:0,0:0:0:0:
225,149,280364,2,0,L|216:239,1,69.9999976158143,8|0,0:0|0:0,0:0:0:0:
131,97,280570,2,0,P|184:48|274:55,1,139.999995231629,2|8,0:0|0:0,0:0:0:0:
381,175,280878,2,0,P|451:175|496:111,1,139.999995231629,2|0,0:0|0:0,0:0:0:0:
321,72,281186,2,0,L|308:151,1,69.9999976158143,8|0,0:0|0:0,0:0:0:0:
218,218,281392,6,0,P|185:203|137:203,1,69.9999976158143,2|0,0:0|0:0,0:0:0:0:
28,176,281597,2,0,P|47:207|60:251,1,69.9999976158143,8|0,0:0|0:0,0:0:0:0:
91,349,281803,2,0,P|118:319|162:289,1,69.9999976158143,2|0,0:0|0:0,0:0:0:0:
242,301,282008,5,8,0:0:0:0:
314,327,282111,1,0,0:0:0:0:
374,280,282213,1,2,0:0:0:0:
358,204,282316,1,0,0:0:0:0:
285,177,282419,1,8,0:0:0:0:
222,131,282522,1,0,0:0:0:0:
206,49,282624,5,2,0:0:0:0:
277,4,282727,1,0,0:0:0:0:
360,17,282830,1,8,0:0:0:0:
393,94,282933,1,0,0:0:0:0:
372,174,283035,6,0,P|379:269|492:249,1,209.999992847443,2|0,0:0|0:0,0:0:0:0:
512,147,283446,2,0,L|507:67,1,69.9999976158143,2|0,0:0|0:0,0:0:0:0:
402,24,283652,2,0,L|389:120,1,69.9999976158143,8|0,0:0|0:0,0:0:0:0:
288,28,283857,2,0,P|224:2|160:26,1,139.999995231629,2|8,0:0|0:0,0:0:0:0:
95,98,284166,2,0,B|65:168|124:168|95:236,1,139.999995231629,2|0,0:0|0:0,0:0:0:0:
152,332,284474,2,0,L|230:321,1,69.9999976158143,8|0,0:0|0:0,0:0:0:0:
317,244,284679,6,0,P|333:207|334:164,1,69.9999976158143,2|0,0:0|0:0,0:0:0:0:
245,80,284885,2,0,B|201:91|167:136|167:136|200:192|171:253|171:253,1,209.999992847443,8|0,0:0|0:0,0:0:0:0:
76,309,285296,2,0,L|-4:307,1,69.9999976158143,8|0,0:0|0:0,0:0:0:0:
47,187,285501,2,0,P|80:207|106:249,1,69.9999976158143,2|0,0:0|0:0,0:0:0:0:
189,341,285707,1,8,0:0:0:0:
189,341,285809,2,0,P|248:363|318:338,1,139.999995231629,0|0,0:1|0:0,0:0:0:0:
376,265,286118,2,0,L|448:268,1,69.9999976158143,8|0,0:0|0:0,0:0:0:0:
408,166,286323,6,0,P|342:182|287:142,1,139.999995231629,2|8,0:0|0:0,0:0:0:0:
203,16,286631,2,0,P|134:14|83:65,1,139.999995231629,2|0,0:0|0:0,0:0:0:0:
162,187,286939,2,0,L|176:116,1,69.9999976158143,8|0,0:0|0:0,0:0:0:0:
36,196,287145,2,0,P|63:258|144:272,1,139.999995231629,2|8,0:0|0:0,0:0:0:0:
297,179,287453,2,0,P|363:163|426:221,1,139.999995231629,2|0,0:0|0:0,0:0:0:0:
240,313,287761,2,0,L|224:235,1,69.9999976158143,8|0,0:0|0:0,0:0:0:0:
352,64,287967,6,0,L|416:96,1,69.9999976158143,8|0,0:0|0:0,0:0:0:0:
416,288,288172,2,0,L|352:320,1,69.9999976158143,8|0,0:0|0:0,0:0:0:0:
160,320,288378,2,0,L|96:288,1,69.9999976158143,8|0,0:0|0:0,0:0:0:0:
96,96,288583,2,0,L|160:64,1,69.9999976158143,8|0,0:0|0:0,0:0:0:0:
213,184,288789,5,8,3:2:0:0:
169,256,288892,1,8,3:2:0:0:
182,338,288994,1,8,3:2:0:0:
254,380,289097,1,8,3:2:0:0:
326,337,289200,1,8,3:2:0:0:
344,254,289303,1,8,3:2:0:0:
298,184,289405,1,8,3:2:0:0:
298,184,289611,5,4,0:0:0:0:
27,323,289816,2,0,P|51:259|24:192,1,139.999995231629,8|2,0:0|0:0,0:0:0:0:
0,67,290124,2,0,P|32:91|73:104,1,69.9999976158143,0|8,0:0|0:0,0:0:0:0:
173,66,290330,1,0,0:0:0:0:
173,66,290433,2,0,P|236:38|309:47,1,139.999995231629,2|8,0:0|0:0,0:0:0:0:
420,125,290741,2,0,P|442:68|406:-4,1,139.999995231629,2|0,0:0|0:0,0:0:0:0:
308,135,291049,2,0,L|226:124,1,69.9999976158143,8|0,0:0|0:0,0:0:0:0:
415,208,291255,6,0,L|512:196,1,69.9999976158143
304,272,291460,2,0,B|267:283|238:286|238:286|227:356|227:356|288:367|370:324,1,279.999990463257,8|8,0:0|0:0,0:0:0:0:
304,188,291974,2,0,P|270:198|216:205,1,69.9999976158143
153,187,292179,5,0,0:0:0:0:
115,111,292282,1,8,0:0:0:0:
165,43,292385,2,0,B|251:25|220:67|310:45,1,139.999995231629,2|0,0:0|0:0,0:0:0:0:
381,74,292693,1,8,0:0:0:0:
420,148,292796,1,0,0:0:0:0:
401,232,292898,6,0,B|350:326|350:326|333:210,1,209.999992847443,2|0,0:1|0:0,0:0:0:0:
302,46,293309,2,0,B|205:8|205:8|262:98,1,209.999992847443,2|0,0:1|0:0,0:0:0:0:
438,131,293720,2,0,B|519:65|519:65|412:70,1,209.999992847443,2|0,0:1|0:0,0:0:0:0:
212,183,294131,2,0,B|130:248|130:248|237:243,1,209.999992847443,2|0,0:1|0:0,0:0:0:0:
302,46,294542,6,0,L|232:49,1,69.9999976158143,2|0,0:0|0:0,0:0:0:0:
321,194,294748,2,0,L|390:197,1,69.9999976158143,8|0,0:0|0:0,0:0:0:0:
189,333,294953,2,0,L|120:336,1,69.9999976158143,2|0,0:0|0:0,0:0:0:0:
370,273,295159,2,0,P|458:241|438:137,1,209.999992847443,8|0,0:0|0:0,0:0:0:0:
370,79,295570,5,8,0:0:0:0:
287,66,295672,1,0,0:0:0:0:
216,112,295775,1,2,0:0:0:0:
132,123,295878,1,0,0:0:0:0:
59,80,295981,1,8,0:0:0:0:
100,7,296083,2,0,L|177:-2,1,69.9999976158143,0|2,0:0|0:0,0:0:0:0:
114,219,296289,5,0,0:0:0:0:
114,219,296392,2,0,L|190:231,1,69.9999976158143,8|0,0:0|0:0,0:0:0:0:
356,133,296597,5,2,0:0:0:0:
289,93,296700,1,0,0:0:0:0:
233,146,296803,1,8,0:0:0:0:
262,216,296905,1,0,0:0:0:0:
339,211,297008,2,0,P|367:226|397:258,1,69.9999976158143,2|0,0:0|0:0,0:0:0:0:
504,108,297213,5,8,0:0:0:0:
504,108,297316,2,0,L|490:184,1,69.9999976158143,0|2,0:0|0:0,0:0:0:0:
332,367,297522,1,0,0:0:0:0:
332,367,297624,2,0,L|319:263,1,69.9999976158143,8|0,0:0|0:0,0:0:0:0:
223,130,297830,5,2,0:0:0:0:
296,171,297933,1,0,0:0:0:0:
378,159,298035,1,8,0:0:0:0:
432,94,298138,1,0,0:0:0:0:
373,35,298241,6,0,B|265:60|265:60|212:50,1,153.999999454498,2|8,0:0|0:0,0:0:0:0:
73,148,298549,2,0,B|181:123|181:123|234:133,1,153.999999454498,2|0,0:0|0:0,0:0:0:0:
339,216,298857,2,0,L|262:201,1,76.9999997272492,8|0,0:0|0:0,0:0:0:0:
130,266,299063,2,0,L|207:251,1,76.9999997272492,2|0,0:0|0:0,0:0:0:0:
306,337,299268,2,0,L|229:322,1,76.9999997272492,8|0,0:0|0:0,0:0:0:0:
34,344,299474,6,0,B|19:310|19:310|20:283|20:283|3:242,2,102.666666302999,2|0|0,0:0|0:0|0:0,0:0:0:0:
130,266,299885,1,2,0:0:0:0:
230,322,300022,1,0,0:0:0:0:
285,222,300159,1,0,0:0:0:0:
186,159,300296,1,4,0:0:0:0:
440,300,300501,6,0,B|358:293,1,76.9999997272492,8|0,0:0|0:0,0:0:0:0:
259,314,300707,1,8,3:2:0:0:
237,322,300809,1,8,3:2:0:0:
214,324,300912,1,8,3:2:0:0:
190,321,301015,1,8,3:2:0:0:
168,313,301118,6,0,P|104:302|148:242,1,157.50000064373,4|0,3:0|0:0,0:0:0:0:
218,244,301555,2,0,P|256:186|185:179,1,157.50000064373,0|0,3:0|0:0,0:0:0:0:
115,163,301964,6,0,B|135:132|136:109|136:109|186:102|230:71,1,157.50000064373,4|0,0:0|0:0,0:0:0:0:
334,34,302408,2,0,B|300:56|300:56|307:79|302:99|302:99|286:133|236:156,1,157.50000064373
182,213,302852,6,0,P|243:241|326:200,1,157.50000064373
415,175,303320,6,0,P|355:222|347:299,1,157.50000064373
446,273,303883,6,0,B|389:260|347:298|347:298|337:268|335:227|373:187|395:182|415:175|415:175|415:106|363:29|239:57|233:138,1,524.999982118607,2|0,3:0|0:0,0:0:0:0:
224,197,305549,5,2,0:0:0:0:
256,192,305653,12,0,312216,0:0:0:0:
