osu file format v14

[General]
AudioFilename: audio.mp3
AudioLeadIn: 0
PreviewTime: 157876
Countdown: 0
SampleSet: Normal
StackLeniency: 0.2
Mode: 0
LetterboxInBreaks: 0
WidescreenStoryboard: 0

[Editor]
Bookmarks: 2623,38850,66178,90328,102404,115989,128064,140140,158253,182404,197498,209574,223159,235234,247310,265423,295611,319762,331838,337876,365045,380140,401272,427273
DistanceSpacing: 0.7
BeatDivisor: 2
GridSize: 4
TimelineZoom: 3.099999

[Metadata]
Title:Shinkirou
TitleUnicode:心綺楼
Artist:Diao ye zong feat. Meramipop
ArtistUnicode:凋叶棕 feat. めらみぽっぷ
Creator:jonathanlfj
Version:Collab Masquerade
Source:東方心綺楼 ~ Hopeless Masquerade.
Tags:伝 RD-Sounds Touhou 東方Project 亡失のエモーション The Lost Emotion 秦 こころ Hata no Kokoro 二ッ岩 マミゾウ Futatsuiwa Mamizou ZUN comiket 91 c91
BeatmapID:1325510
BeatmapSetID:628765

[Difficulty]
HPDrainRate:6
CircleSize:4.2
OverallDifficulty:9
ApproachRate:9.6
SliderMultiplier:1.2
SliderTickRate:1

[Events]
//Background and Video events
0,0,"kokoro.jpg",0,0
//Break Periods
2,332038,336989
//Storyboard Layer 0 (Background)
//Storyboard Layer 1 (Fail)
//Storyboard Layer 2 (Pass)
//Storyboard Layer 3 (Foreground)
//Storyboard Sound Samples

[TimingPoints]
2624,188.679245283019,4,2,3,40,1,0
2624,-125,4,2,3,40,0,0
3756,-133.333333333333,4,2,3,38,0,0
4133,-142.857142857143,4,2,3,36,0,0
4510,-153.846153846154,4,2,3,34,0,0
4888,-166.666666666667,4,2,3,32,0,0
5265,-181.818181818182,4,2,3,30,0,0
5642,-125,4,2,3,40,0,0
6774,-133.333333333333,4,2,3,38,0,0
7152,-142.857142857143,4,2,3,36,0,0
7529,-153.846153846154,4,2,3,34,0,0
7907,-166.666666666667,4,2,3,32,0,0
8473,-125,4,2,3,80,0,0
8850,-125,4,2,3,40,0,0
9793,-133.333333333333,4,2,3,38,0,0
10171,-142.857142857143,4,2,3,36,0,0
10548,-153.846153846154,4,2,3,34,0,0
10925,-166.666666666667,4,2,3,32,0,0
11491,-125,4,2,3,40,0,0
14699,-166.666666666667,4,2,3,40,0,0
15359,-166.666666666667,4,2,3,5,0,0
15454,-166.666666666667,4,2,3,40,0,0
16114,-166.666666666667,4,2,3,5,0,0
16208,-166.666666666667,4,2,3,40,0,0
16869,-166.666666666667,4,2,3,5,0,0
16963,-166.666666666667,4,2,3,40,0,0
17624,-166.666666666667,4,2,3,5,0,0
17718,-166.666666666667,4,2,3,40,0,0
18378,-166.666666666667,4,2,3,5,0,0
18473,-166.666666666667,4,2,3,40,0,0
19133,-166.666666666667,4,2,3,5,0,0
19227,-166.666666666667,4,2,3,40,0,0
19982,-142.857142857143,4,2,3,40,0,0
20737,-125,4,2,3,40,0,0
21869,-133.333333333333,4,2,3,38,0,0
22246,-142.857142857143,4,2,3,36,0,0
22624,-153.846153846154,4,2,3,34,0,0
23001,-166.666666666667,4,2,3,32,0,0
23378,-181.818181818182,4,2,3,30,0,0
23756,-125,4,2,3,40,0,0
24888,-125,4,2,3,38,0,0
25265,-125,4,2,3,36,0,0
25642,-125,4,2,3,34,0,0
26020,-125,4,2,3,32,0,0
26397,-125,4,2,3,30,0,0
26774,-166.666666666667,4,2,3,40,0,0
27435,-166.666666666667,4,2,3,5,0,0
27529,-166.666666666667,4,2,3,40,0,0
28190,-166.666666666667,4,2,3,5,0,0
28284,-166.666666666667,4,2,3,40,0,0
28944,-166.666666666667,4,2,3,5,0,0
29039,-166.666666666667,4,2,3,40,0,0
29699,-166.666666666667,4,2,3,5,0,0
29793,-166.666666666667,4,2,3,40,0,0
30454,-166.666666666667,4,2,3,5,0,0
30548,-166.666666666667,4,2,3,40,0,0
31208,-166.666666666667,4,2,3,5,0,0
31303,-166.666666666667,4,2,3,40,0,0
32718,-166.666666666667,4,2,3,5,0,0
32812,-125,4,2,3,40,0,0
33944,-133.333333333333,4,2,3,38,0,0
34322,-142.857142857143,4,2,3,36,0,0
34699,-153.846153846154,4,2,3,34,0,0
35076,-166.666666666667,4,2,3,32,0,0
35454,-181.818181818182,4,2,3,30,0,0
35831,-125,4,2,3,40,0,0
36963,-166.666666666667,4,2,3,38,0,0
37340,-166.666666666667,4,2,3,36,0,0
37718,-166.666666666667,4,2,3,34,0,0
38095,-166.666666666667,4,2,3,32,0,0
38473,-166.666666666667,4,2,3,30,0,0
38850,-166.666666666667,4,2,3,50,0,0
50171,-166.666666666667,4,2,3,40,0,0
50831,-166.666666666667,4,2,3,5,0,0
50925,-200,4,2,3,50,0,0
51633,-200,4,2,3,5,0,0
51680,-200,4,2,3,50,0,0
52388,-200,4,2,3,5,0,0
52435,-200,4,2,3,50,0,0
53142,-200,4,2,3,5,0,0
53190,-200,4,2,3,50,0,0
53897,-200,4,2,3,5,0,0
53944,-210.5,4,2,3,50,0,0
56916,-210,4,2,3,5,0,0
56963,-280,4,2,3,50,0,0
59982,-200,4,2,3,50,0,0
64510,201.342281879195,4,2,3,50,1,0
64510,-125,4,2,3,50,0,0
64912,-142.857142857143,4,2,3,50,0,0
65315,211.267605633803,4,2,3,40,1,0
65315,-166.666666666667,4,2,3,40,0,0
65737,220.588235294118,4,2,3,30,1,0
65737,-200,4,2,3,30,0,0
66178,188.679245283019,4,2,2,60,1,0
66178,-133.333333333333,4,2,2,60,0,0
66932,-350,4,2,2,60,0,0
67687,-133.333333333333,4,2,2,60,0,0
68442,-350,4,2,2,60,0,0
69196,-133.333333333333,4,2,2,60,0,0
69951,-350,4,2,2,60,0,0
70706,-133.333333333333,4,2,2,60,0,0
76744,-133.333333333333,4,2,2,65,0,0
77121,-111.111111111111,4,2,2,70,0,0
77687,-133.333333333333,4,2,2,70,0,0
77876,-250,4,2,2,70,0,0
78253,-100,4,1,20,70,0,0
83725,-83.3333333333333,4,1,20,70,0,0
84291,-100,4,1,20,70,0,0
87876,-90.9090909090909,4,1,20,70,0,0
88253,-83.3333333333333,4,1,20,70,0,0
88630,-76.9230769230769,4,1,20,70,0,0
89008,-71.4285714285714,4,1,20,70,0,0
89385,-66.6666666666667,4,1,20,70,0,0
89951,-133.333333333333,4,1,20,70,0,0
90328,-133.333333333333,4,1,15,65,0,0
95800,-133.333333333333,4,1,15,75,0,0
96366,-133.333333333333,4,1,15,65,0,0
101838,-133.333333333333,4,1,15,75,0,0
102404,-111.111111111111,4,1,27,65,0,0
108064,-90.9090909090909,4,1,27,70,0,0
108442,-111.111111111111,4,1,27,65,0,0
113913,-100,4,1,27,65,0,0
114479,-90.9090909090909,4,1,20,70,0,0
114857,-76.9230769230769,4,1,20,75,0,0
115234,-133.333333333333,4,2,2,75,0,0
115989,-100,4,1,18,65,0,0
121461,-83.3333333333333,4,1,18,70,0,0
122027,-100,4,1,18,65,0,0
127498,-83.3333333333333,4,1,18,70,0,0
128064,-90.9090909090909,4,1,18,65,0,0
133725,-90.9090909090909,4,1,18,75,0,0
134102,-90.9090909090909,4,1,18,65,0,0
139574,-90.9090909090909,4,1,18,75,0,0
140140,-111.111111111111,4,2,15,65,0,0
144668,-111.111111111111,4,2,15,75,0,0
145045,-111.111111111111,4,2,15,65,0,0
145423,-111.111111111111,4,2,15,55,0,0
145611,-100,4,2,15,60,0,0
145800,-90.9090909090909,4,2,15,65,0,0
145989,-83.3333333333333,4,2,15,70,0,0
146178,-142.857142857143,4,2,15,60,0,0
146366,-125,4,2,15,60,0,0
146555,-111.111111111111,4,2,15,65,0,0
146744,-100,4,2,15,65,0,0
146932,-90.9090909090909,4,2,15,70,0,0
147687,-125,4,2,15,60,0,0
147876,-111.111111111111,4,2,15,60,0,0
148064,-100,4,2,15,65,0,0
148253,-90.9090909090909,4,2,15,65,0,0
148442,-83.3333333333333,4,2,15,70,0,0
149196,-111.111111111111,4,2,15,60,0,0
149574,-100,4,2,15,65,0,0
149951,-90.9090909090909,4,2,15,65,0,0
150328,-83.3333333333333,4,2,15,65,0,0
150706,-76.9230769230769,4,2,15,70,0,0
151649,-71.4285714285714,4,2,15,75,0,0
151838,-66.6666666666667,4,2,15,75,0,0
152027,-62.5,4,2,15,75,0,0
152215,-55.5555555555556,4,1,42,80,0,0
152593,-111.111111111111,4,1,42,80,0,0
152970,-55.5555555555556,4,1,42,80,0,0
153347,-111.111111111111,4,1,42,80,0,0
153725,-55.5555555555556,4,1,42,80,0,0
154102,-111.111111111111,4,1,42,80,0,0
154479,-55.5555555555556,4,1,42,80,0,0
154857,-111.111111111111,4,1,42,80,0,0
155234,-111.111111111111,4,1,10,40,0,0
155423,-111.111111111111,4,1,10,45,0,0
155611,-111.111111111111,4,1,10,50,0,0
155800,-111.111111111111,4,1,10,55,0,0
155989,-111.111111111111,4,1,10,60,0,0
156178,-111.111111111111,4,1,10,65,0,0
156366,-111.111111111111,4,1,10,70,0,0
156555,-111.111111111111,4,1,10,75,0,0
156744,-100,4,1,42,80,0,0
157687,-100,4,2,27,80,0,0
158253,-76.9230769230769,4,1,15,80,0,1
158300,-76.9230769230769,4,1,15,80,0,0
168819,-68.9655172413793,4,1,15,80,0,0
169762,-55.5555555555556,4,2,2,90,0,0
170234,-55.5555555555556,4,2,2,5,0,0
170328,-71.4285714285714,4,1,33,80,0,1
177876,-68.9655172413793,4,1,33,80,0,1
179385,-66.6666666666667,4,1,33,80,0,1
180894,-64.5161290322581,4,1,33,80,0,1
182404,-80,4,1,33,70,0,0
188442,-80,4,3,33,70,0,0
194479,-76.9230769230769,4,2,2,60,0,0
195611,-76.9230769230769,4,2,2,80,0,0
196178,-76.9230769230769,4,2,2,60,0,0
196744,-83.3333333333333,4,2,2,70,0,0
196932,-100,4,2,2,60,0,0
197121,-125,4,2,2,50,0,0
197310,-166.666666666667,4,2,2,40,0,0
197498,-66.6666666666667,4,2,69,60,0,0
200517,-83.3333333333333,4,2,69,60,0,0
200894,-76.9230769230769,4,2,69,60,0,0
201272,-71.4285714285714,4,2,69,60,0,0
201649,-66.6666666666667,4,2,69,60,0,0
202027,-62.5,4,2,69,60,0,0
203536,-66.6666666666667,4,2,69,60,0,0
208064,-62.5,4,2,69,70,0,0
209574,-66.6666666666667,4,2,69,65,0,0
212970,-64.5161290322581,4,2,69,65,0,0
213347,-62.5,4,2,69,65,0,0
213725,-60.6060606060606,4,2,69,65,0,0
214102,-58.8235294117647,4,2,69,70,0,0
215611,-66.6666666666667,4,2,69,65,0,0
220140,-58.8235294117647,4,2,69,65,0,0
221649,-62.5,4,1,20,65,0,0
222027,-55.5555555555556,4,1,20,65,0,0
222404,-100,4,2,2,65,0,0
223159,-90.9090909090909,4,1,18,65,0,0
228819,-90.9090909090909,4,1,18,75,0,0
229196,-90.9090909090909,4,1,18,65,0,0
235234,-100,4,1,18,65,0,0
240517,-90.9090909090909,4,1,18,70,0,0
241272,-100,4,1,18,65,0,0
246744,-90.9090909090909,4,1,18,70,0,0
247310,-83.3333333333333,4,2,15,65,0,0
251838,-83.3333333333333,4,2,15,75,0,0
252215,-83.3333333333333,4,2,15,70,0,0
252593,-83.3333333333333,4,2,15,65,0,0
252781,-71.4285714285714,4,2,15,70,0,0
253347,-83.3333333333333,4,2,15,65,0,0
254102,-83.3333333333333,4,2,15,75,0,0
254857,-76.9230769230769,4,2,15,65,0,0
255611,-76.9230769230769,4,2,15,75,0,0
256366,-71.4285714285714,4,2,15,65,0,0
257121,-71.4285714285714,4,2,15,75,0,0
257876,-66.6666666666667,4,2,15,70,0,0
258630,-62.5,4,2,15,75,0,0
259385,-50,4,1,42,80,0,0
259762,-100,4,1,42,80,0,0
260140,-50,4,1,42,80,0,0
260517,-100,4,1,42,80,0,0
260894,-50,4,1,42,80,0,0
261272,-100,4,1,42,80,0,0
261649,-50,4,1,42,80,0,0
262027,-100,4,1,42,80,0,0
262404,-83.3333333333333,4,1,10,40,0,0
262593,-83.3333333333333,4,1,10,45,0,0
262781,-83.3333333333333,4,1,10,50,0,0
262970,-83.3333333333333,4,1,10,55,0,0
263159,-83.3333333333333,4,1,10,60,0,0
263347,-83.3333333333333,4,1,10,65,0,0
263536,-83.3333333333333,4,1,10,70,0,0
263725,-83.3333333333333,4,1,10,75,0,0
263913,-83.3333333333333,4,1,42,80,0,0
264291,-66.6666666666667,4,1,42,80,0,0
264668,-83.3333333333333,4,1,42,80,0,0
264857,-83.3333333333333,4,1,2,80,0,0
265045,-83.3333333333333,4,1,10,80,0,0
265423,-66.6666666666667,4,1,15,80,0,1
265470,-66.6666666666667,4,1,15,80,0,0
271083,-66.6666666666667,4,1,15,85,0,0
271461,-66.6666666666667,4,1,15,80,0,0
276932,-66.6666666666667,4,2,2,90,0,0
277121,-200,4,2,2,90,0,0
277404,-200,4,2,2,5,0,0
277498,-117.647058823529,4,1,33,80,0,1
277687,-100,4,1,33,80,0,1
277876,-86.9565217391304,4,1,33,80,0,1
278064,-76.9230769230769,4,1,33,80,0,1
278253,-68.9655172413793,4,1,33,80,0,1
278442,-62.5,4,1,33,80,0,1
278630,-55.5555555555556,4,1,33,80,0,1
279008,-90.9090909090909,4,1,33,80,0,1
279196,-80,4,1,33,80,0,1
279385,-71.4285714285714,4,1,33,80,0,1
279574,-64.5161290322581,4,1,33,80,0,1
279762,-58.8235294117647,4,1,33,80,0,1
279951,-55.5555555555556,4,1,33,80,0,1
280517,-62.5,4,1,33,80,0,1
283536,-66.6666666666667,4,1,33,80,0,1
285045,-64.5161290322581,4,1,33,80,0,1
286555,-62.5,4,1,33,80,0,1
288064,-60.6060606060606,4,1,33,80,0,1
289574,-83.3333333333333,4,1,12,80,0,0
292027,-83.3333333333333,4,2,12,90,0,0
292593,-83.3333333333333,4,1,12,80,0,0
294857,-83.3333333333333,4,2,12,80,0,0
295611,-83.3333333333333,4,2,10,70,0,0
297876,-62.5,4,2,10,70,0,0
298630,-83.3333333333333,4,2,10,70,0,0
301649,-62.5,4,2,10,70,0,0
302781,-133.333333333333,4,2,10,70,0,0
303159,-83.3333333333333,4,2,10,70,0,0
303913,-62.5,4,2,10,70,0,0
304668,-83.3333333333333,4,2,10,70,0,0
307687,-76.9230769230769,4,2,10,80,0,0
309951,-58.8235294117647,4,2,10,80,0,0
310706,-76.9230769230769,4,2,10,80,0,0
313725,-58.8235294117647,4,2,10,80,0,0
315234,-76.9230769230769,4,2,10,80,0,0
315989,-58.8235294117647,4,2,10,80,0,0
316744,-76.9230769230769,4,2,10,80,0,0
319762,-76.9230769230769,4,2,35,80,0,0
325800,-90.9090909090909,4,2,35,80,0,0
326178,-80,4,2,35,80,0,0
326555,-71.4285714285714,4,2,35,80,0,0
331272,-66.6666666666667,4,2,35,80,0,0
331838,-125,4,2,69,40,0,0
337498,-200,4,2,3,40,0,0
342404,-125,4,2,3,40,0,0
343913,-166.666666666667,4,2,3,40,0,0
348442,-125,4,2,3,40,0,0
349951,-125,4,2,2,50,0,0
351461,-125,4,2,2,55,0,0
352970,-125,4,2,2,60,0,0
359008,-100,4,2,2,60,0,0
362027,-100,4,2,2,60,0,0
362781,-500,4,2,2,80,0,0
364102,-500,4,2,2,50,0,0
364291,-500,4,2,2,40,0,0
364479,-500,4,2,2,30,0,0
364668,-500,4,2,2,20,0,0
365045,-142.857142857143,4,2,2,30,0,0
368064,-142.857142857143,4,2,2,40,0,0
370328,-142.857142857143,4,2,2,60,0,0
370706,-142.857142857143,4,2,2,70,0,0
371083,-200,4,2,42,40,0,0
371838,-166.666666666667,4,2,42,50,0,0
372593,-142.857142857143,4,2,42,60,0,0
373347,-125,4,2,42,70,0,0
374102,-111.111111111111,4,2,42,70,0,0
374857,-100,4,2,42,70,0,0
375234,-90.9090909090909,4,2,42,70,0,0
375611,-83.3333333333333,4,2,42,80,0,0
376366,-125,4,2,42,70,0,0
377121,-83.3333333333333,4,2,40,80,0,1
378064,-83.3333333333333,4,2,12,60,0,0
378819,-83.3333333333333,4,2,12,70,0,0
379385,-71.4285714285714,4,2,12,80,0,0
380140,-55.5555555555556,4,1,15,80,0,1
387310,-52.6315789473684,4,1,15,85,0,1
387687,-50,4,1,15,90,0,1
389196,-55.5555555555556,4,1,44,80,0,1
391083,-52.6315789473684,4,1,44,80,0,1
391649,-50,4,1,44,80,0,1
392215,-55.5555555555556,4,1,44,80,0,1
401272,-62.5,4,1,44,70,0,0
407310,-60.6060606060606,4,1,35,70,0,0
413347,-62.5,4,1,35,70,0,0
413725,-60.6060606060606,4,1,35,70,0,0
414102,-58.8235294117647,4,1,35,70,0,0
418630,-54.054054054054,4,1,12,75,0,0
419008,-50,4,1,12,80,0,0
419385,235.294117647059,4,2,1,50,1,0
419385,-90.9090909090909,4,2,1,50,0,0
425032,240,4,2,3,50,1,0
425032,-133.333333333333,4,2,3,50,0,0
425512,265.486725663717,4,2,3,50,1,0
425512,-153.846153846154,4,2,3,50,0,0
426042,300,4,2,3,50,1,0
426042,-200,4,2,3,50,0,0
426642,315.789473684211,4,2,1,80,1,0
426642,-300,4,2,1,80,0,0
427273,352.941176470588,4,2,12,90,1,0
427273,-100,4,2,12,90,0,0

[Colours]
Combo1 : 159,159,159
Combo2 : 225,123,176
Combo3 : 91,123,249
Combo4 : 210,89,92
Combo5 : 173,116,252
Combo6 : 255,17,17
Combo7 : 213,211,210

[HitObjects]
100,76,2623,5,2,0:0:0:0:
180,60,2812,1,0,0:0:0:0:
240,112,3001,1,0,0:0:0:0:
240,192,3190,1,0,0:0:0:0:
308,236,3378,6,0,L|412:216,1,96,2|0,0:0|0:0,0:0:0:0:
490,200,3756,2,0,L|401:217,1,90.0000034332277,2|0,0:0|0:0,0:0:0:0:
345,155,4133,2,0,L|401:217,1,83.9999974365235,2|0,0:0|0:0,0:0:0:0:
453,275,4511,2,0,L|402:217,1,77.9999964294435,2|0,0:0|0:0,0:0:0:0:
424,149,4888,2,0,L|401:217,1,71.9999978027344,2|0,0:0|0:0,0:0:0:0:
380,280,5266,2,0,L|402:217,1,66.0000020141602,2|2,0:0|0:0,0:0:0:0:
360,152,5642,5,2,0:0:0:0:
280,160,5831,1,0,0:0:0:0:
256,236,6020,1,0,0:0:0:0:
176,248,6208,1,0,0:0:0:0:
128,184,6397,6,0,P|128:128|148:80,1,96,2|0,0:0|0:0,0:0:0:0:
96,166,6774,2,0,P|112:124|141:90,1,90.0000034332277,2|0,0:0|0:0,0:0:0:0:
76,138,7152,2,0,P|102:106|141:90,1,83.9999974365235,2|0,0:0|0:0,0:0:0:0:
66,107,7529,2,0,P|102:92|141:90,1,77.9999964294435,2|0,0:0|0:0,0:0:0:0:
74,71,7907,2,0,P|110:73|141:90,1,71.9999978027344,2|0,0:0|0:0,0:0:0:0:
164,164,8284,1,2,0:0:0:0:
88,148,8473,5,2,0:0:0:0:
364,68,8661,1,2,0:0:0:0:
412,140,8850,37,0,0:0:0:0:
324,144,9039,1,0,0:0:0:0:
364,68,9228,1,0,0:0:0:0:
412,140,9416,6,0,P|400:184|360:224,1,96,2|0,0:0|0:0,0:0:0:0:
364,68,9793,2,0,P|412:56|452:64,1,90.0000034332277,2|0,0:0|0:0,0:0:0:0:
324,144,10171,2,0,P|304:128|276:72,1,83.9999974365235,2|0,0:0|0:0,0:0:0:0:
412,140,10548,2,0,P|400:184|372:216,1,77.9999964294435,2|0,0:0|0:0,0:0:0:0:
364,68,10925,2,0,P|408:56|440:60,1,71.9999978027344,2|0,0:0|0:0,0:0:0:0:
324,144,11303,1,2,0:0:0:0:
244,108,11491,5,2,0:0:0:0:
240,92,11586,1,0,0:0:0:0:
236,76,11680,1,2,0:0:0:0:
220,192,11869,1,2,0:0:0:0:
136,168,12057,5,2,0:0:0:0:
132,152,12152,1,0,0:0:0:0:
128,136,12246,1,2,0:0:0:0:
116,252,12435,1,2,0:0:0:0:
196,288,12624,53,2,0:0:0:0:
212,284,12718,1,0,0:0:0:0:
228,280,12812,1,2,0:0:0:0:
116,252,13001,1,2,0:0:0:0:
288,344,13190,6,0,P|328:344|384:308,1,96,2|0,0:0|0:0,0:0:0:0:
228,280,13473,1,0,0:0:0:0:
212,284,13567,2,0,P|164:281|120:256,1,96,2|0,0:0|0:0,0:0:0:0:
288,212,13850,1,0,0:0:0:0:
304,216,13944,2,0,P|351:213|396:188,1,96,2|0,0:0|0:0,0:0:0:0:
256,32,14322,1,2,0:0:0:0:
256,32,14416,2,0,L|256:132,1,96,2|0,0:0|0:0,0:0:0:0:
160,84,14699,6,0,B|96:80|56:20|56:20|60:68|28:104|28:104|43:123|60:132,1,251.999992309571,2|0,0:0|0:0,0:0:0:0:
128,160,15454,2,0,B|172:172|216:148|216:148|160:212|164:304,1,251.999992309571,2|0,0:0|0:0,0:0:0:0:
200,372,16208,6,0,B|236:352|248:312|248:312|272:336|304:344|304:344|352:312|416:332,1,251.999992309571,2|0,0:0|0:0,0:0:0:0:
480,368,16963,2,0,B|500:332|488:284|452:260|452:260|416:236|404:184|432:144,1,251.999992309571,2|0,0:0|0:0,0:0:0:0:
500,192,17718,54,0,P|436:228|360:100,1,251.999992309571,2|0,0:0|0:0,0:0:0:0:
431,145,18473,2,0,B|404:188|348:200|304:168|304:168|280:192|280:192|248:184|228:140,1,251.999992309571,2|0,0:0|0:0,0:0:0:0:
236,60,19227,6,0,P|268:44|320:40,1,71.9999978027344,2|0,0:0|0:0,0:0:0:0:
431,145,19605,2,0,P|463:149|507:173,1,71.9999978027344,2|0,0:0|0:0,0:0:0:0:
315,80,19982,6,0,P|283:64|231:60,1,83.9999974365235,2|0,0:0|0:0,0:0:0:0:
116,180,20360,2,0,P|84:184|36:211,1,83.9999974365235,2|0,0:0|0:0,0:0:0:0:
192,224,20737,5,2,0:0:0:0:
196,136,20925,1,0,0:0:0:0:
116,92,21114,1,0,0:0:0:0:
116,180,21303,1,0,0:0:0:0:
272,184,21491,54,0,P|312:176|356:128,1,96,2|0,0:0|0:0,0:0:0:0:
272,92,21869,2,0,P|284:52|272:0,1,90.0000034332277,2|0,0:0|0:0,0:0:0:0:
196,48,22246,2,0,P|164:16|124:4,1,83.9999974365235,2|0,0:0|0:0,0:0:0:0:
120,92,22624,2,0,P|80:100|44:128,1,77.9999964294435,2|0,0:0|0:0,0:0:0:0:
116,180,23001,2,0,P|108:204|112:256,1,71.9999978027344,2|0,0:0|0:0,0:0:0:0:
192,224,23378,2,0,P|220:256|248:268,1,66.0000020141602,2|2,0:0|0:0,0:0:0:0:
328,256,23756,5,2,0:0:0:0:
384,188,23944,1,0,0:0:0:0:
468,216,24133,1,0,0:0:0:0:
468,304,24322,1,0,0:0:0:0:
380,328,24510,5,2,0:0:0:0:
468,216,24699,1,0,0:0:0:0:
468,304,24888,1,2,0:0:0:0:
328,256,25076,1,0,0:0:0:0:
384,188,25265,1,2,0:0:0:0:
380,328,25454,1,0,0:0:0:0:
328,256,25642,1,2,0:0:0:0:
468,216,25831,1,0,0:0:0:0:
468,304,26020,5,2,0:0:0:0:
384,188,26208,1,0,0:0:0:0:
380,328,26397,1,2,0:0:0:0:
468,216,26586,1,2,0:0:0:0:
328,256,26774,54,0,B|284:260|248:236|248:236|192:276|124:252|124:252|144:248|160:236,1,251.999992309571,2|0,0:0|0:0,0:0:0:0:
200,164,27529,2,0,P|200:104|108:172,1,251.999992309571,2|0,0:0|0:0,0:0:0:0:
200,164,28284,6,0,B|256:164|284:124|284:124|336:144|336:144|380:112|432:124,1,251.999992309571,2|0,0:0|0:0,0:0:0:0:
436,36,29039,2,0,B|376:28|328:52|328:52|280:32|280:32|232:36|204:80,1,251.999992309571,2|0,0:0|0:0,0:0:0:0:
200,164,29793,6,0,B|144:156|124:105|124:105|84:76|36:108|40:160|76:180,1,251.999992309571,2|0,0:0|0:0,0:0:0:0:
148,228,30548,2,0,B|188:264|188:324|141:362|85:355|85:355|77:324|93:290,1,251.999992309571,2|0,0:0|0:0,0:0:0:0:
148,228,31303,6,0,P|195:212|226:214,1,71.9999978027344,2|0,0:0|0:0,0:0:0:0:
427,327,31680,2,0,P|398:313|347:313,1,71.9999978027344,2|0,0:0|0:0,0:0:0:0:
200,300,32057,2,0,P|245:297|257:131,1,251.999992309571,2|0,0:0|0:0,0:0:0:0:
216,212,32812,53,2,0:0:0:0:
200,300,33001,1,0,0:0:0:0:
284,270,33190,1,0,0:0:0:0:
216,212,33378,1,0,0:0:0:0:
130,242,33567,6,0,L|39:272,1,96,2|0,0:0|0:0,0:0:0:0:
44,213,33944,2,0,L|129:241,1,90.0000034332277,2|0,0:0|0:0,0:0:0:0:
123,185,34322,2,0,L|44:212,1,83.9999974365235,2|0,0:0|0:0,0:0:0:0:
48,160,34699,2,0,L|123:185,1,77.9999964294435,2|0,0:0|0:0,0:0:0:0:
116,136,35076,2,0,L|48:160,1,71.9999978027344,2|0,0:0|0:0,0:0:0:0:
53,115,35454,2,0,L|116:136,1,66.0000020141602,2|0,0:0|0:0,0:0:0:0:
199,165,35831,5,2,0:0:0:0:
262,111,36020,1,0,0:0:0:0:
277,194,36208,1,0,0:0:0:0:
116,136,36397,1,0,0:0:0:0:
251,27,36586,5,2,0:0:0:0:
199,165,36774,1,0,0:0:0:0:
262,111,36963,1,2,0:0:0:0:
183,82,37152,1,0,0:0:0:0:
277,194,37340,53,2,0:0:0:0:
251,27,37529,1,0,0:0:0:0:
116,136,37718,1,2,0:0:0:0:
215,119,37907,1,0,0:0:0:0:
148,44,38095,5,2,0:0:0:0:
179,214,38284,1,2,0:0:0:0:
315,102,38473,1,0,0:0:0:0:
215,119,38661,1,2,0:0:0:0:
116,136,38850,6,0,B|86:202|86:202|100:277,1,143.999995605469,4|0,0:0|0:0,0:0:0:0:
99,272,39416,1,2,0:0:0:0:
322,199,39605,2,0,L|172:214,1,143.999995605469,2|0,0:0|0:0,0:0:0:0:
178,213,40171,1,2,0:0:0:0:
333,322,40359,6,0,L|482:335,1,143.999995605469,4|0,0:0|0:0,0:0:0:0:
476,334,40925,1,2,0:0:0:0:
412,242,41114,2,0,L|421:167,1,71.9999978027344,2|0,0:0|0:0,0:0:0:0:
363,93,41491,1,2,0:0:0:0:
420,170,41680,1,0,0:0:0:0:
265,108,41869,54,0,L|121:123,1,143.999995605469,4|0,0:0|0:0,0:0:0:0:
121,122,42435,1,2,0:0:0:0:
363,93,42624,2,0,B|369:57|369:57|360:22,1,71.9999978027344,2|0,0:0|0:0,0:0:0:0:
362,188,43001,2,0,B|399:181|399:181|431:158,1,71.9999978027344,2|0,0:0|0:0,0:0:0:0:
283,139,43378,5,4,0:0:0:0:
279,232,43567,1,0,0:0:0:0:
360,279,43756,1,0,0:0:0:0:
442,235,43944,1,2,0:0:0:0:
279,232,44133,5,2,0:0:0:0:
367,97,44322,1,0,0:0:0:0:
200,183,44510,1,2,0:0:0:0:
360,279,44699,1,2,0:0:0:0:
139,255,44888,6,0,P|207:232|278:231,1,143.999995605469,4|0,0:0|0:0,0:0:0:0:
278,231,45454,1,2,0:0:0:0:
63,207,45642,2,0,P|48:133|56:61,1,143.999995605469,2|0,0:0|0:0,0:0:0:0:
54,65,46208,1,2,0:0:0:0:
280,72,46397,54,0,P|210:95|132:88,1,143.999995605469,4|0,0:0|0:0,0:0:0:0:
140,90,46963,1,2,0:0:0:0:
213,208,47152,2,0,P|221:173|220:131,1,71.9999978027344,2|0,0:0|0:0,0:0:0:0:
129,247,47529,1,2,0:0:0:0:
213,208,47718,1,0,0:0:0:0:
435,228,47907,6,0,P|367:250|296:248,1,143.999995605469,4|0,0:0|0:0,0:0:0:0:
296,248,48473,1,2,0:0:0:0:
321,338,48661,2,0,P|356:338|392:333,1,71.9999978027344,2|0,0:0|0:0,0:0:0:0:
406,123,49039,2,0,P|363:124|329:134,1,71.9999978027344,2|0,0:0|0:0,0:0:0:0:
160,228,49416,6,0,B|173:261|173:261|178:297,1,71.9999978027344,4|0,0:0|0:0,0:0:0:0:
333,297,49793,2,0,B|338:260|338:260|351:227,1,71.9999978027344,0|2,0:0|0:0,0:0:0:0:
176,132,50171,6,0,B|244:152|256:220|256:220|268:152|336:132,1,251.999992309571,6|0,0:0|0:0,0:0:0:0:
231,74,50925,54,0,P|128:63|102:163,1,225,2|0,0:0|0:0,0:0:0:0:
102,163,51680,6,0,B|128:236|228:224|256:320,1,225
256,318,52435,6,0,B|284:224|384:236|410:163,1,225,2|0,0:0|0:0,0:0:0:0:
409,163,53190,6,0,P|383:63|280:74,1,225
231,74,53944,54,0,B|158:6|76:66|52:132|75:258|221:190|256:318|256:318|287:192|429:265|466:130|436:59|344:9|280:74,1,897.862232779097,2|0,0:0|0:0,0:0:0:0:
256,148,56963,6,0,P|216:152|172:128,1,85.7142857142857,2|0,0:0|0:0,0:0:0:0:
40,236,57718,2,0,P|76:224|128:232,1,85.7142857142857,2|0,0:0|0:0,0:0:0:0:
260,356,58473,2,0,P|248:312|256:272,1,85.7142857142857,2|0,0:0|0:0,0:0:0:0:
444,184,59227,2,0,P|404:216|364:220,1,85.7142857142857,2|0,0:0|0:0,0:0:0:0:
116,132,59982,5,2,0:0:0:0:
116,132,60737,1,0,0:0:0:0:
196,104,60925,1,2,0:0:0:0:
276,136,61114,1,0,0:0:0:0:
352,100,61303,1,2,0:0:0:0:
108,216,61491,5,2,0:0:0:0:
108,216,62246,1,0,0:0:0:0:
188,188,62434,1,2,0:0:0:0:
268,220,62623,1,0,0:0:0:0:
344,184,62812,1,2,0:0:0:0:
100,300,63001,53,2,0:0:0:0:
108,216,63190,1,0,0:0:0:0:
28,252,63378,1,0,0:0:0:0:
100,300,63567,1,0,0:0:0:0:
36,164,63756,1,0,0:0:0:0:
24,340,63944,1,2,0:0:0:0:
180,264,64133,1,0,0:0:0:0:
78,255,64322,1,2,0:0:0:0:
269,309,64510,6,0,P|280:261|267:206,1,96,2|0,0:0|0:0,0:0:0:0:
318,237,64912,6,0,P|312:278|292:315,1,83.9999974365235,2|0,0:0|0:0,0:0:0:0:
314,325,65315,6,0,P|340:295|352:252,1,71.9999978027344,2|0,0:0|0:0,0:0:0:0:
375,293,65737,54,0,P|359:318|335:336,1,60,2|2,0:0|0:0,0:0:0:0:
196,322,66178,6,0,P|271:281|335:337,1,180.000006866455,2|8,1:0|0:0,0:0:0:0:
263,355,66744,1,0,1:0:0:0:
152,254,66932,2,0,P|146:182|155:152,1,102.857142857143,8|0,1:0|0:0,0:0:0:0:
282,98,67687,6,0,P|238:170|155:155,1,180.000006866455,2|8,1:0|0:0,0:0:0:0:
206,103,68253,1,0,1:0:0:0:
320,200,68442,2,0,P|361:214|426:209,1,102.857142857143,8|0,1:0|0:0,0:0:0:0:
258,243,69196,6,0,B|213:228|169:244|169:244|124:265|78:244,1,180.000006866455,2|8,1:0|0:0,0:0:0:0:
124,172,69762,1,0,1:0:0:0:
216,319,69951,2,0,P|271:324|317:303,1,102.857142857143,8|0,1:0|0:0,0:0:0:0:
378,101,70706,54,0,P|323:154|368:241,1,180.000006866455,2|8,1:0|0:0,0:0:0:0:
397,173,71272,1,0,1:0:0:0:
253,215,71461,1,8,1:0:0:0:
468,262,71649,5,8,0:0:0:0:
471,276,71838,1,8,0:0:0:0:
473,291,72215,5,0,1:0:0:0:
291,313,72404,2,0,L|272:316,2,15.0000005722046,2|0|0,0:0|0:0|0:0,0:0:0:0:
373,253,72593,2,0,B|388:297|388:297|384:344,1,90.0000034332277,8|0,0:0|1:0,0:0:0:0:
277,212,72970,1,0,1:0:0:0:
277,212,73725,5,0,1:0:0:0:
342,40,73913,2,0,L|350:14,2,15.0000005722046,2|0|0,0:0|0:0|0:0,0:0:0:0:
219,139,74102,2,0,P|261:123|306:125,1,90.0000034332277,8|0,0:0|1:0,0:0:0:0:
185,225,74479,1,0,1:0:0:0:
185,225,75234,53,0,1:0:0:0:
42,113,75423,2,0,L|25:102,2,15.0000005722046,2|0|0,0:0|0:0|0:0,0:0:0:0:
92,243,75611,2,0,P|105:276|118:292,3,45.0000017166138,8|2|0|2,0:0|0:0|1:0|0:0,0:0:0:0:
185,225,75989,2,0,P|219:236|240:239,3,45.0000017166138,0|2|0|0,1:0|0:0|0:0|0:0,0:0:0:0:
110,283,76366,2,0,P|134:303|156:314,3,45.0000017166138,2|0|0|2,0:0|0:0|0:0|0:0,0:0:0:0:
245,332,76744,5,0,1:0:0:0:
266,324,76838,1,2,0:0:0:0:
288,321,76932,1,0,0:0:0:0:
310,322,77026,1,0,0:0:0:0:
331,329,77121,5,10,0:0:0:0:
312,303,77215,1,0,0:0:0:0:
281,295,77310,1,0,1:0:0:0:
249,299,77404,1,2,0:0:0:0:
222,315,77498,2,0,P|236:284|242:258,1,53.9999983520508,0|0,1:0|0:0,0:0:0:0:
190,111,77687,21,2,1:0:0:0:
247,178,77781,1,0,1:0:0:0:
331,200,77876,22,0,P|360:199|402:188,1,72,2|2,1:0|1:2,0:0:0:0:
504,49,78253,6,0,B|480:30|480:30|437:26|393:48,1,120,4|8,1:0|1:0,0:0:0:0:
352,120,78536,1,2,1:0:0:0:
437,185,78630,2,0,B|433:157|433:157|401:122|352:120,1,120,2|8,1:0|1:0,0:0:0:0:
277,161,78913,1,2,0:0:0:0:
164,180,79008,2,0,P|218:155|278:161,1,120,2|8,0:0|0:0,0:0:0:0:
349,207,79291,1,2,0:0:0:0:
335,318,79385,2,0,P|323:260|349:207,1,120,2|8,0:0|0:0,0:0:0:0:
406,271,79668,1,2,0:0:0:0:
512,256,79762,6,0,B|464:236|464:236|412:268,1,120,2|8,0:0|0:0,0:0:0:0:
335,318,80045,1,2,0:0:0:0:
215,308,80140,2,0,L|359:320,1,120,2|8,0:0|0:0,0:0:0:0:
312,228,80423,1,2,0:0:0:0:
192,218,80518,2,0,L|336:230,1,120,2|8,0:0|0:0,0:0:0:0:
292,136,80800,1,2,0:0:0:0:
172,126,80895,2,0,L|316:138,1,120,2|8,0:0|0:0,0:0:0:0:
384,144,81178,1,2,0:0:0:0:
384,144,81272,5,2,0:0:0:0:
172,126,81461,1,8,0:0:0:0:
148,208,81555,2,0,L|156:276,1,60,2|2,0:0|0:0,0:0:0:0:
376,368,81838,1,8,0:0:0:0:
400,286,81932,2,0,L|392:218,1,60,2|2,0:0|0:0,0:0:0:0:
84,320,82215,1,8,0:0:0:0:
164,356,82310,2,0,L|232:352,1,60,2|2,0:0|0:0,0:0:0:0:
384,144,82593,5,8,0:0:0:0:
304,180,82688,2,0,L|236:176,1,60,2|2,0:0|0:0,0:0:0:0:
56,64,82970,1,8,0:0:0:0:
136,28,83065,2,0,L|204:32,1,60,2|2,0:0|0:0,0:0:0:0:
376,232,83347,1,8,0:0:0:0:
296,268,83442,2,0,L|228:264,1,60,2|2,0:0|0:0,0:0:0:0:
128,116,83725,53,8,0:0:0:0:
128,116,83819,1,0,0:0:0:0:
128,116,83913,2,0,L|208:120,1,71.9999978027344,8|8,0:0|0:0,0:0:0:0:
276,72,84102,2,0,L|356:76,1,71.9999978027344,2|8,0:2|0:0,0:0:0:0:
424,28,84291,6,0,B|436:68|436:68|424:152,1,120,0|8,0:0|0:0,0:0:0:0:
380,230,84574,1,2,0:0:0:0:
380,348,84668,2,0,B|392:308|392:308|380:224,1,120,2|8,0:0|0:0,0:0:0:0:
332,133,84951,1,2,0:0:0:0:
332,16,85045,2,0,B|344:56|344:56|332:140,1,120,2|8,0:0|0:0,0:0:0:0:
288,242,85328,1,2,0:0:0:0:
288,360,85422,2,0,B|300:320|300:320|288:236,1,120,2|8,0:0|0:0,0:0:0:0:
176,152,85706,1,2,0:0:0:0:
124,204,85800,6,0,P|164:224|240:188,1,120,2|8,0:0|0:0,0:0:0:0:
176,152,86083,1,2,0:0:0:0:
144,232,86178,6,0,P|204:232|248:192,1,120,2|8,0:0|0:0,0:0:0:0:
176,152,86461,1,2,0:0:0:0:
172,252,86555,54,0,P|224:240|268:188,1,120,2|8,0:0|0:0,0:0:0:0:
176,152,86838,1,2,0:0:0:0:
204,264,86932,6,0,P|252:240|288:168,1,120,2|8,0:0|0:0,0:0:0:0:
176,152,87215,1,2,0:0:0:0:
176,152,87310,5,2,0:0:0:0:
311,358,87498,2,0,L|371:348,1,60,8|2,0:0|0:0,0:0:0:0:
234,371,87687,1,2,0:0:0:0:
184,272,87876,6,0,P|152:264|120:261,1,66.0000020141602,8|2,0:0|0:0,0:0:0:0:
262,301,88065,1,2,0:0:0:0:
332,196,88253,54,0,B|364:184|364:184|401:185,1,71.9999978027344,8|2,0:0|0:0,0:0:0:0:
249,226,88442,1,2,0:0:0:0:
168,140,88630,6,0,B|148:133|137:118|137:118|120:129|100:129,1,77.9999964294435,8|2,0:0|0:0,0:0:0:0:
257,153,88819,1,2,0:0:0:0:
340,48,89008,6,0,B|366:39|366:39|396:42|396:42|422:32,1,83.9999974365235,8|2,0:0|0:0,0:0:0:0:
253,80,89197,1,2,0:0:0:0:
170,34,89385,21,8,0:0:0:0:
170,34,89479,1,2,0:0:0:0:
170,33,89574,2,0,L|81:20,1,90.0000034332277,2|0,0:2|0:0,0:0:0:0:
176,129,89762,2,0,L|87:116,1,90.0000034332277,8|8,0:0|0:0,0:0:0:0:
170,33,89951,6,0,L|259:46,1,90.0000034332277,8|0,0:0|0:0,0:0:0:0:
263,50,90234,1,2,0:0:0:0:
267,54,90328,21,4,0:0:0:0:
329,182,90517,1,8,0:2:0:0:
233,146,90706,1,0,0:0:0:0:
363,90,90894,1,8,0:2:0:0:
348,264,91083,5,2,0:2:0:0:
264,144,91272,1,8,0:2:0:0:
408,128,91461,1,2,0:2:0:0:
252,264,91649,5,8,0:2:0:0:
416,208,91838,1,2,0:2:0:0:
376,380,92027,1,8,0:2:0:0:
140,320,92215,5,0,0:0:0:0:
352,284,92404,1,8,0:2:0:0:
196,100,92593,2,0,P|180:152|180:200,1,90.0000034332277,0|10,0:0|0:2,0:0:0:0:
48,260,92970,2,0,P|44:200|36:160,1,90.0000034332277,0|10,0:0|0:2,0:0:0:0:
176,304,93347,53,2,0:2:0:0:
308,240,93536,1,8,0:2:0:0:
184,164,93725,1,2,0:2:0:0:
308,344,93913,5,8,0:2:0:0:
80,324,94102,1,2,0:2:0:0:
280,228,94291,1,10,0:2:0:0:
96,124,94479,2,0,P|88:156|88:176,1,45.0000017166138
184,164,94668,1,8,0:2:0:0:
192,128,94762,1,0,0:0:0:0:
188,92,94857,5,2,0:2:0:0:
112,248,95045,1,8,0:2:0:0:
288,144,95234,1,2,0:2:0:0:
100,36,95423,1,8,0:2:0:0:
312,152,95611,6,0,P|352:156|412:148,1,90.0000034332277,2|8,0:2|0:2,0:0:0:0:
416,144,95894,1,8,0:2:0:0:
428,136,95989,1,10,0:2:0:0:
416,172,96083,1,8,0:2:0:0:
416,212,96178,1,10,0:2:0:0:
428,248,96272,1,10,0:2:0:0:
452,276,96366,54,0,P|460:324|460:372,1,90.0000034332277,2|8,0:2|0:2,0:0:0:0:
244,340,96744,2,0,P|300:332|340:332,1,90.0000034332277,0|8,0:0|0:2,0:0:0:0:
500,196,97121,2,0,P|440:188|408:180,1,90.0000034332277,2|8,0:2|0:2,0:0:0:0:
296,68,97498,1,2,0:2:0:0:
348,244,97687,1,8,0:2:0:0:
408,88,97876,5,0,0:0:0:0:
232,204,98064,1,10,0:2:0:0:
424,292,98253,1,0,0:0:0:0:
184,300,98442,5,10,0:2:0:0:
340,208,98630,1,0,0:0:0:0:
160,124,98819,1,8,0:2:0:0:
332,28,99008,5,2,0:2:0:0:
328,56,99196,1,10,0:2:0:0:
324,84,99385,53,2,0:2:0:0:
372,180,99574,1,8,0:2:0:0:
464,128,99762,1,2,0:2:0:0:
260,192,99951,5,8,0:2:0:0:
400,296,100140,1,2,0:2:0:0:
424,124,100328,1,8,0:2:0:0:
215,193,100517,2,0,P|243:193|279:189,1,45.0000017166138,2|0,0:2|0:0,0:0:0:0:
328,120,100706,1,10,0:2:0:0:
320,84,100800,1,0,0:0:0:0:
328,48,100894,5,0,0:0:0:0:
412,212,101083,1,10,0:2:0:0:
232,96,101272,1,0,0:0:0:0:
424,88,101461,1,10,0:2:0:0:
296,296,101649,6,0,P|296:248|304:196,1,90.0000034332277,0|8,0:0|0:2,0:0:0:0:
308,192,101932,1,8,0:2:0:0:
316,176,102027,1,10,0:2:0:0:
276,184,102121,1,8,0:2:0:0:
236,184,102215,1,10,0:2:0:0:
196,172,102310,1,10,0:2:0:0:
160,148,102404,53,10,0:2:0:0:
316,88,102593,1,8,0:0:0:0:
136,112,102781,1,8,0:2:0:0:
344,108,102970,2,0,L|408:104,1,53.9999983520508,8|8,0:0|0:2,0:0:0:0:
236,60,103159,5,8,0:2:0:0:
208,244,103347,1,8,0:0:0:0:
200,48,103536,1,8,0:2:0:0:
240,232,103725,2,0,L|300:228,1,53.9999983520508,8|8,0:0|0:2,0:0:0:0:
140,192,103913,5,8,0:2:0:0:
300,136,104102,1,8,0:0:0:0:
104,172,104291,1,2,0:2:0:0:
104,212,104385,1,8,0:2:0:0:
140,192,104479,2,0,P|140:152|132:128,1,53.9999983520508,8|8,0:0|0:2,0:0:0:0:
108,288,104668,5,10,0:2:0:0:
296,304,104857,1,8,0:0:0:0:
208,232,105045,1,10,0:2:0:0:
396,252,105234,1,8,0:0:0:0:
408,284,105328,1,0,0:0:0:0:
408,320,105423,53,10,0:2:0:0:
472,220,105611,1,8,0:0:0:0:
348,108,105800,5,8,0:2:0:0:
376,224,105989,1,8,0:0:0:0:
236,352,106178,5,8,0:2:0:0:
280,216,106366,2,0,P|280:188|272:152,1,53.9999983520508,8|0,0:0|0:0,0:0:0:0:
160,28,106555,6,0,P|152:68|148:96,1,53.9999983520508
184,200,106744,2,0,P|176:244|168:268,1,53.9999983520508,8|0,0:0|0:0,0:0:0:0:
28,360,106932,53,2,0:2:0:0:
92,176,107121,1,8,0:0:0:0:
200,360,107310,1,2,0:2:0:0:
60,268,107498,1,8,0:0:0:0:
128,84,107687,6,0,L|240:76,1,107.999996704102,10|8,0:2|0:0,0:0:0:0:
321,68,107970,1,0,0:0:0:0:
321,68,108064,2,0,L|307:144,1,66.0000020141602,8|8,0:0|0:0,0:0:0:0:
407,62,108253,2,0,L|393:138,1,66.0000020141602,10|8,0:0|0:0,0:0:0:0:
368,288,108442,5,10,0:2:0:0:
418,122,108630,1,8,0:0:0:0:
384,303,108819,1,8,0:2:0:0:
215,226,109008,2,0,P|247:212|281:211,1,53.9999983520508,8|8,0:0|0:2,0:0:0:0:
437,219,109196,5,8,0:2:0:0:
276,182,109385,1,8,0:0:0:0:
434,244,109574,1,8,0:2:0:0:
351,73,109762,2,0,P|341:109|338:138,1,53.9999983520508,8|8,0:0|0:2,0:0:0:0:
381,313,109951,53,8,0:2:0:0:
342,156,110140,1,8,0:0:0:0:
368,352,110328,1,0,0:0:0:0:
409,344,110423,1,8,0:2:0:0:
381,313,110517,2,0,L|319:308,1,53.9999983520508,8|8,0:0|0:2,0:0:0:0:
144,368,110706,5,10,0:2:0:0:
291,306,110894,1,8,0:0:0:0:
100,212,111083,1,10,0:2:0:0:
255,302,111272,1,8,0:0:0:0:
291,306,111366,1,0,0:0:0:0:
327,308,111461,5,10,0:2:0:0:
277,97,111649,2,0,P|251:136|245:155,1,53.9999983520508,8|2,0:0|0:2,0:0:0:0:
221,298,111838,5,8,0:2:0:0:
281,43,112027,2,0,P|282:69|277:96,1,53.9999983520508,8|0,0:0|0:0,0:0:0:0:
221,298,112215,53,10,0:2:0:0:
184,66,112404,1,8,0:0:0:0:
386,208,112593,2,0,P|359:209|332:204,1,53.9999983520508,2|0,0:2|0:0,0:0:0:0:
119,160,112781,2,0,P|145:158|172:163,1,53.9999983520508,8|0,0:0|0:0,0:0:0:0:
349,306,112970,5,10,0:2:0:0:
264,120,113159,1,8,0:0:0:0:
480,101,113347,1,8,0:2:0:0:
309,213,113536,1,8,0:0:0:0:
228,25,113725,6,0,P|280:23|336:49,1,107.999996704102,10|8,0:2|0:0,0:0:0:0:
166,104,114008,1,8,0:0:0:0:
166,104,114102,2,0,L|216:40,1,60,8|8,0:0|0:0,0:0:0:0:
227,167,114291,2,0,L|277:103,1,60,8|8,0:0|0:0,0:0:0:0:
292,230,114479,5,2,0:2:0:0:
273,254,114574,1,8,0:0:0:0:
254,278,114668,2,0,L|333:274,1,66.0000020141602,8|8,0:0|0:0,0:0:0:0:
403,162,114857,53,2,0:2:0:0:
424,134,114952,1,8,0:0:0:0:
446,106,115046,2,0,L|355:110,1,77.9999964294435,8|8,0:0|0:0,0:0:0:0:
217,319,115234,86,0,P|260:322|306:305,1,90.0000034332277,8|8,1:3|0:0,0:0:0:0:
432,370,115517,2,0,P|412:328|375:298,1,90.0000034332277,8|0,1:3|0:0,0:0:0:0:
370,157,115800,2,0,P|352:173|342:194,1,45.0000017166138,8|0,1:3|0:0,0:0:0:0:
340,282,115989,5,2,1:2:0:0:
327,167,116177,1,8,1:0:0:0:
336,304,116366,1,0,0:0:0:0:
332,144,116555,1,8,0:0:0:0:
230,229,116743,5,2,0:2:0:0:
437,220,116932,1,8,0:0:0:0:
233,102,117121,2,0,P|213:128|201:156,1,60,2|0,0:2|0:0,0:0:0:0:
236,354,117310,2,0,P|213:325|196:291,1,60,8|0,0:0|0:0,0:0:0:0:
30,232,117498,6,0,P|85:224|155:229,1,120,2|8,0:2|0:0,0:0:0:0:
441,303,117876,2,0,P|392:307|320:296,1,120,2|8,0:2|1:0,0:0:0:0:
37,76,118253,2,0,P|93:70|160:77,1,120,2|8,0:2|0:0,0:0:0:0:
224,105,118536,1,0,0:0:0:0:
224,105,118630,2,0,L|241:166,1,60,4|0,0:0|0:0,0:0:0:0:
221,360,118819,2,0,L|243:286,1,60,8|0,0:0|2:0,0:0:0:0:
171,236,119008,6,0,L|107:258,1,60,2|0,0:2|2:0,0:0:0:0:
7,272,119196,2,0,L|29:198,1,60,8|0,0:0|2:0,0:0:0:0:
52,108,119385,1,2,0:2:0:0:
116,354,119574,1,8,0:0:0:0:
276,308,119762,54,0,L|353:289,1,60,2|0,0:2|2:0,0:0:0:0:
431,254,119951,2,0,L|412:176,1,60,8|0,0:0|2:0,0:0:0:0:
294,144,120140,2,0,L|312:221,1,60,2|0,0:2|0:0,0:0:0:0:
399,108,120328,2,0,L|476:89,1,60,8|2,0:0|0:2,0:0:0:0:
312,39,120517,5,2,0:2:0:0:
276,308,120706,2,0,L|353:289,1,60,8|0,0:0|2:0,0:0:0:0:
431,254,120894,2,0,L|412:176,1,60,2|0,0:2|2:0,0:0:0:0:
294,144,121083,2,0,L|312:221,1,60,8|0,0:0|2:0,0:0:0:0:
399,108,121272,2,0,L|476:89,1,60,2|0,0:2|2:0,0:0:0:0:
312,39,121461,5,14,0:0:0:0:
133,213,121649,2,0,L|49:233,1,71.9999978027344,6|0,0:0|0:0,0:0:0:0:
193,105,121838,2,0,L|174:35,1,71.9999978027344,8|0,0:0|0:0,0:0:0:0:
238,273,122027,5,2,0:2:0:0:
87,117,122215,1,8,0:0:0:0:
272,163,122404,2,0,L|396:158,1,120,0|8,0:0|0:0,0:0:0:0:
38,246,122781,1,2,0:2:0:0:
193,105,122970,1,8,0:0:0:0:
15,45,123159,2,0,P|5:85|5:122,1,60,2|0,0:0|0:0,0:0:0:0:
126,218,123347,2,0,P|126:250|122:288,1,60,8|0,0:0|0:0,0:0:0:0:
94,130,123536,53,2,0:2:0:0:
94,130,123725,1,8,0:0:0:0:
218,218,123913,1,2,0:2:0:0:
218,218,124102,1,8,0:0:0:0:
341,127,124291,1,0,0:0:0:0:
126,218,124479,1,8,0:0:0:0:
313,305,124668,6,0,L|392:316,1,60,6|0,0:0|0:0,0:0:0:0:
341,127,124857,2,0,L|279:118,1,60,8|0,0:0|0:0,0:0:0:0:
254,297,125045,6,0,L|333:308,1,60,2|0,0:2|2:0,0:0:0:0:
131,118,125234,1,8,0:0:0:0:
338,28,125423,2,0,L|417:39,1,60,2|0,0:2|2:0,0:0:0:0:
310,146,125611,2,0,L|250:137,1,60,8|2,0:0|2:0,0:0:0:0:
181,240,125800,5,2,0:2:0:0:
98,6,125989,1,8,0:0:0:0:
310,146,126178,2,0,L|248:159,1,60,2|0,0:0|0:0,0:0:0:0:
33,204,126366,2,0,L|102:231,1,60,8|0,0:0|0:0,0:0:0:0:
254,297,126555,53,2,0:0:0:0:
254,61,126744,2,0,L|183:76,1,60,8|0,0:0|0:0,0:0:0:0:
33,204,126932,2,0,L|102:231,1,60,2|0,0:0|2:0,0:0:0:0:
310,146,127121,2,0,L|248:159,1,60,8|0,0:0|2:0,0:0:0:0:
370,228,127310,5,2,0:0:0:0:
387,224,127404,1,2,2:0:0:0:
404,220,127498,2,0,P|421:184|432:139,1,71.9999978027344,14|2,0:0|0:2,0:0:0:0:
308,284,127687,2,0,P|327:318|339:361,1,71.9999978027344,6|0,0:0|0:0,0:0:0:0:
182,256,127876,2,0,P|183:215|177:176,1,71.9999978027344,8|0,0:0|0:0,0:0:0:0:
96,320,128064,5,2,0:2:0:0:
320,208,128253,1,8,0:0:0:0:
235,117,128442,5,2,0:0:0:0:
298,320,128630,1,8,0:0:0:0:
443,164,128819,1,2,0:2:0:0:
443,164,129008,1,8,0:0:0:0:
235,117,129196,53,2,0:0:0:0:
235,117,129291,1,0,0:0:0:0:
235,117,129385,2,0,L|253:180,1,66.0000020141602,8|0,0:0|0:0,0:0:0:0:
298,320,129574,1,2,0:2:0:0:
443,164,129762,2,0,P|398:116|335:105,1,132.00000402832,8|2,0:0|0:0,0:0:0:0:
174,170,130140,1,8,0:0:0:0:
174,170,130234,1,0,0:0:0:0:
174,170,130328,6,0,L|42:159,1,132.00000402832,2|8,0:2|0:0,0:0:0:0:
235,95,130706,2,0,P|234:63|224:31,1,66.0000020141602,6|0,0:0|0:0,0:0:0:0:
174,169,130894,2,0,P|163:201|160:234,1,66.0000020141602,8|0,0:0|0:0,0:0:0:0:
231,332,131083,5,0,0:0:0:0:
338,290,131272,1,8,0:0:0:0:
249,220,131461,1,2,0:0:0:0:
414,366,131649,5,8,0:0:0:0:
459,149,131838,1,2,0:2:0:0:
249,220,132027,1,8,0:0:0:0:
457,308,132215,1,2,0:0:0:0:
473,269,132310,1,0,0:0:0:0:
468,228,132404,1,8,0:0:0:0:
449,191,132498,1,2,0:2:0:0:
417,164,132593,54,0,L|291:205,1,132.00000402832,2|8,0:2|0:0,0:0:0:0:
66,142,132970,2,0,L|192:180,1,132.00000402832,2|8,0:0|0:0,0:0:0:0:
32,41,133347,1,2,0:2:0:0:
102,247,133536,5,12,0:0:0:0:
102,247,133630,1,0,0:0:0:0:
102,247,133725,2,0,L|120:310,1,66.0000020141602,14|0,0:0|0:0,0:0:0:0:
196,358,133913,2,0,L|207:292,1,66.0000020141602,8|0,0:0|0:0,0:0:0:0:
220,209,134102,5,2,0:2:0:0:
328,160,134291,1,8,0:0:0:0:
313,270,134479,1,2,0:0:0:0:
133,99,134668,2,0,P|164:91|197:92,1,66.0000020141602,8|0,0:0|2:0,0:0:0:0:
328,160,134857,5,2,0:2:0:0:
116,199,135045,1,8,0:0:0:0:
280,88,135234,1,2,0:0:0:0:
280,88,135328,1,0,0:0:0:0:
279,87,135423,2,0,P|248:79|215:78,1,66.0000020141602,8|0,0:0|0:0,0:0:0:0:
328,160,135611,53,2,0:2:0:0:
133,100,135800,1,8,0:0:0:0:
351,35,135989,1,2,0:0:0:0:
116,199,136178,1,8,0:0:0:0:
424,219,136366,5,2,0:2:0:0:
218,164,136555,1,8,0:0:0:0:
316,220,136744,2,0,P|329:189|332:156,1,66.0000020141602,6|0,0:0|0:0,0:0:0:0:
218,163,136932,2,0,P|205:194|202:227,1,66.0000020141602,8|2,0:0|0:2,0:0:0:0:
253,339,137121,5,2,0:2:0:0:
166,314,137310,1,8,0:0:0:0:
119,237,137498,1,2,0:0:0:0:
253,339,137687,1,8,0:0:0:0:
218,164,137876,5,2,0:2:0:0:
210,125,137970,1,2,2:0:0:0:
202,86,138064,1,8,0:0:0:0:
192,47,138159,1,2,2:0:0:0:
181,9,138253,2,0,L|246:19,1,66.0000020141602,2|0,0:0|0:0,0:0:0:0:
321,86,138442,2,0,L|334:150,1,66.0000020141602,8|0,0:0|0:0,0:0:0:0:
279,235,138630,53,2,0:0:0:0:
279,235,138819,1,8,0:0:0:0:
394,22,139008,1,2,0:0:0:0:
394,22,139196,1,8,0:0:0:0:
475,78,139385,5,2,0:0:0:0:
231,113,139574,1,12,0:0:0:0:
231,113,139669,1,0,0:0:0:0:
231,113,139762,2,0,L|315:100,1,66.0000020141602,12|0,0:0|0:0,0:0:0:0:
328,233,139951,2,0,L|405:223,1,66.0000020141602,8|0,0:0|0:0,0:0:0:0:
465,150,140140,5,2,1:2:0:0:
480,277,140328,1,8,0:0:0:0:
465,150,140517,1,0,1:0:0:0:
480,277,140706,1,10,0:0:0:0:
472,290,140800,1,0,0:0:0:0:
464,303,140894,5,2,1:2:0:0:
381,295,141083,1,8,0:0:0:0:
300,317,141272,2,0,P|264:340|244:364,1,53.9999983520508,0|0,1:0|1:0,0:0:0:0:
176,360,141461,1,10,0:0:0:0:
176,332,141555,1,0,1:0:0:0:
184,304,141649,1,2,1:2:0:0:
176,164,141838,53,8,0:0:0:0:
93,154,142027,1,0,1:0:0:0:
124,230,142215,1,10,0:0:0:0:
150,198,142310,1,0,1:0:0:0:
176,164,142404,5,2,1:2:0:0:
8,148,142593,1,8,0:0:0:0:
124,230,142781,2,0,L|168:176,1,53.9999983520508,2|0,1:2|1:0,1:0:0:0:
231,94,142970,1,10,0:0:0:0:
227,78,143064,1,0,1:0:0:0:
222,62,143159,5,2,1:2:0:0:
279,224,143347,1,8,0:0:0:0:
222,62,143536,1,0,1:0:0:0:
279,224,143725,1,10,0:0:0:0:
289,235,143819,1,0,1:0:0:0:
299,246,143913,5,2,1:2:0:0:
381,236,144102,1,8,0:0:0:0:
458,265,144291,2,0,L|464:196,1,53.9999983520508,2|0,1:2|1:0,1:0:0:0:
472,108,144479,1,8,0:0:0:0:
472,108,144574,1,2,1:2:0:0:
472,108,144668,53,2,1:2:0:0:
432,136,144762,1,0,0:0:0:0:
384,140,144857,1,8,0:0:0:0:
340,120,144951,1,0,0:0:0:0:
296,184,145045,5,2,1:2:0:0:
260,168,145140,1,0,0:0:0:0:
224,172,145234,1,8,0:0:0:0:
192,196,145328,1,0,0:0:0:0:
132,144,145423,5,2,1:2:0:0:
104,152,145517,1,0,0:0:0:0:
76,152,145611,2,0,P|44:144|16:128,1,60,10|0,1:2|1:2,1:2:0:0:
192,196,145800,2,0,P|164:216|112:228,1,66.0000020141602,10|0,1:2|1:2,1:2:0:0:
340,120,145989,2,0,P|288:100|260:80,1,71.9999978027344,10|2,1:2|1:2,1:2:0:0:
448,192,146178,6,0,L|452:236,1,41.9999987182618,0|0,1:0|0:0,0:0:0:0:
454,185,146366,2,0,L|450:249,1,48,8|0,0:0|0:0,0:0:0:0:
463,180,146555,2,0,L|451:232,1,53.9999983520508,2|0,1:2|0:0,0:0:0:0:
472,176,146744,2,0,L|451:232,1,60,10|0,0:0|0:0,0:0:0:0:
460,316,146932,53,2,1:2:0:0:
428,316,147027,1,0,0:0:0:0:
400,304,147121,1,8,0:0:0:0:
376,280,147215,1,0,0:0:0:0:
364,248,147310,1,2,1:2:0:0:
364,216,147404,1,0,1:0:0:0:
372,184,147498,2,2,L|296:200,1,66.0000020141602,10|2,0:2|1:2,1:2:0:0:
192,304,147687,6,0,L|124:292,1,48,0|0,1:0|0:0,0:0:0:0:
173,291,147876,2,0,L|108:267,1,53.9999983520508,8|0,0:0|0:0,0:0:0:0:
157,275,148064,2,0,L|97:240,1,60,2|0,1:2|0:0,0:0:0:0:
144,256,148253,2,0,L|91:212,1,66.0000020141602,10|0,0:0|0:0,0:0:0:0:
84,128,148442,5,2,1:2:0:0:
120,108,148536,1,0,0:0:0:0:
164,108,148630,1,8,0:0:0:0:
200,128,148725,1,0,0:0:0:0:
224,164,148819,2,0,P|228:192|212:244,1,71.9999978027344,2|0,1:2|1:0,1:0:0:0:
284,100,149008,2,2,P|332:96|372:108,1,71.9999978027344,10|2,0:2|1:2,0:2:0:0:
141,191,149196,6,0,P|113:207|69:215,1,53.9999983520508,2|0,1:2|0:0,0:0:0:0:
141,191,149385,2,0,P|130:160|129:115,1,53.9999983520508,8|0,0:0|0:0,0:0:0:0:
312,224,149574,54,0,P|308:260|292:292,1,60,2|0,1:2|0:0,0:0:0:0:
312,224,149762,2,0,P|348:221|382:231,1,60,8|0,0:0|0:0,0:0:0:0:
150,339,149951,6,0,P|114:351|82:351,1,66.0000020141602,2|0,1:2|0:0,0:0:0:0:
150,339,150140,2,0,P|143:299|146:270,1,66.0000020141602,10|0,0:0|0:0,0:0:0:0:
220,108,150328,6,0,P|235:149|237:181,1,71.9999978027344,2|0,1:2|1:0,1:0:0:0:
220,108,150517,2,2,P|254:85|288:75,1,71.9999978027344,10|2,0:2|1:2,0:2:0:0:
408,144,150706,5,2,1:2:0:0:
464,140,150800,1,0,0:0:0:0:
500,96,150894,1,8,0:0:0:0:
496,40,150989,1,0,0:0:0:0:
452,8,151083,1,2,1:2:0:0:
396,12,151178,1,0,0:0:0:0:
360,52,151272,1,10,0:2:0:0:
364,108,151366,1,2,0:0:0:0:
408,144,151461,1,2,1:2:0:0:
416,196,151555,1,0,0:0:0:0:
388,244,151649,54,0,L|292:252,1,83.9999974365235,8|0,1:2|1:0,1:0:0:0:
64,236,151838,2,0,L|176:224,1,90.0000034332277,8|0,1:2|1:0,1:0:0:0:
308,113,152027,2,0,L|200:125,1,96,8|0,1:2|1:0,1:0:0:0:
62,39,152215,54,0,L|175:28,1,107.999996704102,0|0,0:0|2:0,0:0:0:0:
106,135,152404,2,0,L|219:124,1,107.999996704102,14|0,0:0|2:0,0:0:0:0:
62,39,152593,6,0,L|175:28,1,107.999996704102,14|0,0:0|0:0,0:0:0:0:
325,83,152876,85,0,0:0:0:0:
325,83,152970,2,0,B|332:136|332:136|315:200,1,107.999996704102,0|0,0:0|2:0,0:0:0:0:
444,88,153159,2,0,B|451:141|451:141|434:205,1,107.999996704102,14|0,0:0|2:0,0:0:0:0:
325,83,153347,6,0,B|332:136|332:136|315:200,1,107.999996704102,14|0,0:0|0:0,0:0:0:0:
126,245,153630,85,0,0:0:0:0:
126,245,153725,2,0,P|182:228|246:233,1,107.999996704102,0|0,0:0|2:0,0:0:0:0:
416,296,153913,2,0,P|364:300|296:276,1,107.999996704102,14|0,0:0|2:0,0:0:0:0:
126,245,154102,6,0,P|182:228|246:233,1,107.999996704102,14|0,0:0|0:0,0:0:0:0:
165,342,154385,85,0,0:0:0:0:
165,342,154479,2,0,P|113:346|45:322,1,107.999996704102,0|0,0:0|2:0,0:0:0:0:
317,188,154668,2,0,P|369:160|417:156,1,107.999996704102,14|0,0:0|2:0,0:0:0:0:
165,342,154857,6,0,P|113:346|45:322,1,107.999996704102,14|0,0:0|0:0,0:0:0:0:
171,345,155140,1,0,0:0:0:0:
176,347,155234,21,4,0:0:0:0:
197,331,155328,1,0,0:0:0:0:
222,320,155423,1,8,0:2:0:0:
249,315,155517,1,8,0:2:0:0:
276,315,155611,5,8,0:2:0:0:
256,283,155706,1,0,0:0:0:0:
228,259,155800,1,8,0:2:0:0:
192,251,155894,1,8,0:2:0:0:
156,255,155989,5,0,0:0:0:0:
200,227,156083,1,0,0:0:0:0:
256,223,156178,1,8,0:2:0:0:
308,239,156272,1,8,0:2:0:0:
352,271,156366,5,8,0:3:0:0:
324,199,156461,1,8,0:3:0:0:
264,155,156555,1,8,0:3:0:0:
188,147,156649,1,8,0:3:0:0:
120,179,156744,53,14,0:0:0:0:
120,179,156932,1,2,0:1:0:0:
188,147,157121,1,14,0:0:0:0:
188,147,157310,1,2,0:1:0:0:
264,155,157498,1,14,0:0:0:0:
188,147,157687,54,0,P|173:134|158:114,1,30,2|0,1:2|0:0,0:0:0:0:
232,85,157781,2,0,P|236:69|243:53,1,30,2|0,1:2|0:0,0:0:0:0:
308,93,157876,1,8,1:0:0:0:
340,163,157970,1,0,1:0:0:0:
294,224,158064,1,0,1:0:0:0:
327,293,158158,1,0,1:0:0:0:
404,297,158253,86,0,B|454:287|454:287|490:247|482:183,1,155.999992858887,6|8,0:0|0:2,0:0:0:0:
327,293,158536,1,0,2:0:0:0:
259,251,158630,2,0,B|214:226|214:226|160:234|125:288,1,155.999992858887,2|8,0:2|0:2,0:0:0:0:
327,293,158913,1,0,2:2:0:0:
374,223,159008,2,0,B|386:143|386:143|350:63,1,155.999992858887,2|8,0:2|0:2,0:0:0:0:
182,123,159291,1,0,2:0:0:0:
182,123,159385,2,0,B|222:131|222:131|278:123,1,77.9999964294435
432,77,159574,2,0,B|392:69|392:69|336:77,1,77.9999964294435,10|0,0:2|0:0,0:0:0:0:
218,217,159762,53,2,0:2:0:0:
390,159,159951,1,8,0:2:0:0:
226,39,160140,1,0,0:0:0:0:
162,303,160328,2,0,L|243:295,1,77.9999964294435,10|0,0:2|2:0,0:0:0:0:
466,192,160517,2,0,B|430:204|390:192|390:192|346:180|310:192,1,155.999992858887,2|8,0:2|0:2,0:0:0:0:
340,352,160800,1,0,2:0:0:0:
340,352,160894,2,0,P|352:316|352:260,1,77.9999964294435,2|0,0:2|0:0,0:0:0:0:
438,32,161083,2,0,B|425:66|426:124,1,77.9999964294435,10|0,0:2|0:0,0:0:0:0:
447,378,161272,6,0,B|453:358|451:338|451:338|397:369|340:352,1,155.999992858887,2|8,0:2|0:2,0:0:0:0:
221,276,161555,1,0,2:0:0:0:
221,276,161649,2,0,P|169:313|225:368,1,155.999992858887,2|8,0:2|0:2,0:0:0:0:
311,325,161932,1,0,2:0:0:0:
308,222,162027,2,0,B|310:143|310:143|236:180,1,155.999992858887,2|8,0:2|0:2,0:0:0:0:
221,276,162310,1,0,2:0:0:0:
403,202,162404,2,0,L|406:115,1,77.9999964294435
229,76,162593,2,0,L|308:38,1,77.9999964294435,8|0,0:2|0:0,0:0:0:0:
400,24,162781,5,2,0:2:0:0:
241,177,162970,1,8,0:2:0:0:
112,8,163159,1,0,0:0:0:0:
403,202,163347,2,0,P|362:192|304:192,1,77.9999964294435,10|0,0:2|2:0,0:0:0:0:
88,320,163536,2,0,B|140:316|140:316|188:340|188:340|240:336,1,155.999992858887,2|8,0:2|0:2,0:0:0:0:
204,252,163819,1,0,2:0:0:0:
204,252,163913,2,0,B|196:212|196:212|204:172,1,77.9999964294435,10|0,0:2|0:0,0:0:0:0:
120,40,164102,2,0,B|128:80|128:80|120:120,1,77.9999964294435,10|10,0:2|0:2,0:0:0:0:
88,320,164291,5,2,0:2:0:0:
296,212,164479,1,8,0:2:0:0:
25,223,164668,2,0,L|117:219,1,77.9999964294435,2|0,0:2|2:0,0:0:0:0:
296,212,164857,1,8,0:2:0:0:
262,230,164951,1,2,2:0:0:0:
229,249,165045,2,0,B|217:212|217:212|231:161,1,77.9999964294435,2|0,0:2|2:0,0:0:0:0:
365,267,165234,2,0,B|377:304|377:304|363:355,1,77.9999964294435,8|0,0:2|2:0,0:0:0:0:
128,351,165423,2,0,L|216:345,1,77.9999964294435,2|0,0:2|0:0,0:0:0:0:
420,127,165611,2,0,L|342:121,1,77.9999964294435,8|2,0:2|0:2,0:0:0:0:
59,198,165800,54,0,L|151:192,1,77.9999964294435,2|0,0:2|2:0,0:0:0:0:
251,187,165989,1,8,0:2:0:0:
244,234,166083,1,0,2:0:0:0:
257,280,166178,2,0,P|266:329|263:371,1,77.9999964294435,2|0,0:2|2:0,0:0:0:0:
342,121,166366,2,0,P|347:76|340:32,1,77.9999964294435,8|0,0:2|2:0,0:0:0:0:
60,70,166555,2,0,B|110:91|163:85|163:85|140:100|134:126,1,155.999992858887,2|8,0:2|0:2,0:0:0:0:
216,160,166838,1,0,2:0:0:0:
248,80,166932,2,0,P|228:32|196:0,1,77.9999964294435
99,248,167121,2,0,P|137:247|174:234,1,77.9999964294435,10|0,0:2|0:0,0:0:0:0:
450,128,167310,6,0,B|410:122|377:142|377:142|341:121|298:128,1,155.999992858887,2|8,0:2|0:2,0:0:0:0:
99,248,167593,1,0,2:0:0:0:
99,248,167687,2,0,B|139:254|172:234|172:234|208:255|251:248,1,155.999992858887,2|8,0:2|0:2,0:0:0:0:
323,209,167970,1,0,2:0:0:0:
323,209,168064,2,0,P|331:250|319:293,1,77.9999964294435,2|0,0:2|2:0,0:0:0:0:
119,167,168253,2,0,P|111:126|123:83,1,77.9999964294435,10|0,0:2|2:0,0:0:0:0:
255,83,168442,2,0,P|219:97|195:127,1,77.9999964294435,2|0,0:2|0:0,0:0:0:0:
261,329,168630,2,0,P|297:314|322:284,1,77.9999964294435,8|0,0:2|0:0,0:0:0:0:
89,256,168819,6,0,P|133:254|176:244,1,87.0000026550294,8|0,0:0|2:0,0:0:0:0:
432,138,169008,2,0,P|389:127|336:124,1,87.0000026550294,10|0,2:0|2:0,0:0:0:0:
322,285,169196,1,8,0:0:0:0:
359,320,169291,1,2,2:0:0:0:
410,324,169385,1,10,0:2:0:0:
456,302,169479,1,10,0:2:0:0:
479,256,169574,2,0,P|425:238|371:238,1,87.0000026550294,8|0,0:0|0:0,0:0:0:0:
216,299,169762,21,8,1:3:0:0:
349,246,169857,1,8,1:3:0:0:
259,215,169951,2,0,B|195:204|195:204|258:381|258:381|306:324,1,323.999990112305,8|0,1:3|0:0,0:0:0:0:
349,246,170328,85,6,0:2:0:0:
128,328,170517,1,8,0:0:0:0:
391,169,170706,53,6,0:0:0:0:
79,165,170894,1,8,0:0:0:0:
434,91,171083,5,2,0:2:0:0:
63,7,171272,1,10,0:0:0:0:
484,17,171461,6,0,P|425:4|382:12,1,83.9999974365235,6|0,0:0|0:0,0:0:0:0:
119,79,171649,2,0,P|178:92|221:84,1,83.9999974365235,8|0,0:0|0:0,0:0:0:0:
304,49,171838,5,2,0:2:0:0:
383,335,172027,1,8,0:0:0:0:
434,91,172215,53,6,0:0:0:0:
159,337,172404,1,8,0:0:0:0:
476,228,172593,5,2,0:2:0:0:
67,161,172781,1,10,0:0:0:0:
181,117,172876,1,2,2:0:0:0:
294,73,172970,2,0,B|302:113|302:113|291:159,1,83.9999974365235,6|0,0:0|0:0,0:0:0:0:
67,161,173159,2,0,B|55:119|55:119|63:79,1,83.9999974365235,8|0,0:0|0:0,0:0:0:0:
177,32,173347,6,0,L|185:199,1,167.999994873047,6|8,0:2|0:0,0:0:0:0:
194,355,173630,1,0,2:0:0:0:
264,309,173725,2,0,P|185:274|114:325,1,167.999994873047,6|8,0:0|0:0,0:0:0:0:
334,266,174008,1,2,2:0:0:0:
334,266,174102,2,0,P|380:265|429:285,1,83.9999974365235,2|0,0:2|2:0,0:0:0:0:
261,167,174291,2,0,P|225:188|184:199,1,83.9999974365235,10|0,0:0|2:0,0:0:0:0:
384,80,174479,2,0,B|393:121|393:121|384:165,1,83.9999974365235,6|0,0:0|0:0,0:0:0:0:
120,118,174668,2,0,B|111:77|111:77|120:33,1,83.9999974365235,8|0,0:0|0:0,0:0:0:0:
384,80,174857,6,0,B|332:88|332:88|268:68|268:68|216:76,1,167.999994873047,2|8,0:2|0:0,0:0:0:0:
261,167,175140,1,0,2:0:0:0:
136,256,175234,2,0,B|188:248|188:248|252:268|252:268|304:260,1,167.999994873047,6|8,0:0|0:0,0:0:0:0:
261,167,175517,1,2,2:0:0:0:
160,152,175611,2,0,B|116:152|116:152|72:168,1,83.9999974365235,2|0,0:2|2:0,0:0:0:0:
360,180,175800,2,0,B|404:180|404:180|448:164,1,83.9999974365235,8|0,0:0|2:0,0:0:0:0:
299,260,175989,5,14,0:0:0:0:
216,256,176083,1,8,0:2:0:0:
188,334,176177,1,8,0:0:0:0:
256,384,176272,1,8,0:2:0:0:
324,336,176366,38,0,B|364:323|380:280|380:280|407:321|452:328,1,167.999994873047,6|8,0:2|0:0,0:0:0:0:
452,244,176649,1,0,2:0:0:0:
299,260,176744,2,0,L|216:256,1,83.9999974365235,6|0,0:0|2:0,0:0:0:0:
344,169,176932,2,0,L|261:165,1,83.9999974365235,8|0,0:0|2:0,0:0:0:0:
101,78,177121,6,0,B|142:66|142:66|201:69,1,83.9999974365235,2|0,0:2|2:0,0:0:0:0:
53,175,177310,2,0,B|17:147|17:147|-1:110,1,83.9999974365235,10|0,0:0|2:0,0:0:0:0:
158,169,177498,2,0,L|241:173,1,83.9999974365235,6|0,0:0|0:0,0:0:0:0:
111,262,177687,2,0,L|194:266,1,83.9999974365235,8|0,0:0|0:0,0:0:0:0:
465,246,177876,6,0,B|378:228|378:228|296:261,1,174.000005310059,2|8,0:2|0:0,0:0:0:0:
386,323,178159,1,0,2:0:0:0:
459,155,178253,2,0,B|464:111|464:111|449:70,1,87.0000026550294,6|0,0:0|2:0,0:0:0:0:
281,86,178442,2,0,B|275:129|275:129|289:169,1,87.0000026550294,8|0,0:0|2:0,0:0:0:0:
369,125,178630,6,0,L|363:34,1,87.0000026550294,2|0,0:2|2:0,0:0:0:0:
172,175,178819,2,0,L|187:83,1,87.0000026550294,10|0,0:0|2:0,0:0:0:0:
242,273,179008,1,6,0:0:0:0:
288,237,179102,1,0,0:0:0:0:
346,238,179196,1,8,0:0:0:0:
394,272,179291,1,2,0:2:0:0:
414,327,179385,54,0,P|462:287|461:170,1,180.000006866455,6|8,0:2|0:0,0:0:0:0:
369,125,179668,1,0,2:0:0:0:
288,237,179762,2,0,P|335:241|380:229,1,90.0000034332277,6|0,0:0|2:0,0:0:0:0:
272,72,179951,2,0,P|230:52|178:46,1,90.0000034332277,8|0,0:0|2:0,0:0:0:0:
120,319,180140,6,0,P|155:327|216:320,1,90.0000034332277,2|0,0:2|2:0,0:0:0:0:
157,140,180328,2,0,L|167:236,1,90.0000034332277,10|0,0:0|2:0,0:0:0:0:
99,56,180517,2,0,P|142:43|187:45,1,90.0000034332277,6|0,0:0|0:0,0:0:0:0:
298,218,180706,2,0,L|308:314,1,90.0000034332277,8|0,0:0|0:0,0:0:0:0:
340,128,180894,6,0,B|288:112|245:132|245:132|201:150|152:138,1,186.000001419067,2|8,0:2|0:0,0:0:0:0:
186,44,181178,1,2,2:0:0:0:
298,218,181272,2,0,P|388:216|441:125,1,186.000001419067,6|8,0:0|0:0,0:0:0:0:
340,128,181555,1,2,2:0:0:0:
210,269,181649,2,0,B|201:315|201:315|217:362,1,93.0000007095337,2|0,0:2|2:0,0:0:0:0:
484,343,181838,2,0,B|493:297|493:297|477:250,1,93.0000007095337,10|0,0:0|2:0,0:0:0:0:
307,307,182027,21,14,0:0:0:0:
390,304,182121,1,8,0:2:0:0:
444,241,182215,1,8,0:0:0:0:
433,158,182310,1,8,0:2:0:0:
362,112,182404,38,0,B|318:134|318:134|197:125,1,150,6|8,0:2|0:0,0:0:0:0:
128,210,182687,1,0,2:0:0:0:
128,210,182781,2,0,B|244:219|244:219|209:243,1,150,6|8,0:0|0:0,0:0:0:0:
50,253,183064,1,0,2:0:0:0:
50,253,183159,2,0,P|16:220|83:151,1,150,2|10,0:2|0:0,0:0:0:0:
128,210,183442,1,0,2:0:0:0:
127,300,183536,2,0,P|95:332|55:346,1,75,6|0,0:0|0:0,0:0:0:0:
74,55,183725,2,0,P|109:67|138:92,1,75,8|0,0:0|0:0,0:0:0:0:
217,237,183913,6,0,B|221:206|212:177|212:177|257:199|301:192,1,150,2|8,0:2|0:0,0:0:0:0:
414,134,184196,1,0,2:0:0:0:
414,134,184291,2,0,P|351:130|298:191,1,150,6|8,0:0|0:0,0:0:0:0:
379,207,184574,1,0,2:0:0:0:
414,134,184668,2,0,P|383:78|288:70,1,150,2|10,0:2|0:0,0:0:0:0:
332,141,184951,1,0,2:0:0:0:
414,134,185045,2,0,B|436:104|436:104|440:64,1,75,6|0,0:0|0:0,0:0:0:0:
379,207,185234,2,0,B|382:244|382:244|404:274,1,75,8|0,0:0|0:0,0:0:0:0:
332,141,185423,5,6,0:2:0:0:
116,185,185611,2,0,L|209:190,1,75,8|0,0:0|2:0,0:0:0:0:
379,207,185800,1,6,0:0:0:0:
290,71,185989,2,0,P|258:109|252:146,1,75,8|2,0:0|2:0,0:0:0:0:
307,217,186178,2,0,P|344:220|379:207,1,75,2|0,0:2|2:0,0:0:0:0:
332,141,186366,1,10,0:0:0:0:
109,97,186555,2,0,P|151:99|193:84,1,75,6|2,0:0|0:2,0:0:0:0:
307,217,186744,2,0,P|265:215|223:230,1,75,8|2,0:0|0:2,0:0:0:0:
70,177,186932,5,2,0:2:0:0:
150,306,187121,2,0,B|154:269|154:269|140:218,1,75,8|0,0:0|2:0,0:0:0:0:
176,16,187310,2,0,B|172:53|172:53|186:104,1,75,6|0,0:0|2:2,0:0:0:0:
307,217,187498,2,0,L|400:212,1,75,8|0,0:0|2:0,0:0:0:0:
411,83,187687,2,0,L|316:87,1,75,2|0,0:2|2:0,0:0:0:0:
460,208,187876,1,10,0:0:0:0:
460,208,187970,1,2,0:2:0:0:
460,208,188064,2,0,L|476:127,1,75,6|0,0:0|0:0,0:0:0:0:
381,212,188253,2,0,L|401:294,1,75,8|0,0:0|0:0,0:0:0:0:
321,159,188442,53,6,0:2:0:0:
329,123,188536,1,0,0:0:0:0:
337,87,188630,1,8,0:1:0:0:
297,263,188819,1,6,0:1:0:0:
337,87,189008,1,8,0:1:0:0:
345,51,189102,1,2,0:2:0:0:
297,263,189291,1,0,0:0:0:0:
289,299,189385,1,10,0:1:0:0:
161,103,189574,6,0,B|253:95,1,75,6|0,0:1|0:0,0:0:0:0:
469,243,189762,2,0,B|377:251,1,75,8|0,0:1|0:0,0:0:0:0:
205,187,189951,5,2,0:2:0:0:
245,183,190045,1,0,0:0:0:0:
285,179,190140,1,8,0:1:0:0:
89,199,190328,1,6,0:1:0:0:
325,175,190517,1,8,0:1:0:0:
285,179,190612,1,2,0:2:0:0:
49,203,190800,1,0,0:0:0:0:
89,199,190895,1,10,0:1:0:0:
225,103,191083,6,0,B|221:65|221:65|204:28,1,75,6|0,0:1|0:0,0:0:0:0:
147,278,191272,2,0,B|151:316|151:316|168:353,1,75,8|0,0:1|0:0,0:0:0:0:
189,191,191461,53,6,0:2:0:0:
189,191,191555,1,0,0:0:0:0:
189,191,191649,1,8,0:1:0:0:
101,59,191838,1,6,0:1:0:0:
346,179,192027,1,8,0:1:0:0:
309,182,192121,1,2,0:2:0:0:
120,333,192310,1,0,0:0:0:0:
136,299,192404,1,10,0:1:0:0:
80,28,192593,6,0,L|121:91,1,75,6|0,0:1|0:0,0:0:0:0:
383,175,192781,2,0,L|309:182,1,75,8|0,0:1|0:0,0:0:0:0:
189,191,192970,5,2,0:2:0:0:
151,193,193064,1,0,0:0:0:0:
113,197,193159,1,8,0:1:0:0:
383,175,193347,1,6,0:1:0:0:
101,59,193536,1,8,0:1:0:0:
80,28,193630,1,2,0:2:0:0:
120,333,193819,1,0,0:0:0:0:
103,366,193913,6,0,L|146:284,1,75,8|8,0:1|0:1,0:0:0:0:
237,78,194102,2,0,L|283:154,1,75,8|8,0:1|0:1,0:0:0:0:
417,340,194291,2,0,L|342:342,1,75,8|8,0:1|0:1,0:0:0:0:
203,351,194479,21,2,0:0:0:0:
319,311,194668,1,0,0:0:0:0:
175,257,194857,1,2,0:0:0:0:
343,213,195045,1,2,0:0:0:0:
149,161,195234,1,0,0:0:0:0:
372,117,195423,1,2,0:0:0:0:
123,67,195611,85,2,0:0:0:0:
407,22,195800,1,2,0:0:0:0:
407,22,196178,37,0,0:0:0:0:
123,67,196366,1,2,0:0:0:0:
372,117,196555,1,2,0:0:0:0:
149,161,196744,6,0,P|190:161|231:173,1,71.9999978027344,2|0,0:0|0:0,0:0:0:0:
343,213,196932,2,0,P|310:212|278:218,1,60
175,257,197121,2,0,P|212:264|236:272,1,48,2|0,0:0|0:0,0:0:0:0:
319,311,197310,2,0,P|296:312|272:320,1,35.9999989013672,2|0,0:0|0:0,0:0:0:0:
203,351,197498,6,0,B|164:344|164:344|136:360|136:360|104:336|104:336|72:348|72:348|32:344,1,180.000006866455,12|8,0:0|0:1,0:0:0:0:
38,344,197781,1,0,0:0:0:0:
38,344,197876,2,0,L|48:252,1,90.0000034332277,8|0,0:0|0:0,0:0:0:0:
227,222,198064,2,0,L|215:126,1,90.0000034332277,10|2,0:1|0:0,0:0:0:0:
121,11,198253,6,0,B|85:51|85:51|101:183,1,180.000006866455,10|8,0:0|0:1,0:0:0:0:
137,264,198536,1,0,0:0:0:0:
137,264,198630,2,0,L|25:252,1,90.0000034332277,10|2,0:0|0:0,0:0:0:0:
340,84,198819,2,0,L|351:173,1,90.0000034332277,10|8,0:1|0:0,0:0:0:0:
296,340,199008,54,0,P|223:303|255:227,1,180.000006866455,8|8,0:0|0:1,0:0:0:0:
416,242,199291,1,0,0:0:0:0:
416,242,199385,2,0,P|375:260|330:264,1,90.0000034332277,10|0,0:0|0:0,0:0:0:0:
116,176,199574,2,0,P|168:160|212:164,1,90.0000034332277,10|0,0:1|0:0,0:0:0:0:
436,108,199762,6,0,B|408:76|356:68|356:68|404:52|428:16,1,180.000006866455,10|8,0:0|0:1,0:0:0:0:
272,32,200045,1,0,0:0:0:0:
272,32,200140,2,8,P|268:84|284:128,1,90.0000034332277,10|8,0:0|0:0,0:0:0:0:
456,236,200328,2,0,P|396:208|348:204,1,90.0000034332277,10|8,0:1|0:0,0:0:0:0:
128,292,200517,6,0,L|136:196,1,71.9999978027344,10|0,0:0|0:0,0:0:0:0:
280,344,200706,2,0,L|288:248,1,71.9999978027344,8|0,0:1|0:0,0:0:0:0:
120,160,200894,6,0,L|112:249,1,77.9999964294435,8|0,0:0|0:0,0:0:0:0:
272,212,201083,2,2,L|264:301,1,77.9999964294435,10|2,0:1|0:0,0:0:0:0:
20,320,201272,54,0,L|28:224,1,83.9999974365235,8|0,0:0|0:0,0:0:0:0:
172,372,201461,2,0,L|180:276,1,83.9999974365235,8|0,0:1|0:0,0:0:0:0:
12,160,201649,6,8,L|3:253,1,90.0000034332277
164,212,201838,2,0,L|155:304,1,90.0000034332277,10|8,0:1|0:0,0:0:0:0:
118,85,202027,6,0,B|163:74|163:74|221:85,1,96,10|0,0:0|0:0,0:0:0:0:
350,176,202215,2,0,B|338:132|338:132|350:75,1,96,8|0,0:1|0:0,0:0:0:0:
262,247,202404,1,10,0:0:0:0:
276,294,202498,1,0,0:0:0:0:
267,341,202593,1,10,0:1:0:0:
61,319,202781,6,0,P|109:315|155:301,1,96,10|0,0:0|0:0,0:0:0:0:
472,329,202970,2,0,P|425:327|376:339,1,96,10|0,0:1|0:0,0:0:0:0:
122,174,203159,2,0,P|181:176|225:191,1,96,10|0,0:0|0:0,0:0:0:0:
507,201,203347,2,0,P|437:218|396:214,1,96,10|0,0:1|0:0,0:0:0:0:
210,80,203536,54,0,B|279:83|351:69|351:69|316:98,1,180.000006866455,8|8,0:0|0:1,0:0:0:0:
321,93,203819,1,0,0:0:0:0:
321,93,203913,2,0,L|309:-1,1,90.0000034332277,8|0,0:0|0:0,0:0:0:0:
122,174,204102,2,0,P|172:178|219:170,1,90.0000034332277,10|2,0:1|0:0,0:0:0:0:
421,254,204291,6,0,P|378:243|317:247,1,90.0000034332277,10|0,0:0|0:0,0:0:0:0:
164,367,204479,2,0,B|202:354|202:354|241:364|241:364|275:349|275:349|307:363|344:361,1,180.000006866455,10|8,0:1|0:0,0:0:0:0:
225,258,204762,1,0,0:0:0:0:
225,258,204857,2,0,P|165:266|121:260,1,90.0000034332277,10|8,0:1|0:0,0:0:0:0:
123,77,205045,6,0,P|204:94|158:169,1,180.000006866455,10|8,0:0|0:1,0:0:0:0:
2,168,205328,1,0,0:0:0:0:
2,168,205423,2,0,P|68:157|112:165,1,90.0000034332277,10|0,0:0|0:0,0:0:0:0:
312,112,205611,2,0,P|247:84|218:61,1,90.0000034332277,10|0,0:1|0:0,0:0:0:0:
225,258,205800,6,0,P|225:311|215:361,1,90.0000034332277,10|0,0:0|0:0,0:0:0:0:
22,318,205989,2,0,P|80:302|125:299,1,90.0000034332277,8|0,0:1|0:0,0:0:0:0:
218,168,206178,2,8,P|218:221|228:271,1,90.0000034332277,10|8,0:0|0:0,0:0:0:0:
421,228,206367,2,0,P|363:212|318:209,1,90.0000034332277,10|8,0:1|0:0,0:0:0:0:
135,265,206555,54,0,P|179:255|223:257,1,90.0000034332277,8|0,0:0|0:0,0:0:0:0:
334,355,206744,2,0,B|365:353|389:334|389:334|338:306|275:341|275:341|233:359|187:347,1,270.000010299683,10|0,0:1|0:0,0:0:0:0:
234,167,207121,6,0,L|222:269,1,90.0000034332277,8|0,0:1|0:0,0:0:0:0:
455,242,207310,2,0,B|362:231,1,90.0000034332277,10|0,0:0|0:0,0:0:0:0:
131,205,207498,2,0,L|120:111,1,90.0000034332277,8|0,0:1|0:0,0:0:0:0:
421,125,207687,2,10,L|332:136,1,90.0000034332277
33,173,207876,2,0,L|21:275,1,90.0000034332277,10|8,0:1|0:0,0:0:0:0:
220,103,208064,6,0,B|204:56|204:56|161:21,1,96,10|0,0:0|0:0,0:0:0:0:
270,284,208253,2,0,B|310:312|310:312|365:315,1,96,8|0,0:1|0:0,0:0:0:0:
101,334,208442,2,0,B|112:288|112:288|160:240,1,96,10|0,0:0|0:0,0:0:0:0:
417,169,208630,2,0,B|372:182|372:182|323:172,1,96,10|0,0:1|0:0,0:0:0:0:
109,57,208819,6,0,B|169:27|169:27|314:56,1,192,10|8,0:0|0:0,0:0:0:0:
380,74,209102,1,0,0:0:0:0:
380,74,209196,2,0,L|369:182,1,96,8|2,0:0|0:0,0:0:0:0:
361,260,209385,2,2,L|350:368,1,96,10|2,0:1|0:0,0:0:0:0:
284,180,209574,54,0,B|340:164|340:164|404:176|404:176|460:164,1,180.000006866455,12|8,0:0|0:1,0:0:0:0:
468,348,209857,1,0,0:0:0:0:
468,348,209951,2,0,B|448:308|448:308|452:248,1,90.0000034332277,8|0,0:0|0:0,0:0:0:0:
476,68,210140,2,2,B|496:108|496:108|492:168,1,90.0000034332277,10|2,0:1|0:0,0:0:0:0:
361,260,210328,5,10,0:0:0:0:
361,260,210423,1,0,0:0:0:0:
361,260,210517,2,0,P|313:256|253:272,1,90.0000034332277,8|0,0:1|0:0,0:0:0:0:
120,352,210706,1,8,0:0:0:0:
120,352,210801,1,0,0:0:0:0:
120,352,210895,2,0,P|147:312|163:252,1,90.0000034332277,10|8,0:1|0:0,0:0:0:0:
160,100,211083,6,0,P|180:143|224:187,1,90.0000034332277,10|0,0:0|0:0,0:0:0:0:
361,260,211272,1,10,0:1:0:0:
20,256,211461,2,0,P|64:228|116:216,1,90.0000034332277,8|0,0:0|0:0,0:0:0:0:
361,260,211649,1,10,0:1:0:0:
24,108,211838,5,8,0:0:0:0:
372,80,212027,2,0,P|320:108|284:112,1,90.0000034332277,10|0,0:1|0:0,0:0:0:0:
284,208,212215,2,0,P|232:188|200:156,1,90.0000034332277,10|0,0:0|0:0,0:0:0:0:
124,216,212404,2,0,P|112:156|120:124,1,90.0000034332277,10|8,0:1|0:0,0:0:0:0:
188,324,212593,54,0,L|92:336,1,90.0000034332277,8|0,0:0|0:0,0:0:0:0:
100,300,212781,2,2,L|196:312,1,90.0000034332277,10|2,0:1|0:0,0:0:0:0:
336,280,212970,6,0,L|432:292,1,93.0000007095337,10|0,0:0|0:0,0:0:0:0:
427,255,213159,2,0,L|331:267,1,93.0000007095337,8|0,0:1|0:0,0:0:0:0:
164,188,213347,6,0,L|68:200,1,96,10|0,0:0|0:0,0:0:0:0:
68,162,213535,2,0,L|164:174,1,96,8|0,0:1|0:0,0:0:0:0:
368,120,213724,6,8,L|464:132,1,96,10|8,0:0|0:0,0:0:0:0:
465,92,213913,2,0,L|366:105,1,99.0000009441376,8|8,0:1|0:0,0:0:0:0:
152,0,214102,54,0,P|172:52|180:116,1,102.000001945496,10|0,0:0|0:0,0:0:0:0:
332,200,214291,2,0,P|312:252|304:316,1,102.000001945496,10|0,0:1|0:0,0:0:0:0:
88,256,214479,2,0,P|128:240|204:232,1,102.000001945496,10|0,0:0|0:0,0:0:0:0:
440,64,214668,2,0,P|416:56|336:52,1,102.000001945496,10|0,0:1|0:0,0:0:0:0:
78,86,214857,5,8,0:0:0:0:
127,105,214951,1,0,0:0:0:0:
179,97,215045,1,10,0:1:0:0:
220,60,215140,1,0,0:0:0:0:
236,12,215234,2,0,P|232:64|252:120,1,102.000001945496,10|0,0:0|0:0,0:0:0:0:
320,204,215423,2,0,P|363:233|421:244,1,102.000001945496,8|0,0:1|0:0,0:0:0:0:
205,220,215611,6,0,B|123:210|69:264|69:264|94:273|119:264,1,180.000006866455,8|10,0:0|0:1,0:0:0:0:
138,126,215894,1,0,0:0:0:0:
138,126,215989,2,0,P|87:138|39:165,1,90.0000034332277,8|0,0:0|0:0,0:0:0:0:
192,317,216178,2,0,P|154:349|129:388,1,90.0000034332277,10|0,0:1|0:0,0:0:0:0:
356,252,216366,5,10,0:0:0:0:
356,252,216461,1,0,0:0:0:0:
356,252,216555,2,0,P|356:200|348:156,1,90.0000034332277,8|2,0:1|0:0,0:0:0:0:
472,328,216744,1,10,0:0:0:0:
472,328,216838,1,8,0:0:0:0:
472,328,216932,2,0,P|492:276|496:232,1,90.0000034332277,8|8,0:1|0:0,0:0:0:0:
373,76,217121,54,0,P|355:117|349:162,1,90.0000034332277,10|0,0:0|0:0,0:0:0:0:
472,328,217310,1,10,0:1:0:0:
260,156,217498,2,0,P|304:153|349:162,1,90.0000034332277,8|0,0:0|0:0,0:0:0:0:
472,328,217687,1,10,0:1:0:0:
284,72,217876,5,8,0:0:0:0:
280,355,218064,2,0,P|295:312|300:268,1,90.0000034332277,10|0,0:1|0:0,0:0:0:0:
448,88,218253,2,8,P|460:144|480:192,1,90.0000034332277,10|8,0:0|0:0,0:0:0:0:
300,268,218442,2,0,P|292:208|276:168,1,90.0000034332277,10|8,0:1|0:0,0:0:0:0:
88,60,218630,5,10,0:0:0:0:
88,60,218725,1,2,0:0:0:0:
88,60,218819,2,0,L|184:68,1,90.0000034332277,10|0,0:1|0:0,0:0:0:0:
64,200,219008,2,0,P|111:198|160:192,1,90.0000034332277,8|0,0:0|0:0,0:0:0:0:
144,336,219196,2,0,P|192:316|228:280,1,90.0000034332277,10|0,0:1|0:0,0:0:0:0:
316,104,219385,2,0,P|309:155|322:204,1,90.0000034332277,10|0,0:0|0:0,0:0:0:0:
432,376,219574,2,0,P|390:344|341:331,1,90.0000034332277,8|0,0:1|0:0,0:0:0:0:
153,193,219762,2,8,P|201:173|237:137,1,90.0000034332277
460,52,219951,2,0,P|453:103|466:152,1,90.0000034332277,8|8,0:1|0:0,0:0:0:0:
264,368,220140,6,0,B|260:320|260:320|232:260,1,102.000001945496,10|0,0:0|0:0,0:0:0:0:
146,54,220328,2,0,B|177:90|177:90|235:122,1,102.000001945496,8|0,0:1|0:0,0:0:0:0:
425,238,220517,2,0,B|378:227|378:227|313:235,1,102.000001945496,10|0,0:0|0:0,0:0:0:0:
91,253,220705,2,0,B|135:235|135:235|183:190,1,102.000001945496,10|0,0:1|0:0,0:0:0:0:
352,44,220894,2,0,B|328:86|328:86|315:151,1,102.000001945496,10|0,0:0|0:0,0:0:0:0:
132,372,221083,54,0,P|116:312|100:272,1,102.000001945496,8|0,0:1|0:0,0:0:0:0:
256,312,221272,2,0,L|256:204,1,102.000001945496,8|0,0:0|0:0,0:0:0:0:
380,372,221461,2,0,P|396:312|412:272,1,102.000001945496,8|0,0:1|0:0,0:0:0:0:
364,78,221649,5,2,0:2:0:0:
404,106,221744,1,8,0:0:0:0:
424,150,221838,2,0,P|388:166|320:166,1,96,8|8,0:0|0:0,0:0:0:0:
132,128,222027,5,2,0:2:0:0:
88,160,222122,1,8,0:0:0:0:
64,208,222216,2,0,P|109:234|168:236,1,107.999996704102,8|8,0:0|0:0,0:0:0:0:
252,92,222404,54,0,P|230:29|180:5,1,120,8|8,1:3|0:0,0:0:0:0:
340,248,222687,2,0,P|404:260|448:232,1,120,8|0,1:3|0:0,0:0:0:0:
163,236,222970,2,0,P|129:265|111:301,1,60,8|0,1:3|0:0,0:0:0:0:
256,192,223159,5,0,0:0:0:0:
100,162,223347,1,8,0:0:0:0:
284,118,223536,1,0,0:0:0:0:
42,216,223725,1,8,0:0:0:0:
335,179,223913,1,2,0:2:0:0:
25,138,224102,1,8,0:0:0:0:
362,103,224291,1,2,0:2:0:0:
84,84,224479,1,8,0:0:0:0:
84,84,224574,1,0,0:0:0:0:
84,84,224668,6,0,P|134:80|216:82,1,132.00000402832,2|8,0:2|0:0,0:0:0:0:
472,161,225045,1,0,0:0:0:0:
247,172,225234,1,8,0:0:0:0:
397,25,225423,2,0,P|391:99|380:166,1,132.00000402832,2|8,0:2|0:0,0:0:0:0:
162,359,225800,1,4,0:0:0:0:
154,320,225894,1,0,0:0:0:0:
149,280,225989,1,8,0:0:0:0:
148,240,226083,1,0,0:0:0:0:
151,200,226178,5,2,0:2:0:0:
247,172,226366,1,8,0:0:0:0:
327,228,226555,1,2,0:2:0:0:
151,200,226744,1,8,0:0:0:0:
308,97,226932,2,0,P|367:93|448:98,1,132.00000402832,2|8,0:2|0:0,0:0:0:0:
509,202,227310,2,0,L|505:275,1,66.0000020141602,2|0,0:2|0:0,0:0:0:0:
423,324,227498,1,8,0:0:0:0:
417,289,227593,1,0,0:0:0:0:
411,254,227687,5,2,0:2:0:0:
192,202,227876,1,8,0:0:0:0:
349,178,228064,1,2,0:2:0:0:
152,290,228253,1,8,0:0:0:0:
3,150,228442,1,2,0:2:0:0:
200,75,228630,53,4,0:0:0:0:
223,80,228725,1,0,0:0:0:0:
245,84,228819,1,14,0:0:0:0:
290,76,228913,1,2,0:2:0:0:
336,69,229008,1,8,0:0:0:0:
381,62,229102,1,2,0:2:0:0:
426,54,229196,6,0,L|448:187,1,132.00000402832,2|8,0:2|0:0,0:0:0:0:
332,273,229574,1,0,0:0:0:0:
352,157,229762,1,8,0:0:0:0:
332,273,229951,1,2,0:2:0:0:
290,76,230140,1,8,0:0:0:0:
332,273,230328,1,2,0:0:0:0:
182,91,230517,1,8,0:0:0:0:
186,55,230611,1,2,0:2:0:0:
190,19,230706,5,2,0:2:0:0:
129,186,230894,1,8,0:0:0:0:
370,157,231083,1,2,0:2:0:0:
182,91,231272,1,8,0:0:0:0:
370,157,231461,1,2,0:2:0:0:
241,158,231649,1,8,0:0:0:0:
423,82,231838,1,6,0:0:0:0:
284,240,232027,1,8,0:0:0:0:
289,278,232121,1,0,0:0:0:0:
297,316,232215,6,2,P|373:314|429:312,1,132.00000402832,2|8,0:2|0:0,1:0:0:0:
428,312,232498,2,2,L|437:238,1,66.0000020141602,2|0,2:0|0:0,1:0:0:0:
333,139,232781,1,8,0:0:0:0:
204,213,232970,2,2,P|198:279|201:350,1,132.00000402832,2|8,0:2|0:0,1:0:0:0:
200,344,233253,2,2,L|126:347,1,66.0000020141602,2|2,2:0|0:0,1:0:0:0:
68,308,233442,1,0,0:0:0:0:
64,262,233536,1,8,0:0:0:0:
65,216,233630,1,0,0:0:0:0:
71,169,233725,53,2,0:0:0:0:
162,127,233913,1,8,0:0:0:0:
239,192,234102,1,2,0:0:0:0:
362,86,234291,1,8,0:0:0:0:
162,127,234479,1,2,0:0:0:0:
334,212,234668,6,0,P|381:214|406:211,1,66.0000020141602,12|0,0:0|0:0,0:0:0:0:
482,144,234857,1,12,0:0:0:0:
448,130,234951,1,2,0:2:0:0:
412,123,235045,1,8,0:0:0:0:
375,122,235140,1,2,0:2:0:0:
341,131,235234,5,2,0:2:0:0:
407,311,235423,1,8,0:0:0:0:
341,131,235611,2,0,P|338:184|347:255,1,120,2|8,0:0|0:0,0:0:0:0:
426,229,235894,1,0,2:0:0:0:
426,229,235989,1,2,0:2:0:0:
197,187,236178,1,8,0:0:0:0:
32,266,236366,2,0,L|112:252,1,60,2|0,0:0|0:0,0:0:0:0:
257,242,236555,2,0,L|184:221,1,60,8|2,0:0|0:2,0:0:0:0:
65,129,236744,6,0,P|44:60|41:7,1,120,2|8,0:2|0:0,0:0:0:0:
328,32,237121,1,2,0:0:0:0:
230,221,237310,2,0,L|236:293,1,60,8|0,0:0|2:0,0:0:0:0:
73,359,237498,2,0,P|130:341|189:345,1,120,2|8,0:2|0:0,0:0:0:0:
269,368,237781,1,0,0:0:0:0:
269,368,237876,2,0,L|263:295,1,60,6|2,0:0|0:2,0:0:0:0:
374,237,238064,2,0,L|379:172,1,60,8|2,0:0|0:2,0:0:0:0:
328,32,238253,53,2,0:2:0:0:
301,273,238442,1,8,0:0:0:0:
305,312,238536,1,2,2:2:0:0:
313,350,238630,1,2,0:0:0:0:
466,182,238819,1,8,0:0:0:0:
224,228,239008,2,0,P|166:248|100:238,1,120,2|8,0:2|0:0,0:0:0:0:
48,197,239291,1,0,2:2:0:0:
48,197,239385,2,0,L|56:136,1,60,2|0,0:0|0:0,0:0:0:0:
219,312,239574,2,0,L|216:376,1,60,8|2,0:0|0:2,0:0:0:0:
299,191,239762,6,0,P|309:126|309:70,1,120,2|8,0:2|0:0,0:0:0:0:
268,7,240045,1,0,2:0:0:0:
268,7,240140,1,2,0:0:0:0:
298,268,240328,1,8,0:0:0:0:
139,183,240517,2,0,L|208:178,1,66.0000020141602,2|0,0:2|2:0,0:0:0:0:
76,268,240706,2,0,L|11:263,1,66.0000020141602,12|0,0:0|2:0,0:0:0:0:
152,338,240894,2,0,L|221:342,1,66.0000020141602,14|2,0:0|0:2,0:0:0:0:
314,286,241083,1,8,0:0:0:0:
314,286,241178,1,2,0:2:0:0:
314,286,241272,6,0,P|368:292|440:278,1,120,2|8,0:2|0:0,0:0:0:0:
479,220,241555,1,2,2:2:0:0:
479,220,241649,1,2,0:0:0:0:
218,266,241838,1,8,0:0:0:0:
218,266,241932,1,2,2:2:0:0:
218,266,242027,2,0,P|200:215|194:146,1,120,2|8,0:2|0:0,0:0:0:0:
386,52,242404,2,0,L|314:57,1,60,2|2,0:0|0:2,0:0:0:0:
237,71,242593,1,8,0:0:0:0:
198,61,242687,1,0,0:0:0:0:
158,65,242781,5,2,0:2:0:0:
105,283,242970,1,8,0:0:0:0:
323,216,243159,2,0,L|326:191|330:151,1,60,2|2,0:0|2:2,0:0:0:0:
268,90,243347,1,8,0:0:0:0:
301,302,243536,1,2,0:2:0:0:
342,299,243630,1,0,2:0:0:0:
384,296,243725,1,8,0:0:0:0:
425,293,243819,1,2,2:2:0:0:
447,257,243913,2,0,L|454:187,1,60,6|0,0:0|0:0,0:0:0:0:
323,216,244102,2,0,L|326:191|330:151,1,60,8|2,0:0|0:2,0:0:0:0:
181,110,244291,53,2,0:2:0:0:
154,288,244479,2,0,L|146:222,1,60,8|0,0:0|2:0,0:0:0:0:
255,138,244668,1,2,0:0:0:0:
262,316,244857,1,8,0:0:0:0:
386,215,245045,2,0,L|400:93,1,120,2|8,0:2|0:0,0:0:0:0:
493,151,245328,1,0,2:0:0:0:
493,151,245423,2,0,L|498:225,1,60,2|2,0:0|0:2,0:0:0:0:
414,289,245611,2,0,P|382:291|354:288,1,60,8|2,0:0|0:2,0:0:0:0:
293,237,245800,5,2,0:0:0:0:
493,151,245989,2,0,P|462:150|424:157,1,60,8|0,0:0|2:0,0:0:0:0:
287,138,246178,2,0,P|236:154|165:159,1,120,2|8,0:0|0:0,0:0:0:0:
357,183,246555,1,2,0:0:0:0:
212,42,246744,2,0,L|133:35,1,66.0000020141602,12|2,0:0|2:2,0:0:0:0:
22,153,246932,2,0,L|96:148,1,66.0000020141602,12|0,0:0|0:0,0:0:0:0:
170,234,247121,1,8,0:0:0:0:
179,266,247215,1,2,0:2:0:0:
181,297,247310,5,2,1:2:0:0:
246,228,247498,1,8,2:0:0:0:
153,208,247687,1,0,1:0:0:0:
274,317,247876,1,8,0:0:0:0:
308,158,248064,1,2,1:2:0:0:
181,297,248253,1,8,0:0:0:0:
401,178,248442,1,0,1:0:0:0:
190,47,248630,1,10,1:2:0:0:
190,47,248725,1,0,1:0:0:0:
190,47,248819,5,2,1:2:0:0:
217,137,249008,1,8,0:0:0:0:
308,158,249196,1,0,1:0:0:0:
371,88,249385,1,8,0:0:0:0:
217,137,249574,1,2,1:2:0:0:
401,178,249762,1,8,0:0:0:0:
153,208,249951,1,0,1:0:0:0:
432,268,250140,1,10,1:2:0:0:
432,268,250234,1,0,1:0:0:0:
432,268,250328,53,2,1:2:0:0:
308,158,250517,1,8,0:0:0:0:
274,317,250706,1,0,1:0:0:0:
339,248,250894,1,10,0:0:0:0:
153,208,251083,1,2,1:2:0:0:
371,88,251272,1,8,0:0:0:0:
126,48,251461,2,0,L|138:124,1,71.9999978027344,2|0,1:2|1:0,1:0:0:0:
153,208,251649,2,0,L|165:284,1,71.9999978027344,8|0,1:2|1:0,1:0:0:0:
180,369,251838,5,2,1:2:0:0:
229,340,251932,1,0,0:0:0:0:
285,328,252027,1,8,0:0:0:0:
341,337,252121,1,0,0:0:0:0:
393,360,252215,5,2,1:2:0:0:
375,320,252310,1,0,0:0:0:0:
370,277,252404,1,8,0:0:0:0:
380,235,252498,1,0,0:0:0:0:
401,197,252593,5,2,1:2:0:0:
382,208,252687,1,0,0:0:0:0:
365,218,252781,2,0,L|357:119,1,83.9999974365235,10|0,1:2|1:0,1:0:0:0:
269,272,252970,2,0,L|261:173,1,83.9999974365235,8|0,1:2|1:0,1:0:0:0:
174,327,253159,2,0,L|166:228,1,83.9999974365235,10|0,1:2|1:0,1:0:0:0:
89,150,253347,53,0,1:0:0:0:
114,162,253442,1,0,0:0:0:0:
141,166,253536,1,10,0:0:0:0:
170,162,253630,1,0,0:0:0:0:
195,147,253725,1,0,1:0:0:0:
212,124,253819,1,0,0:0:0:0:
219,95,253913,1,10,0:0:0:0:
216,65,254008,1,2,0:0:0:0:
204,39,254102,5,2,1:2:0:0:
230,62,254196,1,0,0:0:0:0:
264,72,254291,1,8,0:0:0:0:
299,73,254385,1,0,0:0:0:0:
333,64,254479,1,2,1:2:0:0:
364,45,254574,1,0,0:0:0:0:
389,19,254668,2,0,P|382:83|383:113,1,71.9999978027344,10|0,1:2|1:0,1:0:0:0:
420,213,254857,5,0,1:0:0:0:
388,189,254951,1,0,0:0:0:0:
352,173,255045,1,10,0:0:0:0:
313,174,255140,1,0,0:0:0:0:
277,188,255234,1,0,1:0:0:0:
251,216,255328,1,0,0:0:0:0:
233,251,255423,1,10,0:0:0:0:
232,289,255517,1,2,0:0:0:0:
245,325,255611,5,2,1:2:0:0:
267,283,255706,1,0,0:0:0:0:
260,236,255800,1,10,0:0:0:0:
229,200,255894,1,0,0:0:0:0:
183,188,255989,1,2,1:2:0:0:
139,203,256083,1,0,0:0:0:0:
109,239,256178,2,0,P|104:286|121:329,1,77.9999964294435,10|0,1:2|1:0,1:0:0:0:
186,271,256366,53,2,1:2:0:0:
224,253,256461,1,0,0:0:0:0:
265,255,256555,1,8,0:0:0:0:
302,272,256649,1,0,0:0:0:0:
331,301,256744,1,2,1:2:0:0:
371,311,256838,1,0,0:0:0:0:
412,307,256932,1,10,0:0:0:0:
445,281,257027,1,0,0:0:0:0:
460,242,257121,5,2,1:2:0:0:
448,193,257215,1,0,0:0:0:0:
407,162,257310,1,8,0:0:0:0:
356,159,257404,1,0,0:0:0:0:
315,188,257498,1,2,1:2:0:0:
264,188,257593,1,0,1:0:0:0:
223,157,257687,1,10,1:2:0:0:
210,108,257781,1,2,1:2:0:0:
233,59,257876,5,2,1:2:0:0:
290,33,257970,1,0,0:0:0:0:
346,60,258064,1,10,0:0:0:0:
368,119,258159,1,0,0:0:0:0:
341,176,258253,1,2,1:2:0:0:
280,191,258347,1,0,0:0:0:0:
256,249,258442,1,10,0:0:0:0:
286,303,258536,1,2,0:0:0:0:
346,314,258630,2,0,P|395:304|443:258,1,96,2|0,1:2|0:0,0:0:0:0:
203,163,258819,6,0,P|167:132|150:88,1,96,8|0,1:2|1:0,1:0:0:0:
256,249,259008,2,0,P|247:296|218:334,1,96,8|0,1:2|1:0,1:0:0:0:
306,160,259196,2,0,P|350:145|398:152,1,96,8|0,1:2|1:0,1:0:0:0:
203,163,259385,6,0,B|163:195|113:200|113:200|107:231,1,120,2|0,0:0|2:0,0:0:0:0:
306,160,259574,2,0,B|298:110|318:65|318:65|295:43,1,120,14|0,0:0|2:0,0:0:0:0:
256,249,259762,6,0,B|304:267|333:307|333:307|363:298,1,120,14|0,0:0|0:0,0:0:0:0:
412,240,260045,85,2,0:0:0:0:
412,240,260140,2,0,B|400:196|400:196|364:196|316:168,1,120,2|0,0:0|2:0,0:0:0:0:
136,303,260328,2,0,B|180:314|180:314|198:283|246:255,1,120,14|0,0:0|2:0,0:0:0:0:
219,32,260517,6,0,B|187:65|187:65|205:96|205:152,1,120,14|0,0:0|0:0,0:0:0:0:
144,212,260800,85,2,0:0:0:0:
144,212,260894,2,0,B|112:208|112:208|76:180|68:124,1,120,2|0,0:0|2:0,0:0:0:0:
329,278,261083,2,0,B|341:308|341:308|335:353|291:388,1,120,14|0,0:0|2:0,0:0:0:0:
294,85,261272,6,0,B|314:59|314:59|356:42|408:63,1,120,14|0,0:0|0:0,0:0:0:0:
464,180,261555,85,2,0:0:0:0:
464,180,261649,2,0,B|476:192|476:192|432:216|376:208,1,120,2|0,0:0|2:0,0:0:0:0:
141,17,261838,2,0,B|146:1|146:1|188:27|209:80,1,120,14|0,0:0|2:0,0:0:0:0:
162,378,262027,6,0,B|146:382|146:382|147:332|182:287,1,120,14|0,0:0|0:0,0:0:0:0:
256,192,262310,1,2,0:0:0:0:
267,200,262404,21,4,0:0:0:0:
254,208,262498,5,0,0:0:0:0:
238,199,262593,5,8,0:2:0:0:
236,178,262687,5,8,0:2:0:0:
258,163,262781,53,8,0:2:0:0:
286,178,262876,5,8,0:2:0:0:
288,215,262970,5,8,0:2:0:0:
250,240,263064,5,8,0:2:0:0:
202,215,263159,53,8,0:2:0:0:
203,154,263253,5,8,0:2:0:0:
263,121,263347,5,8,0:2:0:0:
327,160,263442,5,8,0:2:0:0:
325,242,263536,53,8,0:3:0:0:
246,285,263630,5,8,0:3:0:0:
161,234,263725,5,8,0:3:0:0:
163,124,263819,5,8,0:3:0:0:
269,67,263913,54,0,P|361:85|437:178,1,215.999993408203,14|0,0:0|2:0,0:0:0:0:
163,124,264291,6,0,P|268:67|417:136,1,270.000010299683,14|0,0:0|2:0,0:0:0:0:
161,234,264668,21,12,0:0:0:0:
161,234,264857,6,0,P|151:210|147:179,1,35.9999989013672,2|0,0:2|2:0,0:0:0:0:
237,189,264951,2,0,P|249:173|277:150,1,35.9999989013672,2|0,0:2|2:0,0:0:0:0:
312,235,265045,1,8,0:2:0:0:
312,323,265140,1,8,0:2:0:0:
234,367,265234,1,8,0:2:0:0:
159,323,265328,1,8,0:2:0:0:
236,277,265423,38,0,B|261:268|275:245|275:245|328:283|397:269,1,180.000006866455,6|8,0:0|0:2,0:0:0:0:
198,197,265706,1,0,2:0:0:0:
195,171,265800,2,0,P|216:118|322:162,1,180.000006866455,2|8,0:2|0:2,0:0:0:0:
144,268,266083,1,0,2:2:0:0:
124,248,266178,2,0,B|92:216|88:168|88:168|65:209|20:224,1,180.000006866455,2|8,0:2|0:2,0:0:0:0:
20,223,266461,1,0,2:0:0:0:
20,223,266555,2,0,P|20:268|44:320,1,90.0000034332277,2|0,1:2|0:0,0:0:0:0:
231,283,266744,2,0,P|186:282|144:268,1,90.0000034332277,10|0,0:2|0:0,0:0:0:0:
100,88,266932,5,2,0:2:0:0:
292,170,267121,2,0,P|248:181|204:184,1,90.0000034332277,10|0,0:2|2:0,0:0:0:0:
144,268,267310,2,0,P|196:284|252:280,1,90.0000034332277,0|0,0:0|2:0,0:0:0:0:
308,28,267498,2,0,P|264:72|228:88,1,90.0000034332277,10|0,0:2|2:0,0:0:0:0:
65,80,267687,2,0,B|116:92|116:92|156:76|156:76|196:92|239:83,1,180.000006866455,2|8,0:2|0:2,0:0:0:0:
239,83,267970,1,0,2:0:0:0:
239,83,268064,2,0,B|232:128|232:128|252:176,1,90.0000034332277,2|0,0:2|0:0,0:0:0:0:
164,320,268253,2,0,B|171:275|171:275|151:227,1,90.0000034332277,10|0,0:2|0:0,0:0:0:0:
300,272,268442,6,0,B|384:244|384:244|472:284,1,180.000006866455,2|8,0:2|0:2,0:0:0:0:
319,171,268725,1,0,2:0:0:0:
291,179,268819,2,0,B|231:199|231:199|239:79,1,180.000006866455,2|8,0:2|0:2,0:0:0:0:
153,233,269102,1,0,2:0:0:0:
168,256,269196,2,0,P|144:300|130:227,1,180.000006866455,2|8,0:2|0:2,0:0:0:0:
252,280,269479,1,0,2:0:0:0:
248,308,269574,2,0,P|216:360|192:376,1,90.0000034332277,2|0,1:2|0:0,0:0:0:0:
100,140,269762,2,0,P|161:141|186:154,1,90.0000034332277,8|0,0:2|0:0,0:0:0:0:
248,216,269951,5,2,0:2:0:0:
36,352,270140,2,0,P|6:298|5:269,1,90.0000034332277,10|0,0:2|2:0,0:0:0:0:
248,308,270328,2,0,P|216:360|192:376,1,90.0000034332277,0|0,0:0|2:0,0:0:0:0:
100,140,270516,2,0,P|161:141|186:154,1,90.0000034332277,10|0,0:2|2:0,0:0:0:0:
128,265,270706,2,0,B|5:271|5:271|63:232,1,180.000006866455,2|8,0:2|0:2,0:0:0:0:
52,239,270989,1,0,1:0:0:0:
52,239,271083,5,10,0:2:0:0:
128,265,271178,1,0,0:0:0:0:
204,291,271272,1,10,0:2:0:0:
280,317,271366,1,10,0:2:0:0:
356,343,271461,38,0,B|363:283|363:283|345:227|345:227|353:165,1,180.000006866455,2|8,0:2|0:2,0:0:0:0:
457,104,271744,1,0,2:0:0:0:
434,121,271838,2,0,P|385:134|311:42,1,180.000006866455,2|8,0:2|0:2,0:0:0:0:
215,133,272121,1,2,2:0:0:0:
234,155,272215,2,0,B|257:197|257:197|240:339,1,180.000006866455,2|8,0:2|0:2,0:0:0:0:
241,328,272498,1,0,2:0:0:0:
241,328,272593,2,0,B|200:305|200:305|143:304,1,90.0000034332277,2|0,0:2|0:0,0:0:0:0:
130,137,272781,2,0,B|131:183|131:183|158:233,1,90.0000034332277,8|0,0:2|0:0,0:0:0:0:
20,329,272970,2,0,B|59:305|59:305|89:256,1,90.0000034332277,2|0,0:2|2:0,0:0:0:0:
234,155,273159,5,8,0:2:0:0:
0,247,273347,2,0,B|23:209|23:209|63:186,1,90.0000034332277,2|0,0:2|2:0,0:0:0:0:
268,328,273536,2,0,B|224:327|224:327|184:305,1,90.0000034332277,8|0,0:2|2:0,0:0:0:0:
161,210,273725,1,2,0:2:0:0:
169,199,273819,1,0,2:0:0:0:
182,192,273913,1,8,0:2:0:0:
196,189,274008,1,2,2:0:0:0:
209,192,274102,5,2,0:2:0:0:
161,210,274196,1,0,0:0:0:0:
114,231,274291,2,0,L|123:126,1,90.0000034332277,10|0,0:2|0:0,0:0:0:0:
353,308,274479,2,0,B|323:305|304:292|304:292|270:311|270:311|238:299|238:299|209:310|180:305,1,180.000006866455,2|8,0:2|0:2,0:0:0:0:
260,177,274762,1,0,2:0:0:0:
263,205,274857,2,0,L|275:394,1,180.000006866455,2|8,0:2|0:2,0:0:0:0:
129,330,275140,1,0,2:0:0:0:
104,321,275234,6,0,B|141:294|141:294|198:309,1,90.0000034332277,2|0,0:2|2:0,0:0:0:0:
426,217,275423,2,0,B|389:190|389:190|332:205,1,90.0000034332277,10|0,0:2|2:0,0:0:0:0:
151,207,275611,2,0,P|161:163|160:112,1,90.0000034332277,2|0,0:2|0:0,0:0:0:0:
372,287,275800,2,0,P|362:330|363:382,1,90.0000034332277,8|0,0:2|0:0,0:0:0:0:
263,246,275989,53,8,0:0:0:0:
492,151,276178,1,10,2:0:0:0:
252,376,276366,1,8,0:0:0:0:
168,56,276555,1,10,0:2:0:0:
258,100,276649,1,10,0:2:0:0:
348,144,276744,1,8,0:0:0:0:
348,144,276932,53,8,1:3:0:0:
167,157,277027,1,8,1:3:0:0:
258,150,277121,6,0,L|352:143,1,90,8|0,1:3|2:2,0:0:0:0:
437,137,277498,22,0,P|428:181|418:203,1,51.0000009727478,6|0,0:2|2:0,0:0:0:0:
236,312,277687,2,0,P|242:274|257:240,1,60,8|0,0:0|2:0,0:0:0:0:
492,244,277876,6,0,P|461:265|421:275,1,69.0000013160706,6|0,0:0|2:0,0:0:0:0:
192,184,278064,2,0,P|227:168|265:163,1,77.9999964294435,8|0,0:0|2:0,0:0:0:0:
428,360,278253,6,0,P|382:342|349:306,1,87.0000026550294,2|0,0:2|2:0,0:0:0:0:
283,79,278442,2,0,P|335:115|351:166,1,96,10|0,0:0|2:0,0:0:0:0:
237,356,278630,22,0,B|186:370|186:370|131:365,1,107.999996704102,6|0,0:0|0:0,0:0:0:0:
176,87,278819,2,0,B|227:73|227:73|282:78,1,107.999996704102,8|0,0:0|0:0,0:0:0:0:
61,220,279008,86,0,L|74:143,1,66.0000020141602,2|0,0:2|2:0,0:0:0:0:
414,152,279196,2,0,L|427:233,1,75,8|0,0:0|2:0,0:0:0:0:
63,323,279385,54,0,P|93:299|139:285,1,83.9999974365235,6|0,0:0|2:0,0:0:0:0:
450,328,279574,2,0,P|407:325|359:301,1,93.0000007095337,8|0,0:0|2:0,0:0:0:0:
245,6,279762,2,0,P|272:48|279:98,1,102.000001945496,2|0,0:2|2:0,0:0:0:0:
210,194,279951,53,10,0:0:0:0:
162,88,280045,1,2,2:0:0:0:
278,98,280140,2,0,L|398:110,1,107.999996704102,6|0,0:0|0:0,0:0:0:0:
136,285,280328,2,0,L|16:273,1,107.999996704102,8|0,0:0|0:0,0:0:0:0:
311,240,280517,54,0,B|358:213|405:238|405:238|451:260|495:235,1,192,6|8,0:2|0:0,0:0:0:0:
360,315,280800,1,0,2:0:0:0:
334,327,280894,2,0,P|264:321|227:202,1,192,6|8,0:0|0:0,0:0:0:0:
335,146,281178,1,2,2:0:0:0:
328,117,281272,2,0,B|318:103|294:92|294:92|319:163|310:242,1,192,2|8,0:2|0:0,0:0:0:0:
423,150,281555,1,0,2:0:0:0:
422,121,281649,2,0,P|407:72|366:28,1,96,6|0,0:0|0:0,0:0:0:0:
217,71,281838,2,0,P|158:60|112:64,1,96,8|0,0:0|0:0,0:0:0:0:
43,199,282027,6,0,B|17:240|17:240|175:208,1,192,2|8,0:2|0:0,0:0:0:0:
219,304,282310,1,0,2:0:0:0:
238,326,282404,2,0,B|264:367|264:367|106:335,1,192,6|8,0:0|0:0,0:0:0:0:
276,214,282687,1,2,2:0:0:0:
296,243,282781,2,0,L|504:259,1,192,2|8,0:2|0:0,0:0:0:0:
512,182,283064,1,0,0:0:0:0:
512,182,283159,21,14,0:0:0:0:
440,201,283253,1,8,0:2:0:0:
368,222,283347,1,8,0:0:0:0:
296,243,283442,1,8,0:2:0:0:
223,263,283536,86,0,B|171:279|171:279|101:258|101:258|70:215,1,180.000006866455,6|8,0:2|0:0,0:0:0:0:
158,154,283819,1,0,2:0:0:0:
166,182,283913,2,0,P|168:236|158:361,1,180.000006866455,6|8,0:0|0:0,0:0:0:0:
275,240,284196,1,0,2:0:0:0:
269,214,284291,54,0,P|265:158|269:108,1,90.0000034332277,2|0,0:2|2:0,0:0:0:0:
369,87,284479,1,10,0:0:0:0:
180,270,284668,2,0,P|166:205|166:169,1,90.0000034332277,6|0,0:0|0:0,0:0:0:0:
476,76,284857,2,0,P|480:132|476:182,1,90.0000034332277,8|0,0:0|0:0,0:0:0:0:
378,344,285045,6,0,P|431:291|476:371,1,186.000001419067,2|8,0:2|0:0,0:0:0:0:
322,263,285328,1,0,2:0:0:0:
342,243,285423,2,0,P|405:210|513:239,1,186.000001419067,6|8,0:0|0:0,0:0:0:0:
307,165,285706,1,0,2:0:0:0:
332,147,285800,6,0,P|279:152|236:141,1,93.0000007095337,2|0,0:2|2:0,0:0:0:0:
410,84,285989,1,10,0:0:0:0:
223,235,286178,2,0,P|175:210|146:171,1,93.0000007095337,6|0,0:0|0:0,0:0:0:0:
418,193,286366,2,0,P|384:226|342:243,1,93.0000007095337,8|0,0:0|0:0,0:0:0:0:
64,346,286555,6,0,B|100:337|125:305|125:305|167:356|233:349,1,192,6|8,0:2|0:0,0:0:0:0:
137,198,286838,1,0,2:0:0:0:
119,173,286932,2,0,P|34:173|49:256,1,192,6|8,0:0|0:0,0:0:0:0:
210,128,287215,1,0,2:0:0:0:
239,118,287310,54,0,P|288:112|357:129,1,96,2|0,0:2|2:0,0:0:0:0:
472,268,287498,1,10,0:0:0:0:
190,213,287687,2,0,P|239:207|308:224,1,96,6|0,0:0|0:0,0:0:0:0:
512,176,287876,2,0,P|463:170|394:187,1,96,8|0,0:0|0:0,0:0:0:0:
235,306,288064,6,0,B|282:323|311:370|311:370|345:341|350:280,1,198.000001888275,2|8,0:2|0:0,0:0:0:0:
142,345,288347,1,2,2:0:0:0:
114,355,288442,2,0,P|36:304|61:197,1,198.000001888275,6|8,0:0|0:0,0:0:0:0:
235,306,288725,1,2,2:0:0:0:
261,318,288819,6,0,P|265:269|254:221,1,99.0000009441376,2|0,0:2|2:0,0:0:0:0:
221,60,289008,2,0,P|196:103|190:152,1,99.0000009441376,10|0,0:0|2:0,0:0:0:0:
377,113,289196,2,0,P|352:70|313:40,1,99.0000009441376,14|0,0:0|0:0,0:0:0:0:
254,222,289385,2,0,P|303:222|365:190,1,99.0000009441376,8|0,0:0|0:0,0:0:0:0:
284,132,289574,69,6,0:0:0:0:
419,265,289762,1,8,0:2:0:0:
450,228,289857,1,0,0:0:0:0:
467,182,289951,1,10,0:0:0:0:
270,124,290140,5,0,0:0:0:0:
467,182,290328,1,8,0:2:0:0:
450,228,290422,1,0,0:0:0:0:
419,265,290517,1,2,0:0:0:0:
256,116,290706,5,8,0:0:0:0:
419,265,290894,1,8,0:2:0:0:
450,228,290989,1,8,0:2:0:0:
467,182,291083,1,2,0:0:0:0:
419,265,291272,5,8,0:2:0:0:
450,228,291367,1,0,0:0:0:0:
467,182,291461,1,10,0:0:0:0:
419,265,291649,53,8,0:2:0:0:
450,228,291744,1,0,0:0:0:0:
467,182,291838,1,2,0:0:0:0:
256,116,292027,5,2,0:1:0:0:
242,124,292215,1,10,0:1:0:0:
228,132,292593,85,6,0:0:0:0:
45,182,292781,1,8,0:2:0:0:
62,228,292876,1,0,0:0:0:0:
93,265,292970,1,10,0:0:0:0:
242,124,293159,5,0,0:0:0:0:
93,265,293347,1,8,0:2:0:0:
62,228,293441,1,8,0:2:0:0:
45,182,293536,1,2,0:0:0:0:
256,116,293725,5,10,0:0:0:0:
45,182,293913,1,8,0:2:0:0:
62,228,294008,1,8,0:2:0:0:
93,265,294102,1,2,0:0:0:0:
45,182,294291,5,8,0:2:0:0:
62,228,294386,1,8,0:2:0:0:
93,265,294479,1,10,0:0:0:0:
45,182,294668,53,0,0:0:0:0:
62,228,294763,1,0,0:0:0:0:
93,265,294857,2,0,P|125:283|168:288,1,71.9999978027344,2|0,0:1|0:0,0:0:0:0:
246,342,295045,2,0,P|256:306|261:259,1,71.9999978027344,2|0,0:0|0:0,0:0:0:0:
358,246,295234,2,0,P|340:213|307:178,3,71.9999978027344,8|0|2|0,0:1|0:0|0:0|0:0,0:0:0:0:
224,173,295611,5,4,1:2:0:0:
184,187,295706,1,0,0:0:0:0:
142,181,295800,1,10,0:0:0:0:
109,155,295894,1,0,0:0:0:0:
96,114,295989,1,10,1:0:0:0:
106,73,296083,1,0,0:0:0:0:
135,43,296178,1,10,0:0:0:0:
175,33,296272,1,2,0:0:0:0:
215,42,296366,5,2,1:0:0:0:
179,64,296461,1,0,0:0:0:0:
137,71,296555,1,10,0:0:0:0:
95,63,296649,1,0,0:0:0:0:
62,36,296744,1,10,1:0:0:0:
68,77,296838,1,0,0:0:0:0:
66,118,296932,1,10,0:0:0:0:
53,158,297027,1,2,0:0:0:0:
30,193,297121,5,2,1:0:0:0:
71,198,297215,1,0,0:0:0:0:
67,240,297310,1,10,0:0:0:0:
25,235,297404,1,0,0:0:0:0:
30,193,297498,53,10,1:0:0:0:
83,199,297592,1,0,0:0:0:0:
78,254,297687,1,10,0:0:0:0:
23,247,297781,1,2,0:0:0:0:
30,193,297876,54,0,P|38:150|61:103,1,96,2|0,1:0|0:0,0:0:0:0:
144,307,298064,2,0,P|170:266|215:233,1,96,8|0,0:0|0:0,0:0:0:0:
230,112,298253,2,0,P|194:123|145:157,1,96,10|0,1:0|0:0,0:0:0:0:
318,218,298442,2,0,P|306:258|302:325,1,96,10|10,1:2|1:2,0:0:0:0:
391,364,298630,53,4,1:2:0:0:
420,322,298725,1,0,0:0:0:0:
432,273,298819,1,8,0:0:0:0:
427,222,298913,1,0,0:0:0:0:
411,173,299008,1,10,1:0:0:0:
375,137,299102,1,0,0:0:0:0:
328,118,299196,1,10,0:0:0:0:
277,114,299291,1,2,0:0:0:0:
230,131,299385,5,2,1:0:0:0:
273,156,299479,1,0,0:0:0:0:
300,198,299574,1,10,0:0:0:0:
309,247,299668,1,0,0:0:0:0:
295,295,299762,1,10,1:0:0:0:
265,253,299857,1,0,1:0:0:0:
224,223,299951,1,10,0:0:0:0:
174,213,300045,1,2,1:0:0:0:
124,223,300140,5,2,1:0:0:0:
124,223,300234,1,0,0:0:0:0:
124,223,300328,2,0,L|136:135,1,71.9999978027344,10|0,0:0|0:0,0:0:0:0:
228,12,300517,1,10,1:0:0:0:
228,12,300611,1,0,0:0:0:0:
228,12,300705,2,0,L|216:100,1,71.9999978027344,10|2,0:0|0:0,0:0:0:0:
308,143,300894,53,2,1:0:0:0:
329,147,300989,1,0,0:0:0:0:
350,148,301083,1,10,0:0:0:0:
370,142,301178,1,0,0:0:0:0:
388,132,301272,5,10,1:0:0:0:
344,107,301366,1,8,0:0:0:0:
293,106,301461,1,10,0:0:0:0:
247,126,301555,1,10,0:0:0:0:
215,165,301649,38,0,P|209:202|219:268,1,96,4|0,1:2|0:0,0:0:0:0:
298,340,301838,2,0,P|344:354|397:354,1,96,10|0,0:0|0:0,0:0:0:0:
226,133,302027,2,0,P|214:169|212:235,1,96,8|0,1:0|0:0,0:0:0:0:
274,326,302215,2,0,P|316:347|369:356,1,96,10|2,0:0|0:0,0:0:0:0:
244,101,302404,2,0,P|225:134|211:200,1,96,2|0,1:0|0:0,0:0:0:0:
250,306,302593,2,0,P|288:334|338:353,1,96,10|0,0:0|0:0,0:0:0:0:
455,182,302781,6,0,P|410:182|367:194,1,90.0000034332277,10|10,1:0|0:0,0:0:0:0:
355,200,303064,1,10,0:0:0:0:
343,207,303159,21,2,1:0:0:0:
360,175,303253,1,0,0:0:0:0:
356,139,303347,1,10,0:0:0:0:
333,110,303442,1,0,0:0:0:0:
298,101,303536,1,10,1:0:0:0:
263,110,303630,1,0,0:0:0:0:
240,138,303725,1,10,0:0:0:0:
236,173,303819,1,2,0:0:0:0:
252,204,303913,54,0,P|287:222|341:209,1,96,2|0,1:0|0:0,0:0:0:0:
229,28,304102,2,0,P|194:10|140:23,1,96,10|0,1:2|0:0,0:0:0:0:
341,26,304291,2,0,P|323:61|336:115,1,96,10|0,1:0|1:0,0:0:0:0:
140,206,304479,2,0,P|158:171|145:117,1,96,10|2,0:0|1:0,0:0:0:0:
32,235,304668,53,4,1:2:0:0:
54,277,304762,1,0,0:0:0:0:
92,305,304857,1,10,0:0:0:0:
138,313,304951,1,0,0:0:0:0:
184,303,305045,1,10,1:0:0:0:
224,277,305140,1,0,0:0:0:0:
247,236,305234,1,10,0:0:0:0:
291,219,305328,1,2,0:0:0:0:
338,222,305423,5,2,1:0:0:0:
305,183,305517,1,0,0:0:0:0:
260,159,305611,1,10,0:0:0:0:
209,162,305706,1,0,0:0:0:0:
166,189,305800,1,10,1:0:0:0:
115,186,305894,1,0,1:0:0:0:
80,149,305989,1,10,0:0:0:0:
75,98,306083,1,2,1:0:0:0:
105,56,306178,6,0,L|190:67,1,71.9999978027344,2|0,1:0|0:0,0:0:0:0:
283,77,306366,2,0,L|370:59,1,71.9999978027344,10|0,0:0|0:0,0:0:0:0:
105,56,306555,2,0,L|261:75,1,143.999995605469,10|10,1:0|0:0,0:0:0:0:
283,77,306838,1,0,0:0:0:0:
318,82,306932,53,0,1:0:0:0:
283,77,307027,1,0,0:0:0:0:
249,89,307121,1,10,0:0:0:0:
227,117,307215,1,8,0:0:0:0:
220,152,307310,53,10,1:0:0:0:
291,147,307404,1,8,0:0:0:0:
318,82,307498,1,10,0:0:0:0:
281,19,307593,1,0,1:0:0:0:
209,14,307687,53,4,1:2:0:0:
244,44,307781,1,0,0:0:0:0:
289,56,307876,1,10,0:0:0:0:
335,53,307970,1,0,0:0:0:0:
373,26,308064,1,10,1:0:0:0:
420,23,308159,1,0,0:0:0:0:
463,38,308253,1,10,0:0:0:0:
490,75,308347,1,2,0:0:0:0:
500,120,308442,5,0,1:0:0:0:
455,132,308536,1,0,0:0:0:0:
410,145,308630,1,10,0:0:0:0:
365,159,308725,1,0,0:0:0:0:
320,174,308819,1,10,1:0:0:0:
362,192,308913,1,0,1:0:0:0:
405,209,309008,1,10,0:0:0:0:
364,231,309102,1,2,1:0:0:0:
325,257,309196,5,2,1:0:0:0:
363,265,309291,1,0,0:0:0:0:
397,247,309385,1,10,0:0:0:0:
405,209,309479,1,0,0:0:0:0:
325,257,309574,53,10,1:0:0:0:
368,290,309669,1,0,0:0:0:0:
415,262,309763,1,10,0:0:0:0:
405,209,309857,1,2,0:0:0:0:
325,257,309951,54,0,P|331:294|362:352,1,102.000001945496,2|0,1:0|0:0,0:0:0:0:
231,103,310140,2,0,P|221:142|220:203,1,102.000001945496,10|0,0:0|0:0,0:0:0:0:
444,271,310328,2,0,P|462:303|509:347,1,102.000001945496,10|0,1:0|1:0,0:0:0:0:
374,72,310517,2,0,P|351:105|329:162,1,102.000001945496,10|2,0:0|1:0,0:0:0:0:
239,287,310706,53,4,1:2:0:0:
188,307,310800,1,0,0:0:0:0:
133,300,310894,1,10,0:0:0:0:
90,265,310989,1,0,0:0:0:0:
74,212,311083,1,10,1:0:0:0:
81,157,311178,1,0,0:0:0:0:
117,116,311272,1,10,0:0:0:0:
169,100,311366,1,2,0:0:0:0:
223,107,311461,5,2,1:0:0:0:
180,140,311555,1,0,0:0:0:0:
126,149,311649,1,10,0:0:0:0:
73,134,311744,1,0,0:0:0:0:
35,94,311838,1,10,1:0:0:0:
78,60,311932,1,0,1:0:0:0:
132,56,312027,1,10,0:0:0:0:
184,68,312121,1,2,1:0:0:0:
223,107,312215,5,2,1:0:0:0:
234,96,312310,1,0,0:0:0:0:
245,85,312404,2,0,L|251:4,1,77.9999964294435,10|0,0:0|0:0,0:0:0:0:
373,118,312593,1,10,1:0:0:0:
362,129,312688,1,0,0:0:0:0:
351,140,312781,2,2,L|345:221,1,77.9999964294435,10|2,0:0|0:0,0:0:0:0:
245,85,312970,54,0,L|251:4,1,77.9999964294435,2|0,1:0|0:0,0:0:0:0:
351,140,313159,2,0,L|345:221,1,77.9999964294435,10|0,1:2|0:0,0:0:0:0:
245,85,313347,5,10,1:0:0:0:
282,34,313442,1,8,0:0:0:0:
342,19,313536,1,10,0:0:0:0:
403,28,313630,1,10,0:0:0:0:
445,74,313725,38,0,P|403:89|346:90,1,102.000001945496,4|0,1:2|0:0,0:0:0:0:
215,73,313913,2,0,P|169:56|129:22,1,102.000001945496,10|0,0:0|0:0,0:0:0:0:
450,94,314102,2,0,P|415:122|360:142,1,102.000001945496,10|0,1:0|0:0,0:0:0:0:
218,166,314290,2,0,P|168:165|119:147,1,102.000001945496,10|2,0:0|0:0,0:0:0:0:
453,113,314479,2,0,P|430:151|387:190,1,102.000001945496,2|0,1:0|0:0,0:0:0:0:
237,260,314667,2,0,P|190:276|138:277,1,102.000001945496,10|0,0:0|0:0,0:0:0:0:
455,136,314857,1,10,1:0:0:0:
434,209,314951,1,0,1:0:0:0:
361,234,315045,1,10,0:0:0:0:
295,193,315140,1,2,1:0:0:0:
288,119,315234,70,0,P|297:74|325:28,1,77.9999964294435,2|0,1:0|0:0,0:0:0:0:
455,136,315423,1,10,0:0:0:0:
441,188,315517,1,0,0:0:0:0:
456,240,315611,1,10,1:0:0:0:
407,211,315706,1,0,0:0:0:0:
385,159,315800,1,10,0:0:0:0:
367,212,315894,1,2,0:0:0:0:
376,267,315989,22,0,P|398:316|431:354,1,102.000001945496,2|0,1:0|0:0,0:0:0:0:
259,194,316178,2,0,P|258:243|272:300,1,102.000001945496,10|0,0:0|0:0,0:0:0:0:
163,94,316366,1,10,1:0:0:0:
136,162,316461,1,0,1:0:0:0:
130,235,316555,1,10,0:0:0:0:
152,306,316649,1,2,1:0:0:0:
198,364,316744,85,4,1:2:0:0:
226,317,316838,1,0,0:0:0:0:
231,262,316932,1,10,0:0:0:0:
217,208,317027,1,0,0:0:0:0:
189,160,317121,2,0,P|176:196|173:248,1,77.9999964294435,10|0,1:0|0:0,0:0:0:0:
305,368,317310,2,0,P|313:329|315:278,1,77.9999964294435,10|2,0:0|0:0,0:0:0:0:
273,117,317498,53,2,1:0:0:0:
297,166,317593,1,0,0:0:0:0:
341,197,317687,1,10,0:0:0:0:
393,210,317781,1,0,0:0:0:0:
447,200,317876,1,10,1:0:0:0:
485,161,317970,1,0,1:0:0:0:
501,109,318064,1,10,0:0:0:0:
494,54,318159,1,2,1:0:0:0:
460,11,318253,5,2,1:0:0:0:
410,49,318347,1,0,0:0:0:0:
348,61,318442,1,10,0:0:0:0:
286,50,318536,1,0,0:0:0:0:
229,23,318630,1,10,1:0:0:0:
253,80,318725,1,0,0:0:0:0:
300,119,318819,1,10,0:0:0:0:
359,135,318913,1,10,0:0:0:0:
421,132,319008,38,0,L|448:179,1,38.9999982147218,2|0,1:0|0:0,0:0:0:0:
350,162,319102,2,0,L|362:212,1,38.9999982147218
273,167,319196,2,0,L|266:215,1,38.9999982147218,10|0,1:2|0:0,0:0:0:0:
197,147,319291,2,0,L|172:195,1,38.9999982147218,2|0,0:0|0:0,0:0:0:0:
135,99,319385,37,10,1:0:0:0:
197,147,319479,5,10,0:0:0:0:
273,167,319574,5,10,0:0:0:0:
350,162,319668,5,10,0:0:0:0:
421,132,319762,54,2,P|383:200|371:292,1,155.999992858887,2|8,1:1|1:0,1:0:0:0:
274,366,320045,1,0,0:0:0:0:
280,336,320140,2,0,P|276:292|269:257,1,77.9999964294435,2|0,1:1|0:0,0:0:0:0:
73,145,320328,2,2,P|155:174|236:177,1,155.999992858887,10|0,1:1|1:0,1:0:0:0:
317,118,320611,1,0,0:0:0:0:
346,108,320706,2,0,P|386:108|427:113,1,77.9999964294435,10|0,1:1|0:0,0:0:0:0:
248,36,320894,1,2,1:1:0:0:
219,50,320989,1,0,1:0:0:0:
189,58,321083,2,0,P|147:63|99:62,1,77.9999964294435,8|0,1:0|0:0,0:0:0:0:
345,212,321272,6,0,P|357:261|361:302,1,77.9999964294435,2|0,1:1|0:0,0:0:0:0:
164,231,321461,2,0,P|168:166|175:141,1,77.9999964294435,8|0,1:0|0:0,0:0:0:0:
309,55,321649,1,2,1:2:0:0:
335,99,321744,1,0,0:0:0:0:
385,87,321838,1,8,1:0:0:0:
389,37,321932,1,2,0:0:0:0:
342,17,322027,6,0,P|296:32|251:38,1,77.9999964294435,2|0,1:2|0:0,0:0:0:0:
110,38,322215,1,8,1:0:0:0:
110,38,322404,1,2,1:2:0:0:
119,68,322498,1,0,1:0:0:0:
124,98,322593,2,0,P|119:143|106:183,1,77.9999964294435,8|0,1:0|0:0,0:0:0:0:
168,264,322781,6,0,P|248:248|320:292,2,155.999992858887,2|10|0,1:1|1:1|1:0,0:1:0:0:
80,320,323253,1,0,0:0:0:0:
56,340,323347,1,8,1:0:0:0:
36,364,323442,2,0,P|36:320|28:276,1,77.9999964294435,2|0,0:1|1:0,0:0:0:0:
109,174,323630,1,2,0:0:0:0:
104,132,323725,1,8,1:0:0:0:
120,92,323819,1,2,0:0:0:0:
156,68,323913,2,2,P|204:72|248:68,1,77.9999964294435,0|2,1:0|1:1,1:0:0:0:
340,132,324102,2,0,P|376:124|440:120,1,77.9999964294435,10|0,1:1|1:0,0:0:0:0:
318,231,324291,70,2,P|246:195|166:223,1,155.999992858887,2|8,1:1|1:0,1:0:0:0:
30,127,324574,2,2,P|110:123|158:55,1,155.999992858887,0|2,0:0|0:1,1:0:0:0:
169,227,324857,2,0,P|157:291|157:315,1,77.9999964294435,10|0,1:1|0:0,0:0:0:0:
252,358,325045,1,0,1:0:0:0:
327,219,325140,2,0,P|319:151|311:123,1,77.9999964294435,2|8,0:1|1:0,0:0:0:0:
376,60,325328,1,8,1:2:0:0:
416,76,325423,1,10,1:2:0:0:
460,76,325517,1,8,1:2:0:0:
500,56,325611,2,0,P|492:104|492:152,1,77.9999964294435,10|8,1:1|1:2,1:0:0:0:
504,276,325800,6,2,P|423:260|357:262,1,132.00000402832,2|8,1:1|1:0,1:0:0:0:
222,342,326083,1,0,0:0:0:0:
172,352,326178,2,2,P|116:352|23:331,1,150,2|8,1:1|1:0,1:0:0:0:
124,176,326461,1,0,0:0:0:0:
192,152,326555,2,2,P|244:144|360:152,1,167.999994873047,2|10,1:1|1:1,1:0:0:0:
336,376,326838,1,0,0:0:0:0:
268,312,326932,2,0,P|268:260|280:208,1,83.9999974365235,2|0,1:2|1:0,1:0:0:0:
456,96,327121,2,0,P|468:152|468:188,1,83.9999974365235,8|0,1:0|0:0,0:0:0:0:
336,36,327310,6,0,P|252:24|164:64,2,167.999994873047,2|10|0,1:1|1:1|1:1,0:1:0:0:
264,132,327781,1,0,0:0:0:0:
244,160,327876,2,0,P|196:176|152:180,1,83.9999974365235,10|0,1:1|0:0,0:0:0:0:
328,240,328064,2,2,P|344:284|352:332,1,83.9999974365235,2|2,1:2|0:1,1:0:0:0:
132,376,328253,2,0,P|144:320|160:280,1,83.9999974365235,10|0,1:1|0:0,0:0:0:0:
456,172,328442,2,2,P|452:213|440:260,1,83.9999974365235,0|2,1:0|1:1,1:0:0:0:
108,200,328630,2,0,P|96:156|96:112,1,83.9999974365235,10|0,1:1|0:0,0:0:0:0:
284,52,328819,54,2,B|324:24|324:24|344:76|344:76|372:48|372:48|424:68|492:48,1,251.999992309571,0|0,1:0|0:0,1:0:0:0:
272,192,329196,2,2,P|208:148|120:184,1,167.999994873047,2|8,1:1|1:0,1:0:0:0:
304,284,329479,1,0,0:0:0:0:
292,188,329574,2,2,P|268:160|216:132,1,83.9999974365235,2|2,1:2|0:1,1:0:0:0:
88,272,329762,2,0,P|148:276|176:268,1,83.9999974365235,10|0,1:1|0:0,0:0:0:0:
44,68,329951,2,2,P|28:124|32:156,1,83.9999974365235,0|2,1:0|1:1,1:0:0:0:
268,359,330140,2,0,P|291:324|303:283,1,83.9999974365235,10|0,1:1|0:0,0:0:0:0:
260,72,330328,5,2,1:2:0:0:
308,88,330423,1,0,0:0:0:0:
356,72,330517,1,8,1:0:0:0:
404,56,330611,1,0,0:0:0:0:
452,72,330706,1,2,1:2:0:0:
128,112,330894,1,10,1:0:0:0:
384,280,331083,1,0,1:0:0:0:
76,340,331272,6,0,P|88:288|128:252,1,90.0000034332277,10|8,1:1|1:2,1:0:0:0:
464,292,331461,2,0,P|452:240|412:204,1,90.0000034332277,2|8,1:1|1:2,1:0:0:0:
48,124,331649,2,0,P|60:72|100:36,1,90.0000034332277,8|8,1:0|1:2,1:0:0:0:
452,72,331838,5,6,0:0:0:0:
256,256,337498,54,0,L|256:324,1,60
180,212,337876,2,0,P|248:171|332:212,1,180,2|0,0:0|0:0,0:0:0:0:
354,120,338630,2,0,P|327:105|299:95,1,60,2|0,0:0|0:0,0:0:0:0:
212,96,339008,2,0,P|172:112|148:128,1,60
256,156,339385,6,0,L|256:28,2,120,2|0|2,0:0|0:0|0:0,0:0:0:0:
256,236,340328,2,0,L|256:304,2,60,0|2|0,0:0|0:0|0:0,0:0:0:0:
256,156,340894,5,2,0:0:0:0:
256,376,341272,1,0,0:0:0:0:
452,264,341649,1,2,0:0:0:0:
60,264,342027,1,2,0:0:0:0:
186,213,342404,6,0,B|274:221|307:234|329:296|285:341|221:338|193:292|213:242|256:192|256:192|299:139|319:90|291:44|227:41|183:85|204:148|238:161|326:169,1,672,2|0,0:0|0:0,0:0:0:0:
348,50,343913,54,0,P|256:2|164:50,1,215.999993408203,2|0,0:0|0:0,0:0:0:0:
164,128,344668,2,0,P|180:156|224:188,1,71.9999978027344,2|0,0:0|0:0,0:0:0:0:
301,181,345045,2,0,P|329:158|348:128,1,71.9999978027344
256,96,345423,5,2,0:0:0:0:
256,324,345800,1,0,0:0:0:0:
256,96,346178,2,0,L|256:184,1,71.9999978027344,2|0,0:0|0:0,0:0:0:0:
256,324,346555,2,0,L|256:236,1,71.9999978027344,2|0,0:0|0:0,0:0:0:0:
104,216,346932,6,0,B|144:228|144:228|176:268|172:324,1,143.999995605469,2|0,0:0|0:0,0:0:0:0:
408,216,347687,2,0,B|368:228|368:228|336:268|340:324,1,143.999995605469,2|2,0:0|0:0,0:0:0:0:
80,132,348442,6,0,B|48:76|72:4|160:-12|216:36|208:104|208:104|240:104|256:132|256:132|272:104|304:104|304:104|296:36|352:-12|440:4|464:76|432:132,1,672,2|0,0:0|0:0,0:0:0:0:
336,224,349951,54,0,B|280:224|256:268|256:268|232:224|176:224,1,192,2|8,1:0|0:0,0:0:0:0:
184,308,350517,1,0,1:0:0:0:
328,308,350706,1,10,1:0:0:0:
256,268,350894,1,0,0:0:0:0:
184,308,351083,1,0,0:0:0:0:
256,188,351461,5,2,1:0:0:0:
256,92,351649,2,0,L|256:188,1,96,0|8,0:0|0:0,0:0:0:0:
256,268,352027,1,8,1:0:0:0:
256,92,352215,1,10,1:0:0:0:
164,180,352404,1,0,0:0:0:0:
348,180,352593,1,0,0:0:0:0:
21,167,352970,6,0,B|88:168|128:120|128:120|136:152|164:180,1,192,2|8,1:0|0:0,0:0:0:0:
256,236,353536,1,0,1:0:0:0:
348,180,353725,2,0,B|376:152|384:120|384:120|424:168|490:167,2,192,10|0|2,1:0|0:0|1:0,0:0:0:0:
164,180,354857,5,8,0:0:0:0:
348,180,355045,1,8,1:0:0:0:
256,236,355234,1,10,1:0:0:0:
256,108,355423,53,8,0:0:0:0:
256,124,355611,1,8,0:0:0:0:
256,140,355989,6,0,B|244:184|244:184|268:228|268:228|248:272|256:324,1,192,2|8,1:2|0:0,0:0:0:0:
255,322,356555,1,0,1:0:0:0:
148,244,356744,2,0,P|136:208|140:144,1,96,0|0,1:0|0:0,0:0:0:0:
373,150,357121,2,0,P|376:198|364:244,1,96,0|10,0:0|0:1,0:0:0:0:
208,44,357498,2,0,B|256:36|256:36|312:44,1,96,0|0,1:0|0:0,0:0:0:0:
256,228,357876,1,8,0:0:0:0:
256,132,358064,1,0,1:0:0:0:
339,276,358253,5,8,1:0:0:0:
172,276,358630,1,10,0:1:0:0:
256,132,359008,1,2,1:2:0:0:
256,192,359196,12,2,362027,1:0:0:0:
256,64,362593,37,8,1:2:0:0:
256,152,362781,2,0,L|256:320,1,168,2|2,1:0|0:0,0:0:0:0:
256,328,364291,1,0,0:0:0:0:
256,336,364479,1,0,0:0:0:0:
256,344,364668,1,0,0:0:0:0:
256,344,365045,21,0,0:0:0:0:
332,288,365234,2,0,P|392:280|420:284,1,83.9999974365235,2|0,0:0|0:0,0:0:0:0:
180,288,365611,1,0,0:0:0:0:
180,288,365705,1,0,0:0:0:0:
180,288,365800,2,0,P|120:280|92:284,1,83.9999974365235,2|0,0:0|0:0,0:0:0:0:
256,236,366178,1,2,0:0:0:0:
256,220,366272,1,0,0:0:0:0:
256,204,366366,1,0,0:0:0:0:
256,188,366461,1,0,0:0:0:0:
256,172,366555,5,0,0:0:0:0:
256,344,366744,1,2,0:0:0:0:
168,192,366932,1,0,0:0:0:0:
344,192,367121,1,0,0:0:0:0:
256,244,367310,1,2,0:0:0:0:
256,220,367404,1,0,0:0:0:0:
256,196,367498,1,0,0:0:0:0:
256,172,367593,1,0,0:0:0:0:
256,148,367687,5,2,0:0:0:0:
256,172,367781,1,0,0:0:0:0:
256,196,367875,1,0,0:0:0:0:
256,220,367970,1,0,0:0:0:0:
256,244,368064,5,0,0:0:0:0:
256,60,368253,1,2,0:0:0:0:
331,124,368442,2,0,P|256:155|180:124,1,167.999994873047,2|2,0:0|0:0,0:0:0:0:
344,228,369008,1,0,0:0:0:0:
348,252,369102,1,0,0:0:0:0:
348,276,369196,1,2,0:0:0:0:
164,276,369385,1,0,0:0:0:0:
164,252,369479,1,0,0:0:0:0:
168,228,369574,53,2,0:0:0:0:
384,352,369762,1,2,0:0:0:0:
128,352,369951,1,2,0:0:0:0:
344,228,370140,1,0,0:0:0:0:
196,28,370328,5,2,0:0:0:0:
200,56,370423,1,0,0:0:0:0:
204,84,370517,1,0,0:0:0:0:
208,112,370611,1,0,0:0:0:0:
304,112,370706,5,2,0:0:0:0:
308,84,370800,1,0,0:0:0:0:
312,56,370894,1,2,0:0:0:0:
316,28,370989,1,0,0:0:0:0:
195,28,371083,6,0,P|136:35|78:50,1,120,8|0,0:1|0:0,0:0:0:0:
256,124,371649,1,8,0:1:0:0:
316,28,371838,54,0,P|387:37|455:59,1,143.999995605469,8|0,0:1|0:0,0:0:0:0:
256,124,372404,1,8,0:1:0:0:
195,28,372593,6,0,P|112:39|32:64,1,167.999994873047,8|0,0:1|0:0,0:0:0:0:
256,124,373159,1,8,0:1:0:0:
316,28,373347,6,0,P|410:43|499:79,1,192,8|0,0:1|0:0,0:0:0:0:
256,124,373913,1,8,0:1:0:0:
196,28,374102,6,0,P|142:34|90:47,1,107.999996704102,8|0,0:1|0:0,0:0:0:0:
315,28,374479,2,0,P|369:34|421:47,1,107.999996704102,0|8,1:0|1:0,0:0:0:0:
159,136,374857,54,0,P|139:158|126:185,1,60,8|0,1:0|1:0,1:0:0:0:
384,185,375045,2,0,P|371:158|351:135,1,60,8|8,1:2|1:2,1:0:0:0:
128,183,375234,6,0,P|119:215|124:248,1,66.0000020141602,8|0,1:2|1:0,1:0:0:0:
386,248,375423,2,0,P|392:215|383:183,1,66.0000020141602,8|0,1:0|1:0,1:0:0:0:
256,228,375611,6,0,L|256:372,1,143.999995605469,8|8,1:0|1:2,1:0:0:0:
256,228,375894,1,8,1:2:0:0:
256,156,375989,6,0,L|256:12,1,143.999995605469,8|8,1:0|1:2,1:0:0:0:
256,156,376272,1,8,1:2:0:0:
256,228,376366,54,0,L|256:280,1,48,10|0,0:1|0:0,0:0:0:0:
192,192,376555,2,0,P|169:188|142:181,1,48,2|0,0:0|0:0,0:0:0:0:
320,192,376744,2,0,P|342:188|370:181,1,48,2|2,0:0|0:1,0:0:0:0:
256,84,376932,1,2,0:0:0:0:
256,156,377027,1,2,0:0:0:0:
256,228,377121,5,6,0:1:0:0:
256,210,377498,1,6,0:1:0:0:
256,192,377876,1,6,0:1:0:0:
339,194,378064,5,0,1:0:0:0:
308,129,378158,1,0,1:0:0:0:
237,113,378252,1,8,1:2:0:0:
181,158,378347,1,8,1:2:0:0:
181,230,378441,1,0,1:0:0:0:
237,275,378535,1,0,1:0:0:0:
308,259,378630,1,4,1:3:0:0:
237,113,378819,6,0,P|224:100|204:88,1,35.9999989013672,8|0,1:3|1:0,1:0:0:0:
181,158,378913,2,0,P|152:164|136:168,1,35.9999989013672,8|0,1:3|1:0,1:0:0:0:
181,230,379008,1,8,1:3:0:0:
237,275,379102,1,0,1:0:0:0:
308,259,379196,1,0,1:0:0:0:
339,194,379291,1,8,1:3:0:0:
308,129,379385,5,10,0:0:0:0:
256,192,379479,1,2,1:2:0:0:
256,274,379573,1,2,0:2:0:0:
309,336,379667,1,2,1:2:0:0:
391,350,379762,37,12,0:2:0:0:
367,253,379857,5,8,0:2:0:0:
289,191,379950,5,10,0:2:0:0:
188,193,380045,5,10,0:2:0:0:
112,260,380140,54,0,P|100:318|114:373,1,107.999996704102,4|0,0:0|2:0,0:0:0:0:
188,92,380328,2,0,P|132:72|70:75,1,107.999996704102,8|0,0:2|2:0,0:0:0:0:
289,191,380517,2,0,P|341:149|309:15,1,215.999993408203,2|8,0:2|0:2,0:0:0:0:
428,235,380800,1,0,2:0:0:0:
428,235,380894,6,0,P|434:309|454:354,1,107.999996704102,2|0,0:2|2:0,0:0:0:0:
327,331,381083,2,0,P|261:314|211:322,1,107.999996704102,8|0,0:2|2:0,0:0:0:0:
57,208,381272,2,0,B|107:190|107:190|161:189,1,107.999996704102,2|0,0:2|0:0,0:0:0:0:
59,232,381461,2,0,B|109:214|109:214|163:213,1,107.999996704102,10|2,0:2|0:2,0:0:0:0:
362,161,381649,6,0,P|294:146|243:151,1,107.999996704102,2|0,0:2|2:0,0:0:0:0:
56,38,381838,2,0,P|103:75|164:87,1,107.999996704102,8|0,0:2|2:0,0:0:0:0:
345,6,382027,2,0,P|278:27|236:56,1,107.999996704102,2|0,0:2|2:0,0:0:0:0:
56,193,382216,2,0,P|115:201|174:181,1,107.999996704102,10|0,0:2|2:0,0:0:0:0:
439,173,382404,6,0,P|354:114|256:148,1,215.999993408203,2|8,0:2|0:2,0:0:0:0:
255,148,382687,1,8,0:2:0:0:
255,148,382781,5,2,0:2:0:0:
341,219,382876,1,10,0:2:0:0:
439,173,382970,1,8,0:2:0:0:
441,63,383064,1,8,0:2:0:0:
338,19,383159,38,0,B|262:27|262:27|204:57|204:57|128:64,1,215.999993408203,2|8,0:2|0:2,0:0:0:0:
302,142,383442,1,0,2:0:0:0:
302,142,383536,2,0,P|321:209|206:273,1,215.999993408203,2|8,0:2|0:2,0:0:0:0:
24,217,383819,1,0,2:0:0:0:
24,217,383913,6,0,P|78:203|138:209,1,107.999996704102,2|0,0:2|2:0,0:0:0:0:
279,361,384102,2,0,P|211:364|160:348,1,107.999996704102,8|0,0:2|2:0,0:0:0:0:
302,142,384291,2,0,B|316:196|316:196|305:249,1,107.999996704102,2|0,0:2|0:0,0:0:0:0:
332,140,384479,2,2,B|346:194|346:194|335:247,1,107.999996704102,10|2,0:2|0:2,0:2:0:0:
179,139,384668,6,0,P|167:87|171:33,1,107.999996704102,2|0,0:2|2:0,0:0:0:0:
340,33,384857,2,0,P|344:87|332:139,1,107.999996704102,8|0,0:2|2:0,0:0:0:0:
72,259,385045,2,0,P|135:241|192:250,1,107.999996704102,2|0,0:2|2:0,0:0:0:0:
439,231,385234,2,0,P|376:249|319:240,1,107.999996704102,10|0,0:2|2:0,0:0:0:0:
239,83,385423,2,0,B|231:43|255:11|255:11|287:79|255:147,1,215.999993408203,2|8,0:2|0:2,0:0:0:0:
243,159,385706,1,0,0:0:0:0:
228,168,385800,21,8,0:2:0:0:
332,139,385894,1,0,0:0:0:0:
415,210,385989,1,10,0:2:0:0:
405,317,386083,1,0,0:0:0:0:
308,364,386178,86,0,P|216:352|177:246,1,215.999993408203,2|8,0:2|0:2,0:0:0:0:
314,97,386461,1,2,2:0:0:0:
314,97,386555,2,0,P|347:194|277:269,1,215.999993408203,2|8,0:2|0:2,0:0:0:0:
52,168,386838,1,10,0:2:0:0:
114,79,386932,54,0,L|235:89,1,107.999996704102,2|0,0:2|0:0,0:0:0:0:
398,305,387121,2,0,L|277:295,1,107.999996704102,10|0,0:2|0:0,0:0:0:0:
34,200,387310,2,0,B|88:184|88:184|156:192,1,113.999996955872,10|0,0:2|0:0,0:0:0:0:
478,184,387498,2,0,B|424:200|424:200|360:192,1,113.999996955872,10|2,0:2|0:2,0:0:0:0:
282,48,387687,6,0,B|327:7|327:7|319:66,1,120,8|0,0:0|2:0,0:0:0:0:
149,292,387876,2,0,B|90:300|90:300|130:255,1,120,10|0,0:2|0:0,0:0:0:0:
401,172,388064,2,0,B|454:200|454:200|395:214,1,120,8|0,0:0|2:0,0:0:0:0:
127,122,388253,2,0,B|99:70|99:70|156:92,1,120,10|2,0:2|0:2,0:0:0:0:
318,324,388442,2,0,B|309:382|309:382|277:331,1,120,8|0,0:0|2:0,0:0:0:0:
282,48,388630,37,8,0:3:0:0:
256,192,388725,1,8,0:3:0:0:
230,336,388819,2,0,B|212:352|212:352|188:256,1,120,8|0,0:3|0:0,0:0:0:0:
282,48,389008,2,0,B|300:32|300:32|324:128,1,120,2|2,0:2|0:2,0:0:0:0:
116,136,389196,38,0,L|132:24,1,107.999996704102,6|0,0:2|2:0,0:0:0:0:
0,212,389385,2,0,L|16:100,1,107.999996704102,8|0,0:0|2:0,0:0:0:0:
232,212,389574,6,0,L|248:324,1,107.999996704102,6|0,0:0|2:0,0:0:0:0:
116,136,389763,2,0,L|132:248,1,107.999996704102,0|0,0:0|2:0,0:0:0:0:
352,136,389951,6,0,L|368:24,1,107.999996704102,2|0,0:2|2:0,0:0:0:0:
232,212,390140,2,0,L|248:100,1,107.999996704102,10|0,0:0|2:0,0:0:0:0:
464,212,390328,5,6,0:0:0:0:
456,266,390423,1,0,0:0:0:0:
344,190,390516,1,8,0:0:0:0:
352,136,390611,1,0,0:0:0:0:
376,304,390706,54,0,B|324:308|324:308|260:280,1,107.999996704102,2|0,0:2|2:0,0:0:0:0:
136,44,390894,2,0,B|188:40|188:40|252:68,1,107.999996704102,8|0,0:0|2:0,0:0:0:0:
28,264,391083,2,0,L|47:151,1,113.999996955872,6|0,0:0|2:0,0:0:0:0:
484,100,391272,2,0,L|464:213,1,113.999996955872,8|0,0:0|2:0,0:0:0:0:
173,345,391461,2,0,L|151:234,1,113.999996955872,2|0,0:2|2:0,0:0:0:0:
356,8,391649,53,10,0:0:0:0:
328,136,391744,1,2,2:0:0:0:
304,264,391838,2,0,L|324:384,1,120,6|0,0:0|0:0,0:0:0:0:
151,234,392027,2,0,L|172:116,1,120,8|2,0:0|0:2,0:0:0:0:
44,248,392215,38,0,P|96:328|212:320,1,215.999993408203,6|8,0:2|0:0,0:0:0:0:
360,168,392498,1,0,2:0:0:0:
463,202,392593,2,0,P|389:274|289:248,1,215.999993408203,6|8,0:0|0:0,0:0:0:0:
142,98,392876,1,0,2:0:0:0:
240,44,392970,6,0,P|252:104|236:156,1,107.999996704102,2|0,0:2|2:0,0:0:0:0:
305,351,393159,2,0,P|286:306|293:235,1,107.999996704102,10|0,0:0|2:0,0:0:0:0:
144,288,393347,2,0,P|64:296|28:284,1,107.999996704102,6|0,0:0|0:0,0:0:0:0:
144,316,393536,2,0,P|64:324|28:312,1,107.999996704102,8|0,0:0|0:0,0:0:0:0:
288,248,393725,6,0,P|352:192|476:232,1,215.999993408203,2|8,0:2|0:0,0:0:0:0:
228,156,394008,1,0,2:0:0:0:
228,156,394102,2,0,P|160:120|36:176,1,215.999993408203,6|8,0:0|0:0,0:0:0:0:
304,72,394385,1,0,2:0:0:0:
304,72,394479,2,0,L|416:56,1,107.999996704102,2|0,0:2|2:0,0:0:0:0:
203,23,394668,2,0,L|95:15,1,107.999996704102,10|0,0:0|2:0,0:0:0:0:
304,72,394857,21,14,0:0:0:0:
316,180,394951,1,10,0:2:0:0:
228,244,395045,1,8,0:0:0:0:
124,208,395140,1,10,0:2:0:0:
104,100,395234,38,0,B|140:64|140:64|304:72,1,215.999993408203,6|8,0:2|0:0,0:0:0:0:
428,216,395517,1,0,2:0:0:0:
428,216,395611,2,0,B|392:252|392:252|228:244,1,215.999993408203,6|8,0:0|0:0,0:0:0:0:
0,143,395894,1,0,2:0:0:0:
0,143,395989,6,0,B|-6:89|-6:89|14:20,1,107.999996704102,2|0,0:2|2:0,0:0:0:0:
86,249,396178,2,0,B|71:299|71:299|72:361,1,107.999996704102,10|0,0:0|2:0,0:0:0:0:
271,139,396366,2,0,B|213:139|213:139|160:157,1,107.999996704102,6|0,0:0|0:0,0:0:0:0:
266,108,396555,2,0,B|208:108|208:108|155:126,1,107.999996704102,8|0,0:0|0:0,0:0:0:0:
361,42,396744,6,0,P|435:74|438:204,1,215.999993408203,2|8,0:2|0:0,0:0:0:0:
285,292,397027,1,0,2:0:0:0:
285,292,397121,2,0,B|334:266|388:289|388:289|441:312|495:293,1,215.999993408203,6|8,0:0|0:0,0:0:0:0:
244,197,397404,1,0,2:0:0:0:
244,197,397498,6,0,P|198:235|179:282,1,107.999996704102,2|0,0:2|2:0,0:0:0:0:
60,366,397687,2,0,P|39:306|-1:270,1,107.999996704102,10|0,0:0|2:0,0:0:0:0:
75,68,397876,2,0,P|92:137|121:172,1,107.999996704102,6|0,0:0|0:0,0:0:0:0:
102,32,398064,2,0,P|106:102|129:142,1,107.999996704102,8|0,0:0|0:0,0:0:0:0:
350,185,398253,54,0,P|417:146|417:19,1,215.999993408203,6|8,0:2|0:0,0:0:0:0:
244,197,398536,1,0,2:0:0:0:
139,209,398630,2,0,P|79:153|101:32,1,215.999993408203,6|8,0:0|0:0,0:0:0:0:
256,215,398913,1,0,2:0:0:0:
374,222,399008,6,0,P|411:192|435:130,1,107.999996704102,2|0,0:2|2:0,0:0:0:0:
148,255,399196,2,0,P|104:227|76:177,1,107.999996704102,10|0,0:0|2:0,0:0:0:0:
290,38,399385,2,0,P|261:102|254:147,1,107.999996704102,6|0,0:0|0:0,0:0:0:0:
228,2,399574,2,0,P|256:60|260:116,1,107.999996704102,8|0,0:0|0:0,0:0:0:0:
139,345,399762,6,0,P|107:274|181:166,1,215.999993408203,2|8,0:2|0:0,0:0:0:0:
335,167,400045,1,0,2:0:0:0:
335,167,400140,2,0,P|402:245|373:345,1,215.999993408203,6|8,0:0|0:0,0:0:0:0:
28,250,400423,1,0,2:0:0:0:
28,250,400517,6,0,P|40:194|72:146,1,107.999996704102,2|0,0:2|2:0,0:0:0:0:
445,151,400706,2,0,P|473:197|484:250,1,107.999996704102,10|0,0:0|2:0,0:0:0:0:
139,345,400894,5,14,0:0:0:0:
159,234,400989,1,10,0:2:0:0:
256,180,401082,1,8,0:0:0:0:
353,234,401178,1,10,0:2:0:0:
373,345,401272,38,0,P|293:376|260:289,1,192,6|8,0:2|0:0,0:0:0:0:
353,234,401555,1,0,2:0:0:0:
373,345,401649,2,0,B|310:338|310:338|253:363|253:363|182:358,1,192,6|8,0:0|0:0,0:0:0:0:
124,263,401932,1,0,2:0:0:0:
124,263,402027,6,0,L|229:271,1,96,2|0,0:2|2:0,0:0:0:0:
448,222,402215,2,0,L|335:236,1,96,10|0,0:0|2:0,0:0:0:0:
146,158,402404,1,6,0:0:0:0:
165,158,402498,1,0,0:0:0:0:
184,159,402593,1,8,0:0:0:0:
203,160,402687,1,0,0:0:0:0:
222,161,402781,6,0,B|198:18|198:18|175:63,1,192,2|8,0:2|0:0,0:0:0:0:
146,158,403064,1,0,2:0:0:0:
316,121,403159,2,0,B|410:143|410:143|321:177,1,192,6|8,0:0|0:0,0:0:0:0:
338,31,403442,1,0,2:0:0:0:
338,31,403536,6,0,L|452:59,1,96,2|0,0:2|2:0,0:0:0:0:
446,228,403725,2,0,L|353:265,1,96,10|0,0:0|2:0,0:0:0:0:
252,238,403913,1,6,0:0:0:0:
223,220,404008,1,2,0:2:0:0:
194,203,404102,1,8,0:0:0:0:
167,224,404196,1,2,0:2:0:0:
143,248,404291,53,6,0:2:0:0:
409,149,404479,2,0,L|305:119,1,96,8|0,0:0|2:0,0:0:0:0:
105,57,404668,1,6,0:0:0:0:
502,129,404857,2,0,L|408:149,1,96,8|2,0:0|2:0,0:0:0:0:
48,228,405045,2,0,L|142:247,1,96,2|0,0:2|2:0,0:0:0:0:
454,302,405234,1,10,0:0:0:0:
92,354,405423,1,6,0:0:0:0:
137,339,405517,1,2,0:2:0:0:
183,327,405611,1,8,0:0:0:0:
228,345,405706,1,2,0:2:0:0:
272,364,405800,6,0,B|257:318|257:318|262:251,1,96,2|0,0:2|2:0,0:0:0:0:
403,102,405989,2,0,B|371:137|371:137|303:152,1,96,8|0,0:0|2:0,0:0:0:0:
108,130,406178,1,6,0:0:0:0:
449,225,406366,2,0,P|404:241|356:241,1,96,8|0,0:0|2:0,0:0:0:0:
61,239,406555,2,0,P|126:252|156:280,1,96,2|0,0:2|2:0,0:0:0:0:
80,318,406744,37,10,0:0:0:0:
61,239,406838,1,0,0:0:0:0:
112,171,406932,1,14,0:0:0:0:
193,162,407027,1,0,0:0:0:0:
258,212,407121,1,8,0:0:0:0:
262,296,407215,1,8,0:0:0:0:
202,358,407310,70,2,B|241:343|241:343|282:360|282:360|326:344|326:344|352:355|390:355,1,198.000001888275,6|8,0:0|0:0,0:0:0:0:
476,261,407593,1,0,2:0:0:0:
476,261,407687,2,0,P|410:257|367:266,1,99.0000009441376,4|0,0:2|2:0,0:0:0:0:
160,225,407876,2,2,P|239:217|276:205,1,99.0000009441376,10|0,0:0|2:0,0:0:0:0:
328,104,408064,6,2,B|296:139|281:184|281:184|286:241|300:287,1,198.000001888275,2|8,0:0|0:0,0:0:0:0:
448,147,408347,2,0,P|455:92|440:41,1,99.0000009441376,0|4,2:0|0:2,0:0:0:0:
431,65,408536,1,0,0:0:0:0:
424,83,408630,1,10,0:0:0:0:
421,102,408725,1,0,0:0:0:0:
421,121,408819,54,2,P|436:181|469:216,1,99.0000009441376,2|0,0:0|2:0,0:0:0:0:
156,246,409008,2,2,P|165:185|202:139,1,99.0000009441376,8|2,0:0|2:1,0:0:0:0:
327,154,409196,2,2,P|351:197|356:246,1,99.0000009441376,6|0,1:2|2:0,0:0:0:0:
52,208,409385,2,2,P|82:169|91:121,1,99.0000009441376,8|2,0:0|2:1,0:0:0:0:
256,228,409574,6,2,B|280:273|281:324|255:359|255:359|229:323|244:285,1,198.000001888275,2|8,0:0|0:0,0:0:0:0:
355,246,409857,2,0,P|420:245|471:257,1,99.0000009441376,2|4,2:0|0:2,0:0:0:0:
435,227,410045,1,0,0:0:0:0:
409,212,410140,1,10,0:0:0:0:
380,204,410234,1,2,0:2:0:0:
350,207,410328,6,2,P|399:184|472:181,1,99.0000009441376,6|0,0:0|2:0,0:0:0:0:
174,113,410517,2,2,P|178:59|212:-5,1,99.0000009441376,8|2,0:0|2:1,0:0:0:0:
339,71,410706,2,2,P|300:102|273:143,1,99.0000009441376,6|0,0:2|2:0,0:0:0:0:
43,28,410894,2,2,P|50:77|72:122,1,99.0000009441376,8|2,0:0|2:1,0:0:0:0:
252,240,411083,6,2,B|187:257|110:240|110:240|137:254|150:280,1,198.000001888275,2|8,0:0|0:0,0:0:0:0:
290,326,411366,2,2,P|339:313|393:317,1,99.0000009441376,2|4,2:1|0:2,0:0:0:0:
423,330,411555,1,0,0:0:0:0:
408,293,411649,1,10,0:0:0:0:
407,253,411744,1,2,0:2:0:0:
417,215,411838,54,2,B|427:165|427:165|409:112,1,99.0000009441376,2|0,0:0|2:0,0:0:0:0:
116,242,412027,2,2,L|215:232,1,99.0000009441376,8|2,0:0|2:1,0:0:0:0:
316,129,412215,2,2,B|331:174|331:174|321:224,1,99.0000009441376,6|0,0:2|2:0,0:0:0:0:
13,87,412404,2,2,L|123:94,1,99.0000009441376,8|2,0:0|2:1,0:0:0:0:
215,232,412593,2,2,B|225:182|225:182|207:129,1,99.0000009441376,2|0,0:0|2:0,0:0:0:0:
143,189,412781,53,8,0:0:0:0:
215,232,412876,1,0,0:0:0:0:
295,212,412970,1,12,0:2:0:0:
335,139,413064,1,8,0:2:0:0:
312,58,413159,1,10,0:0:0:0:
237,22,413253,1,8,0:0:0:0:
157,51,413347,53,4,0:0:0:0:
170,74,413442,1,2,2:0:0:0:
119,132,413536,2,2,P|124:85|156:50,1,96,10|0,0:0|0:0,0:0:0:0:
220,164,413725,5,4,0:2:0:0:
202,194,413819,1,2,2:0:0:0:
259,250,413913,2,2,P|252:201|220:164,1,99.0000009441376,10|0,0:0|0:0,0:0:0:0:
146,299,414102,6,0,B|198:312|198:312|242:284|242:284|277:318|336:310,1,204.000003890991,0|10,0:0|0:0,0:0:0:0:
333,310,414385,1,0,2:0:0:0:
333,310,414479,2,2,L|339:199,1,102.000001945496,6|0,0:2|0:0,0:0:0:0:
436,267,414668,1,10,0:0:0:0:
449,252,414762,1,0,0:0:0:0:
464,238,414857,54,2,B|471:92|471:92|457:115|427:132,1,204.000003890991,2|8,0:0|0:0,0:0:0:0:
307,83,415140,2,2,B|272:68|272:68|274:19|323:-6|372:7|390:51,1,204.000003890991,2|2,2:1|0:2,0:0:0:0:
352,161,415423,1,10,0:0:0:0:
307,83,415517,1,2,2:0:0:0:
233,138,415611,6,2,B|308:164|308:164|428:130,1,204.000003890991,2|8,0:0|0:0,0:0:0:0:
428,130,415894,1,0,2:0:0:0:
428,130,415989,2,2,B|421:181|421:181|436:237,1,102.000001945496,6|0,0:2|0:0,0:0:0:0:
261,341,416178,2,2,B|268:290|268:290|253:234,1,102.000001945496,8|2,0:0|0:0,0:0:0:0:
131,137,416366,6,0,L|237:138,1,102.000001945496,4|0,0:0|2:0,0:0:0:0:
368,306,416555,2,2,B|333:296|333:296|291:311|291:311|251:296|251:296|222:310|172:300,1,204.000003890991,10|4,0:0|0:2,0:0:0:0:
344,97,416838,1,0,2:0:0:0:
344,97,416932,2,2,L|328:199,1,102.000001945496,10|0,0:0|2:0,0:0:0:0:
56,238,417121,6,2,B|28:222|18:188|18:188|80:220|158:213,1,204.000003890991,2|8,0:0|0:0,0:0:0:0:
272,288,417404,1,0,2:0:0:0:
272,288,417498,2,2,P|221:289|171:299,1,102.000001945496,6|0,0:2|0:0,0:0:0:0:
381,199,417687,2,2,P|420:186|474:148,1,102.000001945496,8|2,0:0|0:0,0:0:0:0:
231,51,417876,2,2,L|247:162,1,102.000001945496,2|0,0:0|2:0,0:0:0:0:
359,367,418064,54,2,B|313:342|313:342|273:285,1,102.000001945496,10|0,0:0|0:0,0:0:0:0:
356,14,418253,2,2,B|357:66|357:66|328:130,1,102.000001945496,4|2,0:3|0:0,0:0:0:0:
52,194,418442,2,2,B|97:167|97:167|166:160,1,102.000001945496,8|2,0:1|0:0,0:0:0:0:
242,324,418630,6,0,P|186:322|125:288,1,110.999999576569,8|0,0:2|0:0,2:0:0:0:
231,51,418819,2,0,P|287:53|350:90,1,110.999999576569,10|0,0:2|0:0,2:0:0:0:
52,194,419008,38,8,P|54:122|70:71,1,120,4|8,0:3|0:2,0:2:0:0:
468,146,419196,2,8,P|466:218|450:270,1,120,10|10,0:2|0:2,0:2:0:0:
212,177,419385,6,0,B|209:172|208:167|208:167|207:114|266:65|381:109|378:223|331:280|259:300|195:304|130:282|85:291|69:157|62:56|137:-2|184:-36|346:8|360:24|419:70|421:160|415:227|374:283|330:303|282:323|242:324,1,1056.00003222656,6|2,1:2|0:0,0:0:0:0:
168,316,421502,1,0,0:0:0:0:
104,280,421737,1,0,0:0:0:0:
68,216,421973,1,0,0:0:0:0:
243,324,422208,5,2,0:0:0:0:
182,294,422443,1,0,0:0:0:0:
165,226,422678,1,2,0:0:0:0:
202,166,422914,1,0,0:0:0:0:
243,324,423149,85,2,0:0:0:0:
200,279,423384,1,0,0:0:0:0:
223,222,423619,1,0,0:0:0:0:
285,220,423855,1,2,0:0:0:0:
243,324,424090,5,2,0:0:0:0:
220,272,424325,1,0,0:0:0:0:
270,249,424560,1,2,0:0:0:0:
294,301,424796,1,0,0:0:0:0:
117,342,425032,86,0,P|78:355|24:352,1,90.0000034332277,2|0,0:0|0:0,0:0:0:0:
202,296,425512,6,0,P|241:294|279:304,1,77.9999964294435,0|2,0:0|0:0,0:0:0:0:
259,200,426042,86,0,L|245:139,1,60,2|0,0:0|0:0,0:0:0:0:
340,118,426642,86,0,L|351:31,1,80,2|8,0:0|1:0,0:0:0:0:
