osu file format v14

[General]
AudioFilename: audio.mp3
AudioLeadIn: 0
PreviewTime: 122531
Countdown: 0
SampleSet: Soft
StackLeniency: 0.3
Mode: 0
LetterboxInBreaks: 0
WidescreenStoryboard: 1

[Editor]
Bookmarks: 10108,20033,59122,66622,97790,116492,132758,135193,147661,160128,168699,172596,185063,191297,203764,222466,228699,228894,241167,247401,259868,272336,284803,293472,306427,322985,353375
DistanceSpacing: 1
BeatDivisor: 4
GridSize: 8
TimelineZoom: 3.099998

[Metadata]
Title:Saifu "Kamiasobi no Uta"
TitleUnicode:祭符「神遊びの唄」
Artist:Diao ye zong feat. Meramipop
ArtistUnicode:凋叶棕 feat. めらみぽっぷ
Creator:ScubDomino
Version:Native God "Kero-chan Braves the Wind and Rain"
Source:東方Project
Tags:diao ye zong rd-sounds suwako moriya 明日ハレの日 ケの昨日 Tomorrow Will Be Special Yesterday Was Not mishaguji-sama あめこ 東方風神録 Mountain of Faith TH10 掲 「博麗神社例大祭13」ZUN
BeatmapID:1452377
BeatmapSetID:686199

[Difficulty]
HPDrainRate:5
CircleSize:3.5
OverallDifficulty:9
ApproachRate:9.5
SliderMultiplier:2.3
SliderTickRate:1

[Events]
//Background and Video events
0,0,"__moriya_suwako_touhou_drawn_by_amino_tn7135__f2b6fd01b46fbb14398ce8768203224f.png",0,0
//Break Periods
2,45003,47141
2,188380,190518
2,330198,337265
//Storyboard Layer 0 (Background)
//Storyboard Layer 1 (Fail)
//Storyboard Layer 2 (Pass)
//Storyboard Layer 3 (Foreground)
//Storyboard Sound Samples

[TimingPoints]
1988,451.127819548872,4,2,1,60,1,0
20033,-200,4,2,1,60,0,0
23642,-133.333333333333,4,2,1,60,0,0
41687,389.61038961039,4,2,1,60,1,0
41687,-100,4,2,1,60,0,0
52985,-83.3333333333333,4,2,1,60,0,0
53180,-71.4285714285714,4,2,1,60,0,0
53375,-62.5,4,2,1,60,0,0
53570,-58.8235294117647,4,2,1,60,0,0
53764,-55.5555555555556,4,2,1,60,0,0
53959,-52.6315789473684,4,2,1,60,0,0
54154,-50,4,2,1,60,0,0
66622,-200,4,2,1,50,0,0
79089,-66.6666666666667,4,2,1,60,0,0
85322,-200,4,2,1,60,0,0
91167,-100,4,2,1,60,0,0
91556,-133.333333333333,4,2,1,60,0,0
97693,-66.6666666666667,4,2,1,60,0,0
104024,-200,4,2,1,60,0,0
122725,-50,4,2,1,75,0,1
134414,-50,4,2,1,75,0,0
135193,-66.6666666666667,4,2,1,81,0,1
141037,-66.6666666666667,4,2,1,81,0,0
141427,-133.333333333333,4,2,1,81,0,1
141524,-133.333333333333,4,2,1,81,0,0
141816,-133.333333333333,4,2,1,81,0,1
141914,-133.333333333333,4,2,1,81,0,0
142206,-133.333333333333,4,2,1,81,0,1
142303,-133.333333333333,4,2,1,81,0,0
142596,-133.333333333333,4,2,1,81,0,1
142693,-133.333333333333,4,2,1,81,0,0
142985,-133.333333333333,4,2,1,81,0,1
143083,-133.333333333333,4,2,1,81,0,0
143375,-133.333333333333,4,2,1,81,0,1
143472,-133.333333333333,4,2,1,81,0,0
143764,-133.333333333333,4,2,1,81,0,1
143862,-133.333333333333,4,2,1,81,0,0
144154,-133.333333333333,4,2,1,81,0,1
144251,-133.333333333333,4,2,1,81,0,0
144544,-133.333333333333,4,2,1,81,0,1
144641,-133.333333333333,4,2,1,81,0,0
144933,-133.333333333333,4,2,1,81,0,1
145031,-133.333333333333,4,2,1,81,0,0
145323,-133.333333333333,4,2,1,81,0,1
145420,-133.333333333333,4,2,1,81,0,0
145712,-133.333333333333,4,2,1,81,0,1
145810,-133.333333333333,4,2,1,81,0,0
146102,-133.333333333333,4,2,1,81,0,1
146297,-133.333333333333,4,2,1,81,0,0
146492,-133.333333333333,4,2,1,81,0,1
146687,-133.333333333333,4,2,1,81,0,0
146881,-133.333333333333,4,2,1,81,0,1
147661,-66.6666666666667,4,2,1,60,0,0
160907,-200,4,2,1,76,0,0
171816,-76.9230769230769,4,2,1,76,0,0
172596,-62.5,4,2,1,76,0,0
188180,-62.5,4,2,1,5,0,0
191297,-200,4,2,1,60,0,0
203764,-66.6666666666667,4,2,1,60,0,0
209998,-200,4,2,1,60,0,0
222466,-66.6666666666667,4,2,1,60,0,0
228699,-200,4,2,1,60,0,0
247401,-50,4,2,1,75,0,1
259089,-50,4,2,1,75,0,0
259868,-66.6666666666667,4,2,1,82,0,1
272336,-66.6666666666667,4,2,1,60,0,0
305063,-50,4,2,1,75,0,1
316751,-50,4,2,1,75,0,0
317531,-50,4,2,1,85,0,1
323375,-50,4,2,1,85,0,0
323764,-100,4,2,1,85,0,1
323862,-100,4,2,1,85,0,0
324154,-100,4,2,1,85,0,1
324251,-100,4,2,1,85,0,0
324544,-100,4,2,1,85,0,1
324641,-100,4,2,1,85,0,0
324933,-100,4,2,1,85,0,1
325031,-100,4,2,1,85,0,0
325323,-100,4,2,1,85,0,1
325420,-100,4,2,1,85,0,0
325712,-100,4,2,1,85,0,1
325810,-100,4,2,1,85,0,0
326102,-100,4,2,1,85,0,1
326199,-100,4,2,1,85,0,0
326492,-100,4,2,1,85,0,1
326589,-100,4,2,1,85,0,0
326881,-100,4,2,1,85,0,1
326979,-100,4,2,1,85,0,0
327271,-100,4,2,1,85,0,1
327368,-100,4,2,1,85,0,0
327661,-100,4,2,1,85,0,1
327758,-100,4,2,1,85,0,0
328050,-100,4,2,1,85,0,1
328148,-100,4,2,1,85,0,0
328440,-100,4,2,1,85,0,1
328635,-100,4,2,1,85,0,0
328829,-100,4,2,1,85,0,1
329024,-100,4,2,1,85,0,0
329219,-100,4,2,1,85,0,1
329414,-100,4,2,1,85,0,0
329609,-100,4,2,1,85,0,1
329998,-100,4,2,1,42,0,0
337790,-50,4,2,1,85,0,1
344024,-100,4,2,1,85,0,1
348699,-150.000000000002,4,2,1,85,0,1
350258,-150.000000000002,4,2,1,45,0,0
350550,-150.000000000002,4,2,1,55,0,0
350940,-150.000000000002,4,2,1,65,0,0
351329,-150.000000000002,4,2,1,75,0,0
351719,-150.000000000002,4,2,1,85,0,0
352109,-150.000000000002,4,2,1,70,0,0
352498,-150.000000000002,4,2,1,50,0,0
352888,-150.000000000002,4,2,1,40,0,0
353375,-150.000000000002,4,2,1,75,0,0

[Colours]
Combo1 : 222,141,61
Combo2 : 139,193,214
Combo3 : 118,211,86
Combo4 : 230,234,72

[HitObjects]
24,136,1988,6,0,L|7:319,1,153.333333333333,6|0,2:0|2:0,2:0:0:0:
0,384,2439,1,0,2:0:0:0:
0,384,2739,1,0,2:0:0:0:
208,248,2890,6,0,L|191:64,1,153.333333333333,2|0,2:0|2:0,2:0:0:0:
184,0,3341,1,0,2:0:0:0:
184,0,3641,1,0,2:0:0:0:
24,136,3792,6,0,L|7:319,1,153.333333333333,2|0,2:0|2:0,2:0:0:0:
208,248,4243,2,0,L|191:64,1,153.333333333333,2|0,2:0|2:0,2:0:0:0:
392,136,4694,2,0,L|375:319,1,153.333333333333,2|0,2:0|2:0,2:0:0:0:
368,384,5145,1,0,2:0:0:0:
24,136,5597,6,0,P|80:172|168:144,1,153.333333333333,2|0,2:0|2:0,2:0:0:0:
188,72,6048,1,0,2:0:0:0:
188,72,6348,1,0,2:0:0:0:
217,267,6499,6,0,P|234:195|299:158,1,153.333333333333,2|0,2:0|2:0,2:0:0:0:
384,184,6950,1,0,2:0:0:0:
384,184,7250,1,0,2:0:0:0:
159,151,7401,6,0,P|88:173|24:136,1,153.333333333333,2|0,2:0|2:0,2:0:0:0:
217,267,7852,2,0,P|234:195|299:158,1,153.333333333333,2|0,2:0|2:0,2:0:0:0:
88,256,8303,2,0,P|141:306|141:381,1,153.333333333333,2|0,2:0|2:0,2:0:0:0:
159,151,8754,1,0,2:0:0:0:
0,345,9206,6,0,P|50:291|80:281,1,76.6666666666666,2|0,2:0|2:0,2:0:0:0:
145,302,9506,1,0,0:0:0:0:
88,378,9657,1,0,2:0:0:0:
88,378,9957,1,0,2:0:0:0:
332,257,10108,6,0,P|282:203|252:193,1,76.6666666666666,2|0,2:0|2:0,2:0:0:0:
186,214,10408,1,0,0:0:0:0:
244,290,10559,1,0,2:0:0:0:
244,290,10859,1,0,2:0:0:0:
0,345,11010,6,0,P|50:291|80:281,1,76.6666666666666,2|0,2:0|2:0,2:0:0:0:
145,302,11310,1,0,2:0:0:0:
134,159,11461,6,0,P|184:213|214:223,1,76.6666666666666,2|0,2:0|2:0,2:0:0:0:
279,202,11761,1,0,2:0:0:0:
440,258,11912,6,0,P|369:236|338:242,1,76.6666666666666,2|0,2:0|2:0,2:0:0:0:
292,293,12212,1,0,2:0:0:0:
468,356,12363,1,2,2:0:0:0:
32,240,12815,6,0,P|107:301|131:207,1,230,2|0,2:0|2:0,2:0:0:0:
232,44,13566,5,0,2:0:0:0:
231,43,13717,2,0,P|255:136|331:76,1,230,2|0,2:0|2:0,2:0:0:0:
240,384,14469,5,0,2:0:0:0:
240,384,14619,2,0,P|231:314|278:216,1,153.333333333333,2|0,2:0|2:0,2:0:0:0:
330,74,15070,2,0,P|362:136|351:244,1,153.333333333333,2|0,2:0|2:0,2:0:0:0:
512,360,15521,2,0,P|435:321|350:328,1,153.333333333333,2|0,2:0|2:0,2:0:0:0:
240,384,15972,1,0,2:0:0:0:
240,384,16273,1,0,2:0:0:0:
103,226,16424,6,0,L|318:244,1,153.333333333333,2|0,2:0|2:0,2:0:0:0:
255,239,16875,1,0,2:0:0:0:
255,239,17175,1,0,2:0:0:0:
408,128,17326,6,0,L|192:146,1,153.333333333333,2|0,2:0|2:0,2:0:0:0:
255,141,17777,1,0,2:0:0:0:
255,141,18078,1,0,2:0:0:0:
103,226,18228,6,0,L|217:236,1,76.6666666666666,2|0,2:0|2:0,2:0:0:0:
255,239,18529,1,0,2:0:0:0:
408,128,18679,6,0,L|293:138,1,76.6666666666666,2|0,2:0|2:0,2:0:0:0:
255,141,18980,1,0,2:0:0:0:
320,312,19130,5,2,2:0:0:0:
278,43,19281,1,0,2:0:0:0:
278,43,19356,1,0,2:0:0:0:
278,43,19431,1,2,2:0:0:0:
154,285,19581,5,2,2:0:0:0:
397,162,19732,1,0,2:0:0:0:
129,119,19883,1,2,2:0:0:0:
320,312,20033,6,0,L|439:301,1,115,6|0,2:0|2:0,2:0:0:0:
208,192,20935,2,0,L|327:202,1,115,2|0,2:0|2:0,2:0:0:0:
88,336,21837,6,0,L|176:328,1,76.6666666666667,2|0,2:0|2:0,2:0:0:0:
222,249,22288,2,0,L|170:176,1,76.6666666666667,2|0,2:0|2:0,2:0:0:0:
80,176,22739,2,0,L|42:256,1,76.6666666666667,2|8,2:0|2:0,2:0:0:0:
47,245,23115,1,8,2:0:0:0:
47,245,23191,1,8,2:0:0:0:
54,252,23491,1,8,2:0:0:0:
401,307,23642,6,0,P|314:296|257:368,1,172.500006580353,6|0,2:0|2:0,2:0:0:0:
440,79,24544,2,0,P|425:161|484:220,1,172.500006580353,2|0,2:0|2:0,2:0:0:0:
304,184,25446,6,0,P|248:208|176:184,1,115.000004386902,2|0,2:0|2:0,2:0:0:0:
144,136,25897,2,0,P|151:75|208:25,1,115.000004386902,2|0,2:0|2:0,2:0:0:0:
265,21,26348,2,0,P|313:57|329:131,1,115.000004386902,2|8,2:0|2:0,2:0:0:0:
330,107,26724,1,8,2:0:0:0:
330,107,26800,1,8,2:0:0:0:
337,114,27100,1,8,2:0:0:0:
163,287,27251,6,0,P|83:257|0:276,1,172.500006580353,6|0,2:0|2:0,2:0:0:0:
357,293,28153,2,0,P|275:318|221:384,1,172.500006580353,2|0,2:0|2:0,2:0:0:0:
341,121,29055,6,0,L|357:304,2,172.500006580353,2|2|2,2:0|2:0|2:0,2:0:0:0:
365,300,30258,1,8,2:0:0:0:
365,300,30333,1,8,2:0:0:0:
365,300,30409,1,8,2:0:0:0:
365,300,30709,1,8,2:0:0:0:
296,171,30860,6,0,L|311:-4,1,172.500006580353,6|0,2:0|2:0,2:0:0:0:
172,158,31762,2,0,L|188:341,1,172.500006580353,2|0,2:0|2:0,2:0:0:0:
8,169,32664,2,0,P|108:184|173:155,2,172.500006580353,2|2|2,2:0|2:0|2:0,2:0:0:0:
99,280,33867,1,8,2:0:0:0:
99,280,33942,1,8,2:0:0:0:
99,280,34018,1,8,2:0:0:0:
99,280,34318,1,8,2:0:0:0:
212,0,34469,6,0,P|169:72|172:158,1,172.500006580353,6|0,2:0|2:0,2:0:0:0:
440,216,35371,2,0,P|398:141|323:101,1,172.500006580353,2|0,2:0|2:0,2:0:0:0:
171,157,36273,6,0,P|165:101|179:45,1,115.000004386902,2|0,2:0|2:0,2:0:0:0:
416,163,36724,2,0,P|375:123|323:101,1,115.000004386902,2|0,2:0|2:0,2:0:0:0:
195,309,37175,2,0,P|250:294|296:260,1,115.000004386902,2|0,2:0|2:0,2:0:0:0:
296,259,37551,1,0,0:0:0:0:
296,259,37627,1,0,0:0:0:0:
296,260,37927,1,0,2:0:0:0:
416,160,38078,6,0,L|399:343,1,172.500006580353,6|0,2:0|2:0,2:0:0:0:
179,45,38980,2,0,L|195:228,1,172.500006580353,2|0,2:0|2:0,2:0:0:0:
400,331,39882,6,0,L|412:185,1,115.000004386902,6|0,2:0|2:0,2:0:0:0:
179,45,40333,2,0,L|192:199,1,115.000004386902,2|0,2:0|2:0,2:0:0:0:
410,216,40784,6,0,L|264:203,1,115.000004386902,6|8,2:0|2:0,2:0:0:0:
208,272,41160,1,8,2:0:0:0:
208,272,41235,2,0,L|93:282,1,115.000004386902,8|8,2:0|2:0,2:0:0:0:
256,192,41687,12,0,44803,2:0:0:0:
205,356,47920,5,2,2:0:0:0:
312,216,48115,1,0,2:0:0:0:
312,216,48212,1,0,2:0:0:0:
312,216,48310,2,0,L|306:273,1,57.5,0|0,2:0|2:0,2:0:0:0:
144,284,48505,5,2,2:0:0:0:
144,284,48602,1,0,2:0:0:0:
144,284,48699,2,0,L|202:278,1,57.5,2|0,2:0|2:0,2:0:0:0:
312,272,48894,2,0,L|370:278,1,57.5,2|0,2:0|2:0,2:0:0:0:
136,292,49089,2,0,L|194:286,1,57.5,0|0,2:0|2:0,2:0:0:0:
320,264,49284,2,0,L|378:270,1,57.5,0|0,2:0|2:0,2:0:0:0:
128,300,49479,5,2,2:0:0:0:
119,114,49674,1,0,2:0:0:0:
119,114,49771,1,0,2:0:0:0:
119,114,49869,2,0,L|125:57,1,57.5,2|0,2:0|2:0,2:0:0:0:
231,134,50063,5,0,2:0:0:0:
231,134,50160,1,0,2:0:0:0:
231,134,50258,2,0,L|237:191,1,57.5,2|0,2:0|2:0,2:0:0:0:
120,104,50453,2,0,L|126:47,1,57.5,0|0,2:0|2:0,2:0:0:0:
233,147,50648,2,0,L|239:212,1,57.5,2|0,2:0|2:0,2:0:0:0:
122,92,50842,2,0,L|128:35,1,57.5,0|0,2:0|2:0,2:0:0:0:
235,162,51037,5,2,2:0:0:0:
373,69,51232,1,0,2:0:0:0:
373,69,51329,1,0,2:0:0:0:
373,69,51427,2,0,L|367:126,1,57.5,2|0,2:0|2:0,2:0:0:0:
512,158,51622,5,0,2:0:0:0:
512,158,51719,1,0,2:0:0:0:
512,158,51817,2,0,L|455:164,1,57.5,2|0,2:0|2:0,2:0:0:0:
309,121,52011,2,0,L|366:127,1,57.5,0|0,2:0|2:0,2:0:0:0:
512,171,52206,2,0,L|455:177,1,57.5,2|0,2:0|2:0,2:0:0:0:
309,108,52401,2,0,L|366:114,1,57.5,0|0,2:0|2:0,2:0:0:0:
512,187,52596,5,2,2:0:0:0:
32,144,52790,2,0,L|83:169,1,57.5,0|0,2:0|2:0,2:0:0:0:
168,24,52985,2,0,L|106:65,1,68.9999978942872,2|0,2:0|2:0,2:0:0:0:
203,212,53180,2,0,L|195:104,1,80.499997543335,0|0,2:0|2:0,2:0:0:0:
292,275,53375,6,0,L|299:167,1,92,2|0,2:0|2:0,2:0:0:0:
124,292,53570,2,0,L|116:184,1,97.7500018644333,2|0,2:0|2:0,2:0:0:0:
377,334,53764,2,0,L|384:226,1,103.499996841431,2|0,2:0|2:0,2:0:0:0:
41,361,53959,2,0,L|31:231,1,109.24999708271,2|0,2:0|2:0,2:0:0:0:
384,231,54154,6,0,P|294:268|160:240,1,230,6|8,2:0|2:0,2:0:0:0:
166,244,54446,1,0,2:0:0:0:
231,23,54544,2,0,L|221:138,1,115,2|0,2:0|2:0,2:0:0:0:
177,358,54738,2,0,L|166:243,1,115,8|0,2:0|2:0,2:0:0:0:
14,0,54933,6,0,P|118:44|230:24,1,230,2|8,2:0|2:0,2:0:0:0:
455,235,55225,1,0,2:0:0:0:
332,133,55323,2,0,P|257:126|180:157,1,115,2|0,2:0|2:0,2:0:0:0:
54,247,55518,2,0,P|110:255|167:244,1,115,8|0,2:0|2:0,2:0:0:0:
309,350,55712,6,0,P|289:238|333:133,1,230,2|8,2:0|2:0,2:0:0:0:
512,384,56005,1,0,2:0:0:0:
424,340,56102,2,0,L|309:351,1,115,2|0,2:0|2:0,2:0:0:0:
361,23,56297,2,0,P|356:75|332:133,1,115,8|0,2:0|2:0,2:0:0:0:
184,113,56492,5,2,2:0:0:0:
259,124,56589,1,0,2:0:0:0:
333,134,56687,2,0,L|478:148,1,115,8|0,2:0|2:0,2:0:0:0:
74,342,56881,5,2,2:0:0:0:
149,331,56978,1,0,2:0:0:0:
224,321,57076,2,0,L|369:306,1,115,8|0,2:0|2:0,2:0:0:0:
480,250,57271,6,0,P|405:351|331:286,1,230,2|8,2:0|2:0,2:0:0:0:
252,95,57563,1,0,2:0:0:0:
318,27,57661,2,0,P|341:78|335:135,1,115,2|0,2:0|2:0,2:0:0:0:
0,226,57855,5,8,2:0:0:0:
75,237,57952,1,0,2:0:0:0:
150,247,58050,2,0,P|158:190|144:134,1,115,2|0,2:0|2:0,2:0:0:0:
0,225,58245,2,0,P|-5:282|6:338,1,115,8|0,2:0|2:0,2:0:0:0:
144,134,58440,2,0,L|30:124,1,115,2|0,2:0|2:0,2:0:0:0:
5,337,58635,2,0,L|119:347,1,115,8|0,2:0|2:0,2:0:0:0:
368,161,58829,5,2,2:0:0:0:
303,114,58927,1,0,2:0:0:0:
230,148,59024,2,0,L|218:291,1,115,8|0,2:0|2:0,2:0:0:0:
390,303,59219,5,2,2:0:0:0:
475,263,59317,1,0,2:0:0:0:
483,172,59414,2,0,L|308:156,1,115,8|0,2:0|2:0,2:0:0:0:
73,102,59609,5,2,2:0:0:0:
157,41,59707,1,0,2:0:0:0:
252,85,59804,2,0,L|268:269,1,115,8|0,2:0|2:0,2:0:0:0:
198,383,59998,2,0,L|214:198,1,115,8|0,2:0|2:0,2:0:0:0:
157,41,60193,2,0,L|173:225,1,115,8|0,2:0|2:0,2:0:0:0:
85,382,60388,6,0,P|21:286|85:198,1,230,6|8,2:0|2:0,2:0:0:0:
78,202,60680,1,0,2:0:0:0:
314,296,60777,2,0,P|240:292|208:268,1,115,2|0,2:0|2:0,2:0:0:0:
158,39,60972,2,0,P|134:95|158:175,1,115,8|0,2:0|2:0,2:0:0:0:
464,84,61167,6,0,L|170:109,1,230,2|8,2:0|2:0,2:0:0:0:
314,296,61459,1,0,2:0:0:0:
403,287,61557,2,0,P|427:231|403:151,1,115,2|0,2:0|2:0,2:0:0:0:
234,103,61751,2,0,P|258:159|234:239,1,115,8|0,2:0|2:0,2:0:0:0:
86,383,61946,6,0,P|174:335|302:383,1,230,2|8,2:0|2:0,2:0:0:0:
4,88,62238,1,0,2:0:0:0:
42,158,62335,2,0,P|78:177|169:171,1,115,2|0,2:0|2:0,2:0:0:0:
512,169,62531,1,8,2:0:0:0:
433,175,62628,1,0,2:0:0:0:
353,180,62725,6,0,P|279:185|247:210,1,115,2|0,2:0|2:0,2:0:0:0:
444,289,62920,2,0,L|433:175,1,115,8|0,2:0|2:0,2:0:0:0:
230,73,63115,2,0,L|344:82,1,115,2|0,2:0|2:0,2:0:0:0:
333,385,63310,2,0,L|321:270,1,115,8|0,2:0|2:0,2:0:0:0:
56,199,63505,6,0,P|136:151|249:209,1,230,2|8,2:0|2:0,2:0:0:0:
248,208,63797,1,0,2:0:0:0:
160,384,63894,2,0,P|140:348|145:274,1,115,2|0,2:0|2:0,2:0:0:0:
118,65,64089,5,8,2:0:0:0:
193,49,64187,1,0,2:0:0:0:
260,93,64284,2,0,L|247:220,1,115,2|0,2:0|2:0,2:0:0:0:
409,302,64479,2,0,L|396:175,1,115,8|0,2:0|2:0,2:0:0:0:
144,160,64674,2,0,L|131:287,1,115,2|0,2:0|2:0,2:0:0:0:
512,232,64868,2,0,L|499:105,1,115,8|0,2:0|2:0,2:0:0:0:
56,32,65064,5,2,2:0:0:0:
48,109,65161,2,0,L|36:224,1,115,2|0,2:0|2:0,2:0:0:0:
404,110,65355,5,2,2:0:0:0:
413,187,65453,2,0,L|424:302,1,115,2|0,2:0|2:0,2:0:0:0:
207,369,65648,2,0,L|218:255,1,115,2|0,2:0|2:0,2:0:0:0:
218,103,65842,5,10,2:0:0:0:
218,254,65939,1,8,2:0:0:0:
128,131,66037,1,10,2:0:0:0:
271,178,66135,1,8,2:0:0:0:
128,225,66232,1,10,2:0:0:0:
217,253,66622,6,0,L|389:269,1,172.5,4|0,2:0|2:0,2:0:0:0:
389,269,67401,2,0,P|338:196|374:115,1,172.5,2|0,2:0|2:0,2:0:0:0:
488,227,68180,2,0,P|483:284|476:354,2,115,2|2|2,2:0|2:0|2:0,2:0:0:0:
300,370,69349,1,0,2:0:0:0:
300,370,69544,1,0,2:0:0:0:
176,240,69738,6,0,P|201:319|151:385,1,115,2|0,2:0|2:0,2:0:0:0:
12,264,70518,2,0,P|55:300|112:304,1,115,2|0,2:0|2:0,2:0:0:0:
172,149,71297,1,2,2:0:0:0:
12,264,71687,1,2,2:0:0:0:
191,346,72076,1,2,2:0:0:0:
405,238,72271,5,8,2:0:0:0:
391,240,72368,1,8,2:0:0:0:
377,241,72465,1,8,2:0:0:0:
363,243,72563,1,8,2:0:0:0:
348,243,72660,1,8,2:0:0:0:
334,245,72758,1,8,2:0:0:0:
320,246,72855,6,0,P|278:170|304:85,1,172.5,6|0,2:0|2:0,2:0:0:0:
299,91,73635,2,0,L|123:106,1,172.5,2|0,2:0|2:0,2:0:0:0:
79,203,74414,2,0,P|136:196|189:217,2,115,2|2|2,2:0|2:0|2:0,2:0:0:0:
119,304,75583,1,0,2:0:0:0:
119,304,75777,1,0,2:0:0:0:
176,108,75972,6,0,P|167:164|188:217,1,115,2|0,2:0|2:0,2:0:0:0:
380,302,76751,2,0,P|335:266|279:258,1,115,2|0,2:0|2:0,2:0:0:0:
176,108,77531,1,2,2:0:0:0:
109,382,77920,1,2,2:0:0:0:
380,302,78310,1,2,2:0:0:0:
75,191,78505,5,8,2:0:0:0:
73,205,78602,1,8,2:0:0:0:
72,219,78699,1,8,2:0:0:0:
71,233,78797,1,8,2:0:0:0:
69,248,78894,1,8,2:0:0:0:
68,262,78992,1,8,2:0:0:0:
67,275,79089,6,0,P|121:259|176:272,1,86.2500032901765,6|0,2:0|2:0,2:0:0:0:
264,312,79284,2,0,P|318:328|368:320,1,86.2500032901765,2|0,2:0|2:0,2:0:0:0:
387,125,79479,1,8,2:0:0:0:
363,141,79576,1,2,2:0:0:0:
345,163,79673,1,2,2:0:0:0:
333,189,79771,1,2,2:0:0:0:
327,217,79868,5,2,2:0:0:0:
489,323,80063,1,2,2:0:0:0:
386,125,80258,2,0,P|345:163|327:217,1,86.2500032901765,8|2,2:0|2:0,2:0:0:0:
489,322,80453,2,0,P|476:267|438:224,1,86.2500032901765,2|2,2:0|2:0,2:0:0:0:
224,176,80648,5,2,2:0:0:0:
242,383,80842,1,2,2:0:0:0:
280,96,81037,1,10,2:0:0:0:
253,85,81134,1,2,2:0:0:0:
225,81,81231,1,2,2:0:0:0:
196,84,81329,1,2,2:0:0:0:
169,94,81426,5,2,2:0:0:0:
333,189,81622,1,2,2:0:0:0:
177,8,81816,2,0,L|169:93,1,86.2500032901765,10|2,2:0|2:0,2:0:0:0:
325,274,82011,2,0,L|332:188,1,86.2500032901765,2|2,2:0|2:0,2:0:0:0:
86,107,82206,6,0,P|140:90|194:103,1,86.2500032901765,2|0,2:0|2:0,2:0:0:0:
415,174,82401,2,0,P|360:190|306:177,1,86.2500032901765,2|0,2:0|2:0,2:0:0:0:
144,296,82596,1,10,2:0:0:0:
133,270,82693,1,2,2:0:0:0:
129,242,82790,1,2,2:0:0:0:
132,213,82888,1,2,2:0:0:0:
142,186,82985,5,2,2:0:0:0:
325,274,83180,1,2,2:0:0:0:
86,107,83375,6,0,P|140:90|194:103,1,86.2500032901765,10|2,2:0|2:0,2:0:0:0:
407,260,83570,2,0,P|352:276|298:263,1,86.2500032901765,2|2,2:0|2:0,2:0:0:0:
31,314,83764,6,0,P|30:271|48:232,1,86.2500032901765,2|0,2:0|2:0,2:0:0:0:
126,335,83959,2,0,P|144:295|143:252,1,86.2500032901765,10|0,2:0|2:0,2:0:0:0:
152,52,84154,6,0,P|151:95|169:135,1,86.2500032901765,2|0,2:0|2:0,2:0:0:0:
247,31,84349,2,0,P|265:71|264:114,1,86.2500032901765,10|0,2:0|2:0,2:0:0:0:
256,363,84544,6,0,P|255:320|273:281,1,86.2500032901765,2|0,2:0|2:0,2:0:0:0:
351,384,84739,2,0,P|369:344|368:301,1,86.2500032901765,10|0,2:0|2:0,2:0:0:0:
444,35,84933,5,8,2:0:0:0:
377,145,85031,1,8,2:0:0:0:
496,94,85128,1,8,2:0:0:0:
370,66,85225,1,8,2:0:0:0:
454,163,85323,6,0,L|511:156,1,57.5,6|2,2:0|2:0,2:0:0:0:
332,306,85712,2,0,L|383:312,1,28.75,0|0,2:0|2:0,2:0:0:0:
436,319,85907,1,2,2:0:0:0:
257,190,86102,2,0,L|320:183,1,57.5,2|0,2:0|2:0,2:0:0:0:
140,288,86491,2,0,L|191:294,1,28.75,2|0,2:0|2:0,2:0:0:0:
244,301,86686,1,2,2:0:0:0:
244,301,86881,6,0,L|238:364,1,57.5,2|0,2:0|2:0,2:0:0:0:
154,148,87271,2,0,L|159:211,1,57.5,2|0,2:0|2:0,2:0:0:0:
271,1,87661,2,0,L|265:64,1,57.5,2|0,2:0|2:0,2:0:0:0:
265,58,88050,2,0,L|293:54,1,28.75,2|0,2:0|2:0,2:0:0:0:
369,45,88245,1,2,2:0:0:0:
309,195,88440,6,0,L|303:137,1,57.5,2|0,2:0|2:0,2:0:0:0:
473,32,88829,2,0,L|469:60,1,28.75,2|0,2:0|2:0,2:0:0:0:
460,136,89024,1,2,2:0:0:0:
325,347,89219,2,0,L|319:289,1,57.5,2|0,2:0|2:0,2:0:0:0:
456,226,89608,2,0,L|452:254,1,28.75,2|0,2:0|2:0,2:0:0:0:
443,330,89803,1,2,2:0:0:0:
325,347,89998,6,0,L|328:375,1,28.75,2|0,2:0|2:0,2:0:0:0:
459,197,90388,2,0,L|455:225,1,28.75,2|0,2:0|2:0,2:0:0:0:
300,109,90777,2,0,L|303:137,1,28.75,2|0,2:0|2:0,2:0:0:0:
512,0,91167,2,0,P|416:11|390:111,1,172.5,2|0,2:0|2:0,2:0:0:0:
384,71,91557,6,0,P|450:73|495:80,1,86.2500032901765,2|0,2:0|2:0,2:0:0:0:
295,228,91946,2,0,P|336:227|378:223,1,43.1250016450883,2|0,2:0|2:0,2:0:0:0:
415,219,92141,1,2,2:0:0:0:
191,53,92336,2,0,P|257:55|302:62,1,86.2500032901765,2|0,2:0|2:0,2:0:0:0:
85,249,92725,2,0,P|126:248|168:244,1,43.1250016450883,2|0,2:0|2:0,2:0:0:0:
205,240,92920,1,2,2:0:0:0:
205,240,93115,6,0,P|200:282|200:325,1,86.2500032901765,2|0,2:0|2:0,2:0:0:0:
349,104,93505,2,0,P|314:78|276:57,1,86.2500032901765,2|0,2:0|2:0,2:0:0:0:
394,296,93894,2,0,P|433:278|470:256,1,86.2500032901765,2|0,2:0|2:0,2:0:0:0:
205,240,94284,2,0,P|201:268|200:297,1,43.1250016450883,2|0,2:0|2:0,2:0:0:0:
200,325,94479,1,2,2:0:0:0:
353,189,94674,6,0,P|353:146|349:104,1,86.2500032901765,2|0,2:0|2:0,2:0:0:0:
470,256,95063,2,0,P|467:234|465:213,1,43.1250016450883,2|0,2:0|2:0,2:0:0:0:
469,125,95258,1,2,2:0:0:0:
267,184,95453,2,0,P|309:188|353:189,1,86.2500032901765,2|0,2:0|2:0,2:0:0:0:
149,308,95842,2,0,P|170:305|191:303,1,43.1250016450883,2|0,2:0|2:0,2:0:0:0:
280,307,96037,1,2,2:0:0:0:
280,307,96232,6,0,P|282:328|284:349,1,43.1250016450883,2|0,2:0|2:0,2:0:0:0:
136,168,96622,2,0,P|133:189|131:210,1,43.1250016450883,2|0,2:0|2:0,2:0:0:0:
248,48,97011,2,0,P|250:69|252:90,1,43.1250016450883,2|0,2:0|2:0,2:0:0:0:
160,0,97401,2,0,P|157:21|155:42,1,43.1250016450883,2|0,2:0|2:0,2:0:0:0:
241,166,97790,5,6,2:0:0:0:
274,373,97985,1,2,2:0:0:0:
173,90,98180,2,0,P|148:125|140:167,1,86.2500032901765,10|2,2:0|2:0,2:0:0:0:
372,377,98375,2,0,P|355:320|335:298,1,86.2500032901765,2|2,2:0|2:0,2:0:0:0:
241,166,98570,5,2,2:0:0:0:
117,335,98764,1,2,2:0:0:0:
336,198,98959,1,10,2:0:0:0:
341,155,99056,1,2,2:0:0:0:
327,114,99153,1,2,2:0:0:0:
298,83,99251,1,2,2:0:0:0:
259,66,99348,5,2,2:0:0:0:
433,108,99544,1,2,2:0:0:0:
176,160,99738,2,0,L|287:150,1,86.2500032901765,10|2,2:0|2:0,2:0:0:0:
496,16,99933,2,0,L|384:25,1,86.2500032901765,2|2,2:0|2:0,2:0:0:0:
260,66,100128,5,2,2:0:0:0:
416,217,100323,1,0,2:0:0:0:
72,146,100518,1,10,2:0:0:0:
106,120,100615,1,2,2:0:0:0:
149,111,100712,1,2,2:0:0:0:
190,121,100810,1,2,2:0:0:0:
224,146,100907,5,6,2:0:0:0:
96,304,101102,1,2,2:0:0:0:
289,91,101297,2,0,P|307:129|303:171,1,86.2500032901765,10|2,2:0|2:0,2:0:0:0:
49,372,101492,2,0,P|18:340|9:299,1,86.2500032901765,2|2,2:0|2:0,2:0:0:0:
252,176,101687,5,2,2:0:0:0:
47,225,101882,1,2,2:0:0:0:
290,101,102076,2,0,P|248:91|208:103,1,86.2500032901765,10|2,2:0|2:0,2:0:0:0:
9,300,102271,2,0,P|50:309|90:297,1,86.2500032901765,2|2,2:0|2:0,2:0:0:0:
96,36,102466,6,0,L|106:147,1,86.2500032901765,2|0,2:0|2:0,2:0:0:0:
186,242,102661,2,0,L|176:353,1,86.2500032901765,10|0,2:0|2:0,2:0:0:0:
201,18,102855,6,0,L|211:129,1,86.2500032901765,2|0,2:0|2:0,2:0:0:0:
290,259,103050,2,0,L|283:345,1,86.2500032901765,10|0,2:0|2:0,2:0:0:0:
306,0,103245,6,0,L|316:111,1,86.2500032901765,2|0,2:0|2:0,2:0:0:0:
395,277,103440,2,0,L|388:363,1,86.2500032901765,10|0,2:0|2:0,2:0:0:0:
510,153,103635,5,8,2:0:0:0:
428,160,103732,1,8,2:0:0:0:
346,167,103829,1,8,2:0:0:0:
264,174,103927,1,8,2:0:0:0:
182,181,104024,6,0,L|185:220,1,28.75,4|0,2:0|2:0,2:0:0:0:
190,294,104219,1,2,2:0:0:0:
182,181,104609,1,2,2:0:0:0:
512,240,104803,1,10,2:0:0:0:
504,352,104998,2,0,L|500:392,2,28.75,2|0|0,2:0|2:0|2:0,2:0:0:0:
346,167,105388,5,2,2:0:0:0:
339,85,105485,1,2,2:0:0:0:
332,3,105583,2,0,L|371:6,1,28.75,2|0,2:0|2:0,2:0:0:0:
445,11,105777,5,2,2:0:0:0:
332,3,106168,1,2,2:0:0:0:
2,62,106362,1,10,2:0:0:0:
12,174,106557,2,0,L|14:202,2,28.75,2|0|0,2:0|2:0|2:0,2:0:0:0:
182,181,106946,5,2,2:0:0:0:
176,263,107044,1,2,2:0:0:0:
168,345,107141,2,0,L|207:342,1,28.75,2|0,2:0|2:0,2:0:0:0:
281,337,107336,5,2,2:0:0:0:
168,345,107725,1,2,2:0:0:0:
498,286,107919,1,10,2:0:0:0:
471,146,108115,2,0,L|467:186,2,28.75,2|0|0,2:0|2:0|2:0,2:0:0:0:
345,3,108505,5,2,2:0:0:0:
339,85,108603,1,2,2:0:0:0:
331,167,108699,2,0,L|359:165,1,28.75,2|0,2:0|2:0,2:0:0:0:
239,178,108894,5,2,2:0:0:0:
239,178,108992,1,0,2:0:0:0:
239,178,109284,1,2,2:0:0:0:
459,131,109479,6,0,L|462:102,1,28.75,10|0,2:0|2:0,2:0:0:0:
239,178,109674,1,2,2:0:0:0:
239,178,109771,2,0,L|236:149,1,28.75,2|0,2:0|2:0,2:0:0:0:
443,249,109966,1,2,2:0:0:0:
443,249,110063,2,0,L|446:220,1,28.75,2|0,2:0|2:0,2:0:0:0:
262,304,110258,6,0,L|258:268,1,28.75,6|0,2:0|2:0,2:0:0:0:
262,304,110453,1,2,2:0:0:0:
262,304,110842,1,2,2:0:0:0:
225,18,111037,1,10,2:0:0:0:
100,34,111232,2,0,L|71:36,2,28.75,2|0|0,2:0|2:0|2:0,2:0:0:0:
459,131,111622,5,2,2:0:0:0:
377,122,111718,1,2,2:0:0:0:
294,114,111816,2,0,L|297:153,1,28.75,2|0,2:0|2:0,2:0:0:0:
294,114,112011,5,2,2:0:0:0:
294,114,112401,1,2,2:0:0:0:
326,371,112596,1,10,2:0:0:0:
467,350,112790,2,0,L|496:348,2,28.75,2|0|0,2:0|2:0|2:0,2:0:0:0:
92,290,113180,5,2,2:0:0:0:
174,281,113276,1,2,2:0:0:0:
257,273,113374,2,0,L|293:269,1,28.75,2|0,2:0|2:0,2:0:0:0:
257,273,113570,5,2,2:0:0:0:
257,273,113959,1,2,2:0:0:0:
291,7,114154,1,10,2:0:0:0:
390,97,114349,2,0,L|437:92,2,28.75,0|0|0,2:0|2:0|2:0,2:0:0:0:
170,120,114738,5,2,2:0:0:0:
87,128,114835,1,2,2:0:0:0:
5,137,114933,2,0,L|8:176,1,28.75,2|0,2:0|2:0,2:0:0:0:
5,137,115128,5,2,2:0:0:0:
5,137,115225,1,0,2:0:0:0:
5,137,115518,1,2,2:0:0:0:
324,172,115712,1,10,2:0:0:0:
302,379,115907,5,2,2:0:0:0:
311,297,116005,2,0,L|314:268,1,28.75,2|0,2:0|2:0,2:0:0:0:
169,90,116199,5,2,2:0:0:0:
178,172,116297,2,0,L|181:200,1,28.75,2|0,2:0|2:0,2:0:0:0:
302,379,116492,5,4,2:0:0:0:
108,312,116687,1,2,2:0:0:0:
158,306,116783,1,0,2:0:0:0:
208,301,116881,1,0,2:0:0:0:
302,379,117076,5,2,2:0:0:0:
108,312,117271,1,2,2:0:0:0:
158,306,117367,1,0,2:0:0:0:
208,301,117465,1,0,2:0:0:0:
302,379,117661,5,2,2:0:0:0:
108,312,117855,1,2,2:0:0:0:
158,306,117953,1,0,2:0:0:0:
208,301,118050,1,0,2:0:0:0:
108,306,118246,5,2,2:0:0:0:
158,301,118342,1,0,2:0:0:0:
209,296,118440,1,0,2:0:0:0:
302,379,118635,5,2,2:0:0:0:
108,306,118830,1,2,2:0:0:0:
158,301,118926,1,0,2:0:0:0:
209,296,119024,1,0,2:0:0:0:
108,301,119220,5,2,2:0:0:0:
158,296,119316,1,0,2:0:0:0:
209,291,119414,1,0,2:0:0:0:
210,5,119609,5,4,2:0:0:0:
484,72,119804,1,2,2:0:0:0:
402,81,119900,1,0,2:0:0:0:
319,89,119998,1,0,2:0:0:0:
210,5,120193,5,2,2:0:0:0:
484,72,120388,1,2,2:0:0:0:
402,81,120484,1,0,2:0:0:0:
319,89,120582,1,0,2:0:0:0:
210,5,120778,5,2,2:0:0:0:
484,72,120972,1,2,2:0:0:0:
402,81,121070,1,0,2:0:0:0:
319,89,121167,1,2,2:0:0:0:
483,81,121362,5,2,2:0:0:0:
401,90,121459,1,0,2:0:0:0:
318,98,121557,1,2,2:0:0:0:
210,5,121752,5,2,2:0:0:0:
483,81,121947,1,10,2:0:0:0:
401,90,122043,1,8,2:0:0:0:
318,98,122141,1,10,2:0:0:0:
236,107,122238,1,8,2:0:0:0:
327,16,122336,5,10,2:0:0:0:
318,98,122433,1,8,2:0:0:0:
310,181,122531,1,10,2:0:0:0:
301,263,122627,1,8,2:0:0:0:
288,344,122725,6,0,P|231:350|179:327,1,115,6|0,2:0|2:0,2:0:0:0:
377,95,122920,2,0,P|331:128|309:181,1,115,8|0,2:0|2:0,2:0:0:0:
512,264,123115,1,2,2:0:0:0:
501,189,123212,1,0,2:0:0:0:
491,114,123310,2,0,L|476:-31,1,115,8|0,2:0|2:0,2:0:0:0:
200,163,123505,6,0,P|252:187|309:179,1,115,2|0,2:0|2:0,2:0:0:0:
40,316,123699,2,0,P|62:263|108:230,1,115,8|0,2:0|2:0,2:0:0:0:
55,14,123894,2,0,P|89:59|95:115,1,115,2|0,2:0|2:0,2:0:0:0:
268,281,124089,2,0,P|302:235|308:179,1,115,8|0,2:0|2:0,2:0:0:0:
477,341,124284,6,0,L|332:356,1,115,2|0,2:0|2:0,2:0:0:0:
136,112,124479,1,8,2:0:0:0:
235,96,124576,2,0,P|282:126|307:177,1,115,0|2,2:0|2:0,2:0:0:0:
32,264,124771,1,0,2:0:0:0:
131,280,124868,2,0,P|178:249|203:198,1,115,8|0,2:0|2:0,2:0:0:0:
264,4,125063,5,2,2:0:0:0:
189,15,125160,1,0,2:0:0:0:
114,25,125258,2,0,L|-31:40,1,115,8|0,2:0|2:0,2:0:0:0:
235,96,125453,5,2,2:0:0:0:
309,84,125550,1,0,2:0:0:0:
384,74,125648,2,0,L|528:59,1,115,8|0,2:0|2:0,2:0:0:0:
0,207,125842,6,0,P|86:251|222:235,1,230,2|8,2:0|2:0,2:0:0:0:
325,93,126135,1,0,2:0:0:0:
232,131,126232,2,0,P|208:182|213:238,1,115,2|0,2:0|2:0,2:0:0:0:
432,75,126427,2,0,P|380:98|324:93,1,115,8|0,2:0|2:0,2:0:0:0:
344,280,126622,6,0,P|360:192|396:268,1,230,2|8,2:0|2:0,2:0:0:0:
196,346,126914,2,0,P|219:294|214:238,1,115,0|2,2:0|2:0,2:0:0:0:
144,69,127109,1,0,2:0:0:0:
129,168,127206,2,0,P|161:214|212:237,1,115,8|0,2:0|2:0,2:0:0:0:
496,56,127401,5,2,2:0:0:0:
421,67,127498,1,0,2:0:0:0:
346,77,127596,2,0,L|201:92,1,115,8|0,2:0|2:0,2:0:0:0:
24,217,127790,5,2,2:0:0:0:
99,206,127887,1,0,2:0:0:0:
174,196,127985,2,0,L|319:181,1,115,8|0,2:0|2:0,2:0:0:0:
512,244,128180,5,2,2:0:0:0:
437,255,128277,1,0,2:0:0:0:
362,266,128375,2,0,P|314:235|289:183,1,115,8|0,2:0|2:0,2:0:0:0:
303,6,128570,2,0,P|255:36|230:88,1,115,8|0,2:0|2:0,2:0:0:0:
280,336,128764,2,0,P|232:305|207:253,1,115,8|0,2:0|2:0,2:0:0:0:
428,64,128959,6,0,P|425:121|392:168,1,115,6|0,2:0|2:0,2:0:0:0:
386,313,129154,2,0,P|330:308|280:335,1,115,8|0,2:0|2:0,2:0:0:0:
24,217,129349,1,2,2:0:0:0:
99,206,129446,1,0,2:0:0:0:
174,196,129544,2,0,L|319:181,1,115,8|0,2:0|2:0,2:0:0:0:
297,0,129738,6,0,P|251:32|229:85,1,115,2|0,2:0|2:0,2:0:0:0:
339,96,129933,2,0,P|396:88|448:112,1,115,8|0,2:0|2:0,2:0:0:0:
428,301,130128,2,0,P|422:245|387:199,1,115,2|0,2:0|2:0,2:0:0:0:
320,286,130323,2,0,P|298:338|253:372,1,115,8|0,2:0|2:0,2:0:0:0:
88,264,130518,6,0,L|202:275,1,115,2|0,2:0|2:0,2:0:0:0:
428,301,130712,1,8,2:0:0:0:
320,286,130810,2,0,P|342:234|387:200,1,115,0|2,2:0|2:0,2:0:0:0:
468,16,131004,1,0,2:0:0:0:
510,113,131102,2,0,P|453:119|402:97,1,115,8|0,2:0|2:0,2:0:0:0:
60,56,131297,5,2,2:0:0:0:
135,45,131394,1,0,2:0:0:0:
210,35,131492,2,0,L|355:20,1,115,8|0,2:0|2:0,2:0:0:0:
266,141,131687,5,2,2:0:0:0:
191,152,131784,1,0,2:0:0:0:
116,162,131882,2,0,L|-29:177,1,115,8|0,2:0|2:0,2:0:0:0:
481,172,132076,6,0,P|395:128|259:144,1,230,2|8,2:0|2:0,2:0:0:0:
124,249,132368,1,0,2:0:0:0:
221,269,132465,2,0,P|257:312|267:367,1,115,2|0,2:0|2:0,2:0:0:0:
15,262,132661,2,0,P|71:270|123:251,1,115,8|0,2:0|2:0,2:0:0:0:
45,51,132855,6,0,P|10:95|0:150,1,115,2|0,2:0|2:0,2:0:0:0:
216,172,133050,2,0,P|194:119|152:83,1,115,8|0,2:0|2:0,2:0:0:0:
112,359,133245,2,0,P|104:303|123:251,1,115,2|0,2:0|2:0,2:0:0:0:
260,70,133440,2,0,P|206:90|150:82,1,115,8|0,2:0|2:0,2:0:0:0:
360,280,133635,5,2,2:0:0:0:
369,206,133732,1,0,2:0:0:0:
379,131,133830,2,0,L|394:-14,1,115,8|0,2:0|2:0,2:0:0:0:
512,384,134024,5,2,2:0:0:0:
501,309,134121,1,0,2:0:0:0:
491,234,134219,2,0,L|479:119,1,115,8|0,2:0|2:0,2:0:0:0:
185,194,134414,6,0,P|233:168|302:185,1,115,12|0,2:0|2:0,2:0:0:0:
245,331,134609,1,8,2:0:0:0:
247,248,134706,1,8,2:0:0:0:
185,194,134804,1,8,2:0:0:0:
98,207,134901,1,8,2:0:0:0:
57,284,134999,1,8,2:0:0:0:
91,361,135096,1,8,2:0:0:0:
177,384,135193,6,0,L|168:298,1,86.2500032901765,6|0,2:0|2:0,2:0:0:0:
255,299,135388,2,0,L|262:213,1,86.2500032901765,10|0,2:0|2:0,2:0:0:0:
99,243,135582,2,0,L|91:157,1,86.2500032901765,2|0,2:0|2:0,2:0:0:0:
323,151,135777,2,0,L|330:65,1,86.2500032901765,10|0,2:0|2:0,2:0:0:0:
27,91,135972,2,0,L|19:5,1,86.2500032901765,2|0,2:0|2:0,2:0:0:0:
255,299,136167,5,10,2:0:0:0:
244,224,136264,1,0,2:0:0:0:
234,149,136362,2,0,L|222:34,1,86.2500032901765,2|0,2:0|2:0,2:0:0:0:
378,332,136557,2,0,L|390:217,1,86.2500032901765,10|0,2:0|2:0,2:0:0:0:
148,154,136751,6,0,L|139:239,1,86.2500032901765,2|0,2:0|2:0,2:0:0:0:
209,295,136946,2,0,L|217:380,1,86.2500032901765,10|0,2:0|2:0,2:0:0:0:
76,2,137141,2,0,L|67:87,1,86.2500032901765,2|0,2:0|2:0,2:0:0:0:
300,216,137336,2,0,L|308:301,1,86.2500032901765,10|0,2:0|2:0,2:0:0:0:
384,24,137531,2,0,L|375:109,1,86.2500032901765,2|0,2:0|2:0,2:0:0:0:
179,59,137725,5,10,2:0:0:0:
190,134,137822,1,0,2:0:0:0:
200,209,137920,2,0,L|212:324,1,86.2500032901765,2|0,2:0|2:0,2:0:0:0:
456,160,138115,2,0,L|444:275,1,86.2500032901765,10|0,2:0|2:0,2:0:0:0:
512,96,138310,6,0,P|444:76|396:96,1,86.2500032901765,2|0,2:0|2:0,2:0:0:0:
340,28,138505,2,0,L|348:113,1,86.2500032901765,10|0,2:0|2:0,2:0:0:0:
208,294,138699,2,0,P|276:274|324:294,1,86.2500032901765,2|0,2:0|2:0,2:0:0:0:
370,199,138894,2,0,L|378:284,1,86.2500032901765,10|0,2:0|2:0,2:0:0:0:
340,28,139089,6,0,P|272:48|224:28,1,86.2500032901765,2|0,2:0|2:0,2:0:0:0:
88,128,139284,2,0,P|156:108|204:128,1,86.2500032901765,10|0,2:0|2:0,2:0:0:0:
281,191,139479,2,0,P|213:211|165:191,1,86.2500032901765,2|0,2:0|2:0,2:0:0:0:
29,291,139674,2,0,P|97:271|145:291,1,86.2500032901765,10|0,2:0|2:0,2:0:0:0:
217,381,139868,6,0,P|218:338|200:300,1,86.2500032901765,2|0,2:0|2:0,2:0:0:0:
289,276,140063,2,0,L|281:191,1,86.2500032901765,10|0,2:0|2:0,2:0:0:0:
447,206,140258,2,0,P|446:163|464:124,1,86.2500032901765,2|0,2:0|2:0,2:0:0:0:
374,101,140453,2,0,L|382:15,1,86.2500032901765,10|0,2:0|2:0,2:0:0:0:
67,130,140648,5,2,2:0:0:0:
153,98,140745,2,0,P|195:100|282:209,1,172.500006580353,8|8,2:0|2:0,2:0:0:0:
288,304,141037,5,8,2:0:0:0:
221,350,141135,1,8,2:0:0:0:
142,362,141232,1,8,2:0:0:0:
68,334,141329,1,8,2:0:0:0:
30,248,141427,6,0,L|23:168,1,43.1250016450883,12|0,2:0|2:0,2:0:0:0:
482,136,141816,2,0,L|489:216,1,43.1250016450883,14|0,2:0|2:0,2:0:0:0:
26,205,142206,6,0,L|19:125,1,43.1250016450883,12|0,2:0|2:0,2:0:0:0:
486,179,142596,2,0,L|493:259,1,43.1250016450883,12|0,2:0|2:0,2:0:0:0:
22,162,142985,6,0,L|15:82,1,43.1250016450883,12|0,2:0|2:0,2:0:0:0:
489,221,143375,2,0,L|496:301,1,43.1250016450883,12|0,2:0|2:0,2:0:0:0:
18,119,143764,6,0,L|11:39,1,43.1250016450883,12|0,2:0|2:0,2:0:0:0:
492,263,144154,2,0,L|499:343,1,43.1250016450883,12|0,2:0|2:0,2:0:0:0:
85,14,144544,6,0,L|165:7,1,43.1250016450883,12|0,2:0|2:0,2:0:0:0:
427,370,144933,2,0,L|347:377,1,43.1250016450883,12|0,2:0|2:0,2:0:0:0:
128,11,145323,6,0,L|208:4,1,43.1250016450883,12|0,2:0|2:0,2:0:0:0:
384,373,145712,2,0,L|304:380,1,43.1250016450883,12|0,2:0|2:0,2:0:0:0:
26,205,146102,5,12,2:0:0:0:
485,178,146491,1,12,2:0:0:0:
26,205,146881,1,12,2:0:0:0:
353,339,147076,5,8,2:0:0:0:
364,253,147173,1,8,2:0:0:0:
303,192,147270,1,8,2:0:0:0:
217,200,147368,1,8,2:0:0:0:
171,273,147465,1,8,2:0:0:0:
199,355,147563,1,8,2:0:0:0:
280,384,147661,6,0,L|274:320,1,43.1250016450883,6|0,2:0|2:0,2:0:0:0:
84,302,147855,2,0,L|89:238,1,43.1250016450883,8|0,2:0|2:0,2:0:0:0:
364,253,148050,2,0,L|358:189,1,43.1250016450883,6|0,2:0|2:0,2:0:0:0:
88,260,148245,5,10,2:0:0:0:
163,271,148342,1,2,2:0:0:0:
238,281,148440,2,0,L|233:217,1,43.1250016450883,2|0,2:0|2:0,2:0:0:0:
0,379,148635,2,2,L|5:315,1,43.1250016450883,10|2,2:0|2:0,2:0:0:0:
208,137,148829,5,2,2:0:0:0:
172,52,148926,1,2,2:0:0:0:
80,60,149024,1,10,2:0:0:0:
59,148,149121,1,2,2:0:0:0:
138,196,149219,6,0,L|132:128,1,43.1250016450883,2|0,2:0|2:0,2:0:0:0:
336,112,149414,2,0,L|341:48,1,43.1250016450883,8|0,2:0|2:0,2:0:0:0:
217,239,149608,5,2,2:0:0:0:
292,186,149705,1,2,2:0:0:0:
375,225,149803,1,10,2:0:0:0:
384,317,149901,1,2,2:0:0:0:
309,370,149998,6,0,L|304:321,1,43.1250016450883,2|0,2:0|2:0,2:0:0:0:
138,196,150193,2,0,L|133:147,1,43.1250016450883,10|0,2:0|2:0,2:0:0:0:
112,368,150388,2,0,L|116:325,1,43.1250016450883,2|0,2:0|2:0,2:0:0:0:
288,192,150583,2,0,L|292:149,1,43.1250016450883,10|0,2:0|2:0,2:0:0:0:
111,43,150777,6,0,L|107:0,1,43.1250016450883,2|0,2:0|2:0,2:0:0:0:
196,109,150972,2,0,L|200:66,1,43.1250016450883,8|0,2:0|2:0,2:0:0:0:
77,172,151167,2,0,L|73:129,1,43.1250016450883,2|0,2:0|2:0,2:0:0:0:
217,239,151362,2,0,L|221:196,1,43.1250016450883,10|0,2:0|2:0,2:0:0:0:
43,301,151557,2,0,L|39:258,1,43.1250016450883,2|0,2:0|2:0,2:0:0:0:
426,210,151946,6,0,L|422:167,1,43.1250016450883,2|0,2:0|2:0,2:0:0:0:
196,109,152141,2,0,L|200:66,1,43.1250016450883,8|0,2:0|2:0,2:0:0:0:
238,369,152336,2,0,L|234:326,1,43.1250016450883,2|0,2:0|2:0,2:0:0:0:
238,369,152725,6,0,L|234:326,1,43.1250016450883,2|0,2:0|2:0,2:0:0:0:
317,289,152920,2,0,L|321:246,1,43.1250016450883,10|0,2:0|2:0,2:0:0:0:
173,259,153115,2,0,L|169:216,1,43.1250016450883,2|0,2:0|2:0,2:0:0:0:
390,187,153310,2,0,L|394:144,1,43.1250016450883,10|0,2:0|2:0,2:0:0:0:
105,152,153505,2,0,L|101:109,1,43.1250016450883,2|0,2:0|2:0,2:0:0:0:
461,81,153700,2,0,L|465:38,1,43.1250016450883,8|0,2:0|2:0,2:0:0:0:
35,0,153894,6,0,L|39:43,1,43.1250016450883,2|0,2:0|2:0,2:0:0:0:
208,56,154089,2,0,L|204:99,1,43.1250016450883,8|0,2:0|2:0,2:0:0:0:
378,0,154284,2,0,L|383:46,1,43.1250016450883,2|0,2:0|2:0,2:0:0:0:
300,196,154479,2,0,L|338:169,1,43.1250016450883,8|0,2:0|2:0,2:0:0:0:
511,165,154673,2,0,L|469:145,1,43.1250016450883,2|0,2:0|2:0,2:0:0:0:
76,235,154868,5,10,2:0:0:0:
130,157,154966,1,2,2:0:0:0:
170,243,155063,2,0,L|165:289,1,43.1250016450883,2|0,2:0|2:0,2:0:0:0:
335,171,155258,2,0,L|339:213,1,43.1250016450883,10|0,2:0|2:0,2:0:0:0:
195,39,155453,2,0,L|190:85,1,43.1250016450883,2|0,2:0|2:0,2:0:0:0:
393,291,155648,5,8,2:0:0:0:
339,213,155745,1,0,2:0:0:0:
299,299,155843,2,0,L|304:345,1,43.1250016450883,2|0,2:0|2:0,2:0:0:0:
34,230,156037,5,10,2:0:0:0:
29,311,156135,1,2,2:0:0:0:
90,366,156232,1,2,2:0:0:0:
170,353,156329,1,2,2:0:0:0:
210,281,156427,1,10,2:0:0:0:
179,206,156524,1,2,2:0:0:0:
148,131,156622,1,2,2:0:0:0:
188,59,156720,1,2,2:0:0:0:
268,46,156816,1,10,2:0:0:0:
329,101,156914,1,2,2:0:0:0:
320,184,157011,6,0,L|315:230,1,43.1250016450883,2|0,2:0|2:0,2:0:0:0:
392,310,157206,2,0,L|397:353,1,43.1250016450883,8|0,2:0|2:0,2:0:0:0:
113,336,157401,5,2,2:0:0:0:
134,248,157498,1,2,2:0:0:0:
226,240,157596,1,10,2:0:0:0:
262,325,157693,1,2,2:0:0:0:
191,383,157790,6,0,L|185:315,1,43.1250016450883,2|0,2:0|2:0,2:0:0:0:
234,82,157985,2,0,L|240:14,1,43.1250016450883,8|0,2:0|2:0,2:0:0:0:
134,248,158180,2,0,L|130:205,1,43.1250016450883,2|0,2:0|2:0,2:0:0:0:
469,52,158375,5,10,2:0:0:0:
394,63,158472,1,2,2:0:0:0:
319,73,158570,2,0,L|174:88,1,86.2500032901765,2|0,2:0|2:0,2:0:0:0:
484,65,158764,5,10,2:0:0:0:
397,77,158861,1,2,2:0:0:0:
310,89,158959,2,0,L|224:97,1,86.2500032901765,2|0,2:0|2:0,2:0:0:0:
497,76,159154,5,10,2:0:0:0:
399,89,159251,1,2,2:0:0:0:
301,103,159349,2,0,L|204:112,1,86.2500032901765,2|0,2:0|2:0,2:0:0:0:
512,88,159544,5,10,2:0:0:0:
208,125,159738,1,10,2:0:0:0:
341,348,160128,5,6,2:0:0:0:
330,334,160225,1,0,2:0:0:0:
318,322,160322,1,0,2:0:0:0:
303,313,160420,1,0,2:0:0:0:
287,307,160517,1,0,2:0:0:0:
270,304,160615,1,0,2:0:0:0:
253,304,160712,1,0,2:0:0:0:
236,307,160809,1,0,2:0:0:0:
220,314,160907,2,0,B|200:326|200:326|188:336,5,28.75,8|0|0|0|0|0,2:0|2:0|2:0|2:0|2:0|2:0,2:0:0:0:
135,244,161492,2,0,B|111:244|111:244|96:247,1,28.75,2|0,2:0|2:0,2:0:0:0:
193,114,161687,5,2,2:0:0:0:
195,131,161784,1,0,2:0:0:0:
201,147,161881,1,0,2:0:0:0:
210,161,161979,1,0,2:0:0:0:
222,173,162076,1,0,2:0:0:0:
237,183,162174,1,0,2:0:0:0:
253,189,162271,1,0,2:0:0:0:
270,191,162368,1,0,2:0:0:0:
385,73,162466,5,8,2:0:0:0:
369,66,162563,1,0,2:0:0:0:
352,63,162660,1,0,2:0:0:0:
334,64,162758,1,0,2:0:0:0:
318,68,162855,1,0,2:0:0:0:
302,76,162953,1,0,2:0:0:0:
289,87,163050,1,0,2:0:0:0:
279,101,163147,1,0,2:0:0:0:
358,244,163245,5,2,2:0:0:0:
363,227,163343,1,0,2:0:0:0:
366,211,163440,1,0,2:0:0:0:
366,193,163537,1,0,2:0:0:0:
362,176,163635,2,0,B|353:154|353:154|345:140,1,28.75,0|0,2:0|2:0,2:0:0:0:
448,320,163829,2,0,B|471:323|471:323|487:323,1,28.75,2|0,2:0|2:0,2:0:0:0:
252,297,164024,5,8,2:0:0:0:
234,294,164121,1,0,2:0:0:0:
217,294,164218,1,0,2:0:0:0:
200,296,164316,1,0,2:0:0:0:
184,301,164413,1,0,2:0:0:0:
168,308,164511,1,0,2:0:0:0:
153,317,164608,1,2,2:0:0:0:
140,329,164705,1,0,2:0:0:0:
79,384,164803,5,2,2:0:0:0:
98,363,164900,1,0,2:0:0:0:
113,338,164997,1,0,2:0:0:0:
123,311,165095,1,0,2:0:0:0:
128,283,165192,1,0,2:0:0:0:
127,254,165290,1,0,2:0:0:0:
120,226,165387,1,0,2:0:0:0:
108,200,165484,1,0,2:0:0:0:
187,240,165583,5,10,2:0:0:0:
162,267,165680,1,0,2:0:0:0:
128,283,165777,1,0,2:0:0:0:
91,283,165875,1,0,2:0:0:0:
57,268,165972,1,0,2:0:0:0:
32,240,166070,1,0,2:0:0:0:
22,205,166167,1,0,2:0:0:0:
27,168,166264,1,0,2:0:0:0:
0,75,166362,5,4,2:0:0:0:
11,89,166459,1,0,2:0:0:0:
23,101,166556,1,0,2:0:0:0:
38,110,166654,1,0,2:0:0:0:
54,116,166751,1,0,2:0:0:0:
71,119,166849,1,0,2:0:0:0:
88,119,166946,1,0,2:0:0:0:
105,116,167043,1,0,2:0:0:0:
121,109,167141,2,0,B|141:97|141:97|153:87,5,28.75,10|0|0|0|0|0,2:0|2:0|2:0|2:0|2:0|2:0,2:0:0:0:
298,73,167725,2,0,B|284:72|284:72|270:73,1,28.75,2|0,2:0|2:0,2:0:0:0:
153,197,167920,5,2,2:0:0:0:
165,190,168017,1,0,2:0:0:0:
179,185,168114,1,0,2:0:0:0:
193,183,168212,1,0,2:0:0:0:
207,183,168309,1,0,2:0:0:0:
222,185,168407,1,0,2:0:0:0:
235,189,168504,1,0,2:0:0:0:
248,196,168601,1,0,2:0:0:0:
352,176,168699,5,8,2:0:0:0:
353,190,168796,1,0,2:0:0:0:
354,204,168893,1,0,2:0:0:0:
355,218,168991,1,0,2:0:0:0:
357,233,169088,1,0,2:0:0:0:
358,247,169186,1,0,2:0:0:0:
359,261,169283,1,0,2:0:0:0:
360,276,169380,1,0,2:0:0:0:
455,287,169479,5,2,2:0:0:0:
453,267,169576,1,0,2:0:0:0:
451,246,169673,1,0,2:0:0:0:
450,226,169771,1,0,2:0:0:0:
447,204,169868,1,0,2:0:0:0:
446,184,169966,1,0,2:0:0:0:
445,164,170063,1,0,2:0:0:0:
444,145,170160,1,0,2:0:0:0:
485,78,170258,5,8,2:0:0:0:
466,91,170355,1,0,2:0:0:0:
445,100,170452,1,0,2:0:0:0:
423,105,170550,1,0,2:0:0:0:
400,103,170647,1,0,2:0:0:0:
377,97,170745,1,0,2:0:0:0:
357,86,170842,1,0,2:0:0:0:
340,71,170939,1,0,2:0:0:0:
317,0,171037,5,2,2:0:0:0:
320,37,171134,1,0,2:0:0:0:
313,73,171231,1,0,2:0:0:0:
296,106,171329,1,0,2:0:0:0:
270,133,171426,1,0,2:0:0:0:
237,150,171524,1,0,2:0:0:0:
201,158,171621,1,0,2:0:0:0:
164,154,171718,1,0,2:0:0:0:
129,140,171816,2,0,B|102:112|102:112|80:61,3,74.7499965782167,2|0|0|0,2:0|2:0|2:0|2:0,2:0:0:0:
422,160,172207,5,8,2:0:0:0:
335,147,172304,1,8,2:0:0:0:
273,201,172402,1,8,2:0:0:0:
275,284,172499,1,8,2:0:0:0:
352,336,172596,6,0,B|368:293|368:293|353:223,1,92,6|0,2:0|2:0,2:0:0:0:
414,70,172790,2,0,B|430:113|430:113|415:183,1,92,8|0,2:0|2:0,2:0:0:0:
188,282,172985,2,0,B|231:298|231:298|304:273,1,92,2|0,2:0|2:0,2:0:0:0:
506,156,173180,2,0,B|463:172|463:172|390:147,1,92,8|0,2:0|2:0,2:0:0:0:
61,134,173375,5,2,2:0:0:0:
115,56,173473,1,0,2:0:0:0:
160,144,173570,2,0,B|152:192|152:192|104:232,1,92,8|0,2:0|2:0,2:0:0:0:
6,325,173764,2,0,B|51:307|51:307|110:329,1,92,2|0,2:0|2:0,2:0:0:0:
240,368,173959,2,0,B|202:337|202:337|191:275,1,92,8|0,2:0|2:0,2:0:0:0:
464,256,174154,6,0,B|456:213|456:213|419:182,1,92,2|0,2:0|2:0,2:0:0:0:
456,96,174349,2,0,B|415:81|415:81|369:98,1,92,8|0,2:0|2:0,2:0:0:0:
313,22,174544,2,0,B|279:49|279:49|271:97,1,92,2|0,2:0|2:0,2:0:0:0:
177,108,174738,2,0,B|184:150|184:150|221:181,1,92,8|0,2:0|2:0,2:0:0:0:
80,360,174933,5,2,2:0:0:0:
77,284,175030,1,0,2:0:0:0:
74,208,175128,2,0,L|66:93,1,92,8|0,2:0|2:0,2:0:0:0:
237,9,175323,5,2,2:0:0:0:
248,84,175420,1,0,2:0:0:0:
258,159,175518,2,0,L|270:273,1,92,8|0,2:0|2:0,2:0:0:0:
437,103,175712,6,0,B|390:98|390:98|347:110,1,92,2|0,2:0|2:0,2:0:0:0:
267,250,175907,2,0,B|223:263|223:263|178:259,1,92,8|0,2:0|2:0,2:0:0:0:
512,272,176102,6,0,B|489:222|489:222|456:191,1,92,2|0,2:0|2:0,2:0:0:0:
160,160,176297,2,0,B|133:134|133:134|110:84,1,92,8|0,2:0|2:0,2:0:0:0:
442,69,176492,6,0,B|397:63|397:63|353:76,1,92,2|0,2:0|2:0,2:0:0:0:
271,285,176687,2,0,B|227:298|227:298|182:292,1,92,8|0,2:0|2:0,2:0:0:0:
292,0,176881,6,0,B|264:36|264:36|254:81,1,92,2|0,2:0|2:0,2:0:0:0:
368,288,177076,2,0,B|356:333|356:333|330:371,1,92,8|0,2:0|2:0,2:0:0:0:
254,81,177271,5,2,2:0:0:0:
189,34,177369,1,0,2:0:0:0:
116,68,177466,2,0,L|108:159,1,92,8|0,2:0|2:0,2:0:0:0:
348,242,177661,5,2,2:0:0:0:
421,209,177759,1,0,2:0:0:0:
428,128,177855,2,0,L|353:75,1,92,8|0,2:0|2:0,2:0:0:0:
161,242,178050,5,2,2:0:0:0:
153,322,178148,1,0,2:0:0:0:
220,369,178245,2,0,L|302:330,1,92,8|0,2:0|2:0,2:0:0:0:
116,68,178440,2,0,L|108:159,1,92,10|0,2:0|2:0,2:0:0:0:
428,128,178635,2,0,L|353:75,1,92,8|0,2:0|2:0,2:0:0:0:
107,159,178829,6,0,B|151:146|151:146|197:148,1,92,4|0,2:0|2:0,2:0:0:0:
303,329,179024,2,0,B|269:296|269:296|248:255,1,92,8|0,2:0|2:0,2:0:0:0:
57,235,179219,2,0,B|75:192|75:192|107:158,1,92,2|0,2:0|2:0,2:0:0:0:
393,334,179414,2,0,B|346:338|346:338|301:328,1,92,8|0,2:0|2:0,2:0:0:0:
365,121,179609,5,2,2:0:0:0:
287,175,179707,1,0,2:0:0:0:
373,215,179803,2,0,B|419:220|419:220|469:205,1,92,8|0,2:0|2:0,2:0:0:0:
248,256,179998,2,0,B|259:211|259:211|287:175,1,92,2|0,2:0|2:0,2:0:0:0:
365,121,180193,2,0,B|346:78|346:78|308:42,1,92,8|0,2:0|2:0,2:0:0:0:
9,187,180388,6,0,B|54:182|54:182|101:195,1,92,2|0,2:0|2:3,2:3:0:0:
91,360,180583,2,0,B|110:317|110:317|149:282,1,92,8|0,2:0|2:0,2:0:0:0:
314,46,180777,2,0,B|294:87|294:87|258:122,1,92,2|0,2:0|2:0,2:0:0:0:
119,26,180972,2,0,B|145:63|145:63|157:109,1,92,8|0,2:0|2:0,2:0:0:0:
383,316,181167,5,2,2:0:0:0:
308,305,181264,1,0,2:0:0:0:
233,295,181362,2,0,L|119:283,1,92,8|0,2:0|2:0,2:0:0:0:
398,340,181557,5,2,2:0:0:0:
307,326,181654,1,0,2:0:0:0:
216,314,181751,2,0,L|77:299,1,92,8|0,2:0|2:0,2:0:0:0:
84,74,181946,6,0,B|73:118|73:118|78:165,1,92,2|0,2:0|2:0,2:0:0:0:
221,224,182141,2,0,B|226:269|226:269|215:314,1,92,8|0,2:0|2:0,2:0:0:0:
239,83,182336,6,0,B|195:96|195:96|158:123,1,92,2|0,2:0|2:0,2:0:0:0:
140,262,182531,2,0,B|102:289|102:289|59:302,1,92,8|0,2:0|2:0,2:0:0:0:
83,71,182725,6,0,B|117:103|117:103|158:123,1,92,2|0,2:0|2:0,2:0:0:0:
214,314,182920,2,0,P|181:281|139:262,1,92,8|0,2:0|2:0,2:0:0:0:
164,33,183115,6,0,B|169:78|169:78|158:123,1,92,2|0,2:0|2:0,2:0:0:0:
134,352,183310,2,0,B|129:306|129:306|140:261,1,92,8|0,2:0|2:0,2:0:0:0:
474,92,183505,5,2,2:0:0:0:
409,45,183603,1,0,2:0:0:0:
336,79,183700,2,0,L|328:170,1,92,8|0,2:0|2:0,2:0:0:0:
432,369,183894,5,2,2:0:0:0:
505,336,183992,1,0,2:0:0:0:
512,255,184089,2,0,L|437:202,1,92,8|0,2:0|2:0,2:0:0:0:
213,194,184284,5,2,2:0:0:0:
205,273,184382,1,0,2:0:0:0:
271,320,184479,2,0,L|353:281,1,92,8|0,2:0|2:0,2:0:0:0:
336,79,184674,2,0,L|328:170,1,92,8|0,2:0|2:0,2:0:0:0:
512,255,184868,2,0,L|437:202,1,92,8|0,2:0|2:0,2:0:0:0:
209,43,185063,5,4,2:0:0:0:
256,192,185112,12,0,188180,2:0:0:0:
74,195,191297,6,0,P|147:144|228:180,1,172.5,6|0,2:0|2:0,2:0:0:0:
219,170,192076,2,0,L|203:342,1,172.5,2|0,2:0|2:0,2:0:0:0:
312,383,192855,2,0,P|306:325|301:268,2,115,2|2|2,2:0|2:0|2:0,2:0:0:0:
312,383,194024,1,0,2:0:0:0:
312,383,194219,1,0,2:0:0:0:
408,253,194414,2,0,P|329:278|263:228,1,115,2|0,2:0|2:0,2:0:0:0:
383,77,195193,2,0,P|347:120|344:177,1,115,2|0,2:0|2:0,2:0:0:0:
508,243,195972,5,2,2:0:0:0:
383,77,196362,1,2,2:0:0:0:
301,268,196751,1,2,2:0:0:0:
412,340,196946,5,8,2:0:0:0:
410,326,197043,1,8,2:0:0:0:
409,312,197140,1,8,2:0:0:0:
407,298,197238,1,8,2:0:0:0:
407,283,197335,1,8,2:0:0:0:
405,269,197433,1,8,2:0:0:0:
404,255,197531,6,0,P|324:229|258:279,1,172.5,4|0,2:0|2:0,2:0:0:0:
257,280,198310,2,0,L|273:108,1,172.5,2|0,2:0|2:0,2:0:0:0:
164,122,199089,2,0,P|220:99|278:111,2,115,2|2|2,2:0|2:0|2:0,2:0:0:0:
184,16,200258,1,0,2:0:0:0:
184,16,200453,1,0,2:0:0:0:
20,13,200648,6,0,P|93:51|104:133,1,115,2|0,2:0|2:0,2:0:0:0:
272,108,201427,2,0,P|202:152|125:121,1,115,2|0,2:0|2:0,2:0:0:0:
63,278,202206,5,2,2:0:0:0:
20,13,202596,1,2,2:0:0:0:
272,108,202985,1,2,2:0:0:0:
206,323,203180,5,8,2:0:0:0:
204,309,203277,1,8,2:0:0:0:
203,295,203374,1,8,2:0:0:0:
202,281,203472,1,8,2:0:0:0:
200,266,203569,1,8,2:0:0:0:
199,252,203667,1,8,2:0:0:0:
198,240,203764,6,0,P|249:263|305:253,1,86.2500032901765,6|0,2:0|2:0,2:0:0:0:
357,175,203959,2,0,P|351:118|315:74,1,86.2500032901765,2|0,2:0|2:0,2:0:0:0:
92,107,204154,1,10,2:0:0:0:
117,93,204251,1,2,2:0:0:0:
145,87,204348,1,2,2:0:0:0:
173,89,204446,1,2,2:0:0:0:
201,97,204544,5,2,2:0:0:0:
184,260,204738,1,2,2:0:0:0:
264,47,204933,2,0,P|280:86|275:129,1,86.2500032901765,8|2,2:0|2:0,2:0:0:0:
121,310,205128,2,0,P|104:270|110:228,1,86.2500032901765,2|2,2:0|2:0,2:0:0:0:
275,129,205323,5,2,2:0:0:0:
121,310,205518,1,2,2:0:0:0:
336,344,205712,1,10,2:0:0:0:
360,329,205809,1,2,2:0:0:0:
379,308,205906,1,2,2:0:0:0:
392,282,206004,1,2,2:0:0:0:
399,254,206101,5,2,2:0:0:0:
240,160,206297,1,2,2:0:0:0:
484,261,206492,2,0,L|399:254,1,86.2500032901765,10|2,2:0|2:0,2:0:0:0:
152,152,206687,2,0,L|237:159,1,86.2500032901765,2|2,2:0|2:0,2:0:0:0:
376,334,206881,6,0,P|399:282|389:226,1,86.2500032901765,4|0,2:0|2:0,2:0:0:0:
215,79,207076,2,0,P|217:121|237:159,1,86.2500032901765,2|0,2:0|2:0,2:0:0:0:
496,96,207271,1,10,2:0:0:0:
471,82,207368,1,2,2:0:0:0:
443,76,207465,1,2,2:0:0:0:
414,78,207563,1,2,2:0:0:0:
386,86,207660,5,2,2:0:0:0:
398,253,207855,1,2,2:0:0:0:
393,0,208050,2,0,L|385:85,1,86.2500032901765,10|2,2:0|2:0,2:0:0:0:
390,338,208245,2,0,L|397:252,1,86.2500032901765,2|2,2:0|2:0,2:0:0:0:
119,381,208440,6,0,P|115:338|120:296,1,86.2500032901765,2|0,2:0|2:0,2:0:0:0:
232,375,208635,2,0,P|228:332|217:290,1,86.2500032901765,10|0,2:0|2:0,2:0:0:0:
408,172,208829,6,0,P|373:197|334:215,1,86.2500032901765,2|0,2:0|2:0,2:0:0:0:
347,78,209024,2,0,P|311:102|281:133,1,86.2500032901765,10|0,2:0|2:0,2:0:0:0:
85,29,209219,6,0,P|125:46|159:72,1,86.2500032901765,2|0,2:0|2:0,2:0:0:0:
33,128,209414,2,0,P|71:146|113:157,1,86.2500032901765,10|0,2:0|2:0,2:0:0:0:
448,81,209609,5,8,2:0:0:0:
368,189,209707,1,8,2:0:0:0:
495,147,209804,1,8,2:0:0:0:
368,106,209901,1,8,2:0:0:0:
446,213,209998,6,0,L|438:135,1,57.5,6|0,2:0|2:0,2:0:0:0:
240,160,210388,2,0,L|242:128,1,28.75,2|0,2:0|2:0,2:0:0:0:
251,55,210583,1,2,2:0:0:0:
465,377,210777,6,0,L|459:313,1,57.5,2|0,2:0|2:0,2:0:0:0:
218,351,211167,2,0,L|221:319,1,28.75,2|0,2:0|2:0,2:0:0:0:
229,246,211362,1,2,2:0:0:0:
229,246,211557,6,0,L|293:240,1,57.5,2|0,2:0|2:0,2:0:0:0:
188,135,211946,2,0,L|154:88,1,57.5,2|0,2:0|2:0,2:0:0:0:
89,278,212336,2,0,L|113:226,1,57.5,2|0,2:0|2:0,2:0:0:0:
229,245,212725,6,0,L|267:241,1,28.75,2|0,2:0|2:0,2:0:0:0:
335,234,212920,1,2,2:0:0:0:
293,100,213115,6,0,L|287:164,1,57.5,2|0,2:0|2:0,2:0:0:0:
449,106,213505,2,0,L|445:68,1,28.75,2|0,2:0|2:0,2:0:0:0:
438,0,213700,1,2,2:0:0:0:
131,151,213894,6,0,L|125:215,1,57.5,2|0,2:0|2:0,2:0:0:0:
287,157,214284,2,0,L|283:119,1,28.75,2|0,2:0|2:0,2:0:0:0:
276,51,214479,1,2,2:0:0:0:
125,208,214674,6,0,L|127:179,1,28.75,2|0,2:0|2:0,2:0:0:0:
287,157,215063,2,0,L|283:119,1,28.75,2|0,2:0|2:0,2:0:0:0:
449,106,215453,2,0,L|451:77,1,28.75,2|0,2:0|2:0,2:0:0:0:
408,233,215842,5,8,2:0:0:0:
409,247,215940,1,8,2:0:0:0:
410,261,216037,1,8,2:0:0:0:
412,275,216135,1,8,2:0:0:0:
413,290,216232,6,0,P|414:323|407:354,1,57.5,6|0,2:0|2:0,2:0:0:0:
255,237,216622,2,0,P|253:258|255:279,1,28.75,2|0,2:0|2:0,2:0:0:0:
267,344,216816,1,2,2:0:0:0:
442,145,217011,2,0,P|443:178|436:209,1,57.5,2|0,2:0|2:0,2:0:0:0:
243,130,217401,2,0,P|241:151|243:172,1,28.75,2|0,2:0|2:0,2:0:0:0:
255,237,217595,1,2,2:0:0:0:
448,32,217790,6,0,P|419:26|391:28,1,57.5,2|0,2:0|2:0,2:0:0:0:
299,126,218180,2,0,P|270:131|242:129,1,57.5,2|0,2:0|2:0,2:0:0:0:
150,32,218570,2,0,P|121:26|93:28,1,57.5,2|0,2:0|2:0,2:0:0:0:
10,205,218959,2,0,P|8:184|10:163,1,28.75,2|0,2:0|2:0,2:0:0:0:
22,98,219153,1,2,2:0:0:0:
119,318,219349,6,0,P|125:289|123:261,1,57.5,2|0,2:0|2:0,2:0:0:0:
309,304,219738,2,0,P|295:309|283:316,1,28.75,2|0,2:0|2:0,2:0:0:0:
222,367,219932,1,2,2:0:0:0:
202,147,220128,6,0,P|224:166|249:178,1,57.5,2|0,2:0|2:0,2:0:0:0:
119,318,220517,2,0,P|120:303|120:289,1,28.75,2|0,2:0|2:0,2:0:0:0:
108,211,220711,1,2,2:0:0:0:
108,211,220907,6,0,P|79:205|51:207,1,57.5,2|0,2:0|2:0,2:0:0:0:
249,178,221297,2,0,P|277:172|305:173,1,57.5,2|0,2:0|2:0,2:0:0:0:
65,108,221687,2,0,P|36:102|8:104,1,57.5,2|0,2:0|2:0,2:0:0:0:
292,75,222076,2,0,P|320:69|348:71,1,57.5,2|0,2:0|2:0,2:0:0:0:
183,189,222466,5,6,2:0:0:0:
326,287,222660,1,2,2:0:0:0:
190,103,222855,2,0,L|182:188,1,86.2500032901765,10|2,2:0|2:0,2:0:0:0:
318,372,223050,2,0,L|326:287,1,86.2500032901765,2|2,2:0|2:0,2:0:0:0:
333,201,223245,5,2,2:0:0:0:
96,237,223440,1,2,2:0:0:0:
407,83,223635,1,10,2:0:0:0:
384,103,223732,1,2,2:0:0:0:
357,115,223829,1,2,2:0:0:0:
327,117,223927,1,2,2:0:0:0:
298,110,224024,5,2,2:0:0:0:
326,287,224219,1,0,2:0:0:0:
262,38,224414,2,0,P|229:66|216:106,1,86.2500032901765,10|2,2:0|2:0,2:0:0:0:
407,283,224609,2,0,P|393:243|362:215,1,86.2500032901765,2|2,2:0|2:0,2:0:0:0:
121,286,224803,5,2,2:0:0:0:
298,110,224998,1,2,2:0:0:0:
51,235,225193,1,10,2:0:0:0:
73,214,225290,1,2,2:0:0:0:
100,202,225387,1,2,2:0:0:0:
130,200,225485,1,2,2:0:0:0:
159,207,225582,5,2,2:0:0:0:
8,384,225777,1,0,2:0:0:0:
296,296,225972,2,0,L|211:288,1,86.2500032901765,10|2,2:0|2:0,2:0:0:0:
16,112,226167,2,0,L|101:120,1,86.2500032901765,2|2,2:0|2:0,2:0:0:0:
384,144,226362,5,2,2:0:0:0:
159,207,226557,1,2,2:0:0:0:
456,112,226751,2,0,P|428:79|388:66,1,86.2500032901765,10|2,2:0|2:0,2:0:0:0:
164,285,226946,2,0,P|204:272|232:240,1,86.2500032901765,0|2,2:0|2:0,2:0:0:0:
296,48,227141,6,0,L|288:133,1,86.2500032901765,2|0,2:0|2:0,2:0:0:0:
328,232,227336,2,0,L|336:317,1,86.2500032901765,10|0,2:0|2:0,2:0:0:0:
208,24,227531,6,0,L|200:109,1,86.2500032901765,2|0,2:0|2:0,2:0:0:0:
240,256,227726,2,0,L|248:341,1,86.2500032901765,10|0,2:0|2:0,2:0:0:0:
120,0,227920,6,0,L|112:85,1,86.2500032901765,2|0,2:0|2:0,2:0:0:0:
152,280,228115,2,0,L|160:365,1,86.2500032901765,10|0,2:0|2:0,2:0:0:0:
367,256,228310,5,8,2:0:0:0:
291,359,228407,1,8,2:0:0:0:
414,320,228505,1,8,2:0:0:0:
291,279,228602,1,8,2:0:0:0:
369,384,228699,6,0,L|366:348,1,28.75,6|0,2:0|2:0,2:0:0:0:
369,384,228894,1,2,2:0:0:0:
369,384,229284,1,2,2:0:0:0:
345,101,229479,1,8,2:0:0:0:
223,185,229674,6,0,L|226:146,1,28.75,0|0,2:0|2:0,2:0:0:0:
235,29,229868,1,2,2:0:0:0:
510,192,230063,5,2,2:0:0:0:
431,198,230160,1,2,2:0:0:0:
354,205,230258,1,2,2:0:0:0:
354,205,230453,5,2,2:0:0:0:
354,205,230842,1,2,2:0:0:0:
61,181,231037,1,10,2:0:0:0:
73,297,231232,2,0,L|75:325,2,28.75,2|0|0,2:0|2:0|2:0,2:0:0:0:
168,222,231622,5,2,2:0:0:0:
175,144,231720,1,2,2:0:0:0:
185,61,231816,2,0,L|188:22,1,28.75,6|0,2:0|2:0,2:0:0:0:
181,65,232012,5,2,2:0:0:0:
181,65,232401,1,2,2:0:0:0:
474,89,232596,1,10,2:0:0:0:
488,207,232790,2,0,L|491:245,2,28.75,2|0|0,2:0|2:0|2:0,2:0:0:0:
506,337,233180,5,2,2:0:0:0:
429,331,233277,1,2,2:0:0:0:
350,325,233375,2,0,L|354:277,1,28.75,2|0,2:0|2:0,2:0:0:0:
350,325,233570,1,2,2:0:0:0:
350,325,233667,1,0,2:0:0:0:
350,325,233959,5,2,2:0:0:0:
328,64,234154,2,0,L|330:92,1,28.75,10|0,2:0|2:0,2:0:0:0:
192,128,234349,1,2,2:0:0:0:
192,128,234446,2,0,L|190:156,1,28.75,2|0,2:0|2:0,2:0:0:0:
344,192,234641,1,2,2:0:0:0:
344,192,234738,2,0,L|346:220,1,28.75,2|0,2:0|2:0,2:0:0:0:
184,256,234933,6,0,L|182:284,1,28.75,2|0,2:0|2:0,2:0:0:0:
184,256,235128,1,2,2:0:0:0:
184,256,235518,1,2,2:0:0:0:
470,281,235712,1,10,2:0:0:0:
344,80,235907,6,0,L|346:108,1,28.75,2|0,2:0|2:0,2:0:0:0:
356,227,236102,1,2,2:0:0:0:
178,335,236297,5,2,2:0:0:0:
184,256,236395,1,2,2:0:0:0:
190,178,236492,1,2,2:0:0:0:
190,178,236687,5,2,2:0:0:0:
190,178,237076,1,2,2:0:0:0:
487,165,237271,1,10,2:0:0:0:
369,383,237466,6,0,L|366:355,1,28.75,2|0,2:0|2:0,2:0:0:0:
356,227,237661,1,2,2:0:0:0:
188,66,237855,5,2,2:0:0:0:
265,72,237952,1,2,2:0:0:0:
344,80,238050,2,0,L|346:108,1,28.75,2|0,2:0|2:0,2:0:0:0:
344,80,238245,5,2,2:0:0:0:
344,80,238634,1,2,2:0:0:0:
360,376,238829,1,10,2:0:0:0:
227,317,239024,6,0,L|199:319,1,28.75,2|0,2:0|2:0,2:0:0:0:
71,330,239219,1,2,2:0:0:0:
512,240,239414,5,2,2:0:0:0:
434,233,239511,1,2,2:0:0:0:
355,225,239609,1,2,2:0:0:0:
355,226,239803,5,2,2:0:0:0:
355,226,240193,1,2,2:0:0:0:
88,248,240389,1,10,2:0:0:0:
64,48,240583,5,2,2:0:0:0:
73,130,240680,2,0,L|76:159,1,28.75,2|0,2:0|2:0,2:0:0:0:
222,208,240875,5,2,2:0:0:0:
231,126,240972,2,0,L|234:97,1,28.75,2|0,2:0|2:0,2:0:0:0:
245,9,241167,5,6,2:0:0:0:
414,0,241362,1,2,2:0:0:0:
389,52,241459,1,0,2:0:0:0:
447,46,241557,1,0,2:0:0:0:
245,9,241751,5,2,2:0:0:0:
414,0,241946,1,2,2:0:0:0:
389,52,242043,1,0,2:0:0:0:
447,46,242141,1,0,2:0:0:0:
245,9,242336,5,2,2:0:0:0:
414,0,242531,1,2,2:0:0:0:
389,52,242628,1,0,2:0:0:0:
447,46,242726,1,0,2:0:0:0:
408,1,242920,5,2,2:0:0:0:
393,56,243017,1,0,2:0:0:0:
448,40,243115,1,0,2:0:0:0:
245,9,243310,5,2,2:0:0:0:
408,1,243505,1,2,2:0:0:0:
393,56,243602,1,0,2:0:0:0:
448,40,243700,1,0,2:0:0:0:
401,2,243894,5,2,2:0:0:0:
395,58,243991,1,0,2:0:0:0:
448,34,244089,1,0,2:0:0:0:
292,177,244284,5,2,2:0:0:0:
112,256,244479,1,2,2:0:0:0:
157,162,244576,1,0,2:0:0:0:
51,173,244674,1,0,2:0:0:0:
292,177,244868,5,2,2:0:0:0:
112,256,245063,1,2,2:0:0:0:
157,162,245160,1,0,2:0:0:0:
51,173,245258,1,0,2:0:0:0:
292,177,245453,5,2,2:0:0:0:
112,256,245648,1,2,2:0:0:0:
157,162,245745,1,0,2:0:0:0:
51,173,245843,1,0,2:0:0:0:
122,255,246037,5,2,2:0:0:0:
150,154,246134,1,0,2:0:0:0:
49,183,246232,1,0,2:0:0:0:
292,177,246427,5,2,2:0:0:0:
122,255,246622,1,10,2:0:0:0:
150,154,246719,1,8,2:0:0:0:
49,183,246816,1,10,2:0:0:0:
21,284,246914,1,8,2:0:0:0:
96,356,247011,5,10,2:0:0:0:
197,327,247109,1,8,2:0:0:0:
225,226,247206,1,10,2:0:0:0:
253,125,247303,1,8,2:0:0:0:
281,24,247401,6,0,P|364:26|418:86,1,115,6|0,2:0|2:0,2:0:0:0:
355,219,247596,2,0,P|401:186|424:134,1,115,8|0,2:0|2:0,2:0:0:0:
253,125,247790,1,2,2:0:0:0:
263,196,247887,1,0,2:0:0:0:
273,268,247985,2,0,L|287:406,1,115,8|0,2:0|2:0,2:0:0:0:
56,297,248180,6,0,P|102:330|125:382,1,115,2|0,2:0|2:0,2:0:0:0:
142,107,248375,2,0,P|108:152|102:209,1,115,8|0,2:0|2:0,2:0:0:0:
0,11,248570,2,0,P|56:5|108:28,1,115,2|0,2:0|2:0,2:0:0:0:
338,130,248764,2,0,P|284:148|247:191,1,115,8|0,2:0|2:0,2:0:0:0:
183,299,248959,6,0,L|68:310,1,115,2|0,2:0|2:0,2:0:0:0:
142,107,249154,1,8,2:0:0:0:
224,119,249252,2,0,L|362:133,1,115,0|2,2:0|2:0,2:0:0:0:
488,264,249446,5,0,2:0:0:0:
382,274,249544,2,0,L|244:288,1,115,8|0,2:0|2:0,2:0:0:0:
509,114,249738,5,2,2:0:0:0:
498,189,249835,1,0,2:0:0:0:
488,264,249933,2,0,L|473:408,1,115,8|0,2:0|2:0,2:0:0:0:
349,9,250128,5,2,2:0:0:0:
360,84,250225,1,0,2:0:0:0:
370,159,250323,2,0,L|384:303,1,115,8|0,2:0|2:0,2:0:0:0:
156,153,250518,6,0,P|288:122|389:177,1,230,2|8,2:0|2:0,2:0:0:0:
185,323,250810,1,0,2:0:0:0:
285,317,250907,2,0,P|262:264|215:231,1,115,2|0,2:0|2:0,2:0:0:0:
155,151,251102,2,0,P|160:95|194:49,1,115,8|0,2:0|2:0,2:0:0:0:
78,303,251297,6,0,P|58:227|103:297,1,230,2|8,2:0|2:0,2:0:0:0:
47,134,251589,2,0,P|103:127|155:151,1,115,0|2,2:0|2:0,2:0:0:0:
216,231,251784,1,0,2:0:0:0:
158,41,251881,2,0,P|214:47|266:23,1,115,8|0,2:0|2:0,2:0:0:0:
340,278,252076,5,2,2:0:0:0:
387,213,252174,1,0,2:0:0:0:
353,140,252271,2,0,L|201:126,1,115,8|0,2:0|2:0,2:0:0:0:
51,160,252466,5,2,2:0:0:0:
17,232,252564,1,0,2:0:0:0:
61,298,252661,2,0,L|175:288,1,115,8|0,2:0|2:0,2:0:0:0:
357,296,252855,5,2,2:0:0:0:
414,217,252953,1,0,2:0:0:0:
373,128,253050,2,0,P|308:100|230:119,1,115,8|0,2:0|2:0,2:0:0:0:
48,160,253245,2,0,P|117:142|191:175,1,115,8|0,2:0|2:0,2:0:0:0:
480,102,253440,2,0,P|414:130|336:111,1,115,8|0,2:0|2:0,2:0:0:0:
112,352,253635,6,0,P|94:283|127:209,1,115,4|0,2:0|2:0,2:0:0:0:
55,49,253829,2,0,P|37:118|70:192,1,115,8|0,2:0|2:0,2:0:0:0:
200,288,254024,1,2,2:0:0:0:
275,277,254121,1,0,2:0:0:0:
350,267,254219,2,0,L|495:252,1,115,8|0,2:0|2:0,2:0:0:0:
376,24,254414,6,0,P|358:93|391:167,1,115,2|0,2:0|2:0,2:0:0:0:
272,155,254609,2,0,P|235:111|224:55,1,115,8|0,2:0|2:0,2:0:0:0:
108,159,254804,2,0,P|158:209|239:217,1,115,2|0,2:0|2:0,2:0:0:0:
169,313,254998,2,0,P|113:323|58:305,1,115,8|0,2:0|2:0,2:0:0:0:
296,264,255193,6,0,L|285:378,1,115,2|0,2:0|2:0,2:0:0:0:
416,280,255387,1,8,2:0:0:0:
406,205,255485,2,0,L|391:60,1,115,0|2,2:0|2:0,2:0:0:0:
190,124,255679,1,0,2:0:0:0:
180,199,255777,2,0,L|165:344,1,115,8|0,2:0|2:0,2:0:0:0:
15,338,255972,5,2,2:0:0:0:
90,327,256069,1,0,2:0:0:0:
168,313,256167,2,0,L|313:298,1,115,8|0,2:0|2:0,2:0:0:0:
152,48,256362,5,2,2:0:0:0:
227,59,256459,1,0,2:0:0:0:
302,69,256557,2,0,L|447:84,1,115,8|0,2:0|2:0,2:0:0:0:
297,183,256751,6,0,P|291:300|371:380,1,230,2|8,2:0|2:0,2:0:0:0:
183,195,257044,1,0,2:0:0:0:
175,277,257141,2,0,P|195:345|220:387,1,115,2|0,2:0|2:0,2:0:0:0:
67,265,257336,2,0,P|131:256|179:281,1,115,8|0,2:0|2:0,2:0:0:0:
426,286,257531,6,0,P|406:340|363:377,1,115,2|0,2:0|2:0,2:0:0:0:
276,184,257725,2,0,P|286:240|321:283,1,115,8|0,2:0|2:0,2:0:0:0:
488,206,257920,2,0,P|434:187|379:196,1,115,2|0,2:0|2:0,2:0:0:0:
161,370,258115,2,0,P|217:379|270:360,1,115,8|0,2:0|2:0,2:0:0:0:
108,201,258310,5,2,2:0:0:0:
183,212,258407,1,0,2:0:0:0:
258,222,258505,2,0,L|402:237,1,115,8|0,2:0|2:0,2:0:0:0:
87,51,258699,5,2,2:0:0:0:
98,126,258796,1,0,2:0:0:0:
108,201,258894,2,0,L|123:345,1,115,8|0,2:0|2:0,2:0:0:0:
350,110,259089,6,0,P|296:128|241:119,1,115,8|0,2:0|2:0,2:0:0:0:
458,373,259284,1,8,2:0:0:0:
372,384,259381,1,8,2:0:0:0:
311,325,259479,1,8,2:0:0:0:
318,240,259576,1,8,2:0:0:0:
389,192,259674,1,8,2:0:0:0:
471,218,259771,1,8,2:0:0:0:
500,298,259868,6,0,L|385:308,1,86.2500032901765,6|0,2:0|2:0,2:0:0:0:
389,192,260063,2,0,L|274:181,1,86.2500032901765,10|0,2:0|2:0,2:0:0:0:
320,312,260258,2,0,L|205:322,1,86.2500032901765,2|0,2:0|2:0,2:0:0:0:
209,178,260453,2,0,L|94:167,1,86.2500032901765,10|0,2:0|2:0,2:0:0:0:
140,326,260648,2,0,L|25:336,1,86.2500032901765,2|0,2:0|2:0,2:0:0:0:
280,104,260842,5,10,2:0:0:0:
205,94,260939,1,0,2:0:0:0:
130,84,261037,2,0,L|15:72,1,86.2500032901765,2|0,2:0|2:0,2:0:0:0:
304,0,261232,2,0,L|218:8,1,86.2500032901765,10|0,2:0|2:0,2:0:0:0:
40,160,261427,6,0,L|125:168,1,86.2500032901765,2|0,2:0|2:0,2:0:0:0:
320,216,261621,2,0,L|435:204,1,86.2500032901765,10|0,2:0|2:0,2:0:0:0:
40,248,261816,2,0,L|125:256,1,86.2500032901765,2|0,2:0|2:0,2:0:0:0:
320,304,262011,2,0,L|435:292,1,86.2500032901765,10|0,2:0|2:0,2:0:0:0:
41,335,262206,6,0,L|126:343,1,86.2500032901765,2|0,2:0|2:0,2:0:0:0:
205,149,262401,1,10,2:0:0:0:
280,138,262498,1,0,2:0:0:0:
355,128,262596,2,0,L|440:119,1,86.2500032901765,2|0,2:0|2:0,2:0:0:0:
240,240,262790,2,0,L|325:248,1,86.2500032901765,10|0,2:0|2:0,2:0:0:0:
328,333,262985,6,0,P|320:285|360:189,1,86.2500032901765,2|0,2:0|2:0,2:0:0:0:
226,171,263180,2,0,P|231:213|224:256,1,86.2500032901765,10|0,2:0|2:0,2:0:0:0:
128,200,263375,2,0,P|120:152|160:56,1,86.2500032901765,2|0,2:0|2:0,2:0:0:0:
26,38,263570,2,0,P|31:80|23:123,1,86.2500032901765,10|0,2:0|2:0,2:0:0:0:
336,24,263764,6,0,P|330:66|338:108,1,86.2500032901765,2|0,2:0|2:0,2:0:0:0:
408,160,263959,2,0,L|511:150,1,86.2500032901765,10|0,2:0|2:0,2:0:0:0:
208,128,264154,2,0,P|213:170|205:212,1,86.2500032901765,2|0,2:0|2:0,2:0:0:0:
136,264,264349,2,0,L|32:254,1,86.2500032901765,10|0,2:0|2:0,2:0:0:0:
464,384,264544,6,0,P|472:342|467:300,1,86.2500032901765,2|0,2:0|2:0,2:0:0:0:
378,211,264738,2,0,P|370:253|375:295,1,86.2500032901765,10|0,2:0|2:0,2:0:0:0:
88,376,264933,2,0,P|129:387|172:385,1,86.2500032901765,2|0,2:0|2:0,2:0:0:0:
272,304,265127,2,0,P|230:292|187:294,1,86.2500032901765,10|0,2:0|2:0,2:0:0:0:
32,248,265323,5,2,2:0:0:0:
120,224,265420,2,0,P|112:112|16:72,1,172.500006580353,8|0,2:0|2:0,2:0:0:0:
96,312,265713,5,8,2:0:0:0:
178,303,265810,1,8,2:0:0:0:
261,295,265908,1,8,2:0:0:0:
343,286,266004,1,8,2:0:0:0:
424,273,266102,6,0,P|430:216|409:171,1,86.2500032901765,6|0,2:0|2:0,2:0:0:0:
352,128,266297,2,0,L|216:116,1,86.2500032901765,10|0,2:0|2:0,2:0:0:0:
8,192,266492,6,0,P|2:135|23:90,1,86.2500032901765,2|0,2:0|2:0,2:0:0:0:
80,47,266687,2,0,L|215:35,1,86.2500032901765,10|0,2:0|2:0,2:0:0:0:
328,234,266881,6,0,P|324:291|295:331,1,86.2500032901765,2|0,2:0|2:0,2:0:0:0:
231,364,267076,2,0,L|95:352,1,86.2500032901765,10|0,2:0|2:0,2:0:0:0:
477,163,267271,6,0,P|473:105|444:65,1,86.2500032901765,2|0,2:0|2:0,2:0:0:0:
380,33,267466,2,0,L|244:44,1,86.2500032901765,10|0,2:0|2:0,2:0:0:0:
8,192,267661,6,0,L|143:203,1,86.2500032901765,2|0,2:0|2:0,2:0:0:0:
174,233,267855,2,0,P|192:272|192:315,1,86.2500032901765,10|0,2:0|2:0,2:0:0:0:
459,81,268050,6,0,L|323:92,1,86.2500032901765,2|0,2:0|2:0,2:0:0:0:
292,122,268244,2,0,P|274:160|274:203,1,86.2500032901765,10|0,2:0|2:0,2:0:0:0:
488,365,268440,6,0,L|476:229,1,86.2500032901765,2|0,2:0|2:0,2:0:0:0:
447,198,268634,2,0,P|408:180|365:180,1,86.2500032901765,10|0,2:0|2:0,2:0:0:0:
186,1,268829,6,0,L|174:136,1,86.2500032901765,2|0,2:0|2:0,2:0:0:0:
197,172,269024,2,0,P|232:196|274:203,1,86.2500032901765,10|0,2:0|2:0,2:0:0:0:
40,271,269219,6,0,P|75:246|117:239,1,86.2500032901765,2|0,2:0|2:0,2:0:0:0:
194,302,269414,2,0,P|197:344|182:384,1,86.2500032901765,10|0,2:0|2:0,2:0:0:0:
186,1,269609,6,0,P|189:43|174:83,1,86.2500032901765,2|0,2:0|2:0,2:0:0:0:
82,118,269803,2,0,P|43:99|16:66,1,86.2500032901765,10|0,2:0|2:0,2:0:0:0:
430,118,269998,6,0,P|468:99|495:66,1,86.2500032901765,2|0,2:0|2:0,2:0:0:0:
326,1,270193,2,0,P|322:43|337:83,1,86.2500032901765,10|0,2:0|2:0,2:0:0:0:
472,271,270388,6,0,P|436:246|394:239,1,86.2500032901765,2|0,2:0|2:0,2:0:0:0:
318,302,270583,2,0,P|314:344|329:384,1,86.2500032901765,10|0,2:0|2:0,2:0:0:0:
81,19,270777,6,0,P|84:61|69:101,1,86.2500032901765,2|0,2:0|2:0,2:0:0:0:
8,200,270972,2,0,P|50:196|90:211,1,86.2500032901765,10|0,2:0|2:0,2:0:0:0:
281,381,271167,6,0,P|284:339|269:299,1,86.2500032901765,2|0,2:0|2:0,2:0:0:0:
208,200,271362,2,0,P|250:204|290:189,1,86.2500032901765,10|0,2:0|2:0,2:0:0:0:
481,19,271557,6,0,P|484:61|469:101,1,86.2500032901765,2|0,2:0|2:0,2:0:0:0:
408,200,271751,2,0,P|450:196|490:211,1,86.2500032901765,10|0,2:0|2:0,2:0:0:0:
110,326,271946,5,10,2:0:0:0:
119,222,272043,1,8,2:0:0:0:
219,199,272140,1,10,2:0:0:0:
272,288,272238,1,8,2:0:0:0:
204,365,272336,6,0,L|194:250,1,86.2500032901765,2|0,2:0|2:0,2:0:0:0:
322,125,272531,2,0,L|314:210,1,86.2500032901765,8|0,2:0|2:0,2:0:0:0:
192,360,272725,6,0,L|182:245,1,86.2500032901765,2|0,2:0|2:0,2:0:0:0:
336,128,272920,2,0,L|328:213,1,86.2500032901765,8|0,2:0|2:0,2:0:0:0:
21,275,273115,6,0,P|61:256|205:291,2,172.500006580353,2|8|0,2:0|2:0|2:0,2:0:0:0:
253,111,273700,2,0,P|297:110|341:131,1,86.2500032901765,8|0,2:0|2:0,2:0:0:0:
405,217,273894,6,0,L|397:302,1,86.2500032901765,0|0,2:0|2:0,2:0:0:0:
496,112,274089,2,0,L|488:27,1,86.2500032901765,8|0,2:0|2:0,2:0:0:0:
392,216,274284,2,0,L|384:301,1,86.2500032901765,2|0,2:0|2:0,2:0:0:0:
512,112,274479,2,0,L|504:27,1,86.2500032901765,8|0,2:0|2:0,2:0:0:0:
392,216,274674,6,0,P|347:216|303:195,1,86.2500032901765,2|0,2:0|2:0,2:0:0:0:
114,191,274868,2,0,P|135:152|175:124,1,86.2500032901765,8|0,2:0|2:0,2:0:0:0:
316,26,275063,2,0,P|272:110|272:16,1,258.75000987053,2|0,2:0|2:0,2:0:0:0:
400,8,275453,6,0,P|415:49|411:98,1,86.2500032901765,2|0,2:0|2:0,2:0:0:0:
168,128,275647,2,0,P|152:86|156:37,1,86.2500032901765,8|0,2:0|2:0,2:0:0:0:
262,218,275842,1,2,2:0:0:0:
182,206,275939,1,0,2:0:0:0:
106,226,276036,1,8,2:0:0:0:
44,276,276134,1,0,2:0:0:0:
6,346,276232,6,0,P|102:378|182:330,1,172.500006580353,2|8,2:0|2:0,2:0:0:0:
262,361,276524,1,0,2:0:0:0:
250,278,276622,1,0,0:0:0:0:
241,199,276719,1,0,0:0:0:0:
281,123,276816,1,0,0:0:0:0:
288,44,276913,1,0,0:0:0:0:
365,80,277011,6,0,L|451:89,1,86.2500032901765,2|0,2:0|2:0,2:0:0:0:
509,281,277206,2,0,L|423:289,1,86.2500032901765,8|0,2:0|2:0,2:0:0:0:
508,179,277401,2,0,L|336:196,1,172.500006580353,2|8,2:0|2:0,2:0:0:0:
0,31,277693,1,0,2:0:0:0:
84,41,277790,6,0,L|188:51,1,86.2500032901765,2|0,2:0|2:0,2:0:0:0:
136,231,277985,2,0,L|124:116,1,86.2500032901765,8|0,2:0|2:0,2:0:0:0:
259,212,278180,2,0,L|242:384,2,172.500006580353,10|2|2,2:0|2:0|2:0,2:0:0:0:
259,212,278764,6,0,P|311:238|377:223,1,86.2500032901765,8|0,2:0|2:0,2:0:0:0:
444,37,278959,2,0,P|423:91|307:142,2,172.500006580353,2|8|2,2:0|2:0|2:0,2:0:0:0:
444,37,279544,5,8,2:0:0:0:
424,216,279738,2,0,L|434:335,1,86.2500032901765,2|0,2:0|2:0,2:0:0:0:
297,379,279933,1,8,2:0:0:0:
308,304,280030,1,0,2:0:0:0:
318,229,280128,6,0,L|330:114,1,86.2500032901765,2|0,2:0|2:0,2:0:0:0:
213,121,280323,2,0,L|208:64,2,57.500002193451,8|0|0,2:0|2:0|2:0,2:0:0:0:
224,216,280518,2,0,L|109:204,1,86.2500032901765,2|0,2:0|2:0,2:0:0:0:
427,129,280712,2,0,L|542:141,1,86.2500032901765,8|0,2:0|2:0,2:0:0:0:
326,142,280907,6,0,P|325:185|341:225,1,86.2500032901765,2|0,2:0|2:0,2:0:0:0:
496,312,281102,2,0,P|459:289|417:283,1,86.2500032901765,8|0,2:0|2:0,2:0:0:0:
210,380,281297,5,2,2:0:0:0:
217,298,281394,1,0,2:0:0:0:
224,216,281491,1,8,2:0:0:0:
231,134,281589,1,0,2:0:0:0:
238,52,281687,6,0,P|301:13|440:77,2,172.500006580353,2|8|2,2:0|2:0|2:0,2:0:0:0:
238,52,282271,2,0,P|293:70|329:127,1,86.2500032901765,8|0,2:0|2:0,2:0:0:0:
462,104,282466,2,0,P|418:142|350:145,1,86.2500032901765,2|0,2:0|2:0,2:0:0:0:
232,144,282661,2,0,P|167:198|158:282,1,172.500006580353,8|2,2:0|2:0,2:0:0:0:
158,282,283050,2,0,P|199:270|242:274,1,86.2500032901765,8|0,2:0|2:0,2:0:0:0:
452,306,283245,5,2,2:0:0:0:
425,243,283343,1,0,2:0:0:0:
356,249,283440,1,8,2:0:0:0:
340,316,283538,1,0,2:0:0:0:
400,352,283635,1,2,2:0:0:0:
120,134,283829,5,8,2:0:0:0:
147,71,283927,1,0,2:0:0:0:
216,77,284024,1,2,2:0:0:0:
232,144,284122,1,0,2:0:0:0:
172,180,284219,1,8,2:0:0:0:
88,264,284414,5,2,2:0:0:0:
40,327,284511,1,0,2:0:0:0:
117,336,284609,2,0,P|159:342|195:365,1,86.2500032901765,8|0,2:0|2:0,2:0:0:0:
336,256,284803,6,0,P|300:279|257:285,1,86.2500032901765,6|0,2:0|2:0,2:0:0:0:
288,112,284998,1,8,2:0:0:0:
288,112,285096,2,0,P|326:131|352:165,1,86.2500032901765,0|2,2:0|2:0,2:0:0:0:
188,226,285290,1,0,2:0:0:0:
188,226,285388,2,0,P|185:183|201:143,1,86.2500032901765,8|0,2:0|2:0,2:0:0:0:
336,256,285583,6,0,P|374:274|401:308,1,86.2500032901765,2|0,2:0|2:0,2:0:0:0:
188,226,285777,2,0,P|152:250|109:256,1,86.2500032901765,8|0,2:0|2:0,2:0:0:0:
288,112,285972,2,0,P|284:69|300:28,1,86.2500032901765,2|0,2:0|2:0,2:0:0:0:
315,349,286167,2,0,L|179:337,1,86.2500032901765,8|0,2:0|2:0,2:0:0:0:
31,157,286362,6,0,L|116:149,1,86.2500032901765,2|0,2:0|2:0,2:0:0:0:
299,29,286557,1,8,2:0:0:0:
299,29,286654,2,0,L|214:21,1,86.2500032901765,0|2,2:0|2:0,2:0:0:0:
216,216,286849,1,0,2:0:0:0:
216,216,286946,2,0,L|224:131,1,86.2500032901765,8|0,2:0|2:0,2:0:0:0:
464,24,287141,6,0,L|472:109,1,86.2500032901765,2|0,2:0|2:0,2:0:0:0:
360,183,287336,2,0,L|368:98,1,86.2500032901765,8|0,2:0|2:0,2:0:0:0:
484,199,287531,2,0,L|492:284,1,86.2500032901765,2|0,2:0|2:0,2:0:0:0:
340,358,287725,2,0,L|348:273,1,86.2500032901765,8|0,2:0|2:0,2:0:0:0:
141,148,287920,6,0,P|221:129|293:161,1,86.2500032901765,2|0,2:0|2:0,2:0:0:0:
88,304,288115,2,0,P|45:301|5:285,1,86.2500032901765,8|0,2:0|2:0,2:0:0:0:
200,248,288310,2,0,P|219:328|187:400,1,86.2500032901765,2|0,2:0|2:0,2:0:0:0:
32,176,288505,2,0,P|34:133|50:93,1,86.2500032901765,8|0,2:0|2:0,2:0:0:0:
306,39,288699,6,0,P|342:62|368:96,1,86.2500032901765,2|0,2:0|2:0,2:0:0:0:
277,196,288894,1,8,2:0:0:0:
197,190,288992,1,0,2:0:0:0:
117,183,289089,2,0,L|-18:171,1,86.2500032901765,2|0,2:0|2:0,2:0:0:0:
344,256,289284,2,0,L|479:244,1,86.2500032901765,8|0,2:0|2:0,2:0:0:0:
104,360,289479,6,0,L|115:224,1,86.2500032901765,2|0,2:0|2:0,2:0:0:0:
196,188,289674,2,0,L|189:104,1,86.2500032901765,8|0,2:0|2:0,2:0:0:0:
259,265,289868,1,2,2:0:0:0:
304,176,289966,2,0,L|296:91,1,86.2500032901765,0|8,2:0|2:0,2:0:0:0:
366,252,290160,1,0,2:0:0:0:
411,163,290258,6,0,L|403:78,1,86.2500032901765,2|0,2:0|2:0,2:0:0:0:
188,103,290453,1,8,2:0:0:0:
182,183,290551,1,0,2:0:0:0:
175,263,290648,2,0,L|163:398,1,86.2500032901765,2|0,2:0|2:0,2:0:0:0:
296,90,290842,2,0,L|288:5,1,86.2500032901765,8|8,2:0|2:0,2:0:0:0:
415,299,291037,5,2,2:0:0:0:
296,90,291232,1,8,2:0:0:0:
289,170,291329,2,0,L|277:305,1,86.2500032901765,0|2,2:0|2:0,2:0:0:0:
22,117,291524,1,0,2:0:0:0:
102,110,291622,2,0,L|237:98,1,86.2500032901765,8|0,2:0|2:0,2:0:0:0:
281,255,291816,6,0,L|195:262,1,86.2500032901765,2|0,2:0|2:0,2:0:0:0:
374,177,292011,2,0,L|459:184,1,86.2500032901765,8|0,2:0|2:0,2:0:0:0:
253,356,292206,2,0,L|167:363,1,86.2500032901765,2|0,2:0|2:0,2:0:0:0:
402,278,292401,2,0,L|487:285,1,86.2500032901765,8|0,2:0|2:0,2:0:0:0:
301,6,292596,6,0,P|289:50|298:95,1,86.2500032901765,2|0,2:0|2:0,2:0:0:0:
402,278,292790,2,0,P|414:234|405:189,1,86.2500032901765,8|0,2:0|2:0,2:0:0:0:
230,352,292985,2,0,P|274:364|319:355,1,86.2500032901765,2|0,2:0|2:0,2:0:0:0:
185,102,293180,5,8,2:0:0:0:
178,182,293277,2,0,L|166:317,1,86.2500032901765,0|2,2:0|2:0,2:0:0:0:
313,357,293472,1,0,2:0:0:0:
306,277,293569,2,0,L|294:142,1,86.2500032901765,8|0,2:0|2:0,2:0:0:0:
84,275,293764,2,0,L|219:263,1,86.2500032901765,2|0,2:0|2:0,2:0:0:0:
384,198,293959,2,0,L|249:186,1,86.2500032901765,8|0,2:0|2:0,2:0:0:0:
68,138,294154,6,0,L|203:126,1,86.2500032901765,2|0,2:0|2:0,2:0:0:0:
145,37,294349,2,0,L|60:45,1,86.2500032901765,8|0,2:0|2:0,2:0:0:0:
309,92,294544,2,0,L|395:100,1,86.2500032901765,2|0,2:0|2:0,2:0:0:0:
403,7,294739,2,0,L|268:-5,1,86.2500032901765,8|0,2:0|2:0,2:0:0:0:
458,263,294933,6,0,P|482:198|466:156,1,86.2500032901765,2|0,2:0|2:0,2:0:0:0:
303,242,295128,1,8,2:0:0:0:
301,326,295225,2,0,P|345:379|389:386,1,86.2500032901765,0|2,2:0|2:0,2:0:0:0:
396,202,295421,1,0,2:0:0:0:
324,158,295518,2,0,P|255:169|227:204,1,86.2500032901765,8|0,2:0|2:0,2:0:0:0:
178,384,295712,6,0,L|186:298,1,86.2500032901765,2|0,2:0|2:0,2:0:0:0:
82,222,295907,2,0,L|74:308,1,86.2500032901765,8|0,2:0|2:0,2:0:0:0:
244,179,296102,2,0,L|252:93,1,86.2500032901765,2|0,2:0|2:0,2:0:0:0:
148,17,296297,2,0,L|140:103,1,86.2500032901765,8|0,2:0|2:0,2:0:0:0:
336,349,296492,5,2,2:0:0:0:
343,266,296590,1,0,2:0:0:0:
351,184,296686,1,8,2:0:0:0:
357,101,296784,1,0,2:0:0:0:
365,19,296881,1,2,2:0:0:0:
365,19,297271,5,2,2:0:0:0:
253,132,297466,1,2,2:0:0:0:
260,47,297563,1,0,2:0:0:0:
182,14,297660,1,0,2:0:0:0:
365,19,297855,5,2,2:0:0:0:
259,137,298050,1,2,2:0:0:0:
267,43,298148,1,0,2:0:0:0:
181,7,298245,1,0,2:0:0:0:
119,79,298342,1,0,2:0:0:0:
169,160,298440,1,0,2:0:0:0:
199,82,298635,1,2,2:0:0:0:
109,316,298829,5,2,2:0:0:0:
239,370,299024,1,2,2:0:0:0:
247,285,299121,1,0,2:0:0:0:
206,211,299218,1,0,2:0:0:0:
304,107,299414,5,2,2:0:0:0:
174,53,299609,1,2,2:0:0:0:
165,137,299706,1,0,2:0:0:0:
206,211,299803,2,0,L|325:200,1,86.2500032901765,0|0,2:0|2:0,2:0:0:0:
109,316,299998,1,0,2:0:0:0:
109,316,300388,5,2,2:0:0:0:
291,203,300583,1,2,2:0:0:0:
206,211,300680,1,0,2:0:0:0:
8,80,300875,1,2,2:0:0:0:
93,87,300972,1,0,2:0:0:0:
291,203,301167,5,2,2:0:0:0:
206,211,301264,1,0,2:0:0:0:
120,218,301362,2,0,L|0:228,1,86.2500032901765,0|0,2:0|2:0,2:0:0:0:
8,80,301557,5,2,2:0:0:0:
93,87,301654,1,0,2:0:0:0:
179,94,301751,2,0,L|298:104,1,86.2500032901765,0|0,2:0|2:0,2:0:0:0:
318,303,301946,5,2,2:0:0:0:
373,105,302141,1,2,2:0:0:0:
365,19,302238,1,0,2:0:0:0:
179,94,302433,1,2,2:0:0:0:
171,180,302530,1,0,2:0:0:0:
365,19,302725,5,2,2:0:0:0:
373,105,302822,1,0,2:0:0:0:
381,191,302920,2,0,L|391:310,1,86.2500032901765,0|0,2:0|2:0,2:0:0:0:
179,94,303115,1,0,2:0:0:0:
179,94,303505,5,6,2:0:0:0:
129,266,304089,1,2,2:0:0:0:
129,266,304284,1,2,2:0:0:0:
39,314,304479,5,8,2:0:0:0:
33,229,304576,1,8,2:0:0:0:
93,171,304673,1,8,2:0:0:0:
177,176,304771,1,8,2:0:0:0:
228,242,304868,1,8,2:0:0:0:
213,324,304966,1,8,2:0:0:0:
141,367,305063,6,0,P|120:312|129:242,1,115,6|0,2:0|2:0,2:0:0:0:
177,176,305258,2,0,P|173:134|129:52,1,115,8|0,2:0|2:0,2:0:0:0:
507,116,305453,5,2,2:0:0:0:
449,23,305550,1,0,2:0:0:0:
344,7,305648,2,0,P|308:30|272:106,1,115,8|0,2:0|2:0,2:0:0:0:
308,215,305842,6,0,P|347:235|422:241,1,115,2|0,2:0|2:0,2:0:0:0:
201,300,306037,2,0,P|164:323|131:389,1,115,8|0,2:0|2:0,2:0:0:0:
181,160,306232,2,0,P|178:117|116:44,1,115,2|0,2:0|2:0,2:0:0:0:
355,314,306427,2,0,P|312:251|308:209,1,115,8|0,2:0|2:0,2:0:0:0:
8,240,306622,6,0,L|134:250,1,115,2|0,2:0|2:0,2:0:0:0:
471,101,306816,1,8,2:0:0:0:
363,111,306914,2,0,L|236:121,1,115,0|2,2:0|2:0,2:0:0:0:
93,247,307109,1,0,2:0:0:0:
201,237,307206,2,0,L|327:226,1,115,8|0,2:0|2:0,2:0:0:0:
340,337,307401,6,0,P|314:248|322:192,1,115,2|0,2:0|2:0,2:0:0:0:
94,88,307596,2,0,P|184:109|228:144,1,115,8|0,2:0|2:0,2:0:0:0:
432,0,307790,2,0,P|367:67|315:88,1,115,2|0,2:0|2:0,2:0:0:0:
512,198,307985,2,0,P|473:178|389:172,1,115,8|0,2:0|2:0,2:0:0:0:
120,247,308180,6,0,P|91:280|28:311,1,115,2|0,2:0|2:0,2:0:0:0:
250,316,308375,2,0,P|262:274|263:196,1,115,8|0,2:0|2:0,2:0:0:0:
427,384,308570,1,2,2:0:0:0:
417,289,308667,1,0,2:0:0:0:
407,195,308764,2,0,P|389:155|336:103,1,115,8|0,2:0|2:0,2:0:0:0:
185,0,308959,6,0,L|175:119,1,115,2|0,2:0|2:0,2:0:0:0:
90,171,309154,1,8,2:0:0:0:
98,270,309251,2,0,L|107:384,1,115,0|2,2:0|2:0,2:0:0:0:
244,368,309446,1,0,2:0:0:0:
252,269,309543,2,0,L|263:147,1,115,8|0,2:0|2:0,2:0:0:0:
0,28,309739,5,2,2:0:0:0:
9,126,309836,1,0,2:0:0:0:
19,226,309933,2,0,L|33:354,1,115,8|0,2:0|2:0,2:0:0:0:
167,72,310128,5,2,2:0:0:0:
158,170,310225,1,0,2:0:0:0:
148,270,310322,2,0,L|137:384,1,115,8|0,2:0|2:0,2:0:0:0:
266,4,310518,5,2,2:0:0:0:
275,102,310615,1,0,2:0:0:0:
285,202,310712,2,0,L|296:316,1,115,8|0,2:0|2:0,2:0:0:0:
512,143,310907,2,0,L|500:-20,1,115,8|0,2:0|2:0,2:0:0:0:
402,270,311102,2,0,L|413:384,1,115,8|0,2:0|2:0,2:0:0:0:
10,126,311297,6,0,L|21:-1,1,115,2|0,2:0|2:0,2:0:0:0:
144,270,311492,2,0,L|152:393,1,115,8|0,2:0|2:0,2:0:0:0:
473,83,311687,1,2,2:0:0:0:
375,92,311784,1,0,2:0:0:0:
275,102,311881,2,0,L|158:112,1,115,8|0,2:0|2:0,2:0:0:0:
379,268,312076,6,0,L|505:279,1,115,2|0,2:0|2:0,2:0:0:0:
144,270,312271,2,0,L|29:280,1,115,8|0,2:0|2:0,2:0:0:0:
357,99,312466,2,0,L|498:112,1,115,2|0,2:0|2:0,2:0:0:0:
166,101,312661,2,0,L|51:111,1,115,8|0,2:0|2:0,2:0:0:0:
279,366,312855,6,0,P|359:355|437:226,1,230,10|0,2:0|2:0,2:0:0:0:
96,103,313148,2,0,P|65:177|138:309,1,230,8|0,2:0|2:0,2:0:0:0:
414,76,313440,2,0,P|361:9|270:-3,1,115,8|0,2:0|2:0,2:0:0:0:
278,365,313635,6,0,P|362:353|417:293,1,115,6|0,2:0|2:0,2:0:0:0:
293,98,313829,1,10,2:0:0:0:
194,130,313927,1,8,2:0:0:0:
194,234,314024,1,10,2:0:0:0:
293,266,314122,1,8,2:0:0:0:
353,182,314219,1,10,2:0:0:0:
96,103,314414,6,0,P|65:177|138:309,1,230,6|8,2:0|2:0,2:0:0:0:
210,81,314706,1,0,2:0:0:0:
158,14,314803,2,0,P|118:0|43:10,1,115,2|0,2:0|2:0,2:0:0:0:
253,178,314998,2,0,P|286:150|310:76,1,115,8|0,2:0|2:0,2:0:0:0:
194,378,315193,6,0,P|234:364|311:371,1,115,2|0,2:0|2:0,2:0:0:0:
499,302,315388,2,0,P|456:302|384:279,1,115,8|0,2:0|2:0,2:0:0:0:
82,242,315583,6,0,P|122:228|199:235,1,115,2|0,2:0|2:0,2:0:0:0:
387,166,315778,2,0,P|344:166|272:143,1,115,8|0,2:0|2:0,2:0:0:0:
0,0,315972,5,2,2:0:0:0:
101,14,316069,1,0,2:0:0:0:
203,28,316167,2,0,L|398:48,1,115,8|0,2:0|2:0,2:0:0:0:
193,233,316362,5,2,2:0:0:0:
294,219,316459,1,0,2:0:0:0:
396,205,316557,2,0,L|591:184,1,115,8|0,2:0|2:0,2:0:0:0:
194,378,316751,5,10,2:0:0:0:
294,219,316946,1,8,2:0:0:0:
188,229,317043,1,8,2:0:0:0:
115,157,317141,1,10,2:0:0:0:
124,57,317238,1,8,2:0:0:0:
208,1,317335,1,8,2:0:0:0:
309,30,317433,1,8,2:0:0:0:
343,127,317531,6,0,P|247:120|205:90,1,115,6|0,2:0|2:0,2:0:0:0:
110,306,317725,2,0,P|14:313|-28:343,1,115,10|0,2:0|2:0,2:0:0:0:
100,46,317920,2,0,P|119:100|115:157,1,115,2|0,2:0|2:0,2:0:0:0:
240,364,318115,2,0,P|230:307|244:252,1,115,10|0,2:0|2:0,2:0:0:0:
327,16,318310,6,0,P|346:70|342:127,1,115,2|0,2:0|2:0,2:0:0:0:
466,371,318505,1,10,2:0:0:0:
417,266,318602,1,0,2:0:0:0:
351,360,318699,2,0,P|295:373|239:363,1,115,2|0,2:0|2:0,2:0:0:0:
115,156,318894,2,0,P|170:142|226:152,1,115,10|0,2:0|2:0,2:0:0:0:
480,48,319089,6,0,L|469:167,1,115,2|0,2:0|2:0,2:0:0:0:
239,363,319284,2,0,L|249:243,1,115,10|0,2:0|2:0,2:0:0:0:
496,368,319479,2,0,L|377:357,1,115,2|0,2:0|2:0,2:0:0:0:
224,48,319674,2,0,L|344:58,1,115,10|0,2:0|2:0,2:0:0:0:
356,263,319868,6,0,L|366:143,1,115,2|0,2:0|2:0,2:0:0:0:
3,164,320063,1,10,2:0:0:0:
61,38,320161,1,0,2:0:0:0:
140,151,320258,2,0,L|130:265,1,115,2|0,2:0|2:0,2:0:0:0:
257,362,320453,2,0,L|248:248,1,115,10|0,2:0|2:0,2:0:0:0:
464,81,320648,6,0,P|425:61|341:55,1,115,2|0,2:0|2:0,2:0:0:0:
257,28,320842,2,0,L|247:142,1,115,10|0,2:0|2:0,2:0:0:0:
44,346,321037,6,0,P|85:358|169:350,1,115,2|0,2:0|2:0,2:0:0:0:
257,362,321231,2,0,L|247:247,1,115,10|0,2:0|2:0,2:0:0:0:
144,62,321427,6,0,P|124:101|118:185,1,115,2|0,2:0|2:0,2:0:0:0:
372,303,321622,2,0,L|362:188,1,115,10|0,2:0|2:0,2:0:0:0:
43,34,321816,6,0,P|23:73|17:157,1,115,2|0,2:0|2:0,2:0:0:0:
475,295,322011,2,0,L|465:180,1,115,10|0,2:0|2:0,2:0:0:0:
144,62,322206,6,0,L|258:71,1,115,2|0,2:0|2:0,2:0:0:0:
255,313,322401,2,0,L|140:322,1,115,10|0,2:0|2:0,2:0:0:0:
29,52,322596,6,0,L|143:61,1,115,2|0,2:0|2:0,2:0:0:0:
372,303,322791,2,0,L|257:312,1,115,10|0,2:0|2:0,2:0:0:0:
9,162,322985,5,2,2:0:0:0:
126,172,323083,2,0,P|147:109|139:48,1,115,8|2,2:0|2:0,2:0:0:0:
423,126,323277,1,0,2:0:0:0:
344,126,323374,1,8,2:0:0:0:
293,184,323471,1,8,2:0:0:0:
305,261,323569,1,8,2:0:0:0:
372,303,323666,1,8,2:0:0:0:
451,281,323764,6,0,P|459:244|455:218,1,57.5,12|0,2:0|2:0,2:0:0:0:
61,103,324154,2,0,P|53:140|57:166,1,57.5,12|0,2:0|2:0,2:0:0:0:
456,224,324544,6,0,P|493:232|519:228,1,57.5,12|0,2:0|2:0,2:0:0:0:
56,160,324933,2,0,P|19:152|-7:156,1,57.5,12|0,2:0|2:0,2:0:0:0:
497,139,325323,6,0,P|505:102|501:76,1,57.5,12|0,2:0|2:0,2:0:0:0:
15,245,325712,2,0,P|7:282|11:308,1,57.5,12|0,2:0|2:0,2:0:0:0:
407,33,326102,6,0,P|370:44|350:61,1,57.5,12|0,2:0|2:0,2:0:0:0:
105,351,326492,2,0,P|141:339|161:322,1,57.5,12|0,2:0|2:0,2:0:0:0:
350,0,326881,6,0,P|358:37|354:63,1,57.5,12|0,2:0|2:0,2:0:0:0:
162,384,327271,2,0,P|154:347|158:321,1,57.5,12|0,2:0|2:0,2:0:0:0:
212,39,327661,6,0,P|249:31|275:35,1,57.5,12|0,2:0|2:0,2:0:0:0:
300,345,328050,2,0,P|263:353|237:349,1,57.5,12|0,2:0|2:0,2:0:0:0:
122,66,328440,5,12,2:0:0:0:
390,318,328829,1,12,2:0:0:0:
122,66,329219,1,12,2:0:0:0:
499,187,329414,5,8,2:0:0:0:
420,158,329511,1,8,2:0:0:0:
336,160,329608,1,8,2:0:0:0:
258,192,329706,1,8,2:0:0:0:
182,230,329803,1,8,2:0:0:0:
99,238,329901,1,8,2:0:0:0:
19,210,329998,5,4,2:0:0:0:
48,128,337790,6,0,P|173:147|206:116,1,115,6|0,2:0|2:0,2:0:0:0:
271,16,337985,1,8,2:0:0:0:
262,112,338083,1,0,2:0:0:0:
253,215,338180,2,0,L|243:335,1,115,2|0,2:0|2:0,2:0:0:0:
472,96,338375,2,0,P|347:77|314:108,1,115,8|0,2:0|2:0,2:0:0:0:
504,320,338570,6,0,L|493:205,1,115,2|0,2:0|2:0,2:0:0:0:
144,264,338764,2,0,L|133:378,1,115,8|0,2:0|2:0,2:0:0:0:
262,112,338959,1,2,2:0:0:0:
194,33,339057,1,0,2:0:0:0:
99,74,339154,1,8,2:0:0:0:
108,177,339251,1,0,2:0:0:0:
209,200,339349,6,0,P|263:216|317:200,1,115,2|0,2:0|2:0,2:0:0:0:
504,320,339544,1,10,2:0:0:0:
400,329,339641,2,0,L|280:339,1,115,0|2,2:0|2:0,2:0:0:0:
99,74,339836,1,0,2:0:0:0:
203,83,339933,2,0,L|322:93,1,115,8|0,2:0|2:0,2:0:0:0:
144,272,340128,6,0,P|128:328|133:386,1,115,2|0,2:0|2:0,2:0:0:0:
464,120,340323,2,0,P|461:61|438:7,1,115,8|0,2:0|2:0,2:0:0:0:
20,136,340518,1,2,2:0:0:0:
102,77,340615,1,0,2:0:0:0:
203,83,340712,1,8,2:0:0:0:
278,151,340810,1,0,2:0:0:0:
288,256,340907,6,0,L|278:370,1,115,2|0,2:0|2:0,2:0:0:0:
29,240,341102,1,10,2:0:0:0:
20,136,341199,2,0,L|10:16,1,115,0|2,2:0|2:0,2:0:0:0:
464,120,341394,1,2,2:0:0:0:
473,224,341491,2,0,L|483:344,1,115,8|0,2:0|2:0,2:0:0:0:
38,354,341687,6,0,L|29:240,1,115,2|0,2:0|2:0,2:0:0:0:
142,39,341881,2,0,L|153:154,1,115,10|0,2:0|2:0,2:0:0:0:
304,360,342076,2,0,L|294:245,1,115,2|0,2:0|2:0,2:0:0:0:
408,0,342271,2,0,L|418:119,1,115,10|0,2:0|2:0,2:0:0:0:
50,112,342466,6,0,P|122:128|178:200,1,115,2|0,2:0|2:0,2:0:0:0:
391,291,342661,2,0,P|341:345|250:357,1,115,10|0,2:0|2:0,2:0:0:0:
152,153,342855,2,0,P|201:98|292:86,1,115,2|0,2:0|2:0,2:0:0:0:
493,332,343050,2,0,P|421:316|365:244,1,115,10|0,2:0|2:0,2:0:0:0:
112,328,343245,6,0,P|57:278|45:187,1,115,2|0,2:0|2:0,2:0:0:0:
435,126,343440,2,0,P|489:175|501:266,1,115,10|0,2:0|2:0,2:0:0:0:
80,80,343635,2,0,P|200:24|136:152,1,345,2|0,2:0|2:0,2:0:0:0:
64,160,344024,6,0,L|-15:153,1,57.5,12|0,2:0|2:0,2:0:0:0:
448,224,344414,2,0,L|527:230,1,57.5,12|0,2:0|2:0,2:0:0:0:
6,186,344803,6,0,L|64:192,1,57.5,12|0,2:0|2:0,2:0:0:0:
505,197,345193,2,0,L|448:192,1,57.5,12|0,2:0|2:0,2:0:0:0:
64,224,345583,6,0,L|-15:217,1,57.5,12|0,2:0|2:0,2:0:0:0:
448,160,345973,2,0,L|527:166,1,57.5,12|0,2:0|2:0,2:0:0:0:
6,250,346362,6,0,L|64:256,1,57.5,12|0,2:0|2:0,2:0:0:0:
505,133,346752,2,0,L|448:128,1,57.5,12|0,2:0|2:0,2:0:0:0:
152,320,347141,6,0,P|152:368|160:400,1,57.5,12|0,2:0|2:0,2:0:0:0:
360,64,347531,2,0,P|360:16|352:-16,1,57.5,12|0,2:0|2:0,2:0:0:0:
169,377,347920,6,0,P|166:348|168:320,1,57.5,12|0,2:0|2:0,2:0:0:0:
342,6,348310,2,0,P|345:35|344:64,1,57.5,12|0,2:0|2:0,2:0:0:0:
270,351,348699,6,0,P|214:344|168:377,1,115,12|0,2:0|2:0,2:0:0:0:
240,31,349089,2,0,P|296:38|342:5,1,115,12|0,2:0|2:0,2:0:0:0:
472,224,349479,5,10,2:0:0:0:
441,200,349576,1,8,2:0:0:0:
404,191,349673,1,8,2:0:0:0:
367,198,349771,1,8,2:0:0:0:
335,219,349868,2,0,L|339:266,3,38.3333333333333,8|0|0|0,2:0|2:0|2:0|2:0,2:0:0:0:
43,352,350258,5,0,0:0:0:0:
32,315,350355,1,0,0:0:0:0:
40,278,350453,1,0,0:0:0:0:
128,312,350550,5,2,2:0:0:0:
180,310,350648,1,0,2:0:0:0:
223,279,350745,1,0,2:0:0:0:
242,230,350843,1,0,2:0:0:0:
141,211,350940,5,2,2:0:0:0:
164,152,351038,1,0,2:0:0:0:
216,114,351135,1,0,2:0:0:0:
280,112,351232,1,0,2:0:0:0:
242,230,351329,5,2,2:0:0:0:
302,269,351427,1,0,2:0:0:0:
374,277,351524,1,0,2:0:0:0:
442,254,351622,1,0,2:0:0:0:
376,192,351719,5,2,2:0:0:0:
374,113,351816,1,0,2:0:0:0:
413,45,351913,1,0,2:0:0:0:
480,6,352011,1,0,2:0:0:0:
509,108,352109,5,2,2:0:0:0:
440,118,352206,1,0,2:0:0:0:
374,113,352303,1,0,2:0:0:0:
311,86,352401,1,0,2:0:0:0:
264,16,352498,5,2,2:0:0:0:
286,72,352595,1,0,2:0:0:0:
283,133,352692,1,0,2:0:0:0:
253,186,352790,1,0,2:0:0:0:
208,224,352888,5,2,2:0:0:0:
248,214,352985,1,0,2:0:0:0:
289,224,353082,1,0,2:0:0:0:
322,249,353180,1,0,2:0:0:0:
341,287,353277,1,0,2:0:0:0:
248,312,353375,5,6,2:0:0:0:
