osu file format v14

[General]
AudioFilename: audio.mp3
AudioLeadIn: 0
PreviewTime: 116394
Countdown: 0
SampleSet: Normal
StackLeniency: 0.7
Mode: 1
LetterboxInBreaks: 0
EpilepsyWarning: 1
WidescreenStoryboard: 1

[Editor]
Bookmarks: 90972,280323
DistanceSpacing: 1.3
BeatDivisor: 4
GridSize: 32
TimelineZoom: 2.999999

[Metadata]
Title:Saifu 'Kamiasobi no Uta'
TitleUnicode:祭符「神遊びの唄」
Artist:Diao ye zong feat. Meramipop
ArtistUnicode:凋叶棕 feat. めらみぽっぷ
Creator:ASPIRIN
Version:Festival is far from over
Source:東方風神録 ~ Mountain of Faith.
Tags:Touhou Project 東方 ネイティブフェイス Native Faith Extra Stage Theme 洩矢 諏訪子 Suwako Moriya 明日ハレの日、ケの昨日 掲 光収容 RD-Sounds Hikarisyuyo ZUN 上海アリス幻樂団 Hakurei Shrine Reitaisai 13 博麗神社例大祭13 Kakage 掲 Team Shanghai Alice Shanhai Arisu Gengakudan
BeatmapID:1321413
BeatmapSetID:627038

[Difficulty]
HPDrainRate:5
CircleSize:2
OverallDifficulty:6
ApproachRate:7
SliderMultiplier:1.4
SliderTickRate:1

[Events]
//Background and Video events
0,0,"bg.jpg",0,0
//Break Periods
2,45001,46434
2,187599,190395
2,330196,333772
//Storyboard Layer 0 (Background)
//Storyboard Layer 1 (Fail)
//Storyboard Layer 2 (Pass)
//Storyboard Layer 3 (Foreground)
//Storyboard Sound Samples

[TimingPoints]
182,451.127819548872,4,1,0,80,1,0
182,-125,4,1,0,80,0,0
18978,-121.951219512195,4,1,0,80,0,0
19129,-120.481927710843,4,1,0,80,0,0
19242,-119.047619047619,4,1,0,80,0,0
19354,-117.647058823529,4,1,0,80,0,0
19430,-116.279069767442,4,1,0,80,0,0
19580,-114.942528735632,4,1,0,80,0,0
19730,-113.636363636364,4,1,0,80,0,0
19881,-112.359550561798,4,1,0,80,0,0
20031,-111.111111111111,4,1,0,80,0,0
41685,389.61038961039,4,1,0,20,1,0
41685,-128.700128700129,4,1,0,20,0,0
47139,-100,4,1,0,80,0,0
59801,-100,4,1,0,100,0,0
60386,-100,4,1,0,80,0,0
66620,-100,4,1,0,60,0,0
67399,-111.111111111111,4,1,0,60,0,0
72269,-111.111111111111,4,1,0,80,0,0
72951,-111.111111111111,4,1,0,60,0,0
77918,-109.89010989011,4,1,0,60,0,0
78308,-108.695652173913,4,1,0,60,0,0
78503,-107.52688172043,4,1,0,80,0,0
78600,-106.382978723404,4,1,0,80,0,0
78697,-105.263157894737,4,1,0,80,0,0
78795,-104.166666666667,4,1,0,80,0,0
78892,-103.092783505155,4,1,0,80,0,0
78990,-102.040816326531,4,1,0,80,0,0
79087,-101.010101010101,4,1,0,80,0,0
79282,-100,4,1,0,80,0,0
116879,-111.111111111111,4,1,0,60,0,0
119607,-100,4,1,0,80,0,0
121165,-100,4,1,0,90,0,0
121749,-99.009900990099,4,1,0,90,0,0
121944,-98.0392156862745,4,1,0,90,0,0
122042,-97.0873786407767,4,1,0,90,0,0
122139,-96.1538461538461,4,1,0,90,0,0
122236,-95.2380952380952,4,1,0,90,0,0
122334,-94.3396226415094,4,1,0,90,0,0
122431,-93.4579439252336,4,1,0,90,0,0
122529,-92.5925925925926,4,1,0,90,0,0
122626,-91.743119266055,4,1,0,100,0,0
122723,-90.9090909090909,4,1,0,100,0,1
135386,-83.3333333333333,4,1,0,100,0,1
146879,-84.7457627118644,4,1,0,100,0,1
146977,-86.2068965517241,4,1,0,100,0,1
147074,-87.719298245614,4,1,0,100,0,1
147172,-89.2857142857143,4,1,0,100,0,1
147269,-90.9090909090909,4,1,0,100,0,1
147366,-92.5925925925926,4,1,0,100,0,1
147464,-94.3396226415094,4,1,0,100,0,1
147561,-96.1538461538461,4,1,0,100,0,1
147659,-98.0392156862745,4,1,0,100,0,0
147853,-100,4,1,0,80,0,0
153308,-100,4,1,0,100,0,0
153892,-100,4,1,0,80,0,0
159542,-100,4,1,0,100,0,0
160126,-100,4,1,0,60,0,0
160516,-111.111111111111,4,1,0,60,0,0
172204,-108.695652173913,4,1,0,80,0,0
172301,-106.382978723404,4,1,0,80,0,0
172399,-105.263157894737,4,1,0,80,0,0
172496,-104.166666666667,4,1,0,80,0,0
172594,-102.040816326531,4,1,0,80,0,0
172788,-100,4,1,0,100,0,0
178243,-100,4,1,0,100,0,0
178827,-100,4,1,0,80,0,0
184477,-100,4,1,0,100,0,0
185061,-100,4,1,0,80,0,0
191295,-111.111111111111,4,1,0,60,0,0
196944,-111.111111111111,4,1,0,80,0,0
197626,-111.111111111111,4,1,0,60,0,0
202594,-109.89010989011,4,1,0,60,0,0
202983,-108.695652173913,4,1,0,60,0,0
203178,-107.52688172043,4,1,0,80,0,0
203275,-106.382978723404,4,1,0,80,0,0
203373,-105.263157894737,4,1,0,80,0,0
203470,-104.166666666667,4,1,0,80,0,0
203568,-103.092783505155,4,1,0,80,0,0
203665,-102.040816326531,4,1,0,80,0,0
203762,-101.010101010101,4,1,0,80,0,0
203957,-100,4,1,0,80,0,0
241555,-100,4,1,0,60,0,0
244282,-100,4,1,0,80,0,0
245840,-100,4,1,0,90,0,0
246425,-99.009900990099,4,1,0,90,0,0
246620,-98.0392156862745,4,1,0,90,0,0
246717,-97.0873786407767,4,1,0,90,0,0
246814,-96.1538461538461,4,1,0,90,0,0
246912,-95.2380952380952,4,1,0,90,0,0
247009,-94.3396226415094,4,1,0,90,0,0
247107,-93.4579439252336,4,1,0,90,0,0
247204,-92.5925925925926,4,1,0,90,0,0
247301,-91.743119266055,4,1,0,90,0,0
247399,-90.9090909090909,4,1,0,100,0,1
260061,-83.3333333333333,4,1,0,100,0,1
271555,-84.7457627118644,4,1,0,100,0,1
271652,-86.2068965517241,4,1,0,100,0,1
271749,-87.719298245614,4,1,0,100,0,1
271847,-89.2857142857143,4,1,0,100,0,1
271944,-90.9090909090909,4,1,0,100,0,1
272042,-92.5925925925926,4,1,0,100,0,1
272139,-94.3396226415094,4,1,0,100,0,1
272236,-96.1538461538461,4,1,0,100,0,1
272334,-98.0392156862745,4,1,0,100,0,0
272529,-100,4,1,0,80,0,0
277983,-100,4,1,0,100,0,0
278568,-100,4,1,0,80,0,0
284996,-90.9090909090909,4,1,0,100,0,0
304087,-91.743119266055,4,1,0,90,0,0
304477,-91.743119266055,4,1,0,100,0,0
304574,-90.9090909090909,4,1,0,100,0,0
304672,-90.0900900900901,4,1,0,100,0,0
304769,-89.2857142857143,4,1,0,100,0,0
304866,-88.4955752212389,4,1,0,100,0,0
304964,-87.719298245614,4,1,0,100,0,0
305061,-86.9565217391304,4,1,0,100,0,1
305256,-86.9565217391304,4,1,0,100,0,1
317723,-80,4,1,0,100,0,1
329217,-84.7457627118644,4,1,0,100,0,1
329314,-86.2068965517241,4,1,0,100,0,1
329412,-87.719298245614,4,1,0,100,0,1
329509,-89.2857142857143,4,1,0,100,0,1
329607,-90.9090909090909,4,1,0,100,0,1
329704,-92.5925925925926,4,1,0,100,0,1
329801,-94.3396226415094,4,1,0,100,0,1
329899,-96.1538461538461,4,1,0,100,0,1
329996,-98.0392156862745,4,1,0,100,0,0
330191,-111.111111111111,4,1,0,60,0,0
334672,-200,4,1,0,60,0,0
337788,-90.9090909090909,4,1,0,100,0,1
350256,-91.743119266055,4,1,0,40,0,0
350548,-92.5925925925926,4,1,0,40,0,0
350646,-93.4579439252336,4,1,0,40,0,0
350743,-94.3396226415094,4,1,0,40,0,0
350840,-95.2380952380952,4,1,0,40,0,0
350938,-96.1538461538461,4,1,0,40,0,0
351035,-97.0873786407767,4,1,0,40,0,0
351133,-98.0392156862745,4,1,0,40,0,0
351230,-99.009900990099,4,1,0,40,0,0
351327,-100,4,1,0,40,0,0
351425,-101.010101010101,4,1,0,40,0,0
351522,-102.040816326531,4,1,0,40,0,0
351620,-103.092783505155,4,1,0,40,0,0
351717,-104.166666666667,4,1,0,40,0,0
351814,-105.263157894737,4,1,0,40,0,0
351912,-106.382978723404,4,1,0,40,0,0
352009,-107.52688172043,4,1,0,40,0,0
352107,-108.695652173913,4,1,0,40,0,0
352204,-109.89010989011,4,1,0,40,0,0
352301,-111.111111111111,4,1,0,40,0,0
352399,-112.359550561798,4,1,0,40,0,0
352496,-113.636363636364,4,1,0,40,0,0
352594,-114.942528735632,4,1,0,40,0,0
352691,-116.279069767442,4,1,0,40,0,0
352788,-117.647058823529,4,1,0,40,0,0
352886,-119.047619047619,4,1,0,40,0,0
352983,-120.481927710843,4,1,0,40,0,0
353081,-121.951219512195,4,1,0,40,0,0
353178,-123.456790123457,4,1,0,40,0,0
353275,-125,4,1,0,40,0,0
353373,-126.582278481013,4,1,0,40,0,0
353568,-128.205128205128,4,1,0,5,0,0

[HitObjects]
256,128,1535,5,0,0:0:0:0:
256,128,1986,1,2,0:0:0:0:
256,128,2287,1,0,0:0:0:0:
256,128,2437,1,0,0:0:0:0:
256,128,2738,1,0,0:0:0:0:
256,128,2888,1,2,0:0:0:0:
256,128,3189,1,0,0:0:0:0:
256,128,3339,1,0,0:0:0:0:
256,128,3640,1,2,0:0:0:0:
256,128,3715,1,0,0:0:0:0:
256,128,3791,1,2,0:0:0:0:
256,128,4091,1,0,0:0:0:0:
256,128,4242,1,2,0:0:0:0:
256,128,4542,1,0,0:0:0:0:
256,128,4693,1,2,0:0:0:0:
256,128,4994,1,2,0:0:0:0:
256,128,5144,1,2,0:0:0:0:
256,128,5445,1,2,0:0:0:0:
256,128,5520,1,0,0:0:0:0:
256,128,5595,1,2,0:0:0:0:
256,128,5896,1,0,0:0:0:0:
256,128,6046,1,0,0:0:0:0:
256,128,6347,1,0,0:0:0:0:
256,128,6497,1,2,0:0:0:0:
256,128,6798,1,0,0:0:0:0:
256,128,6948,1,0,0:0:0:0:
256,128,7249,1,2,0:0:0:0:
256,128,7324,1,0,0:0:0:0:
256,128,7400,1,2,0:0:0:0:
256,128,7700,1,0,0:0:0:0:
256,128,7851,1,2,0:0:0:0:
256,128,8151,1,0,0:0:0:0:
256,128,8302,1,2,0:0:0:0:
256,128,8603,1,2,0:0:0:0:
256,128,8753,1,0,0:0:0:0:
256,128,9054,1,2,0:0:0:0:
256,128,9129,1,0,0:0:0:0:
256,128,9204,1,2,0:0:0:0:
256,128,9505,1,0,0:0:0:0:
256,128,9655,1,0,0:0:0:0:
256,128,9956,1,0,0:0:0:0:
256,128,10106,1,2,0:0:0:0:
256,128,10407,1,0,0:0:0:0:
256,128,10557,1,0,0:0:0:0:
256,128,10858,1,2,0:0:0:0:
256,128,10933,1,0,0:0:0:0:
256,128,11009,1,2,0:0:0:0:
256,128,11309,1,0,0:0:0:0:
256,128,11460,1,2,0:0:0:0:
256,128,11760,1,0,0:0:0:0:
256,128,11911,1,2,0:0:0:0:
256,128,12212,1,2,0:0:0:0:
256,128,12362,1,2,0:0:0:0:
256,128,12663,1,2,0:0:0:0:
256,128,12738,1,0,0:0:0:0:
256,128,12813,1,2,0:0:0:0:
256,128,13114,1,0,0:0:0:0:
256,128,13264,1,0,0:0:0:0:
256,128,13565,1,0,0:0:0:0:
256,128,13715,1,2,0:0:0:0:
256,128,14016,1,0,0:0:0:0:
256,128,14166,1,0,0:0:0:0:
256,128,14467,1,2,0:0:0:0:
256,128,14542,1,0,0:0:0:0:
256,128,14618,1,2,0:0:0:0:
256,128,14918,1,0,0:0:0:0:
256,128,15069,1,2,0:0:0:0:
256,128,15369,1,0,0:0:0:0:
256,128,15520,1,2,0:0:0:0:
256,128,15821,1,2,0:0:0:0:
256,128,15971,1,0,0:0:0:0:
256,128,16272,1,2,0:0:0:0:
256,128,16347,1,0,0:0:0:0:
256,128,16422,1,2,0:0:0:0:
256,128,16723,1,0,0:0:0:0:
256,128,16873,1,0,0:0:0:0:
256,128,17174,1,0,0:0:0:0:
256,128,17324,1,2,0:0:0:0:
256,128,17625,1,2,0:0:0:0:
256,128,17775,1,0,0:0:0:0:
256,128,18076,1,2,0:0:0:0:
256,128,18151,1,0,0:0:0:0:
256,128,18227,1,2,0:0:0:0:
256,128,18527,1,0,0:0:0:0:
256,128,18678,1,2,0:0:0:0:
256,128,18978,1,0,0:0:0:0:
256,128,19129,1,2,0:0:0:0:
256,128,19279,1,0,0:0:0:0:
256,128,19354,1,0,0:0:0:0:
256,128,19430,1,2,0:0:0:0:
256,128,19580,1,2,0:0:0:0:
256,128,19730,1,0,0:0:0:0:
256,128,19881,1,0,0:0:0:0:
256,128,20031,1,6,0:0:0:0:
256,128,20933,1,6,0:0:0:0:
256,128,21836,1,6,0:0:0:0:
256,128,22287,1,4,0:0:0:0:
256,128,22738,1,6,0:0:0:0:
256,128,23039,1,0,0:0:0:0:
256,128,23114,1,2,0:0:0:0:
256,128,23189,1,0,0:0:0:0:
256,128,23339,1,2,0:0:0:0:
256,128,23490,1,0,0:0:0:0:
256,128,23640,1,6,0:0:0:0:
256,128,24542,1,4,0:0:0:0:
256,128,25445,1,6,0:0:0:0:
256,128,25896,1,4,0:0:0:0:
256,128,26347,1,6,0:0:0:0:
256,128,26648,1,0,0:0:0:0:
256,128,26723,1,2,0:0:0:0:
256,128,26798,1,0,0:0:0:0:
256,128,26948,1,2,0:0:0:0:
256,128,27099,1,0,0:0:0:0:
256,128,27249,1,6,0:0:0:0:
256,128,27550,1,2,0:0:0:0:
256,128,27700,1,0,0:0:0:0:
256,128,28151,1,6,0:0:0:0:
256,128,28452,1,2,0:0:0:0:
256,128,28602,1,0,0:0:0:0:
256,128,29054,1,6,0:0:0:0:
256,128,29505,1,4,0:0:0:0:
256,128,29956,1,4,0:0:0:0:
256,128,30257,1,2,0:0:0:0:
256,128,30333,1,0,0:0:0:0:
256,128,30408,1,0,0:0:0:0:
256,128,30558,1,0,0:0:0:0:
256,128,30708,1,2,0:0:0:0:
256,128,30859,1,4,0:0:0:0:
256,128,31159,1,0,0:0:0:0:
256,128,31309,1,2,0:0:0:0:
256,128,31760,1,4,0:0:0:0:
256,128,32061,1,2,0:0:0:0:
256,128,32212,1,0,0:0:0:0:
256,128,32663,1,4,0:0:0:0:
256,128,33114,1,6,0:0:0:0:
256,128,33565,1,6,0:0:0:0:
256,128,33866,1,2,0:0:0:0:
256,128,33941,1,2,0:0:0:0:
256,128,34016,1,0,0:0:0:0:
256,128,34166,1,2,0:0:0:0:
256,128,34317,1,0,0:0:0:0:
256,128,34467,1,6,0:0:0:0:
256,128,34768,1,0,0:0:0:0:
256,128,34918,1,2,0:0:0:0:
256,128,35369,1,6,0:0:0:0:
256,128,35670,1,0,0:0:0:0:
256,128,35820,1,2,0:0:0:0:
256,128,36272,1,6,0:0:0:0:
256,128,36723,1,6,0:0:0:0:
256,128,37174,1,4,0:0:0:0:
256,128,37475,1,2,0:0:0:0:
256,128,37550,1,2,0:0:0:0:
256,128,37625,1,0,0:0:0:0:
256,128,37775,1,0,0:0:0:0:
256,128,37926,1,0,0:0:0:0:
256,128,38076,1,6,0:0:0:0:
256,128,38377,1,0,0:0:0:0:
256,128,38527,1,2,0:0:0:0:
256,128,38978,1,4,0:0:0:0:
256,128,39279,1,0,0:0:0:0:
256,128,39429,1,2,0:0:0:0:
256,128,39881,1,6,0:0:0:0:
256,128,40332,1,4,0:0:0:0:
256,128,40783,1,6,0:0:0:0:
256,128,41084,1,0,0:0:0:0:
256,128,41159,1,0,0:0:0:0:
256,128,41234,1,2,0:0:0:0:
256,128,41535,1,2,0:0:0:0:
256,192,41685,12,0,44801,0:0:0:0:
256,128,47334,5,0,0:0:0:0:
256,128,47431,1,0,0:0:0:0:
256,128,47529,1,6,0:0:0:0:
256,128,47918,1,0,0:0:0:0:
256,128,48308,1,0,0:0:0:0:
256,128,48697,1,0,0:0:0:0:
256,128,49087,1,0,0:0:0:0:
256,128,49477,1,0,0:0:0:0:
256,128,49866,1,0,0:0:0:0:
256,128,50256,1,2,0:0:0:0:
256,128,50353,1,0,0:0:0:0:
256,128,50451,1,0,0:0:0:0:
256,128,50646,1,2,0:0:0:0:
256,128,51035,1,0,0:0:0:0:
256,128,51425,1,0,0:0:0:0:
256,128,51814,1,0,0:0:0:0:
256,128,52204,1,0,0:0:0:0:
256,128,52594,1,0,0:0:0:0:
256,128,52788,1,2,0:0:0:0:
256,128,52983,1,0,0:0:0:0:
256,128,53178,1,2,0:0:0:0:
256,128,53373,1,2,0:0:0:0:
256,128,53470,1,0,0:0:0:0:
256,128,53568,1,2,0:0:0:0:
256,128,53665,1,0,0:0:0:0:
256,128,53762,1,2,0:0:0:0:
256,128,53860,1,2,0:0:0:0:
256,128,53957,1,2,0:0:0:0:
256,128,54152,1,0,0:0:0:0:
256,128,54347,1,2,0:0:0:0:
256,128,54444,1,0,0:0:0:0:
256,128,54542,1,0,0:0:0:0:
256,128,54639,1,0,0:0:0:0:
256,128,54736,1,2,0:0:0:0:
256,128,54931,1,0,0:0:0:0:
256,128,55029,1,0,0:0:0:0:
256,128,55126,1,2,0:0:0:0:
256,128,55321,1,0,0:0:0:0:
256,128,55418,1,0,0:0:0:0:
256,128,55516,1,2,0:0:0:0:
256,128,55613,1,2,0:0:0:0:
256,128,55710,1,0,0:0:0:0:
256,128,55808,1,0,0:0:0:0:
256,128,55905,1,2,0:0:0:0:
256,128,56100,1,0,0:0:0:0:
256,128,56197,1,0,0:0:0:0:
256,128,56295,1,2,0:0:0:0:
256,128,56490,1,0,0:0:0:0:
256,128,56587,1,0,0:0:0:0:
256,128,56685,1,2,0:0:0:0:
256,128,56782,1,2,0:0:0:0:
256,128,56879,1,0,0:0:0:0:
256,128,56977,1,2,0:0:0:0:
256,128,57074,1,2,0:0:0:0:
256,128,57172,1,0,0:0:0:0:
256,128,57269,1,2,0:0:0:0:
256,128,57464,1,2,0:0:0:0:
256,128,57561,1,0,0:0:0:0:
256,128,57659,1,0,0:0:0:0:
256,128,57853,1,2,0:0:0:0:
256,128,57951,1,2,0:0:0:0:
256,128,58048,1,0,0:0:0:0:
256,128,58243,1,2,0:0:0:0:
256,128,58340,1,0,0:0:0:0:
256,128,58438,1,0,0:0:0:0:
256,128,58535,1,0,0:0:0:0:
256,128,58633,1,2,0:0:0:0:
256,128,58730,1,2,0:0:0:0:
256,128,58827,1,0,0:0:0:0:
256,128,58925,1,0,0:0:0:0:
256,128,59022,1,2,0:0:0:0:
256,128,59120,1,2,0:0:0:0:
256,128,59217,1,0,0:0:0:0:
256,128,59412,1,2,0:0:0:0:
256,128,59509,1,2,0:0:0:0:
256,128,59607,1,0,0:0:0:0:
256,128,59801,1,6,0:0:0:0:
256,128,59996,1,6,0:0:0:0:
256,128,60191,1,6,0:0:0:0:
256,128,60386,1,0,0:0:0:0:
256,128,60581,1,2,0:0:0:0:
256,128,60678,1,0,0:0:0:0:
256,128,60775,1,2,0:0:0:0:
256,128,60970,1,2,0:0:0:0:
256,128,61165,1,0,0:0:0:0:
256,128,61262,1,0,0:0:0:0:
256,128,61360,1,2,0:0:0:0:
256,128,61457,1,2,0:0:0:0:
256,128,61555,1,0,0:0:0:0:
256,128,61652,1,0,0:0:0:0:
256,128,61749,1,2,0:0:0:0:
256,128,61944,1,0,0:0:0:0:
256,128,62139,1,0,0:0:0:0:
256,128,62236,1,0,0:0:0:0:
256,128,62334,1,2,0:0:0:0:
256,128,62529,1,2,0:0:0:0:
256,128,62626,1,2,0:0:0:0:
256,128,62723,1,0,0:0:0:0:
256,128,62821,1,0,0:0:0:0:
256,128,62918,1,2,0:0:0:0:
256,128,63016,1,0,0:0:0:0:
256,128,63113,1,0,0:0:0:0:
256,128,63210,1,0,0:0:0:0:
256,128,63308,1,2,0:0:0:0:
256,128,63503,1,2,0:0:0:0:
256,128,63697,1,2,0:0:0:0:
256,128,63795,1,0,0:0:0:0:
256,128,63892,1,2,0:0:0:0:
256,128,64087,1,2,0:0:0:0:
256,128,64185,1,0,0:0:0:0:
256,128,64282,1,0,0:0:0:0:
256,128,64379,1,0,0:0:0:0:
256,128,64477,1,2,0:0:0:0:
256,128,64574,1,0,0:0:0:0:
256,128,64672,1,0,0:0:0:0:
256,128,64866,1,2,0:0:0:0:
256,128,64964,1,2,0:0:0:0:
256,128,65061,1,0,0:0:0:0:
256,128,65159,1,0,0:0:0:0:
256,128,65256,1,2,0:0:0:0:
256,128,65353,1,0,0:0:0:0:
256,128,65451,1,2,0:0:0:0:
256,128,65548,1,0,0:0:0:0:
256,128,65646,1,2,0:0:0:0:
256,128,65840,1,0,0:0:0:0:
256,128,65938,1,0,0:0:0:0:
256,128,66035,1,0,0:0:0:0:
256,128,66133,1,0,0:0:0:0:
256,128,66230,1,6,0:0:0:0:
256,128,66425,1,0,0:0:0:0:
256,128,66620,1,2,0:0:0:0:
256,128,67399,1,0,0:0:0:0:
256,128,68178,1,2,0:0:0:0:
256,128,68568,1,0,0:0:0:0:
256,128,68957,1,0,0:0:0:0:
256,128,69736,1,2,0:0:0:0:
256,128,70126,1,0,0:0:0:0:
256,128,70516,1,2,0:0:0:0:
256,128,70905,1,0,0:0:0:0:
256,128,71295,1,2,0:0:0:0:
256,128,71685,1,2,0:0:0:0:
256,128,72074,1,2,0:0:0:0:
256,128,72269,1,2,0:0:0:0:
256,128,72366,1,2,0:0:0:0:
256,128,72464,1,0,0:0:0:0:
256,128,72561,1,2,0:0:0:0:
256,128,72659,1,2,0:0:0:0:
256,128,72756,1,2,0:0:0:0:
256,128,72853,1,0,0:0:0:0:
256,128,73633,1,0,0:0:0:0:
256,128,73827,1,2,0:0:0:0:
256,128,74022,1,2,0:0:0:0:
256,128,74217,1,2,0:0:0:0:
256,128,74412,1,0,0:0:0:0:
256,128,74801,1,0,0:0:0:0:
256,128,74996,1,2,0:0:0:0:
256,128,75191,1,0,0:0:0:0:
256,128,75581,1,0,0:0:0:0:
256,128,75775,1,0,0:0:0:0:
256,128,75970,1,2,0:0:0:0:
256,128,76165,1,2,0:0:0:0:
256,128,76360,1,0,0:0:0:0:
256,128,76555,1,2,0:0:0:0:
256,128,76749,1,0,0:0:0:0:
256,128,77139,1,0,0:0:0:0:
256,128,77334,1,2,0:0:0:0:
256,128,77529,1,0,0:0:0:0:
256,128,77918,1,0,0:0:0:0:
256,128,78308,1,0,0:0:0:0:
256,128,78503,1,2,0:0:0:0:
256,128,78600,1,2,0:0:0:0:
256,128,78697,1,0,0:0:0:0:
256,128,78795,1,2,0:0:0:0:
256,128,78892,1,2,0:0:0:0:
256,128,78990,1,2,0:0:0:0:
256,128,79087,1,0,0:0:0:0:
256,128,79282,1,0,0:0:0:0:
256,128,79477,1,2,0:0:0:0:
256,128,79574,1,0,0:0:0:0:
256,128,79672,1,2,0:0:0:0:
256,128,79769,1,2,0:0:0:0:
256,128,79866,1,0,0:0:0:0:
256,128,80061,1,0,0:0:0:0:
256,128,80159,1,0,0:0:0:0:
256,128,80256,1,2,0:0:0:0:
256,128,80353,1,0,0:0:0:0:
256,128,80451,1,2,0:0:0:0:
256,128,80548,1,2,0:0:0:0:
256,128,80646,1,0,0:0:0:0:
256,128,80840,1,2,0:0:0:0:
256,128,81035,1,2,0:0:0:0:
256,128,81133,1,0,0:0:0:0:
256,128,81230,1,2,0:0:0:0:
256,128,81327,1,2,0:0:0:0:
256,128,81425,1,0,0:0:0:0:
256,128,81620,1,2,0:0:0:0:
256,128,81717,1,0,0:0:0:0:
256,128,81814,1,2,0:0:0:0:
256,128,81912,1,2,0:0:0:0:
256,128,82009,1,2,0:0:0:0:
256,128,82107,1,2,0:0:0:0:
256,128,82204,1,0,0:0:0:0:
256,128,82399,1,0,0:0:0:0:
256,128,82594,1,2,0:0:0:0:
256,128,82691,1,2,0:0:0:0:
256,128,82788,1,0,0:0:0:0:
256,128,82886,1,2,0:0:0:0:
256,128,82983,1,2,0:0:0:0:
256,128,83178,1,0,0:0:0:0:
256,128,83275,1,0,0:0:0:0:
256,128,83373,1,2,0:0:0:0:
256,128,83470,1,2,0:0:0:0:
256,128,83568,1,0,0:0:0:0:
256,128,83665,1,2,0:0:0:0:
256,128,83762,1,0,0:0:0:0:
256,128,83957,1,0,0:0:0:0:
256,128,84055,1,2,0:0:0:0:
256,128,84152,1,2,0:0:0:0:
256,128,84347,1,2,0:0:0:0:
256,128,84444,1,0,0:0:0:0:
256,128,84542,1,2,0:0:0:0:
256,128,84639,1,0,0:0:0:0:
256,128,84736,1,2,0:0:0:0:
256,128,84834,1,0,0:0:0:0:
256,128,84931,1,2,0:0:0:0:
256,128,85029,1,2,0:0:0:0:
256,128,85126,1,2,0:0:0:0:
256,128,85223,1,2,0:0:0:0:
256,128,85321,1,0,0:0:0:0:
256,128,85516,1,2,0:0:0:0:
256,128,85710,1,0,0:0:0:0:
256,128,85905,1,2,0:0:0:0:
256,128,86100,1,0,0:0:0:0:
256,128,86295,1,2,0:0:0:0:
256,128,86490,1,0,0:0:0:0:
256,128,86685,1,2,0:0:0:0:
256,128,86782,1,2,0:0:0:0:
256,128,86879,1,0,0:0:0:0:
256,128,87074,1,2,0:0:0:0:
256,128,87172,1,2,0:0:0:0:
256,128,87269,1,0,0:0:0:0:
256,128,87366,1,0,0:0:0:0:
256,128,87464,1,2,0:0:0:0:
256,128,87659,1,0,0:0:0:0:
256,128,87853,1,2,0:0:0:0:
256,128,88048,1,0,0:0:0:0:
256,128,88146,1,0,0:0:0:0:
256,128,88243,1,2,0:0:0:0:
256,128,88438,1,0,0:0:0:0:
256,128,88633,1,2,0:0:0:0:
256,128,88730,1,2,0:0:0:0:
256,128,88827,1,0,0:0:0:0:
256,128,89022,1,2,0:0:0:0:
256,128,89120,1,2,0:0:0:0:
256,128,89217,1,0,0:0:0:0:
256,128,89412,1,2,0:0:0:0:
256,128,89607,1,0,0:0:0:0:
256,128,89704,1,0,0:0:0:0:
256,128,89801,1,2,0:0:0:0:
256,128,89899,1,2,0:0:0:0:
256,128,89996,1,0,0:0:0:0:
256,128,90191,1,2,0:0:0:0:
256,128,90386,1,0,0:0:0:0:
256,128,90581,1,2,0:0:0:0:
256,128,90775,1,0,0:0:0:0:
256,128,90970,1,2,0:0:0:0:
256,128,91165,1,2,0:0:0:0:
256,128,91262,1,2,0:0:0:0:
256,128,91360,1,0,0:0:0:0:
256,128,91457,1,0,0:0:0:0:
256,128,91555,1,2,0:0:0:0:
256,128,91749,1,2,0:0:0:0:
256,128,91847,1,2,0:0:0:0:
256,128,91944,1,0,0:0:0:0:
256,128,92139,1,2,0:0:0:0:
256,128,92334,1,0,0:0:0:0:
256,128,92431,1,0,0:0:0:0:
256,128,92529,1,2,0:0:0:0:
256,128,92626,1,2,0:0:0:0:
256,128,92723,1,0,0:0:0:0:
256,128,92918,1,2,0:0:0:0:
256,128,93016,1,2,0:0:0:0:
256,128,93113,1,0,0:0:0:0:
256,128,93308,1,2,0:0:0:0:
256,128,93503,1,0,0:0:0:0:
256,128,93600,1,0,0:0:0:0:
256,128,93697,1,2,0:0:0:0:
256,128,93892,1,0,0:0:0:0:
256,128,94087,1,2,0:0:0:0:
256,128,94282,1,0,0:0:0:0:
256,128,94379,1,0,0:0:0:0:
256,128,94477,1,2,0:0:0:0:
256,128,94672,1,0,0:0:0:0:
256,128,94866,1,2,0:0:0:0:
256,128,95061,1,0,0:0:0:0:
256,128,95159,1,0,0:0:0:0:
256,128,95256,1,2,0:0:0:0:
256,128,95451,1,0,0:0:0:0:
256,128,95548,1,0,0:0:0:0:
256,128,95646,1,2,0:0:0:0:
256,128,95743,1,0,0:0:0:0:
256,128,95840,1,0,0:0:0:0:
256,128,96035,1,2,0:0:0:0:
256,128,96230,1,0,0:0:0:0:
256,128,96425,1,2,0:0:0:0:
256,128,96620,1,0,0:0:0:0:
256,128,96814,1,2,0:0:0:0:
256,128,97009,1,0,0:0:0:0:
256,128,97204,1,2,0:0:0:0:
256,128,97301,1,0,0:0:0:0:
256,128,97399,1,0,0:0:0:0:
256,128,97594,1,2,0:0:0:0:
256,128,97788,1,0,0:0:0:0:
256,128,97983,1,0,0:0:0:0:
256,128,98178,1,2,0:0:0:0:
256,128,98275,1,0,0:0:0:0:
256,128,98373,1,2,0:0:0:0:
256,128,98470,1,2,0:0:0:0:
256,128,98568,1,0,0:0:0:0:
256,128,98860,1,0,0:0:0:0:
256,128,98957,1,2,0:0:0:0:
256,128,99055,1,0,0:0:0:0:
256,128,99152,1,2,0:0:0:0:
256,128,99249,1,2,0:0:0:0:
256,128,99347,1,0,0:0:0:0:
256,128,99542,1,0,0:0:0:0:
256,128,99736,1,2,0:0:0:0:
256,128,99834,1,0,0:0:0:0:
256,128,99931,1,2,0:0:0:0:
256,128,100029,1,2,0:0:0:0:
256,128,100126,1,0,0:0:0:0:
256,128,100418,1,0,0:0:0:0:
256,128,100516,1,2,0:0:0:0:
256,128,100613,1,0,0:0:0:0:
256,128,100710,1,2,0:0:0:0:
256,128,100808,1,2,0:0:0:0:
256,128,100905,1,0,0:0:0:0:
256,128,101100,1,0,0:0:0:0:
256,128,101295,1,2,0:0:0:0:
256,128,101392,1,2,0:0:0:0:
256,128,101490,1,2,0:0:0:0:
256,128,101587,1,2,0:0:0:0:
256,128,101685,1,0,0:0:0:0:
256,128,101977,1,0,0:0:0:0:
256,128,102074,1,2,0:0:0:0:
256,128,102172,1,0,0:0:0:0:
256,128,102269,1,2,0:0:0:0:
256,128,102366,1,2,0:0:0:0:
256,128,102464,1,0,0:0:0:0:
256,128,102659,1,2,0:0:0:0:
256,128,102756,1,0,0:0:0:0:
256,128,102853,1,2,0:0:0:0:
256,128,103048,1,2,0:0:0:0:
256,128,103146,1,0,0:0:0:0:
256,128,103243,1,2,0:0:0:0:
256,128,103340,1,0,0:0:0:0:
256,128,103438,1,2,0:0:0:0:
256,128,103535,1,0,0:0:0:0:
256,128,103633,1,2,0:0:0:0:
256,128,103730,1,2,0:0:0:0:
256,128,103827,1,0,0:0:0:0:
256,128,103925,1,0,0:0:0:0:
256,128,104022,1,6,0:0:0:0:
256,128,104217,1,0,0:0:0:0:
256,128,104412,1,2,0:0:0:0:
256,128,104607,1,0,0:0:0:0:
256,128,104801,1,2,0:0:0:0:
256,128,104996,1,0,0:0:0:0:
256,128,105094,1,0,0:0:0:0:
256,128,105191,1,2,0:0:0:0:
256,128,105386,1,2,0:0:0:0:
256,128,105483,1,0,0:0:0:0:
256,128,105581,1,2,0:0:0:0:
256,128,105775,1,0,0:0:0:0:
256,128,105970,1,2,0:0:0:0:
256,128,106165,1,0,0:0:0:0:
256,128,106360,1,2,0:0:0:0:
256,128,106555,1,2,0:0:0:0:
256,128,106652,1,2,0:0:0:0:
256,128,106749,1,0,0:0:0:0:
256,128,106944,1,0,0:0:0:0:
256,128,107042,1,0,0:0:0:0:
256,128,107139,1,2,0:0:0:0:
256,128,107334,1,0,0:0:0:0:
256,128,107529,1,2,0:0:0:0:
256,128,107723,1,0,0:0:0:0:
256,128,107918,1,2,0:0:0:0:
256,128,108113,1,0,0:0:0:0:
256,128,108210,1,0,0:0:0:0:
256,128,108308,1,2,0:0:0:0:
256,128,108503,1,0,0:0:0:0:
256,128,108600,1,0,0:0:0:0:
256,128,108697,1,2,0:0:0:0:
256,128,108892,1,0,0:0:0:0:
256,128,108990,1,0,0:0:0:0:
256,128,109087,1,2,0:0:0:0:
256,128,109185,1,2,0:0:0:0:
256,128,109282,1,0,0:0:0:0:
256,128,109379,1,0,0:0:0:0:
256,128,109477,1,2,0:0:0:0:
256,128,109574,1,0,0:0:0:0:
256,128,109672,1,2,0:0:0:0:
256,128,109769,1,2,0:0:0:0:
256,128,109866,1,0,0:0:0:0:
256,128,109964,1,2,0:0:0:0:
256,128,110061,1,2,0:0:0:0:
256,128,110159,1,0,0:0:0:0:
256,128,110256,1,6,0:0:0:0:
256,128,110451,1,0,0:0:0:0:
256,128,110646,1,2,0:0:0:0:
256,128,110840,1,0,0:0:0:0:
256,128,111035,1,2,0:0:0:0:
256,128,111230,1,0,0:0:0:0:
256,128,111327,1,0,0:0:0:0:
256,128,111425,1,2,0:0:0:0:
256,128,111620,1,2,0:0:0:0:
256,128,111717,1,0,0:0:0:0:
256,128,111814,1,2,0:0:0:0:
256,128,112009,1,0,0:0:0:0:
256,128,112204,1,2,0:0:0:0:
256,128,112399,1,0,0:0:0:0:
256,128,112594,1,2,0:0:0:0:
256,128,112788,1,0,0:0:0:0:
256,128,112886,1,2,0:0:0:0:
256,128,112983,1,0,0:0:0:0:
256,128,113081,1,0,0:0:0:0:
256,128,113178,1,2,0:0:0:0:
256,128,113275,1,0,0:0:0:0:
256,128,113373,1,2,0:0:0:0:
256,128,113568,1,0,0:0:0:0:
256,128,113762,1,2,0:0:0:0:
256,128,113957,1,0,0:0:0:0:
256,128,114152,1,2,0:0:0:0:
256,128,114347,1,0,0:0:0:0:
256,128,114444,1,0,0:0:0:0:
256,128,114542,1,2,0:0:0:0:
256,128,114736,1,2,0:0:0:0:
256,128,114834,1,0,0:0:0:0:
256,128,114931,1,2,0:0:0:0:
256,128,115126,1,0,0:0:0:0:
256,128,115223,1,2,0:0:0:0:
256,128,115321,1,2,0:0:0:0:
256,128,115418,1,0,0:0:0:0:
256,128,115516,1,0,0:0:0:0:
256,128,115613,1,2,0:0:0:0:
256,128,115710,1,2,0:0:0:0:
256,128,115808,1,0,0:0:0:0:
256,128,115905,1,0,0:0:0:0:
256,128,116003,1,2,0:0:0:0:
256,128,116100,1,0,0:0:0:0:
256,128,116197,1,2,0:0:0:0:
256,128,116295,1,0,0:0:0:0:
256,128,116392,1,0,0:0:0:0:
256,128,116490,1,2,0:0:0:0:
256,128,116879,1,0,0:0:0:0:
256,128,117074,1,2,0:0:0:0:
256,128,117269,1,0,0:0:0:0:
256,128,117561,1,0,0:0:0:0:
256,128,117659,1,2,0:0:0:0:
256,128,117853,1,0,0:0:0:0:
256,128,118048,1,0,0:0:0:0:
256,128,118243,1,2,0:0:0:0:
256,128,118438,1,0,0:0:0:0:
256,128,118730,1,0,0:0:0:0:
256,128,118827,1,2,0:0:0:0:
256,128,119120,1,0,0:0:0:0:
256,128,119217,1,2,0:0:0:0:
256,128,119412,1,0,0:0:0:0:
256,128,119607,1,2,0:0:0:0:
256,128,119996,1,2,0:0:0:0:
256,128,120191,1,2,0:0:0:0:
256,128,120386,1,0,0:0:0:0:
256,128,120678,1,0,0:0:0:0:
256,128,120775,1,2,0:0:0:0:
256,128,120970,1,0,0:0:0:0:
256,128,121165,1,2,0:0:0:0:
256,128,121360,1,0,0:0:0:0:
256,128,121555,1,2,0:0:0:0:
256,128,121749,1,0,0:0:0:0:
256,128,121944,1,0,0:0:0:0:
256,128,122042,1,2,0:0:0:0:
256,128,122139,1,2,0:0:0:0:
256,128,122236,1,0,0:0:0:0:
256,128,122334,1,6,0:0:0:0:
256,128,122529,1,0,0:0:0:0:
256,128,122626,1,2,0:0:0:0:
256,128,122723,1,0,0:0:0:0:
256,128,122918,1,2,0:0:0:0:
256,128,123113,1,0,0:0:0:0:
256,128,123210,1,0,0:0:0:0:
256,128,123308,1,2,0:0:0:0:
256,128,123503,1,0,0:0:0:0:
256,128,123600,1,0,0:0:0:0:
256,128,123697,1,2,0:0:0:0:
256,128,123795,1,2,0:0:0:0:
256,128,123892,1,0,0:0:0:0:
256,128,124087,1,2,0:0:0:0:
256,128,124185,1,0,0:0:0:0:
256,128,124282,1,0,0:0:0:0:
256,128,124379,1,0,0:0:0:0:
256,128,124477,1,2,0:0:0:0:
256,128,124672,1,0,0:0:0:0:
256,128,124866,1,2,0:0:0:0:
256,128,124964,1,0,0:0:0:0:
256,128,125061,1,2,0:0:0:0:
256,128,125159,1,2,0:0:0:0:
256,128,125256,1,0,0:0:0:0:
256,128,125353,1,2,0:0:0:0:
256,128,125451,1,0,0:0:0:0:
256,128,125646,1,2,0:0:0:0:
256,128,125743,1,0,0:0:0:0:
256,128,125840,1,0,0:0:0:0:
256,128,126035,1,2,0:0:0:0:
256,128,126230,1,0,0:0:0:0:
256,128,126327,1,0,0:0:0:0:
256,128,126425,1,2,0:0:0:0:
256,128,126620,1,0,0:0:0:0:
256,128,126814,1,2,0:0:0:0:
256,128,126912,1,2,0:0:0:0:
256,128,127009,1,0,0:0:0:0:
256,128,127107,1,0,0:0:0:0:
256,128,127204,1,2,0:0:0:0:
256,128,127399,1,0,0:0:0:0:
256,128,127496,1,0,0:0:0:0:
256,128,127594,1,2,0:0:0:0:
256,128,127788,1,0,0:0:0:0:
256,128,127886,1,0,0:0:0:0:
256,128,127983,1,2,0:0:0:0:
256,128,128081,1,2,0:0:0:0:
256,128,128178,1,0,0:0:0:0:
256,128,128373,1,6,0:0:0:0:
256,128,128568,1,6,0:0:0:0:
256,128,128762,1,6,0:0:0:0:
256,128,128957,1,0,0:0:0:0:
256,128,129152,1,2,0:0:0:0:
256,128,129249,1,0,0:0:0:0:
256,128,129347,1,0,0:0:0:0:
256,128,129542,1,2,0:0:0:0:
256,128,129639,1,2,0:0:0:0:
256,128,129736,1,0,0:0:0:0:
256,128,129834,1,0,0:0:0:0:
256,128,129931,1,2,0:0:0:0:
256,128,130029,1,0,0:0:0:0:
256,128,130126,1,2,0:0:0:0:
256,128,130321,1,0,0:0:0:0:
256,128,130418,1,0,0:0:0:0:
256,128,130516,1,2,0:0:0:0:
256,128,130710,1,2,0:0:0:0:
256,128,130808,1,2,0:0:0:0:
256,128,130905,1,0,0:0:0:0:
256,128,131100,1,2,0:0:0:0:
256,128,131197,1,0,0:0:0:0:
256,128,131295,1,0,0:0:0:0:
256,128,131490,1,2,0:0:0:0:
256,128,131587,1,2,0:0:0:0:
256,128,131685,1,2,0:0:0:0:
256,128,131782,1,0,0:0:0:0:
256,128,131879,1,2,0:0:0:0:
256,128,131977,1,0,0:0:0:0:
256,128,132074,1,0,0:0:0:0:
256,128,132269,1,2,0:0:0:0:
256,128,132464,1,0,0:0:0:0:
256,128,132561,1,0,0:0:0:0:
256,128,132659,1,2,0:0:0:0:
256,128,132853,1,0,0:0:0:0:
256,128,133048,1,2,0:0:0:0:
256,128,133146,1,2,0:0:0:0:
256,128,133243,1,0,0:0:0:0:
256,128,133340,1,0,0:0:0:0:
256,128,133438,1,2,0:0:0:0:
256,128,133633,1,0,0:0:0:0:
256,128,133827,1,2,0:0:0:0:
256,128,134022,1,0,0:0:0:0:
256,128,134217,1,2,0:0:0:0:
256,128,134314,1,0,0:0:0:0:
256,128,134412,1,6,0:0:0:0:
256,128,134607,1,0,0:0:0:0:
256,128,134704,1,0,0:0:0:0:
256,128,134801,1,2,0:0:0:0:
256,128,134899,1,2,0:0:0:0:
256,128,134996,1,2,0:0:0:0:
256,128,135094,1,2,0:0:0:0:
256,128,135191,1,0,0:0:0:0:
256,128,135386,1,2,0:0:0:0:
256,128,135581,1,0,0:0:0:0:
256,128,135775,1,2,0:0:0:0:
256,128,135970,1,0,0:0:0:0:
256,128,136068,1,0,0:0:0:0:
256,128,136165,1,2,0:0:0:0:
256,128,136262,1,2,0:0:0:0:
256,128,136360,1,0,0:0:0:0:
256,128,136555,1,2,0:0:0:0:
256,128,136749,1,0,0:0:0:0:
256,128,136944,1,2,0:0:0:0:
256,128,137139,1,0,0:0:0:0:
256,128,137334,1,2,0:0:0:0:
256,128,137529,1,0,0:0:0:0:
256,128,137723,1,2,0:0:0:0:
256,128,137821,1,0,0:0:0:0:
256,128,137918,1,0,0:0:0:0:
256,128,138113,1,2,0:0:0:0:
256,128,138308,1,0,0:0:0:0:
256,128,138503,1,2,0:0:0:0:
256,128,138697,1,0,0:0:0:0:
256,128,138795,1,0,0:0:0:0:
256,128,138892,1,2,0:0:0:0:
256,128,139087,1,0,0:0:0:0:
256,128,139282,1,2,0:0:0:0:
256,128,139379,1,2,0:0:0:0:
256,128,139477,1,0,0:0:0:0:
256,128,139574,1,0,0:0:0:0:
256,128,139672,1,2,0:0:0:0:
256,128,139866,1,0,0:0:0:0:
256,128,140061,1,2,0:0:0:0:
256,128,140256,1,0,0:0:0:0:
256,128,140451,1,2,0:0:0:0:
256,128,140646,1,0,0:0:0:0:
256,128,140743,1,2,0:0:0:0:
256,128,140840,1,2,0:0:0:0:
256,128,140938,1,0,0:0:0:0:
256,128,141035,1,2,0:0:0:0:
256,128,141133,1,0,0:0:0:0:
256,128,141230,1,2,0:0:0:0:
256,128,141327,1,2,0:0:0:0:
256,128,141425,1,4,0:0:0:0:
256,128,141814,1,6,0:0:0:0:
256,128,142204,1,4,0:0:0:0:
256,128,142594,1,4,0:0:0:0:
256,128,142983,1,0,0:0:0:0:
256,128,143178,1,2,0:0:0:0:
256,128,143275,1,2,0:0:0:0:
256,128,143373,1,0,0:0:0:0:
256,128,143568,1,2,0:0:0:0:
256,128,143762,1,4,0:0:0:0:
256,128,144152,1,6,0:0:0:0:
256,128,144542,1,4,0:0:0:0:
256,128,144931,1,4,0:0:0:0:
256,128,145321,1,2,0:0:0:0:
256,128,145516,1,0,0:0:0:0:
256,128,145613,1,0,0:0:0:0:
256,128,145710,1,2,0:0:0:0:
256,128,145905,1,0,0:0:0:0:
256,128,146100,1,4,0:0:0:0:
256,128,146490,1,4,0:0:0:0:
256,128,146879,1,2,0:0:0:0:
256,128,146977,1,2,0:0:0:0:
256,128,147074,1,2,0:0:0:0:
256,128,147172,1,0,0:0:0:0:
256,128,147269,1,2,0:0:0:0:
256,128,147366,1,0,0:0:0:0:
256,128,147464,1,0,0:0:0:0:
256,128,147561,1,2,0:0:0:0:
256,128,147659,1,0,0:0:0:0:
256,128,147853,1,2,0:0:0:0:
256,128,148048,1,0,0:0:0:0:
256,128,148243,1,2,0:0:0:0:
256,128,148340,1,0,0:0:0:0:
256,128,148438,1,2,0:0:0:0:
256,128,148633,1,2,0:0:0:0:
256,128,148827,1,2,0:0:0:0:
256,128,148925,1,2,0:0:0:0:
256,128,149022,1,0,0:0:0:0:
256,128,149120,1,0,0:0:0:0:
256,128,149217,1,2,0:0:0:0:
256,128,149412,1,2,0:0:0:0:
256,128,149607,1,2,0:0:0:0:
256,128,149704,1,2,0:0:0:0:
256,128,149801,1,0,0:0:0:0:
256,128,149899,1,2,0:0:0:0:
256,128,149996,1,0,0:0:0:0:
256,128,150191,1,0,0:0:0:0:
256,128,150386,1,2,0:0:0:0:
256,128,150483,1,0,0:0:0:0:
256,128,150581,1,2,0:0:0:0:
256,128,150775,1,0,0:0:0:0:
256,128,150970,1,2,0:0:0:0:
256,128,151165,1,0,0:0:0:0:
256,128,151360,1,2,0:0:0:0:
256,128,151555,1,0,0:0:0:0:
256,128,151749,1,2,0:0:0:0:
256,128,151847,1,0,0:0:0:0:
256,128,151944,1,2,0:0:0:0:
256,128,152139,1,2,0:0:0:0:
256,128,152334,1,0,0:0:0:0:
256,128,152529,1,2,0:0:0:0:
256,128,152723,1,0,0:0:0:0:
256,128,152918,1,2,0:0:0:0:
256,128,153113,1,0,0:0:0:0:
256,128,153308,1,6,0:0:0:0:
256,128,153503,1,6,0:0:0:0:
256,128,153697,1,6,0:0:0:0:
256,128,153892,1,0,0:0:0:0:
256,128,154087,1,2,0:0:0:0:
256,128,154185,1,0,0:0:0:0:
256,128,154282,1,2,0:0:0:0:
256,128,154477,1,2,0:0:0:0:
256,128,154672,1,0,0:0:0:0:
256,128,154866,1,2,0:0:0:0:
256,128,154964,1,0,0:0:0:0:
256,128,155061,1,0,0:0:0:0:
256,128,155159,1,0,0:0:0:0:
256,128,155256,1,2,0:0:0:0:
256,128,155451,1,0,0:0:0:0:
256,128,155646,1,2,0:0:0:0:
256,128,155743,1,0,0:0:0:0:
256,128,155840,1,2,0:0:0:0:
256,128,156035,1,0,0:0:0:0:
256,128,156133,1,2,0:0:0:0:
256,128,156230,1,0,0:0:0:0:
256,128,156327,1,0,0:0:0:0:
256,128,156425,1,2,0:0:0:0:
256,128,156522,1,0,0:0:0:0:
256,128,156620,1,2,0:0:0:0:
256,128,156717,1,0,0:0:0:0:
256,128,156814,1,2,0:0:0:0:
256,128,156912,1,2,0:0:0:0:
256,128,157009,1,2,0:0:0:0:
256,128,157204,1,2,0:0:0:0:
256,128,157399,1,2,0:0:0:0:
256,128,157496,1,0,0:0:0:0:
256,128,157594,1,2,0:0:0:0:
256,128,157691,1,0,0:0:0:0:
256,128,157788,1,0,0:0:0:0:
256,128,157983,1,2,0:0:0:0:
256,128,158081,1,0,0:0:0:0:
256,128,158178,1,2,0:0:0:0:
256,128,158373,1,2,0:0:0:0:
256,128,158470,1,0,0:0:0:0:
256,128,158568,1,0,0:0:0:0:
256,128,158762,1,0,0:0:0:0:
256,128,158860,1,2,0:0:0:0:
256,128,158957,1,2,0:0:0:0:
256,128,159152,1,2,0:0:0:0:
256,128,159249,1,0,0:0:0:0:
256,128,159347,1,0,0:0:0:0:
256,128,159542,1,6,0:0:0:0:
256,128,159736,1,6,0:0:0:0:
256,128,159931,1,6,0:0:0:0:
256,128,160126,1,4,0:0:0:0:
256,128,160516,1,0,0:0:0:0:
256,128,160710,1,2,0:0:0:0:
256,128,160808,1,2,0:0:0:0:
256,128,160905,1,0,0:0:0:0:
256,128,161003,1,0,0:0:0:0:
256,128,161100,1,0,0:0:0:0:
256,128,161295,1,0,0:0:0:0:
256,128,161490,1,2,0:0:0:0:
256,128,161685,1,0,0:0:0:0:
256,128,161879,1,2,0:0:0:0:
256,128,161977,1,2,0:0:0:0:
256,128,162074,1,0,0:0:0:0:
256,128,162464,1,2,0:0:0:0:
256,128,162659,1,0,0:0:0:0:
256,128,162756,1,2,0:0:0:0:
256,128,162853,1,0,0:0:0:0:
256,128,163243,1,0,0:0:0:0:
256,128,163438,1,2,0:0:0:0:
256,128,163633,1,0,0:0:0:0:
256,128,163827,1,2,0:0:0:0:
256,128,163925,1,2,0:0:0:0:
256,128,164022,1,0,0:0:0:0:
256,128,164412,1,2,0:0:0:0:
256,128,164801,1,2,0:0:0:0:
256,128,164996,1,0,0:0:0:0:
256,128,165191,1,2,0:0:0:0:
256,128,165288,1,0,0:0:0:0:
256,128,165386,1,2,0:0:0:0:
256,128,165483,1,2,0:0:0:0:
256,128,165581,1,0,0:0:0:0:
256,128,165678,1,2,0:0:0:0:
256,128,165775,1,0,0:0:0:0:
256,128,165873,1,2,0:0:0:0:
256,128,165970,1,0,0:0:0:0:
256,128,166360,1,6,0:0:0:0:
256,128,166555,1,0,0:0:0:0:
256,128,166652,1,2,0:0:0:0:
256,128,166749,1,0,0:0:0:0:
256,128,166944,1,2,0:0:0:0:
256,128,167042,1,0,0:0:0:0:
256,128,167139,1,0,0:0:0:0:
256,128,167334,1,2,0:0:0:0:
256,128,167431,1,2,0:0:0:0:
256,128,167529,1,0,0:0:0:0:
256,128,167723,1,0,0:0:0:0:
256,128,167821,1,0,0:0:0:0:
256,128,167918,1,2,0:0:0:0:
256,128,168113,1,0,0:0:0:0:
256,128,168308,1,2,0:0:0:0:
256,128,168503,1,0,0:0:0:0:
256,128,168697,1,0,0:0:0:0:
256,128,169087,1,0,0:0:0:0:
256,128,169477,1,2,0:0:0:0:
256,128,169672,1,2,0:0:0:0:
256,128,169769,1,2,0:0:0:0:
256,128,169866,1,0,0:0:0:0:
256,128,169964,1,0,0:0:0:0:
256,128,170061,1,0,0:0:0:0:
256,128,170256,1,2,0:0:0:0:
256,128,170451,1,2,0:0:0:0:
256,128,170548,1,2,0:0:0:0:
256,128,170646,1,0,0:0:0:0:
256,128,170840,1,0,0:0:0:0:
256,128,171035,1,2,0:0:0:0:
256,128,171230,1,0,0:0:0:0:
256,128,171425,1,0,0:0:0:0:
256,128,171522,1,0,0:0:0:0:
256,128,171620,1,0,0:0:0:0:
256,128,171814,1,2,0:0:0:0:
256,128,172009,1,0,0:0:0:0:
256,128,172204,1,2,0:0:0:0:
256,128,172301,1,2,0:0:0:0:
256,128,172399,1,0,0:0:0:0:
256,128,172496,1,2,0:0:0:0:
256,128,172594,1,0,0:0:0:0:
256,128,172788,1,2,0:0:0:0:
256,128,172983,1,0,0:0:0:0:
256,128,173178,1,2,0:0:0:0:
256,128,173275,1,0,0:0:0:0:
256,128,173373,1,0,0:0:0:0:
256,128,173568,1,2,0:0:0:0:
256,128,173665,1,2,0:0:0:0:
256,128,173762,1,0,0:0:0:0:
256,128,173860,1,0,0:0:0:0:
256,128,173957,1,2,0:0:0:0:
256,128,174152,1,0,0:0:0:0:
256,128,174347,1,2,0:0:0:0:
256,128,174444,1,2,0:0:0:0:
256,128,174542,1,0,0:0:0:0:
256,128,174736,1,2,0:0:0:0:
256,128,174931,1,0,0:0:0:0:
256,128,175029,1,0,0:0:0:0:
256,128,175126,1,2,0:0:0:0:
256,128,175223,1,2,0:0:0:0:
256,128,175321,1,0,0:0:0:0:
256,128,175418,1,0,0:0:0:0:
256,128,175516,1,2,0:0:0:0:
256,128,175710,1,0,0:0:0:0:
256,128,175905,1,2,0:0:0:0:
256,128,176100,1,0,0:0:0:0:
256,128,176295,1,2,0:0:0:0:
256,128,176392,1,0,0:0:0:0:
256,128,176490,1,0,0:0:0:0:
256,128,176685,1,2,0:0:0:0:
256,128,176782,1,0,0:0:0:0:
256,128,176879,1,0,0:0:0:0:
256,128,177074,1,2,0:0:0:0:
256,128,177269,1,0,0:0:0:0:
256,128,177366,1,0,0:0:0:0:
256,128,177464,1,2,0:0:0:0:
256,128,177561,1,0,0:0:0:0:
256,128,177659,1,2,0:0:0:0:
256,128,177853,1,2,0:0:0:0:
256,128,178048,1,0,0:0:0:0:
256,128,178243,1,6,0:0:0:0:
256,128,178438,1,6,0:0:0:0:
256,128,178633,1,6,0:0:0:0:
256,128,178827,1,0,0:0:0:0:
256,128,179022,1,2,0:0:0:0:
256,128,179120,1,0,0:0:0:0:
256,128,179217,1,0,0:0:0:0:
256,128,179412,1,2,0:0:0:0:
256,128,179509,1,0,0:0:0:0:
256,128,179607,1,2,0:0:0:0:
256,128,179704,1,2,0:0:0:0:
256,128,179801,1,0,0:0:0:0:
256,128,179899,1,2,0:0:0:0:
256,128,179996,1,0,0:0:0:0:
256,128,180094,1,0,0:0:0:0:
256,128,180191,1,2,0:0:0:0:
256,128,180386,1,0,0:0:0:0:
256,128,180483,1,0,0:0:0:0:
256,128,180581,1,2,0:0:0:0:
256,128,180775,1,0,0:0:0:0:
256,128,180970,1,2,0:0:0:0:
256,128,181165,1,0,0:0:0:0:
256,128,181360,1,2,0:0:0:0:
256,128,181457,1,0,0:0:0:0:
256,128,181555,1,0,0:0:0:0:
256,128,181652,1,0,0:0:0:0:
256,128,181749,1,2,0:0:0:0:
256,128,181944,1,0,0:0:0:0:
256,128,182139,1,2,0:0:0:0:
256,128,182236,1,2,0:0:0:0:
256,128,182334,1,0,0:0:0:0:
256,128,182431,1,0,0:0:0:0:
256,128,182529,1,2,0:0:0:0:
256,128,182723,1,2,0:0:0:0:
256,128,182821,1,0,0:0:0:0:
256,128,182918,1,2,0:0:0:0:
256,128,183016,1,0,0:0:0:0:
256,128,183113,1,0,0:0:0:0:
256,128,183210,1,0,0:0:0:0:
256,128,183308,1,2,0:0:0:0:
256,128,183503,1,0,0:0:0:0:
256,128,183600,1,0,0:0:0:0:
256,128,183697,1,2,0:0:0:0:
256,128,183795,1,2,0:0:0:0:
256,128,183892,1,0,0:0:0:0:
256,128,184087,1,2,0:0:0:0:
256,128,184185,1,0,0:0:0:0:
256,128,184282,1,0,0:0:0:0:
256,128,184477,1,6,0:0:0:0:
256,128,184672,1,6,0:0:0:0:
256,128,184866,1,6,0:0:0:0:
256,192,185061,8,0,187399,0:0:0:0:
256,128,191295,5,6,0:0:0:0:
256,128,192074,1,0,0:0:0:0:
256,128,192853,1,2,0:0:0:0:
256,128,193243,1,0,0:0:0:0:
256,128,193633,1,0,0:0:0:0:
256,128,194412,1,2,0:0:0:0:
256,128,194801,1,0,0:0:0:0:
256,128,195191,1,2,0:0:0:0:
256,128,195581,1,0,0:0:0:0:
256,128,195970,1,0,0:0:0:0:
256,128,196360,1,0,0:0:0:0:
256,128,196749,1,0,0:0:0:0:
256,128,196944,1,2,0:0:0:0:
256,128,197042,1,2,0:0:0:0:
256,128,197139,1,0,0:0:0:0:
256,128,197236,1,2,0:0:0:0:
256,128,197334,1,2,0:0:0:0:
256,128,197431,1,2,0:0:0:0:
256,128,197529,1,0,0:0:0:0:
256,128,198113,1,2,0:0:0:0:
256,128,198308,1,0,0:0:0:0:
256,128,198503,1,2,0:0:0:0:
256,128,198697,1,2,0:0:0:0:
256,128,198892,1,2,0:0:0:0:
256,128,199087,1,0,0:0:0:0:
256,128,199477,1,0,0:0:0:0:
256,128,199866,1,0,0:0:0:0:
256,128,200256,1,0,0:0:0:0:
256,128,200451,1,2,0:0:0:0:
256,128,200646,1,2,0:0:0:0:
256,128,200840,1,2,0:0:0:0:
256,128,201035,1,0,0:0:0:0:
256,128,201230,1,2,0:0:0:0:
256,128,201425,1,2,0:0:0:0:
256,128,201620,1,2,0:0:0:0:
256,128,201814,1,0,0:0:0:0:
256,128,202204,1,2,0:0:0:0:
256,128,202594,1,2,0:0:0:0:
256,128,202983,1,2,0:0:0:0:
256,128,203178,1,2,0:0:0:0:
256,128,203275,1,2,0:0:0:0:
256,128,203373,1,0,0:0:0:0:
256,128,203470,1,2,0:0:0:0:
256,128,203568,1,2,0:0:0:0:
256,128,203665,1,2,0:0:0:0:
256,128,203762,1,0,0:0:0:0:
256,128,203957,1,0,0:0:0:0:
256,128,204152,1,2,0:0:0:0:
256,128,204249,1,0,0:0:0:0:
256,128,204347,1,0,0:0:0:0:
256,128,204444,1,2,0:0:0:0:
256,128,204542,1,0,0:0:0:0:
256,128,204736,1,0,0:0:0:0:
256,128,204834,1,0,0:0:0:0:
256,128,204931,1,2,0:0:0:0:
256,128,205029,1,0,0:0:0:0:
256,128,205126,1,2,0:0:0:0:
256,128,205223,1,2,0:0:0:0:
256,128,205321,1,0,0:0:0:0:
256,128,205516,1,0,0:0:0:0:
256,128,205710,1,2,0:0:0:0:
256,128,205808,1,0,0:0:0:0:
256,128,205905,1,0,0:0:0:0:
256,128,206003,1,2,0:0:0:0:
256,128,206100,1,0,0:0:0:0:
256,128,206295,1,2,0:0:0:0:
256,128,206392,1,0,0:0:0:0:
256,128,206490,1,2,0:0:0:0:
256,128,206587,1,0,0:0:0:0:
256,128,206685,1,0,0:0:0:0:
256,128,206782,1,2,0:0:0:0:
256,128,206879,1,0,0:0:0:0:
256,128,207074,1,0,0:0:0:0:
256,128,207269,1,2,0:0:0:0:
256,128,207366,1,0,0:0:0:0:
256,128,207464,1,2,0:0:0:0:
256,128,207561,1,2,0:0:0:0:
256,128,207659,1,0,0:0:0:0:
256,128,207853,1,0,0:0:0:0:
256,128,207951,1,2,0:0:0:0:
256,128,208048,1,2,0:0:0:0:
256,128,208146,1,0,0:0:0:0:
256,128,208243,1,2,0:0:0:0:
256,128,208340,1,2,0:0:0:0:
256,128,208438,1,0,0:0:0:0:
256,128,208633,1,0,0:0:0:0:
256,128,208730,1,2,0:0:0:0:
256,128,208827,1,0,0:0:0:0:
256,128,209022,1,2,0:0:0:0:
256,128,209120,1,0,0:0:0:0:
256,128,209217,1,2,0:0:0:0:
256,128,209314,1,2,0:0:0:0:
256,128,209412,1,2,0:0:0:0:
256,128,209509,1,0,0:0:0:0:
256,128,209607,1,2,0:0:0:0:
256,128,209704,1,2,0:0:0:0:
256,128,209801,1,2,0:0:0:0:
256,128,209899,1,2,0:0:0:0:
256,128,209996,1,4,0:0:0:0:
256,128,210191,1,2,0:0:0:0:
256,128,210386,1,0,0:0:0:0:
256,128,210581,1,2,0:0:0:0:
256,128,210678,1,0,0:0:0:0:
256,128,210775,1,0,0:0:0:0:
256,128,210970,1,2,0:0:0:0:
256,128,211165,1,0,0:0:0:0:
256,128,211360,1,2,0:0:0:0:
256,128,211457,1,0,0:0:0:0:
256,128,211555,1,0,0:0:0:0:
256,128,211749,1,2,0:0:0:0:
256,128,211944,1,0,0:0:0:0:
256,128,212042,1,0,0:0:0:0:
256,128,212139,1,2,0:0:0:0:
256,128,212236,1,0,0:0:0:0:
256,128,212334,1,2,0:0:0:0:
256,128,212529,1,2,0:0:0:0:
256,128,212723,1,0,0:0:0:0:
256,128,212821,1,0,0:0:0:0:
256,128,212918,1,2,0:0:0:0:
256,128,213113,1,0,0:0:0:0:
256,128,213308,1,2,0:0:0:0:
256,128,213405,1,2,0:0:0:0:
256,128,213503,1,0,0:0:0:0:
256,128,213697,1,2,0:0:0:0:
256,128,213892,1,0,0:0:0:0:
256,128,213990,1,0,0:0:0:0:
256,128,214087,1,2,0:0:0:0:
256,128,214185,1,2,0:0:0:0:
256,128,214282,1,0,0:0:0:0:
256,128,214477,1,2,0:0:0:0:
256,128,214672,1,0,0:0:0:0:
256,128,214866,1,2,0:0:0:0:
256,128,215061,1,0,0:0:0:0:
256,128,215256,1,2,0:0:0:0:
256,128,215451,1,0,0:0:0:0:
256,128,215646,1,2,0:0:0:0:
256,128,215743,1,2,0:0:0:0:
256,128,215840,1,0,0:0:0:0:
256,128,215938,1,0,0:0:0:0:
256,128,216035,1,2,0:0:0:0:
256,128,216133,1,2,0:0:0:0:
256,128,216230,1,0,0:0:0:0:
256,128,216425,1,2,0:0:0:0:
256,128,216620,1,0,0:0:0:0:
256,128,216814,1,2,0:0:0:0:
256,128,216912,1,0,0:0:0:0:
256,128,217009,1,0,0:0:0:0:
256,128,217204,1,2,0:0:0:0:
256,128,217399,1,0,0:0:0:0:
256,128,217594,1,2,0:0:0:0:
256,128,217788,1,0,0:0:0:0:
256,128,217886,1,0,0:0:0:0:
256,128,217983,1,2,0:0:0:0:
256,128,218081,1,2,0:0:0:0:
256,128,218178,1,0,0:0:0:0:
256,128,218373,1,2,0:0:0:0:
256,128,218470,1,2,0:0:0:0:
256,128,218568,1,0,0:0:0:0:
256,128,218762,1,2,0:0:0:0:
256,128,218957,1,0,0:0:0:0:
256,128,219152,1,2,0:0:0:0:
256,128,219347,1,0,0:0:0:0:
256,128,219542,1,2,0:0:0:0:
256,128,219639,1,0,0:0:0:0:
256,128,219736,1,0,0:0:0:0:
256,128,219931,1,2,0:0:0:0:
256,128,220029,1,2,0:0:0:0:
256,128,220126,1,0,0:0:0:0:
256,128,220321,1,2,0:0:0:0:
256,128,220418,1,2,0:0:0:0:
256,128,220516,1,0,0:0:0:0:
256,128,220710,1,2,0:0:0:0:
256,128,220808,1,2,0:0:0:0:
256,128,220905,1,0,0:0:0:0:
256,128,221003,1,0,0:0:0:0:
256,128,221100,1,2,0:0:0:0:
256,128,221197,1,0,0:0:0:0:
256,128,221295,1,0,0:0:0:0:
256,128,221490,1,2,0:0:0:0:
256,128,221587,1,0,0:0:0:0:
256,128,221685,1,0,0:0:0:0:
256,128,221879,1,2,0:0:0:0:
256,128,222074,1,0,0:0:0:0:
256,128,222269,1,2,0:0:0:0:
256,128,222464,1,0,0:0:0:0:
256,128,222659,1,0,0:0:0:0:
256,128,222853,1,2,0:0:0:0:
256,128,222951,1,0,0:0:0:0:
256,128,223048,1,2,0:0:0:0:
256,128,223146,1,2,0:0:0:0:
256,128,223243,1,0,0:0:0:0:
256,128,223535,1,0,0:0:0:0:
256,128,223633,1,2,0:0:0:0:
256,128,223730,1,0,0:0:0:0:
256,128,223827,1,2,0:0:0:0:
256,128,223925,1,2,0:0:0:0:
256,128,224022,1,0,0:0:0:0:
256,128,224217,1,0,0:0:0:0:
256,128,224412,1,2,0:0:0:0:
256,128,224509,1,0,0:0:0:0:
256,128,224607,1,0,0:0:0:0:
256,128,224704,1,0,0:0:0:0:
256,128,224801,1,2,0:0:0:0:
256,128,225094,1,0,0:0:0:0:
256,128,225191,1,2,0:0:0:0:
256,128,225288,1,0,0:0:0:0:
256,128,225386,1,0,0:0:0:0:
256,128,225483,1,2,0:0:0:0:
256,128,225581,1,0,0:0:0:0:
256,128,225775,1,0,0:0:0:0:
256,128,225970,1,2,0:0:0:0:
256,128,226068,1,0,0:0:0:0:
256,128,226165,1,2,0:0:0:0:
256,128,226262,1,2,0:0:0:0:
256,128,226360,1,0,0:0:0:0:
256,128,226652,1,0,0:0:0:0:
256,128,226749,1,2,0:0:0:0:
256,128,226847,1,0,0:0:0:0:
256,128,226944,1,2,0:0:0:0:
256,128,227042,1,2,0:0:0:0:
256,128,227139,1,0,0:0:0:0:
256,128,227334,1,0,0:0:0:0:
256,128,227529,1,2,0:0:0:0:
256,128,227723,1,2,0:0:0:0:
256,128,227821,1,0,0:0:0:0:
256,128,227918,1,2,0:0:0:0:
256,128,228016,1,0,0:0:0:0:
256,128,228113,1,2,0:0:0:0:
256,128,228210,1,0,0:0:0:0:
256,128,228308,1,2,0:0:0:0:
256,128,228405,1,2,0:0:0:0:
256,128,228503,1,0,0:0:0:0:
256,128,228600,1,0,0:0:0:0:
256,128,228697,1,6,0:0:0:0:
256,128,228892,1,0,0:0:0:0:
256,128,229087,1,2,0:0:0:0:
256,128,229282,1,0,0:0:0:0:
256,128,229477,1,2,0:0:0:0:
256,128,229672,1,0,0:0:0:0:
256,128,229769,1,0,0:0:0:0:
256,128,229866,1,2,0:0:0:0:
256,128,230061,1,2,0:0:0:0:
256,128,230159,1,0,0:0:0:0:
256,128,230256,1,2,0:0:0:0:
256,128,230451,1,0,0:0:0:0:
256,128,230646,1,2,0:0:0:0:
256,128,230840,1,0,0:0:0:0:
256,128,231035,1,2,0:0:0:0:
256,128,231230,1,0,0:0:0:0:
256,128,231327,1,2,0:0:0:0:
256,128,231425,1,0,0:0:0:0:
256,128,231620,1,0,0:0:0:0:
256,128,231814,1,2,0:0:0:0:
256,128,232009,1,0,0:0:0:0:
256,128,232204,1,2,0:0:0:0:
256,128,232399,1,0,0:0:0:0:
256,128,232594,1,2,0:0:0:0:
256,128,232788,1,0,0:0:0:0:
256,128,232886,1,0,0:0:0:0:
256,128,232983,1,2,0:0:0:0:
256,128,233178,1,2,0:0:0:0:
256,128,233275,1,0,0:0:0:0:
256,128,233373,1,2,0:0:0:0:
256,128,233568,1,0,0:0:0:0:
256,128,233665,1,2,0:0:0:0:
256,128,233762,1,2,0:0:0:0:
256,128,233860,1,2,0:0:0:0:
256,128,233957,1,0,0:0:0:0:
256,128,234055,1,0,0:0:0:0:
256,128,234152,1,2,0:0:0:0:
256,128,234249,1,0,0:0:0:0:
256,128,234347,1,2,0:0:0:0:
256,128,234444,1,2,0:0:0:0:
256,128,234542,1,0,0:0:0:0:
256,128,234639,1,0,0:0:0:0:
256,128,234736,1,2,0:0:0:0:
256,128,234834,1,0,0:0:0:0:
256,128,234931,1,2,0:0:0:0:
256,128,235126,1,0,0:0:0:0:
256,128,235321,1,2,0:0:0:0:
256,128,235516,1,0,0:0:0:0:
256,128,235710,1,2,0:0:0:0:
256,128,235905,1,0,0:0:0:0:
256,128,236003,1,0,0:0:0:0:
256,128,236100,1,2,0:0:0:0:
256,128,236295,1,2,0:0:0:0:
256,128,236392,1,0,0:0:0:0:
256,128,236490,1,2,0:0:0:0:
256,128,236685,1,0,0:0:0:0:
256,128,236879,1,2,0:0:0:0:
256,128,237074,1,0,0:0:0:0:
256,128,237269,1,2,0:0:0:0:
256,128,237464,1,0,0:0:0:0:
256,128,237561,1,2,0:0:0:0:
256,128,237659,1,0,0:0:0:0:
256,128,237853,1,0,0:0:0:0:
256,128,237951,1,0,0:0:0:0:
256,128,238048,1,2,0:0:0:0:
256,128,238243,1,0,0:0:0:0:
256,128,238438,1,2,0:0:0:0:
256,128,238633,1,0,0:0:0:0:
256,128,238827,1,2,0:0:0:0:
256,128,239022,1,2,0:0:0:0:
256,128,239120,1,0,0:0:0:0:
256,128,239217,1,2,0:0:0:0:
256,128,239412,1,2,0:0:0:0:
256,128,239509,1,0,0:0:0:0:
256,128,239607,1,2,0:0:0:0:
256,128,239801,1,0,0:0:0:0:
256,128,239899,1,0,0:0:0:0:
256,128,239996,1,2,0:0:0:0:
256,128,240094,1,2,0:0:0:0:
256,128,240191,1,0,0:0:0:0:
256,128,240288,1,2,0:0:0:0:
256,128,240386,1,2,0:0:0:0:
256,128,240483,1,0,0:0:0:0:
256,128,240581,1,0,0:0:0:0:
256,128,240678,1,2,0:0:0:0:
256,128,240775,1,2,0:0:0:0:
256,128,240873,1,2,0:0:0:0:
256,128,240970,1,0,0:0:0:0:
256,128,241068,1,0,0:0:0:0:
256,128,241165,1,2,0:0:0:0:
256,128,241555,1,0,0:0:0:0:
256,128,241749,1,2,0:0:0:0:
256,128,241944,1,0,0:0:0:0:
256,128,242236,1,0,0:0:0:0:
256,128,242334,1,2,0:0:0:0:
256,128,242529,1,0,0:0:0:0:
256,128,242723,1,0,0:0:0:0:
256,128,242918,1,2,0:0:0:0:
256,128,243113,1,0,0:0:0:0:
256,128,243503,1,2,0:0:0:0:
256,128,243795,1,0,0:0:0:0:
256,128,243892,1,2,0:0:0:0:
256,128,244087,1,0,0:0:0:0:
256,128,244282,1,2,0:0:0:0:
256,128,244672,1,2,0:0:0:0:
256,128,245061,1,0,0:0:0:0:
256,128,245353,1,0,0:0:0:0:
256,128,245451,1,2,0:0:0:0:
256,128,245646,1,0,0:0:0:0:
256,128,245743,1,0,0:0:0:0:
256,128,245840,1,2,0:0:0:0:
256,128,246035,1,2,0:0:0:0:
256,128,246230,1,2,0:0:0:0:
256,128,246425,1,0,0:0:0:0:
256,128,246620,1,0,0:0:0:0:
256,128,246717,1,2,0:0:0:0:
256,128,246814,1,0,0:0:0:0:
256,128,246912,1,0,0:0:0:0:
256,128,247009,1,6,0:0:0:0:
256,128,247204,1,0,0:0:0:0:
256,128,247301,1,2,0:0:0:0:
256,128,247399,1,0,0:0:0:0:
256,128,247594,1,2,0:0:0:0:
256,128,247788,1,0,0:0:0:0:
256,128,247983,1,2,0:0:0:0:
256,128,248081,1,0,0:0:0:0:
256,128,248178,1,2,0:0:0:0:
256,128,248275,1,0,0:0:0:0:
256,128,248373,1,2,0:0:0:0:
256,128,248568,1,2,0:0:0:0:
256,128,248762,1,2,0:0:0:0:
256,128,248860,1,2,0:0:0:0:
256,128,248957,1,0,0:0:0:0:
256,128,249152,1,2,0:0:0:0:
256,128,249249,1,0,0:0:0:0:
256,128,249347,1,0,0:0:0:0:
256,128,249542,1,2,0:0:0:0:
256,128,249736,1,0,0:0:0:0:
256,128,249931,1,2,0:0:0:0:
256,128,250029,1,2,0:0:0:0:
256,128,250126,1,0,0:0:0:0:
256,128,250223,1,0,0:0:0:0:
256,128,250321,1,2,0:0:0:0:
256,128,250516,1,0,0:0:0:0:
256,128,250613,1,0,0:0:0:0:
256,128,250710,1,2,0:0:0:0:
256,128,250905,1,0,0:0:0:0:
256,128,251003,1,0,0:0:0:0:
256,128,251100,1,2,0:0:0:0:
256,128,251197,1,2,0:0:0:0:
256,128,251295,1,0,0:0:0:0:
256,128,251490,1,2,0:0:0:0:
256,128,251587,1,0,0:0:0:0:
256,128,251685,1,0,0:0:0:0:
256,128,251782,1,0,0:0:0:0:
256,128,251879,1,2,0:0:0:0:
256,128,252074,1,0,0:0:0:0:
256,128,252172,1,0,0:0:0:0:
256,128,252269,1,2,0:0:0:0:
256,128,252464,1,0,0:0:0:0:
256,128,252561,1,0,0:0:0:0:
256,128,252659,1,2,0:0:0:0:
256,128,252853,1,0,0:0:0:0:
256,128,253048,1,6,0:0:0:0:
256,128,253243,1,6,0:0:0:0:
256,128,253438,1,6,0:0:0:0:
256,128,253633,1,0,0:0:0:0:
256,128,253730,1,0,0:0:0:0:
256,128,253827,1,2,0:0:0:0:
256,128,253925,1,0,0:0:0:0:
256,128,254022,1,0,0:0:0:0:
256,128,254217,1,2,0:0:0:0:
256,128,254314,1,0,0:0:0:0:
256,128,254412,1,2,0:0:0:0:
256,128,254607,1,2,0:0:0:0:
256,128,254801,1,0,0:0:0:0:
256,128,254899,1,0,0:0:0:0:
256,128,254996,1,2,0:0:0:0:
256,128,255094,1,0,0:0:0:0:
256,128,255191,1,2,0:0:0:0:
256,128,255386,1,2,0:0:0:0:
256,128,255483,1,0,0:0:0:0:
256,128,255581,1,0,0:0:0:0:
256,128,255678,1,0,0:0:0:0:
256,128,255775,1,2,0:0:0:0:
256,128,255873,1,0,0:0:0:0:
256,128,255970,1,0,0:0:0:0:
256,128,256165,1,2,0:0:0:0:
256,128,256262,1,2,0:0:0:0:
256,128,256360,1,0,0:0:0:0:
256,128,256457,1,0,0:0:0:0:
256,128,256555,1,2,0:0:0:0:
256,128,256749,1,0,0:0:0:0:
256,128,256944,1,2,0:0:0:0:
256,128,257139,1,0,0:0:0:0:
256,128,257334,1,2,0:0:0:0:
256,128,257529,1,0,0:0:0:0:
256,128,257626,1,0,0:0:0:0:
256,128,257723,1,2,0:0:0:0:
256,128,257821,1,2,0:0:0:0:
256,128,257918,1,0,0:0:0:0:
256,128,258113,1,2,0:0:0:0:
256,128,258308,1,0,0:0:0:0:
256,128,258503,1,2,0:0:0:0:
256,128,258697,1,0,0:0:0:0:
256,128,258892,1,2,0:0:0:0:
256,128,258990,1,0,0:0:0:0:
256,128,259087,1,6,0:0:0:0:
256,128,259282,1,0,0:0:0:0:
256,128,259379,1,0,0:0:0:0:
256,128,259477,1,2,0:0:0:0:
256,128,259574,1,0,0:0:0:0:
256,128,259672,1,2,0:0:0:0:
256,128,259769,1,2,0:0:0:0:
256,128,259866,1,0,0:0:0:0:
256,128,260061,1,2,0:0:0:0:
256,128,260256,1,0,0:0:0:0:
256,128,260451,1,2,0:0:0:0:
256,128,260646,1,0,0:0:0:0:
256,128,260840,1,2,0:0:0:0:
256,128,260938,1,2,0:0:0:0:
256,128,261035,1,0,0:0:0:0:
256,128,261133,1,0,0:0:0:0:
256,128,261230,1,2,0:0:0:0:
256,128,261425,1,0,0:0:0:0:
256,128,261620,1,2,0:0:0:0:
256,128,261814,1,0,0:0:0:0:
256,128,262009,1,2,0:0:0:0:
256,128,262204,1,0,0:0:0:0:
256,128,262399,1,2,0:0:0:0:
256,128,262496,1,2,0:0:0:0:
256,128,262594,1,0,0:0:0:0:
256,128,262691,1,0,0:0:0:0:
256,128,262788,1,2,0:0:0:0:
256,128,262983,1,0,0:0:0:0:
256,128,263178,1,2,0:0:0:0:
256,128,263373,1,0,0:0:0:0:
256,128,263470,1,0,0:0:0:0:
256,128,263568,1,2,0:0:0:0:
256,128,263762,1,0,0:0:0:0:
256,128,263957,1,2,0:0:0:0:
256,128,264055,1,0,0:0:0:0:
256,128,264152,1,0,0:0:0:0:
256,128,264249,1,0,0:0:0:0:
256,128,264347,1,2,0:0:0:0:
256,128,264542,1,0,0:0:0:0:
256,128,264736,1,2,0:0:0:0:
256,128,264931,1,0,0:0:0:0:
256,128,265126,1,2,0:0:0:0:
256,128,265321,1,0,0:0:0:0:
256,128,265418,1,2,0:0:0:0:
256,128,265516,1,2,0:0:0:0:
256,128,265613,1,0,0:0:0:0:
256,128,265710,1,2,0:0:0:0:
256,128,265808,1,2,0:0:0:0:
256,128,265905,1,2,0:0:0:0:
256,128,266003,1,2,0:0:0:0:
256,128,266100,1,0,0:0:0:0:
256,128,266295,1,2,0:0:0:0:
256,128,266490,1,0,0:0:0:0:
256,128,266685,1,2,0:0:0:0:
256,128,266879,1,0,0:0:0:0:
256,128,266977,1,2,0:0:0:0:
256,128,267074,1,2,0:0:0:0:
256,128,267172,1,2,0:0:0:0:
256,128,267269,1,0,0:0:0:0:
256,128,267464,1,2,0:0:0:0:
256,128,267659,1,0,0:0:0:0:
256,128,267853,1,0,0:0:0:0:
256,128,267951,1,0,0:0:0:0:
256,128,268048,1,2,0:0:0:0:
256,128,268243,1,2,0:0:0:0:
256,128,268438,1,0,0:0:0:0:
256,128,268633,1,2,0:0:0:0:
256,128,268827,1,0,0:0:0:0:
256,128,268925,1,0,0:0:0:0:
256,128,269022,1,2,0:0:0:0:
256,128,269120,1,0,0:0:0:0:
256,128,269217,1,2,0:0:0:0:
256,128,269412,1,2,0:0:0:0:
256,128,269607,1,0,0:0:0:0:
256,128,269801,1,2,0:0:0:0:
256,128,269996,1,0,0:0:0:0:
256,128,270191,1,2,0:0:0:0:
256,128,270288,1,2,0:0:0:0:
256,128,270386,1,0,0:0:0:0:
256,128,270483,1,2,0:0:0:0:
256,128,270581,1,0,0:0:0:0:
256,128,270775,1,0,0:0:0:0:
256,128,270970,1,2,0:0:0:0:
256,128,271165,1,0,0:0:0:0:
256,128,271360,1,2,0:0:0:0:
256,128,271555,1,0,0:0:0:0:
256,128,271652,1,2,0:0:0:0:
256,128,271749,1,2,0:0:0:0:
256,128,271847,1,0,0:0:0:0:
256,128,271944,1,0,0:0:0:0:
256,128,272042,1,2,0:0:0:0:
256,128,272139,1,2,0:0:0:0:
256,128,272236,1,2,0:0:0:0:
256,128,272334,1,0,0:0:0:0:
256,128,272529,1,2,0:0:0:0:
256,128,272723,1,0,0:0:0:0:
256,128,272918,1,2,0:0:0:0:
256,128,273113,1,0,0:0:0:0:
256,128,273308,1,2,0:0:0:0:
256,128,273405,1,2,0:0:0:0:
256,128,273503,1,0,0:0:0:0:
256,128,273600,1,0,0:0:0:0:
256,128,273697,1,2,0:0:0:0:
256,128,273892,1,0,0:0:0:0:
256,128,274087,1,2,0:0:0:0:
256,128,274282,1,0,0:0:0:0:
256,128,274477,1,2,0:0:0:0:
256,128,274672,1,0,0:0:0:0:
256,128,274866,1,2,0:0:0:0:
256,128,274964,1,2,0:0:0:0:
256,128,275061,1,0,0:0:0:0:
256,128,275256,1,2,0:0:0:0:
256,128,275451,1,0,0:0:0:0:
256,128,275646,1,2,0:0:0:0:
256,128,275840,1,2,0:0:0:0:
256,128,275938,1,0,0:0:0:0:
256,128,276035,1,2,0:0:0:0:
256,128,276133,1,2,0:0:0:0:
256,128,276230,1,0,0:0:0:0:
256,128,276425,1,2,0:0:0:0:
256,128,276522,1,2,0:0:0:0:
256,128,276620,1,2,0:0:0:0:
256,128,276717,1,0,0:0:0:0:
256,128,276814,1,2,0:0:0:0:
256,128,276912,1,0,0:0:0:0:
256,128,277009,1,0,0:0:0:0:
256,128,277107,1,0,0:0:0:0:
256,128,277204,1,2,0:0:0:0:
256,128,277399,1,2,0:0:0:0:
256,128,277594,1,0,0:0:0:0:
256,128,277691,1,2,0:0:0:0:
256,128,277788,1,0,0:0:0:0:
256,128,277983,1,6,0:0:0:0:
256,128,278178,1,6,0:0:0:0:
256,128,278373,1,6,0:0:0:0:
256,128,278568,1,0,0:0:0:0:
256,128,278762,1,0,0:0:0:0:
256,128,278957,1,2,0:0:0:0:
256,128,279152,1,2,0:0:0:0:
256,128,279347,1,0,0:0:0:0:
256,128,279542,1,2,0:0:0:0:
256,128,279639,1,0,0:0:0:0:
256,128,279736,1,2,0:0:0:0:
256,128,279931,1,2,0:0:0:0:
256,128,280029,1,0,0:0:0:0:
256,128,280126,1,2,0:0:0:0:
256,128,280321,1,2,0:0:0:0:
256,128,280386,1,2,0:0:0:0:
256,128,280451,1,2,0:0:0:0:
256,128,280516,1,0,0:0:0:0:
256,128,280613,1,2,0:0:0:0:
256,128,280710,1,0,0:0:0:0:
256,128,280808,1,0,0:0:0:0:
256,128,280905,1,2,0:0:0:0:
256,128,281100,1,2,0:0:0:0:
256,128,281295,1,2,0:0:0:0:
256,128,281392,1,0,0:0:0:0:
256,128,281490,1,2,0:0:0:0:
256,128,281587,1,0,0:0:0:0:
256,128,281685,1,2,0:0:0:0:
256,128,281879,1,0,0:0:0:0:
256,128,282074,1,0,0:0:0:0:
256,128,282269,1,2,0:0:0:0:
256,128,282464,1,2,0:0:0:0:
256,128,282659,1,2,0:0:0:0:
256,128,282756,1,0,0:0:0:0:
256,128,282853,1,0,0:0:0:0:
256,128,283048,1,2,0:0:0:0:
256,128,283243,1,0,0:0:0:0:
256,128,283340,1,2,0:0:0:0:
256,128,283438,1,0,0:0:0:0:
256,128,283535,1,2,0:0:0:0:
256,128,283633,1,0,0:0:0:0:
256,128,283827,1,0,0:0:0:0:
256,128,283925,1,2,0:0:0:0:
256,128,284022,1,0,0:0:0:0:
256,128,284120,1,2,0:0:0:0:
256,128,284217,1,0,0:0:0:0:
256,128,284412,1,0,0:0:0:0:
256,128,284509,1,2,0:0:0:0:
256,128,284607,1,0,0:0:0:0:
256,128,284704,1,2,0:0:0:0:
256,128,284801,1,2,0:0:0:0:
256,128,284996,1,2,0:0:0:0:
256,128,285191,1,0,0:0:0:0:
256,128,285386,1,2,0:0:0:0:
256,128,285581,1,2,0:0:0:0:
256,128,285678,1,2,0:0:0:0:
256,128,285775,1,0,0:0:0:0:
256,128,285873,1,2,0:0:0:0:
256,128,285970,1,2,0:0:0:0:
256,128,286165,1,2,0:0:0:0:
256,128,286360,1,2,0:0:0:0:
256,128,286457,1,0,0:0:0:0:
256,128,286555,1,0,0:0:0:0:
256,128,286652,1,2,0:0:0:0:
256,128,286749,1,0,0:0:0:0:
256,128,286847,1,0,0:0:0:0:
256,128,286944,1,2,0:0:0:0:
256,128,287042,1,0,0:0:0:0:
256,128,287139,1,2,0:0:0:0:
256,128,287334,1,2,0:0:0:0:
256,128,287431,1,2,0:0:0:0:
256,128,287529,1,0,0:0:0:0:
256,128,287626,1,2,0:0:0:0:
256,128,287723,1,0,0:0:0:0:
256,128,287821,1,2,0:0:0:0:
256,128,287918,1,0,0:0:0:0:
256,128,288113,1,2,0:0:0:0:
256,128,288308,1,0,0:0:0:0:
256,128,288503,1,2,0:0:0:0:
256,128,288697,1,2,0:0:0:0:
256,128,288795,1,0,0:0:0:0:
256,128,288892,1,2,0:0:0:0:
256,128,288990,1,2,0:0:0:0:
256,128,289087,1,0,0:0:0:0:
256,128,289185,1,0,0:0:0:0:
256,128,289282,1,2,0:0:0:0:
256,128,289477,1,0,0:0:0:0:
256,128,289574,1,0,0:0:0:0:
256,128,289672,1,2,0:0:0:0:
256,128,289866,1,0,0:0:0:0:
256,128,289964,1,2,0:0:0:0:
256,128,290159,1,0,0:0:0:0:
256,128,290256,1,2,0:0:0:0:
256,128,290353,1,0,0:0:0:0:
256,128,290451,1,2,0:0:0:0:
256,128,290548,1,2,0:0:0:0:
256,128,290646,1,0,0:0:0:0:
256,128,290743,1,0,0:0:0:0:
256,128,290840,1,2,0:0:0:0:
256,128,290938,1,2,0:0:0:0:
256,128,291035,1,2,0:0:0:0:
256,128,291230,1,2,0:0:0:0:
256,128,291327,1,0,0:0:0:0:
256,128,291425,1,2,0:0:0:0:
256,128,291522,1,2,0:0:0:0:
256,128,291620,1,0,0:0:0:0:
256,128,291717,1,0,0:0:0:0:
256,128,291814,1,2,0:0:0:0:
256,128,291912,1,0,0:0:0:0:
256,128,292009,1,2,0:0:0:0:
256,128,292107,1,2,0:0:0:0:
256,128,292204,1,0,0:0:0:0:
256,128,292301,1,2,0:0:0:0:
256,128,292399,1,0,0:0:0:0:
256,128,292496,1,2,0:0:0:0:
256,128,292594,1,0,0:0:0:0:
256,128,292788,1,2,0:0:0:0:
256,128,292983,1,0,0:0:0:0:
256,128,293178,1,2,0:0:0:0:
256,128,293275,1,0,0:0:0:0:
256,128,293373,1,2,0:0:0:0:
256,128,293470,1,0,0:0:0:0:
256,128,293568,1,2,0:0:0:0:
256,128,293665,1,0,0:0:0:0:
256,128,293762,1,0,0:0:0:0:
256,128,293860,1,0,0:0:0:0:
256,128,293957,1,2,0:0:0:0:
256,128,294055,1,0,0:0:0:0:
256,128,294152,1,0,0:0:0:0:
256,128,294347,1,2,0:0:0:0:
256,128,294542,1,0,0:0:0:0:
256,128,294736,1,2,0:0:0:0:
256,128,294931,1,2,0:0:0:0:
256,128,295126,1,2,0:0:0:0:
256,128,295321,1,0,0:0:0:0:
256,128,295516,1,2,0:0:0:0:
256,128,295613,1,0,0:0:0:0:
256,128,295710,1,2,0:0:0:0:
256,128,295905,1,2,0:0:0:0:
256,128,296003,1,0,0:0:0:0:
256,128,296100,1,0,0:0:0:0:
256,128,296295,1,2,0:0:0:0:
256,128,296392,1,0,0:0:0:0:
256,128,296490,1,2,0:0:0:0:
256,128,296587,1,0,0:0:0:0:
256,128,296685,1,2,0:0:0:0:
256,128,296782,1,0,0:0:0:0:
256,128,296879,1,0,0:0:0:0:
256,128,297074,1,2,0:0:0:0:
256,128,297172,1,2,0:0:0:0:
256,128,297269,1,0,0:0:0:0:
256,128,297464,1,6,0:0:0:0:
256,128,297659,1,0,0:0:0:0:
256,128,297756,1,2,0:0:0:0:
256,128,297853,1,0,0:0:0:0:
256,128,297951,1,0,0:0:0:0:
256,128,298048,1,2,0:0:0:0:
256,128,298146,1,0,0:0:0:0:
256,128,298243,1,2,0:0:0:0:
256,128,298340,1,0,0:0:0:0:
256,128,298438,1,2,0:0:0:0:
256,128,298535,1,2,0:0:0:0:
256,128,298633,1,2,0:0:0:0:
256,128,298730,1,0,0:0:0:0:
256,128,298827,1,2,0:0:0:0:
256,128,299022,1,0,0:0:0:0:
256,128,299120,1,0,0:0:0:0:
256,128,299217,1,0,0:0:0:0:
256,128,299412,1,2,0:0:0:0:
256,128,299607,1,0,0:0:0:0:
256,128,299704,1,0,0:0:0:0:
256,128,299801,1,6,0:0:0:0:
256,128,299996,1,6,0:0:0:0:
256,128,300191,1,0,0:0:0:0:
256,128,300288,1,2,0:0:0:0:
256,128,300386,1,0,0:0:0:0:
256,128,300581,1,0,0:0:0:0:
256,128,300775,1,0,0:0:0:0:
256,128,300873,1,2,0:0:0:0:
256,128,300970,1,0,0:0:0:0:
256,128,301165,1,0,0:0:0:0:
256,128,301360,1,2,0:0:0:0:
256,128,301457,1,2,0:0:0:0:
256,128,301555,1,0,0:0:0:0:
256,128,301652,1,2,0:0:0:0:
256,128,301749,1,0,0:0:0:0:
256,128,301847,1,0,0:0:0:0:
256,128,301944,1,2,0:0:0:0:
256,128,302139,1,2,0:0:0:0:
256,128,302236,1,0,0:0:0:0:
256,128,302431,1,2,0:0:0:0:
256,128,302529,1,0,0:0:0:0:
256,128,302723,1,0,0:0:0:0:
256,128,302821,1,0,0:0:0:0:
256,128,302918,1,6,0:0:0:0:
256,128,303113,1,6,0:0:0:0:
256,128,303308,1,0,0:0:0:0:
256,128,303405,1,0,0:0:0:0:
256,128,303503,1,6,0:0:0:0:
256,128,304087,1,6,0:0:0:0:
256,128,304282,1,6,0:0:0:0:
256,128,304477,1,0,0:0:0:0:
256,128,304574,1,0,0:0:0:0:
256,128,304672,1,2,0:0:0:0:
256,128,304769,1,0,0:0:0:0:
256,128,304866,1,2,0:0:0:0:
256,128,304964,1,2,0:0:0:0:
256,128,305061,1,0,0:0:0:0:
256,128,305256,1,2,0:0:0:0:
256,128,305353,1,0,0:0:0:0:
256,128,305451,1,0,0:0:0:0:
256,128,305548,1,0,0:0:0:0:
256,128,305646,1,2,0:0:0:0:
256,128,305840,1,0,0:0:0:0:
256,128,306035,1,2,0:0:0:0:
256,128,306133,1,2,0:0:0:0:
256,128,306230,1,0,0:0:0:0:
256,128,306425,1,2,0:0:0:0:
256,128,306522,1,0,0:0:0:0:
256,128,306620,1,0,0:0:0:0:
256,128,306814,1,2,0:0:0:0:
256,128,307009,1,0,0:0:0:0:
256,128,307107,1,0,0:0:0:0:
256,128,307204,1,2,0:0:0:0:
256,128,307301,1,0,0:0:0:0:
256,128,307399,1,0,0:0:0:0:
256,128,307594,1,2,0:0:0:0:
256,128,307691,1,0,0:0:0:0:
256,128,307788,1,2,0:0:0:0:
256,128,307983,1,2,0:0:0:0:
256,128,308081,1,0,0:0:0:0:
256,128,308178,1,0,0:0:0:0:
256,128,308275,1,0,0:0:0:0:
256,128,308373,1,2,0:0:0:0:
256,128,308568,1,0,0:0:0:0:
256,128,308665,1,0,0:0:0:0:
256,128,308762,1,2,0:0:0:0:
256,128,308860,1,0,0:0:0:0:
256,128,308957,1,0,0:0:0:0:
256,128,309152,1,2,0:0:0:0:
256,128,309249,1,2,0:0:0:0:
256,128,309347,1,0,0:0:0:0:
256,128,309444,1,0,0:0:0:0:
256,128,309542,1,2,0:0:0:0:
256,128,309736,1,0,0:0:0:0:
256,128,309931,1,2,0:0:0:0:
256,128,310126,1,0,0:0:0:0:
256,128,310321,1,2,0:0:0:0:
256,128,310516,1,0,0:0:0:0:
256,128,310710,1,6,0:0:0:0:
256,128,310905,1,6,0:0:0:0:
256,128,311100,1,6,0:0:0:0:
256,128,311295,1,0,0:0:0:0:
256,128,311392,1,0,0:0:0:0:
256,128,311490,1,2,0:0:0:0:
256,128,311587,1,0,0:0:0:0:
256,128,311685,1,0,0:0:0:0:
256,128,311879,1,2,0:0:0:0:
256,128,312074,1,0,0:0:0:0:
256,128,312269,1,2,0:0:0:0:
256,128,312366,1,2,0:0:0:0:
256,128,312464,1,0,0:0:0:0:
256,128,312561,1,2,0:0:0:0:
256,128,312659,1,0,0:0:0:0:
256,128,312853,1,6,0:0:0:0:
256,128,313146,1,6,0:0:0:0:
256,128,313438,1,6,0:0:0:0:
256,128,313633,1,0,0:0:0:0:
256,128,313730,1,0,0:0:0:0:
256,128,313827,1,2,0:0:0:0:
256,128,313925,1,0,0:0:0:0:
256,128,314022,1,0,0:0:0:0:
256,128,314120,1,0,0:0:0:0:
256,128,314217,1,2,0:0:0:0:
256,128,314314,1,2,0:0:0:0:
256,128,314412,1,0,0:0:0:0:
256,128,314607,1,2,0:0:0:0:
256,128,314801,1,0,0:0:0:0:
256,128,314899,1,0,0:0:0:0:
256,128,314996,1,2,0:0:0:0:
256,128,315191,1,0,0:0:0:0:
256,128,315386,1,2,0:0:0:0:
256,128,315483,1,0,0:0:0:0:
256,128,315581,1,2,0:0:0:0:
256,128,315678,1,0,0:0:0:0:
256,128,315775,1,2,0:0:0:0:
256,128,315970,1,0,0:0:0:0:
256,128,316165,1,2,0:0:0:0:
256,128,316360,1,0,0:0:0:0:
256,128,316555,1,2,0:0:0:0:
256,128,316652,1,0,0:0:0:0:
256,128,316749,1,2,0:0:0:0:
256,128,316944,1,2,0:0:0:0:
256,128,317042,1,0,0:0:0:0:
256,128,317139,1,2,0:0:0:0:
256,128,317236,1,2,0:0:0:0:
256,128,317334,1,0,0:0:0:0:
256,128,317431,1,2,0:0:0:0:
256,128,317529,1,0,0:0:0:0:
256,128,317723,1,2,0:0:0:0:
256,128,317918,1,0,0:0:0:0:
256,128,318016,1,0,0:0:0:0:
256,128,318113,1,2,0:0:0:0:
256,128,318308,1,2,0:0:0:0:
256,128,318405,1,2,0:0:0:0:
256,128,318503,1,0,0:0:0:0:
256,128,318600,1,0,0:0:0:0:
256,128,318697,1,2,0:0:0:0:
256,128,318795,1,0,0:0:0:0:
256,128,318892,1,2,0:0:0:0:
256,128,319087,1,0,0:0:0:0:
256,128,319282,1,2,0:0:0:0:
256,128,319477,1,0,0:0:0:0:
256,128,319574,1,0,0:0:0:0:
256,128,319672,1,2,0:0:0:0:
256,128,319866,1,0,0:0:0:0:
256,128,319964,1,2,0:0:0:0:
256,128,320061,1,0,0:0:0:0:
256,128,320159,1,0,0:0:0:0:
256,128,320256,1,2,0:0:0:0:
256,128,320353,1,0,0:0:0:0:
256,128,320451,1,2,0:0:0:0:
256,128,320646,1,0,0:0:0:0:
256,128,320840,1,2,0:0:0:0:
256,128,320938,1,0,0:0:0:0:
256,128,321035,1,2,0:0:0:0:
256,128,321230,1,2,0:0:0:0:
256,128,321327,1,0,0:0:0:0:
256,128,321425,1,0,0:0:0:0:
256,128,321522,1,0,0:0:0:0:
256,128,321620,1,2,0:0:0:0:
256,128,321717,1,2,0:0:0:0:
256,128,321814,1,0,0:0:0:0:
256,128,321912,1,0,0:0:0:0:
256,128,322009,1,2,0:0:0:0:
256,128,322204,1,0,0:0:0:0:
256,128,322399,1,2,0:0:0:0:
256,128,322496,1,2,0:0:0:0:
256,128,322594,1,0,0:0:0:0:
256,128,322691,1,0,0:0:0:0:
256,128,322788,1,2,0:0:0:0:
256,128,322983,1,0,0:0:0:0:
256,128,323081,1,2,0:0:0:0:
256,128,323178,1,2,0:0:0:0:
256,128,323275,1,0,0:0:0:0:
256,128,323373,1,0,0:0:0:0:
256,128,323470,1,2,0:0:0:0:
256,128,323568,1,2,0:0:0:0:
256,128,323665,1,0,0:0:0:0:
256,128,323762,1,6,0:0:0:0:
256,128,324152,1,4,0:0:0:0:
256,128,324542,1,6,0:0:0:0:
256,128,324931,1,4,0:0:0:0:
256,128,325321,1,0,0:0:0:0:
256,128,325516,1,2,0:0:0:0:
256,128,325613,1,2,0:0:0:0:
256,128,325710,1,0,0:0:0:0:
256,128,325905,1,0,0:0:0:0:
256,128,326100,1,6,0:0:0:0:
256,128,326490,1,6,0:0:0:0:
256,128,326879,1,4,0:0:0:0:
256,128,327269,1,6,0:0:0:0:
256,128,327659,1,2,0:0:0:0:
256,128,327853,1,2,0:0:0:0:
256,128,327951,1,2,0:0:0:0:
256,128,328048,1,0,0:0:0:0:
256,128,328243,1,0,0:0:0:0:
256,128,328438,1,6,0:0:0:0:
256,128,328827,1,6,0:0:0:0:
256,128,329217,1,0,0:0:0:0:
256,128,329314,1,0,0:0:0:0:
256,128,329412,1,2,0:0:0:0:
256,128,329509,1,0,0:0:0:0:
256,128,329607,1,2,0:0:0:0:
256,128,329704,1,2,0:0:0:0:
256,128,329801,1,2,0:0:0:0:
256,128,329899,1,2,0:0:0:0:
256,128,329996,1,0,0:0:0:0:
256,192,334672,12,0,337009,0:0:0:0:
256,128,337788,5,0,0:0:0:0:
256,128,337983,1,2,0:0:0:0:
256,128,338081,1,2,0:0:0:0:
256,128,338178,1,0,0:0:0:0:
256,128,338275,1,0,0:0:0:0:
256,128,338373,1,2,0:0:0:0:
256,128,338568,1,0,0:0:0:0:
256,128,338762,1,2,0:0:0:0:
256,128,338860,1,0,0:0:0:0:
256,128,338957,1,2,0:0:0:0:
256,128,339055,1,0,0:0:0:0:
256,128,339152,1,2,0:0:0:0:
256,128,339249,1,2,0:0:0:0:
256,128,339347,1,0,0:0:0:0:
256,128,339542,1,2,0:0:0:0:
256,128,339736,1,0,0:0:0:0:
256,128,339834,1,2,0:0:0:0:
256,128,339931,1,0,0:0:0:0:
256,128,340029,1,2,0:0:0:0:
256,128,340126,1,0,0:0:0:0:
256,128,340321,1,2,0:0:0:0:
256,128,340516,1,0,0:0:0:0:
256,128,340710,1,2,0:0:0:0:
256,128,340905,1,0,0:0:0:0:
256,128,341100,1,2,0:0:0:0:
256,128,341197,1,2,0:0:0:0:
256,128,341295,1,0,0:0:0:0:
256,128,341392,1,0,0:0:0:0:
256,128,341490,1,2,0:0:0:0:
256,128,341587,1,2,0:0:0:0:
256,128,341685,1,0,0:0:0:0:
256,128,341879,1,0,0:0:0:0:
256,128,342074,1,2,0:0:0:0:
256,128,342269,1,0,0:0:0:0:
256,128,342366,1,0,0:0:0:0:
256,128,342464,1,2,0:0:0:0:
256,128,342659,1,0,0:0:0:0:
256,128,342853,1,2,0:0:0:0:
256,128,342951,1,0,0:0:0:0:
256,128,343048,1,2,0:0:0:0:
256,128,343243,1,0,0:0:0:0:
256,128,343340,1,0,0:0:0:0:
256,128,343438,1,2,0:0:0:0:
256,128,343535,1,0,0:0:0:0:
256,128,343633,1,2,0:0:0:0:
256,128,343730,1,0,0:0:0:0:
256,128,343827,1,2,0:0:0:0:
256,128,343925,1,2,0:0:0:0:
256,128,344022,1,0,0:0:0:0:
256,128,344217,1,2,0:0:0:0:
256,128,344314,1,0,0:0:0:0:
256,128,344412,1,2,0:0:0:0:
256,128,344509,1,2,0:0:0:0:
256,128,344607,1,0,0:0:0:0:
256,128,344704,1,0,0:0:0:0:
256,128,344801,1,2,0:0:0:0:
256,128,344996,1,0,0:0:0:0:
256,128,345094,1,0,0:0:0:0:
256,128,345191,1,2,0:0:0:0:
256,128,345581,1,2,0:0:0:0:
256,128,345775,1,2,0:0:0:0:
256,128,345873,1,0,0:0:0:0:
256,128,345970,1,0,0:0:0:0:
256,128,346068,1,2,0:0:0:0:
256,128,346165,1,0,0:0:0:0:
256,128,346262,1,2,0:0:0:0:
256,128,346360,1,0,0:0:0:0:
256,128,346555,1,0,0:0:0:0:
256,128,346652,1,0,0:0:0:0:
256,128,346749,1,2,0:0:0:0:
256,128,347139,1,2,0:0:0:0:
256,128,347334,1,2,0:0:0:0:
256,128,347431,1,0,0:0:0:0:
256,128,347529,1,2,0:0:0:0:
256,128,347626,1,0,0:0:0:0:
256,128,347723,1,0,0:0:0:0:
256,128,347821,1,0,0:0:0:0:
256,128,347918,1,2,0:0:0:0:
256,128,348113,1,0,0:0:0:0:
256,128,348210,1,0,0:0:0:0:
256,128,348308,1,2,0:0:0:0:
256,128,348405,1,0,0:0:0:0:
256,128,348503,1,2,0:0:0:0:
256,128,348697,1,4,0:0:0:0:
256,128,349087,1,4,0:0:0:0:
256,128,349477,1,0,0:0:0:0:
256,128,349574,1,0,0:0:0:0:
256,128,349672,1,2,0:0:0:0:
256,128,349769,1,0,0:0:0:0:
256,128,349866,1,2,0:0:0:0:
256,128,349964,1,2,0:0:0:0:
256,128,350061,1,2,0:0:0:0:
256,128,350159,1,2,0:0:0:0:
256,128,350353,1,2,0:0:0:0:
256,128,350548,1,0,0:0:0:0:
256,128,350646,1,2,0:0:0:0:
256,128,350743,1,0,0:0:0:0:
256,128,350840,1,0,0:0:0:0:
256,128,350938,1,2,0:0:0:0:
256,128,351035,1,2,0:0:0:0:
256,128,351133,1,0,0:0:0:0:
256,128,351230,1,2,0:0:0:0:
256,128,351327,1,2,0:0:0:0:
256,128,351425,1,2,0:0:0:0:
256,128,351522,1,0,0:0:0:0:
256,128,351620,1,0,0:0:0:0:
256,128,351717,1,2,0:0:0:0:
256,128,351814,1,2,0:0:0:0:
256,128,351912,1,2,0:0:0:0:
256,128,352009,1,2,0:0:0:0:
256,128,352107,1,0,0:0:0:0:
256,128,352204,1,2,0:0:0:0:
256,128,352301,1,0,0:0:0:0:
256,128,352399,1,2,0:0:0:0:
256,128,352496,1,0,0:0:0:0:
256,128,352594,1,0,0:0:0:0:
256,128,352691,1,2,0:0:0:0:
256,128,352788,1,0,0:0:0:0:
256,128,352886,1,2,0:0:0:0:
256,128,352983,1,0,0:0:0:0:
256,128,353081,1,2,0:0:0:0:
256,128,353178,1,0,0:0:0:0:
256,128,353275,1,2,0:0:0:0:
256,128,353373,1,4,0:0:0:0:
256,192,353568,12,0,357269,0:0:0:0:
