osu file format v14

[General]
AudioFilename: audio.mp3
AudioLeadIn: 0
PreviewTime: 138809
Countdown: 0
SampleSet: Soft
StackLeniency: 0.4
Mode: 0
LetterboxInBreaks: 0
WidescreenStoryboard: 0

[Editor]
DistanceSpacing: 2.5
BeatDivisor: 4
GridSize: 16
TimelineZoom: 1.7

[Metadata]
Title:Moumoku no Egao
TitleUnicode:盲目の笑顔
Artist:Diao Ye Zong feat. Meramipop
ArtistUnicode:凋叶棕 feat. めらみぽっぷ
Creator:Jelljel
Version:Despair
Source:東方地霊殿 ~ Subterranean Animism.
Tags:RD-Sounds めらみぽっぷ merami 凋叶棕 遙 Haruka Comiket 80 c80 Touhou 2hu Chireiden th11 少女さとり ~ 3rd eye Stage 4 Boss Theme Satori Koishi Komeji 古明地 こいし さとり ZUN Team Shanghai Alice Classical Cantata Piano Violin Japanese
BeatmapID:2523994
BeatmapSetID:1212631

[Difficulty]
HPDrainRate:5
CircleSize:5
OverallDifficulty:9
ApproachRate:8.6
SliderMultiplier:2
SliderTickRate:1

[Events]
//Background and Video events
0,0,"eyes.jpg",0,0
//Break Periods
//Storyboard Layer 0 (Background)
//Storyboard Layer 1 (Fail)
//Storyboard Layer 2 (Pass)
//Storyboard Layer 3 (Foreground)
//Storyboard Layer 4 (Overlay)
//Storyboard Sound Samples

[TimingPoints]
1634,458.015267175573,4,2,2,25,1,0
1863,458.015267175573,4,2,2,25,1,0
1863,-133.333333333333,4,2,2,30,0,0
7359,-133.333333333333,4,2,2,35,0,0
31863,-133.333333333333,4,2,2,40,0,0
33695,-133.333333333333,4,2,99,5,0,0
33924,-133.333333333333,4,2,2,40,0,0
39649,-100,4,2,2,45,0,0
40336,-100,4,2,2,50,0,0
40794,-100,4,2,99,5,0,0
41023,-100,4,2,2,50,0,0
47664,-100,4,2,2,60,0,0
47779,-100,4,2,99,5,0,0
47893,-100,4,2,2,60,0,0
48008,-100,4,2,99,5,0,0
48122,-100,4,2,2,60,0,0
48237,-100,4,2,99,5,0,0
48351,-100,4,2,2,60,0,0
48695,-100,4,2,99,5,0,0
48809,-100,4,2,2,60,0,0
48924,-100,4,2,99,5,0,0
49038,-100,4,2,2,60,0,0
49153,-100,4,2,99,5,0,0
49267,-100,4,2,2,60,0,0
49382,-100,4,2,99,5,0,0
49496,-100,4,2,2,60,0,0
49611,-100,4,2,99,5,0,0
49725,-100,4,2,2,60,0,0
49840,-100,4,2,99,5,0,0
49954,-100,4,2,2,60,0,0
50069,-100,4,2,99,5,0,0
50183,-100,4,2,2,60,0,0
50298,-100,4,2,99,5,0,0
50412,-100,4,2,2,60,0,0
50527,-100,4,2,99,5,0,0
50641,-100,4,2,2,60,0,0
50756,-100,4,2,99,5,0,0
50870,-100,4,2,2,60,0,0
50985,-100,4,2,99,5,0,0
51099,-100,4,2,2,60,0,0
51214,-100,4,2,99,5,0,0
51328,-100,4,2,2,60,0,0
51443,-100,4,2,99,5,0,0
51557,-100,4,2,2,60,0,0
51672,-100,4,2,99,5,0,0
51786,-100,4,2,2,60,0,0
51901,-100,4,2,99,5,0,0
52015,-100,4,2,2,60,0,0
52359,-100,4,2,99,5,0,0
52473,-100,4,2,2,60,0,0
52588,-100,4,2,99,5,0,0
52702,-100,4,2,2,60,0,0
52817,-100,4,2,99,5,0,0
52931,-100,4,2,2,60,0,0
53046,-100,4,2,99,5,0,0
53160,-100,4,2,2,60,0,0
53275,-100,4,2,99,5,0,0
53389,-100,4,2,2,60,0,0
53504,-100,4,2,99,5,0,0
53618,-100,4,2,2,60,0,0
53733,-100,4,2,99,5,0,0
53847,-100,4,2,2,60,0,0
53962,-100,4,2,99,5,0,0
54076,-100,4,2,2,60,0,0
54191,-100,4,2,99,5,0,0
54305,-100,4,2,2,60,0,0
54420,-100,4,2,99,5,0,0
54534,-100,4,2,2,50,0,0
54649,-100,4,2,99,5,0,0
54763,-100,4,2,2,50,0,0
54878,-100,4,2,99,5,0,0
54992,-200,4,2,2,40,0,0
55908,-200,4,2,2,25,0,0
56137,-200,4,2,2,40,0,0
59114,-200,4,2,2,25,0,0
59343,-200,4,2,2,40,0,0
59801,-200,4,2,2,25,0,0
60030,-200,4,2,2,40,0,0
60946,-200,4,2,2,25,0,0
61175,-200,4,2,2,40,0,0
61863,-200,4,2,2,25,0,0
62092,-200,4,2,2,40,0,0
63237,-200,4,2,2,25,0,0
63466,-200,4,2,2,40,0,0
65069,-200,4,2,2,25,0,0
65298,-200,4,2,2,40,0,0
67130,-200,4,2,99,5,0,0
67359,-200,4,2,2,40,0,0
67588,-200,4,2,99,5,0,0
67817,-200,4,2,2,40,0,0
68275,-200,4,2,99,5,0,0
68504,-200,4,2,2,40,0,0
69649,-133.333333333333,4,2,2,50,0,0
69763,-133.333333333333,4,2,99,5,0,0
69878,-133.333333333333,4,2,2,50,0,0
69992,-133.333333333333,4,2,99,5,0,0
70107,-133.333333333333,4,2,2,50,0,0
70221,-133.333333333333,4,2,99,5,0,0
70336,-133.333333333333,4,2,2,50,0,0
70450,-133.333333333333,4,2,99,5,0,0
70565,-133.333333333333,4,2,2,50,0,0
70679,-133.333333333333,4,2,99,5,0,0
70794,-133.333333333333,4,2,2,50,0,0
70908,-133.333333333333,4,2,99,5,0,0
71023,-133.333333333333,4,2,2,50,0,0
71137,-133.333333333333,4,2,99,5,0,0
71252,-133.333333333333,4,2,2,50,0,0
71366,-133.333333333333,4,2,99,5,0,0
71481,-133.333333333333,4,2,2,50,0,0
71595,-133.333333333333,4,2,99,5,0,0
71710,-133.333333333333,4,2,2,50,0,0
71824,-133.333333333333,4,2,99,5,0,0
71939,-133.333333333333,4,2,2,50,0,0
72053,-133.333333333333,4,2,99,5,0,0
72168,-133.333333333333,4,2,2,50,0,0
72282,-133.333333333333,4,2,99,5,0,0
72397,-133.333333333333,4,2,2,50,0,0
72511,-133.333333333333,4,2,99,5,0,0
72626,-133.333333333333,4,2,2,50,0,0
72740,-133.333333333333,4,2,99,5,0,0
72855,-133.333333333333,4,2,2,50,0,0
72969,-133.333333333333,4,2,99,5,0,0
73084,-133.333333333333,4,2,2,50,0,0
73198,-133.333333333333,4,2,99,5,0,0
73313,-133.333333333333,4,2,2,50,0,0
73427,-133.333333333333,4,2,99,5,0,0
73542,-133.333333333333,4,2,2,50,0,0
73656,-133.333333333333,4,2,99,5,0,0
73771,-133.333333333333,4,2,2,50,0,0
73885,-133.333333333333,4,2,99,5,0,0
74000,-133.333333333333,4,2,2,50,0,0
74114,-133.333333333333,4,2,99,5,0,0
74229,-133.333333333333,4,2,2,50,0,0
74343,-133.333333333333,4,2,99,5,0,0
74458,-133.333333333333,4,2,2,50,0,0
74572,-133.333333333333,4,2,99,5,0,0
74687,-133.333333333333,4,2,2,50,0,0
74801,-133.333333333333,4,2,99,5,0,0
74916,-133.333333333333,4,2,2,50,0,0
75030,-133.333333333333,4,2,99,5,0,0
75145,-133.333333333333,4,2,2,50,0,0
75259,-133.333333333333,4,2,99,5,0,0
75374,-133.333333333333,4,2,2,50,0,0
75717,-133.333333333333,4,2,99,5,0,0
75832,-133.333333333333,4,2,2,50,0,0
75946,-133.333333333333,4,2,99,5,0,0
76061,-133.333333333333,4,2,2,50,0,0
76404,-133.333333333333,4,2,99,5,0,0
76519,-133.333333333333,4,2,2,50,0,0
77893,-133.333333333333,4,2,99,5,0,0
78122,-133.333333333333,4,2,2,50,0,0
78237,-133.333333333333,4,2,99,5,0,0
78351,-133.333333333333,4,2,2,50,0,0
78466,-133.333333333333,4,2,99,5,0,0
78580,-133.333333333333,4,2,2,50,0,0
78695,-133.333333333333,4,2,99,5,0,0
78809,-133.333333333333,4,2,2,50,0,0
79725,-133.333333333333,4,2,99,5,0,0
79954,-133.333333333333,4,2,2,50,0,0
80183,-133.333333333333,4,2,99,5,0,0
80412,-133.333333333333,4,2,2,50,0,0
80756,-133.333333333333,4,2,99,5,0,0
80870,-133.333333333333,4,2,2,50,0,0
80985,-133.333333333333,4,2,99,5,0,0
81099,-133.333333333333,4,2,2,50,0,0
81214,-133.333333333333,4,2,99,5,0,0
81328,-133.333333333333,4,2,2,50,0,0
81786,-133.333333333333,4,2,99,5,0,0
82015,-133.333333333333,4,2,2,50,0,0
84191,-133.333333333333,4,2,99,5,0,0
84305,-100,4,2,2,60,0,0
84420,-100,4,2,99,5,0,0
84534,-100,4,2,2,60,0,0
84649,-100,4,2,99,5,0,0
84763,-100,4,2,2,60,0,0
84878,-100,4,2,99,5,0,0
84992,-100,4,2,2,60,0,0
85336,-100,4,2,99,5,0,0
85450,-100,4,2,2,60,0,0
85565,-100,4,2,99,5,0,0
85679,-100,4,2,2,60,0,0
85794,-100,4,2,99,5,0,0
85908,-100,4,2,2,60,0,0
86023,-100,4,2,99,5,0,0
86137,-100,4,2,2,60,0,0
86252,-100,4,2,99,5,0,0
86366,-100,4,2,2,60,0,0
86481,-100,4,2,99,5,0,0
86595,-100,4,2,2,60,0,0
86710,-100,4,2,99,5,0,0
86824,-100,4,2,2,60,0,0
86939,-100,4,2,99,5,0,0
87053,-100,4,2,2,60,0,0
87168,-100,4,2,99,5,0,0
87282,-100,4,2,2,60,0,0
87397,-100,4,2,99,5,0,0
87511,-100,4,2,2,60,0,0
87626,-100,4,2,99,5,0,0
87740,-100,4,2,2,60,0,0
87855,-100,4,2,99,5,0,0
87969,-100,4,2,2,60,0,0
88084,-100,4,2,99,5,0,0
88198,-100,4,2,2,60,0,0
88313,-100,4,2,99,5,0,0
88427,-100,4,2,2,60,0,0
88542,-100,4,2,99,5,0,0
88656,-100,4,2,2,60,0,0
89000,-100,4,2,99,5,0,0
89114,-100,4,2,2,60,0,0
89229,-100,4,2,99,5,0,0
89343,-100,4,2,2,60,0,0
89458,-100,4,2,99,5,0,0
89572,-100,4,2,2,60,0,0
89687,-100,4,2,99,5,0,0
89801,-100,4,2,2,60,0,0
89916,-100,4,2,99,5,0,0
90030,-100,4,2,2,60,0,0
90145,-100,4,2,99,5,0,0
90259,-100,4,2,2,60,0,0
90374,-100,4,2,99,5,0,0
90488,-100,4,2,2,60,0,0
90603,-100,4,2,99,5,0,0
90717,-100,4,2,2,60,0,0
90832,-100,4,2,99,5,0,0
90946,-100,4,2,2,60,0,0
91061,-100,4,2,99,5,0,0
91175,-100,4,2,2,55,0,0
91290,-100,4,2,99,5,0,0
91404,-100,4,2,2,55,0,0
91519,-100,4,2,99,5,0,0
91633,-125,4,2,2,50,0,0
92550,-125,4,2,2,30,0,0
92779,-125,4,2,2,50,0,0
94954,-125,4,2,99,5,0,0
95069,-125,4,2,2,50,0,0
95183,-125,4,2,99,5,0,0
95298,-125,4,2,2,50,0,0
95527,-125,4,2,2,30,0,0
95756,-125,4,2,2,50,0,0
96214,-125,4,2,2,30,0,0
96672,-125,4,2,2,50,0,0
97588,-125,4,2,99,5,0,0
97817,-125,4,2,2,50,0,0
98504,-125,4,2,2,30,0,0
98733,-125,4,2,2,50,0,0
99649,-125,4,2,2,30,0,0
100107,-125,4,2,2,50,0,0
101710,-125,4,2,2,30,0,0
101939,-125,4,2,2,50,0,0
105145,-125,4,2,2,55,0,0
105374,-125,4,2,2,60,0,0
105488,-125,4,2,99,5,0,0
105603,-125,4,2,2,60,0,0
105717,-125,4,2,99,5,0,0
105832,-125,4,2,2,60,0,0
105946,-125,4,2,99,5,0,0
106061,-125,4,2,2,60,0,0
106175,-125,4,2,99,5,0,0
106290,-125,4,2,2,60,0,0
106404,-125,4,2,99,5,0,0
106519,-125,4,2,2,60,0,0
106633,-125,4,2,99,5,0,0
106748,-125,4,2,2,60,0,0
106863,-125,4,2,99,5,0,0
106977,-125,4,2,2,60,0,0
108237,-125,4,2,99,5,0,0
108351,-125,4,2,2,60,0,0
108466,-125,4,2,99,5,0,0
108580,-125,4,2,2,60,0,0
108695,-125,4,2,99,5,0,0
108809,-125,4,2,2,60,0,0
109153,-125,4,2,99,5,0,0
109267,-125,4,2,2,60,0,0
109382,-125,4,2,99,5,0,0
109496,-125,4,2,2,60,0,0
109611,-125,4,2,99,5,0,0
109725,-125,4,2,2,60,0,0
110069,-125,4,2,99,5,0,0
110183,-125,4,2,2,60,0,0
110527,-125,4,2,99,5,0,0
110641,-125,4,2,2,60,0,0
110756,-125,4,2,99,5,0,0
110870,-125,4,2,2,60,0,0
110985,-125,4,2,99,5,0,0
111099,-125,4,2,2,60,0,0
111214,-125,4,2,99,5,0,0
111328,-125,4,2,2,60,0,0
111443,-125,4,2,99,5,0,0
111557,-125,4,2,2,60,0,0
111901,-125,4,2,99,5,0,0
112015,-125,4,2,2,60,0,0
112130,-125,4,2,99,5,0,0
112244,-125,4,2,2,60,0,0
112817,-125,4,2,99,5,0,0
112931,-125,4,2,2,60,0,0
113046,-125,4,2,99,5,0,0
113160,-125,4,2,2,60,0,0
113275,-125,4,2,99,5,0,0
113389,-153.846153846154,4,2,2,55,0,0
113504,-153.846153846154,4,2,99,5,0,0
113618,-200,4,2,2,50,0,0
114534,-200,4,2,2,30,0,0
114763,-200,4,2,2,50,0,0
117969,-200,4,2,2,30,0,0
118198,-200,4,2,2,50,0,0
120488,-133.333333333333,4,2,2,55,0,0
121061,-133.333333333333,4,2,99,5,0,0
121175,-133.333333333333,4,2,2,55,0,0
121290,-133.333333333333,4,2,99,5,0,0
121404,-133.333333333333,4,2,2,55,0,0
121519,-133.333333333333,4,2,99,5,0,0
121633,-133.333333333333,4,2,2,55,0,0
121748,-133.333333333333,4,2,99,5,0,0
121863,-133.333333333333,4,2,2,55,0,0
121977,-133.333333333333,4,2,99,5,0,0
122092,-133.333333333333,4,2,2,55,0,0
122206,-133.333333333333,4,2,99,5,0,0
122321,-133.333333333333,4,2,2,55,0,0
122435,-133.333333333333,4,2,99,5,0,0
122550,-133.333333333333,4,2,2,55,0,0
122664,-133.333333333333,4,2,99,5,0,0
122779,-133.333333333333,4,2,2,55,0,0
122893,-133.333333333333,4,2,99,5,0,0
123008,-133.333333333333,4,2,2,55,0,0
123122,-133.333333333333,4,2,99,5,0,0
123237,-133.333333333333,4,2,2,55,0,0
123351,-133.333333333333,4,2,99,5,0,0
123466,-133.333333333333,4,2,2,55,0,0
123580,-133.333333333333,4,2,99,5,0,0
123695,-133.333333333333,4,2,2,55,0,0
124038,-133.333333333333,4,2,99,5,0,0
124153,-133.333333333333,4,2,2,55,0,0
124267,-133.333333333333,4,2,99,5,0,0
124382,-133.333333333333,4,2,2,55,0,0
124496,-133.333333333333,4,2,99,5,0,0
124611,-133.333333333333,4,2,2,55,0,0
124725,-133.333333333333,4,2,99,5,0,0
124840,-133.333333333333,4,2,2,55,0,0
124954,-133.333333333333,4,2,99,5,0,0
125069,-133.333333333333,4,2,2,55,0,0
125183,-133.333333333333,4,2,99,5,0,0
125298,-133.333333333333,4,2,2,55,0,0
125412,-133.333333333333,4,2,99,5,0,0
125527,-133.333333333333,4,2,2,55,0,0
125641,-133.333333333333,4,2,99,5,0,0
125756,-133.333333333333,4,2,2,55,0,0
125870,-133.333333333333,4,2,99,5,0,0
125985,-133.333333333333,4,2,2,55,0,0
126099,-133.333333333333,4,2,99,5,0,0
126214,-133.333333333333,4,2,2,55,0,0
126328,-133.333333333333,4,2,99,5,0,0
126443,-133.333333333333,4,2,2,55,0,0
126557,-133.333333333333,4,2,99,5,0,0
126672,-133.333333333333,4,2,2,55,0,0
126786,-133.333333333333,4,2,99,5,0,0
126901,-133.333333333333,4,2,2,55,0,0
127015,-133.333333333333,4,2,99,5,0,0
127130,-133.333333333333,4,2,2,55,0,0
127244,-133.333333333333,4,2,99,5,0,0
127359,-133.333333333333,4,2,2,55,0,0
127473,-133.333333333333,4,2,99,5,0,0
127588,-133.333333333333,4,2,2,55,0,0
127702,-133.333333333333,4,2,99,5,0,0
127817,-133.333333333333,4,2,2,55,0,0
127931,-133.333333333333,4,2,99,5,0,0
128046,-133.333333333333,4,2,2,55,0,0
128160,-133.333333333333,4,2,99,5,0,0
128275,-133.333333333333,4,2,2,55,0,0
130565,-133.333333333333,4,2,2,35,0,0
130794,-133.333333333333,4,2,2,55,0,0
131023,-133.333333333333,4,2,2,35,0,0
131252,-133.333333333333,4,2,2,55,0,0
131939,-133.333333333333,4,2,2,60,0,0
132282,-133.333333333333,4,2,99,5,0,0
132397,-125,4,2,2,63,0,0
132740,-125,4,2,99,5,0,0
132855,-111.111111111111,4,2,2,66,0,0
133198,-111.111111111111,4,2,99,5,0,0
133313,-100,4,2,2,70,0,0
133427,-100,4,2,99,5,0,0
133542,-90.9090909090909,4,2,2,70,0,0
133656,-100,4,2,99,5,0,0
133771,-83.3333333333333,4,2,2,70,0,0
133885,-83.3333333333333,4,2,99,5,0,0
134000,-83.3333333333333,4,2,2,70,0,0
134114,-83.3333333333333,4,2,99,5,0,0
134229,-83.3333333333333,4,2,2,70,0,0
134343,-83.3333333333333,4,2,99,5,0,0
134458,-83.3333333333333,4,2,2,70,0,0
134572,-83.3333333333333,4,2,99,5,0,0
134687,-83.3333333333333,4,2,2,70,0,0
134801,-83.3333333333333,4,2,99,5,0,0
134916,-83.3333333333333,4,2,2,70,0,0
135030,-83.3333333333333,4,2,99,5,0,0
135145,-83.3333333333333,4,2,2,70,0,0
135259,-83.3333333333333,4,2,99,5,0,0
135374,-83.3333333333333,4,2,2,70,0,0
135488,-83.3333333333333,4,2,99,5,0,0
135603,-83.3333333333333,4,2,2,70,0,0
135717,-83.3333333333333,4,2,99,5,0,0
135832,-83.3333333333333,4,2,2,70,0,0
135946,-83.3333333333333,4,2,99,5,0,0
136061,-83.3333333333333,4,2,2,70,0,0
136175,-83.3333333333333,4,2,99,5,0,0
136290,-83.3333333333333,4,2,2,70,0,0
136404,-83.3333333333333,4,2,99,5,0,0
136519,-83.3333333333333,4,2,2,70,0,0
138008,-83.3333333333333,4,2,99,5,0,0
138122,-83.3333333333333,4,2,2,70,0,0
138466,-83.3333333333333,4,2,2,50,0,0
138580,-83.3333333333333,4,2,2,70,0,0
138637,-83.3333333333333,4,2,99,5,0,0
138809,-83.3333333333333,4,2,2,75,0,0
139267,-76.9230769230769,4,2,2,80,0,1
139840,-76.9230769230769,4,2,99,5,0,1
139954,-76.9230769230769,4,2,2,80,0,1
140069,-76.9230769230769,4,2,99,5,0,1
140183,-76.9230769230769,4,2,2,80,0,1
142588,-76.9230769230769,4,2,99,5,0,1
142702,-76.9230769230769,4,2,2,80,0,1
142817,-76.9230769230769,4,2,99,5,0,1
142931,-76.9230769230769,4,2,2,80,0,1
143504,-76.9230769230769,4,2,99,5,0,1
143618,-76.9230769230769,4,2,2,80,0,1
143733,-76.9230769230769,4,2,99,5,0,1
143847,-76.9230769230769,4,2,2,80,0,1
146252,-76.9230769230769,4,2,99,5,0,1
146366,-76.9230769230769,4,2,2,80,0,1
146481,-76.9230769230769,4,2,99,5,0,1
146595,-76.9230769230769,4,2,2,80,0,1
147168,-76.9230769230769,4,2,99,5,0,1
147282,-76.9230769230769,4,2,2,80,0,1
147397,-76.9230769230769,4,2,99,5,0,1
147511,-76.9230769230769,4,2,2,80,0,1
149687,-76.9230769230769,4,2,99,5,0,1
149801,-76.9230769230769,4,2,2,80,0,1
149916,-76.9230769230769,4,2,99,5,0,1
150030,-76.9230769230769,4,2,2,80,0,1
150145,-76.9230769230769,4,2,99,5,0,1
150259,-76.9230769230769,4,2,2,80,0,1
154267,-76.9230769230769,4,2,99,5,0,1
154382,-76.9230769230769,4,2,2,80,0,1
154496,-76.9230769230769,4,2,99,5,0,1
154611,-76.9230769230769,4,2,2,80,0,1
154725,-76.9230769230769,4,2,99,5,0,1
154840,-76.9230769230769,4,2,2,80,0,1
154954,-76.9230769230769,4,2,99,5,0,1
155069,-76.9230769230769,4,2,2,80,0,1
155183,-76.9230769230769,4,2,99,5,0,1
155298,-76.9230769230769,4,2,2,80,0,1
155412,-76.9230769230769,4,2,99,5,0,1
155527,-76.9230769230769,4,2,2,80,0,1
155641,-76.9230769230769,4,2,99,5,0,1
155756,-76.9230769230769,4,2,2,80,0,1
155870,-76.9230769230769,4,2,99,5,0,1
155985,-76.9230769230769,4,2,2,80,0,1
156099,-76.9230769230769,4,2,99,5,0,1
156214,-76.9230769230769,4,2,2,80,0,1
156328,-76.9230769230769,4,2,99,5,0,1
156443,-76.9230769230769,4,2,2,80,0,1
156557,-76.9230769230769,4,2,99,5,0,1
156672,-76.9230769230769,4,2,2,80,0,1
157015,-76.9230769230769,4,2,99,5,0,1
157130,-76.9230769230769,4,2,2,80,0,1
157244,-76.9230769230769,4,2,99,5,0,1
157359,-76.9230769230769,4,2,2,80,0,1
157473,-76.9230769230769,4,2,99,5,0,1
157588,-76.9230769230769,4,2,2,80,0,1
157931,-76.9230769230769,4,2,99,5,0,1
158046,-76.9230769230769,4,2,2,80,0,1
158160,-76.9230769230769,4,2,99,5,0,1
158275,-76.9230769230769,4,2,2,80,0,1
158389,-76.9230769230769,4,2,99,5,0,1
158504,-76.9230769230769,4,2,2,80,0,1
158618,-76.9230769230769,4,2,99,5,0,1
158733,-76.9230769230769,4,2,2,80,0,1
158847,-76.9230769230769,4,2,99,5,0,1
158962,-76.9230769230769,4,2,2,80,0,1
159076,-76.9230769230769,4,2,99,5,0,1
159191,-76.9230769230769,4,2,2,80,0,1
159305,-76.9230769230769,4,2,99,5,0,1
159420,-76.9230769230769,4,2,2,80,0,1
159763,-76.9230769230769,4,2,99,5,0,1
159878,-76.9230769230769,4,2,2,80,0,1
159992,-76.9230769230769,4,2,99,5,0,1
160107,-76.9230769230769,4,2,2,80,0,1
160221,-76.9230769230769,4,2,99,5,0,1
160336,-76.9230769230769,4,2,2,80,0,1
160679,-76.9230769230769,4,2,99,5,0,1
160794,-76.9230769230769,4,2,2,80,0,1
160908,-76.9230769230769,4,2,99,5,0,1
161023,-76.9230769230769,4,2,2,80,0,1
161137,-76.9230769230769,4,2,99,5,0,1
161252,-76.9230769230769,4,2,2,80,0,1
161366,-76.9230769230769,4,2,99,5,0,1
161481,-76.9230769230769,4,2,2,80,0,1
161595,-76.9230769230769,4,2,99,5,0,1
161710,-76.9230769230769,4,2,2,80,0,1
161824,-76.9230769230769,4,2,99,5,0,1
161939,-76.9230769230769,4,2,2,80,0,1
162053,-76.9230769230769,4,2,99,5,0,1
162168,-76.9230769230769,4,2,2,80,0,1
162282,-76.9230769230769,4,2,99,5,0,1
162397,-76.9230769230769,4,2,2,80,0,1
162511,-76.9230769230769,4,2,99,5,0,1
162626,-76.9230769230769,4,2,2,80,0,1
162740,-76.9230769230769,4,2,99,5,0,1
162855,-76.9230769230769,4,2,2,80,0,1
162969,-76.9230769230769,4,2,99,5,0,1
163084,-76.9230769230769,4,2,2,80,0,1
163198,-76.9230769230769,4,2,99,5,0,1
163313,-76.9230769230769,4,2,2,80,0,1
163427,-76.9230769230769,4,2,99,5,0,1
163542,-76.9230769230769,4,2,2,80,0,1
163656,-76.9230769230769,4,2,99,5,0,1
163771,-76.9230769230769,4,2,2,80,0,1
163885,-76.9230769230769,4,2,99,5,0,1
164000,-76.9230769230769,4,2,2,80,0,1
164343,-76.9230769230769,4,2,99,5,0,1
164458,-76.9230769230769,4,2,2,80,0,1
164572,-76.9230769230769,4,2,99,5,0,1
164687,-76.9230769230769,4,2,2,80,0,1
164801,-76.9230769230769,4,2,99,5,0,1
164916,-76.9230769230769,4,2,2,80,0,1
166748,-76.9230769230769,4,2,2,70,0,0
168580,-200,4,2,2,60,0,0
169840,-200,4,2,99,5,0,0
169954,-200,4,2,2,55,0,0
170069,-125,4,2,99,5,0,0
170183,-125,4,2,2,55,0,0
170412,-200,4,2,2,50,0,0
170870,-200,4,2,2,30,0,0
171099,-200,4,2,2,50,0,0
174191,-200,4,2,99,5,0,0
174305,-200,4,2,2,50,0,0
174420,-200,4,2,99,5,0,0
174534,-200,4,2,2,50,0,0
174649,-200,4,2,99,5,0,0
174763,-200,4,2,2,50,0,0
176023,-200,4,2,99,5,0,0
176137,-200,4,2,2,50,0,0
176252,-200,4,2,99,5,0,0
176366,-200,4,2,2,50,0,0
177855,-200,4,2,99,5,0,0
177969,-200,4,2,2,50,0,0
178084,-200,4,2,99,5,0,0
178198,-200,4,2,2,50,0,0
178313,-200,4,2,99,5,0,0
178427,-200,4,2,2,50,0,0
178771,-200,4,2,99,5,0,0
178885,-200,4,2,2,50,0,0
179000,-200,4,2,99,5,0,0
179114,-200,4,2,2,50,0,0
180145,-200,4,2,99,5,0,0
180259,-200,4,2,2,50,0,0
180374,-200,4,2,99,5,0,0
180488,-200,4,2,2,50,0,0
180717,-200,4,2,99,5,0,0
180946,-200,4,2,2,50,0,0
181061,-200,4,2,99,5,0,0
181175,-200,4,2,2,50,0,0
181290,-200,4,2,99,5,0,0
181404,-200,4,2,2,50,0,0
182435,-200,4,2,99,5,0,0
182550,-200,4,2,2,50,0,0
182664,-200,4,2,99,5,0,0
182779,-200,4,2,2,50,0,0
183008,-200,4,2,99,5,0,0
183237,-200,4,2,2,50,0,0
185069,-153.846153846154,4,2,2,60,0,0
185183,-153.846153846154,4,2,99,5,0,0
185298,-153.846153846154,4,2,2,60,0,0
185412,-153.846153846154,4,2,99,5,0,0
185527,-153.846153846154,4,2,2,60,0,0
185641,-153.846153846154,4,2,99,5,0,0
185756,-153.846153846154,4,2,2,60,0,0
185870,-153.846153846154,4,2,99,5,0,0
185985,-153.846153846154,4,2,2,60,0,0
186099,-153.846153846154,4,2,99,5,0,0
186214,-153.846153846154,4,2,2,60,0,0
186328,-153.846153846154,4,2,99,5,0,0
186443,-153.846153846154,4,2,2,60,0,0
186557,-153.846153846154,4,2,99,5,0,0
186672,-153.846153846154,4,2,2,60,0,0
186786,-153.846153846154,4,2,99,5,0,0
186901,-153.846153846154,4,2,2,60,0,0
187015,-153.846153846154,4,2,99,5,0,0
187130,-153.846153846154,4,2,2,60,0,0
187244,-153.846153846154,4,2,99,5,0,0
187359,-153.846153846154,4,2,2,60,0,0
187473,-153.846153846154,4,2,99,5,0,0
187588,-153.846153846154,4,2,2,60,0,0
187702,-153.846153846154,4,2,99,5,0,0
187817,-153.846153846154,4,2,2,60,0,0
188847,-153.846153846154,4,2,99,5,0,0
188962,-153.846153846154,4,2,2,60,0,0
189076,-153.846153846154,4,2,99,5,0,0
189191,-153.846153846154,4,2,2,60,0,0
189305,-153.846153846154,4,2,99,5,0,0
189420,-153.846153846154,4,2,2,60,0,0
189534,-153.846153846154,4,2,99,5,0,0
189649,-153.846153846154,4,2,2,60,0,0
189763,-153.846153846154,4,2,99,5,0,0
189878,-153.846153846154,4,2,2,60,0,0
189992,-153.846153846154,4,2,99,5,0,0
190107,-153.846153846154,4,2,2,60,0,0
190221,-153.846153846154,4,2,99,5,0,0
190336,-153.846153846154,4,2,2,60,0,0
190450,-153.846153846154,4,2,99,5,0,0
190565,-153.846153846154,4,2,2,60,0,0
190908,-153.846153846154,4,2,99,5,0,0
191023,-153.846153846154,4,2,2,60,0,0
192053,-153.846153846154,4,2,99,5,0,0
192168,-153.846153846154,4,2,2,60,0,0
192282,-153.846153846154,4,2,99,5,0,0
192397,-153.846153846154,4,2,2,60,0,0
192511,-153.846153846154,4,2,99,5,0,0
192626,-153.846153846154,4,2,2,60,0,0
192740,-153.846153846154,4,2,99,5,0,0
192855,-153.846153846154,4,2,2,60,0,0
192969,-153.846153846154,4,2,99,5,0,0
193084,-153.846153846154,4,2,2,60,0,0
193198,-153.846153846154,4,2,99,5,0,0
193313,-153.846153846154,4,2,2,60,0,0
193427,-153.846153846154,4,2,99,5,0,0
193542,-153.846153846154,4,2,2,60,0,0
193656,-153.846153846154,4,2,99,5,0,0
193771,-153.846153846154,4,2,2,60,0,0
193885,-153.846153846154,4,2,99,5,0,0
194000,-153.846153846154,4,2,2,60,0,0
194114,-153.846153846154,4,2,99,5,0,0
194229,-153.846153846154,4,2,2,60,0,0
194343,-153.846153846154,4,2,99,5,0,0
194458,-153.846153846154,4,2,2,60,0,0
194572,-153.846153846154,4,2,99,5,0,0
194687,-153.846153846154,4,2,2,60,0,0
194801,-153.846153846154,4,2,99,5,0,0
194916,-153.846153846154,4,2,2,60,0,0
195030,-153.846153846154,4,2,99,5,0,0
195145,-153.846153846154,4,2,2,60,0,0
195259,-153.846153846154,4,2,99,5,0,0
195374,-153.846153846154,4,2,2,60,0,0
195488,-153.846153846154,4,2,99,5,0,0
195603,-153.846153846154,4,2,2,60,0,0
195717,-153.846153846154,4,2,99,5,0,0
195832,-153.846153846154,4,2,2,60,0,0
195946,-153.846153846154,4,2,99,5,0,0
196061,-153.846153846154,4,2,2,50,0,0
198008,-153.846153846154,4,2,99,5,0,0
198122,-153.846153846154,4,2,2,50,0,0
199725,-200,4,2,2,40,0,0
207740,-200,4,2,99,5,0,0
207969,-200,4,2,2,40,0,0
208198,-200,4,2,99,5,0,0
208427,-200,4,2,2,40,0,0
208656,-200,4,2,99,5,0,0
208885,-200,4,2,2,40,0,0
209343,-200,4,2,99,5,0,0
209572,-200,4,2,2,40,0,0
210030,-200,4,2,99,5,0,0
210259,-200,4,2,2,40,0,0
210717,-200,4,2,2,50,0,0
211633,-133.333333333333,4,2,2,60,0,0
213695,-153.846153846153,4,2,2,50,0,0
214382,-100,4,2,2,60,0,0
214840,-100,4,2,99,5,0,0
215069,-100,4,2,2,60,0,0
215183,-100,4,2,99,5,0,0
215985,-66.6666666666667,4,2,2,70,0,0
216099,-66.6666666666667,4,2,99,5,0,0
216214,-66.6666666666667,4,2,2,70,0,0
216672,-100,4,2,2,70,0,0
216786,-100,4,2,99,5,0,0
216901,-100,4,2,2,70,0,0
217359,-100,4,2,99,5,0,0
217473,-100,4,2,2,70,0,0
217702,-100,4,2,99,5,0,0
217817,-100,4,2,2,70,0,0
217931,-100,4,2,99,5,0,0
218046,-100,4,2,2,70,0,0
218160,-100,4,2,99,5,0,0
218275,-100,4,2,2,70,0,0
218389,-100,4,2,99,5,0,0
218504,-100,4,2,2,70,0,0
218618,-100,4,2,99,5,0,0
218733,-100,4,2,2,70,0,0
218847,-100,4,2,99,5,0,0
218962,-100,4,2,2,70,0,0
219076,-100,4,2,99,5,0,0
219191,-100,4,2,2,70,0,0
219305,-100,4,2,99,5,0,0
219420,-100,4,2,2,70,0,0
219534,-100,4,2,99,5,0,0
219649,-100,4,2,2,70,0,0
219763,-100,4,2,99,5,0,0
219878,-100,4,2,2,70,0,0
219992,-100,4,2,99,5,0,0
220107,-100,4,2,2,70,0,0
220221,-100,4,2,99,5,0,0
220336,-100,4,2,2,70,0,0
220450,-100,4,2,99,5,0,0
220565,-100,4,2,2,70,0,0
220908,-100,4,2,99,5,0,0
221023,-100,4,2,2,70,0,0
221137,-100,4,2,99,5,0,0
221252,-100,4,2,2,70,0,0
221366,-100,4,2,99,5,0,0
221481,-100,4,2,2,70,0,0
221595,-100,4,2,99,5,0,0
221710,-100,4,2,2,70,0,0
222282,-100,4,2,99,5,0,0
222397,-100,4,2,2,70,0,0
222511,-100,4,2,99,5,0,0
222626,-100,4,2,2,70,0,0
222740,-100,4,2,99,5,0,0
222855,-100,4,2,2,70,0,0
223656,-100,4,2,99,5,0,0
223771,-66.6666666666667,4,2,2,70,0,0
223885,-66.6666666666667,4,2,99,5,0,0
224000,-100,4,2,2,70,0,0
224114,-100,4,2,99,5,0,0
224229,-100,4,2,2,70,0,0
224687,-100,4,2,99,5,0,0
224801,-100,4,2,2,70,0,0
225030,-100,4,2,99,5,0,0
225145,-100,4,2,2,70,0,0
225259,-100,4,2,99,5,0,0
225374,-100,4,2,2,70,0,0
225488,-100,4,2,99,5,0,0
225603,-100,4,2,2,70,0,0
225717,-100,4,2,99,5,0,0
225832,-100,4,2,2,70,0,0
225946,-100,4,2,99,5,0,0
226061,-100,4,2,2,70,0,0
226175,-100,4,2,99,5,0,0
226290,-100,4,2,2,70,0,0
226404,-100,4,2,99,5,0,0
226519,-100,4,2,2,70,0,0
226633,-100,4,2,99,5,0,0
226748,-100,4,2,2,70,0,0
226863,-100,4,2,99,5,0,0
226977,-100,4,2,2,70,0,0
227092,-100,4,2,99,5,0,0
227206,-100,4,2,2,70,0,0
227321,-100,4,2,99,5,0,0
227435,-100,4,2,2,70,0,0
227550,-100,4,2,99,5,0,0
227664,-100,4,2,2,70,0,0
227779,-100,4,2,99,5,0,0
227893,-100,4,2,2,70,0,0
228008,-100,4,2,99,5,0,0
228122,-100,4,2,2,70,0,0
228237,-100,4,2,99,5,0,0
228351,-100,4,2,2,70,0,0
228466,-100,4,2,99,5,0,0
228580,-100,4,2,2,70,0,0
228695,-100,4,2,99,5,0,0
228809,-90.9090909090909,4,2,2,70,0,0
228924,-90.9090909090909,4,2,99,5,0,0
229038,-90.9090909090909,4,2,2,70,0,0
229153,-90.9090909090909,4,2,99,5,0,0
229267,-90.9090909090909,4,2,2,70,0,0
229382,-90.9090909090909,4,2,99,5,0,0
229496,-90.9090909090909,4,2,2,70,0,0
229611,-90.9090909090909,4,2,99,5,0,0
229725,-90.9090909090909,4,2,2,70,0,0
229840,-90.9090909090909,4,2,99,5,0,0
229954,-90.9090909090909,4,2,2,70,0,0
230069,-90.9090909090909,4,2,99,5,0,0
230183,-90.9090909090909,4,2,2,70,0,0
230298,-90.9090909090909,4,2,99,5,0,0
230412,-90.9090909090909,4,2,2,70,0,0
230527,-90.9090909090909,4,2,99,5,0,0
230641,-90.9090909090909,4,2,2,70,0,0
230756,-90.9090909090909,4,2,99,5,0,0
230870,-83.3333333333333,4,2,2,70,0,0
230985,-83.3333333333333,4,2,99,5,0,0
231099,-83.3333333333333,4,2,2,70,0,0
231214,-83.3333333333333,4,2,99,5,0,0
231328,-83.3333333333333,4,2,2,70,0,0
231443,-83.3333333333333,4,2,99,5,0,0
231557,-83.3333333333333,4,2,2,70,0,0
231672,-83.3333333333333,4,2,99,5,0,0
231786,-83.3333333333333,4,2,2,70,0,0
231901,-83.3333333333333,4,2,99,5,0,0
232015,-83.3333333333333,4,2,2,70,0,0
232130,-83.3333333333333,4,2,99,5,0,0
232244,-83.3333333333333,4,2,2,70,0,0
232817,-83.3333333333333,4,2,99,5,0,0
232931,-83.3333333333333,4,2,2,70,0,0
233275,-83.3333333333333,4,2,99,5,0,0
233389,-83.3333333333333,4,2,2,70,0,0
233504,-83.3333333333333,4,2,99,5,0,0
233618,-83.3333333333333,4,2,2,70,0,0
234191,-83.3333333333333,4,2,99,5,0,0
234305,-83.3333333333333,4,2,2,70,0,0
234420,-83.3333333333333,4,2,99,5,0,0
234534,-83.3333333333333,4,2,2,70,0,0
234649,-83.3333333333333,4,2,99,5,0,0
234763,-83.3333333333333,4,2,2,70,0,0
234878,-83.3333333333333,4,2,99,5,0,0
234992,-83.3333333333333,4,2,2,70,0,0
235107,-83.3333333333333,4,2,99,5,0,0
235221,-83.3333333333333,4,2,2,70,0,0
235336,-83.3333333333333,4,2,99,5,0,0
235450,-83.3333333333333,4,2,2,70,0,0
235679,-83.3333333333333,4,2,2,75,0,0
236366,-76.9230769230769,4,2,2,80,0,1
236710,-76.9230769230769,4,2,99,5,0,1
236824,-76.9230769230769,4,2,2,80,0,1
236939,-76.9230769230769,4,2,99,5,0,1
237053,-76.9230769230769,4,2,2,80,0,1
237168,-76.9230769230769,4,2,99,5,0,1
237282,-76.9230769230769,4,2,2,80,0,1
239687,-76.9230769230769,4,2,99,5,0,1
239801,-76.9230769230769,4,2,2,80,0,1
239916,-76.9230769230769,4,2,99,5,0,1
240030,-76.9230769230769,4,2,2,80,0,1
240603,-76.9230769230769,4,2,99,5,0,1
240717,-76.9230769230769,4,2,2,80,0,1
240832,-76.9230769230769,4,2,99,5,0,1
240946,-76.9230769230769,4,2,2,80,0,1
243351,-76.9230769230769,4,2,99,5,0,1
243466,-76.9230769230769,4,2,2,80,0,1
243580,-76.9230769230769,4,2,99,5,0,1
243695,-76.9230769230769,4,2,2,80,0,1
244267,-76.9230769230769,4,2,99,5,0,1
244382,-76.9230769230769,4,2,2,80,0,1
244496,-76.9230769230769,4,2,99,5,0,1
244611,-76.9230769230769,4,2,2,80,0,1
246786,-76.9230769230769,4,2,99,5,0,1
246901,-76.9230769230769,4,2,2,80,0,1
247015,-76.9230769230769,4,2,99,5,0,1
247130,-76.9230769230769,4,2,2,80,0,1
247244,-76.9230769230769,4,2,99,5,0,1
247359,-76.9230769230769,4,2,2,80,0,1
250908,-76.9230769230769,4,2,99,5,0,1
251023,-76.9230769230769,4,2,2,80,0,1
251137,-76.9230769230769,4,2,99,5,0,1
251252,-76.9230769230769,4,2,2,80,0,1
251366,-76.9230769230769,4,2,99,5,0,1
251481,-76.9230769230769,4,2,2,80,0,1
251595,-76.9230769230769,4,2,99,5,0,1
251710,-76.9230769230769,4,2,2,80,0,1
251824,-76.9230769230769,4,2,99,5,0,1
251939,-76.9230769230769,4,2,2,80,0,1
252053,-76.9230769230769,4,2,99,5,0,1
252168,-76.9230769230769,4,2,2,80,0,1
252282,-76.9230769230769,4,2,99,5,0,1
252397,-76.9230769230769,4,2,2,80,0,1
252511,-76.9230769230769,4,2,99,5,0,1
252626,-76.9230769230769,4,2,2,80,0,1
252740,-76.9230769230769,4,2,99,5,0,1
252855,-76.9230769230769,4,2,2,80,0,1
252969,-76.9230769230769,4,2,99,5,0,1
253084,-76.9230769230769,4,2,2,80,0,1
253198,-76.9230769230769,4,2,99,5,0,1
253313,-76.9230769230769,4,2,2,80,0,1
253427,-76.9230769230769,4,2,99,5,0,1
253542,-76.9230769230769,4,2,2,80,0,1
253656,-76.9230769230769,4,2,99,5,0,1
253771,-76.9230769230769,4,2,2,80,0,1
254114,-76.9230769230769,4,2,99,5,0,1
254229,-76.9230769230769,4,2,2,80,0,1
254343,-76.9230769230769,4,2,99,5,0,1
254458,-76.9230769230769,4,2,2,80,0,1
254572,-76.9230769230769,4,2,99,5,0,1
254687,-76.9230769230769,4,2,2,80,0,1
254801,-76.9230769230769,4,2,99,5,0,1
254916,-76.9230769230769,4,2,2,80,0,1
255030,-76.9230769230769,4,2,99,5,0,1
255145,-76.9230769230769,4,2,2,80,0,1
255259,-76.9230769230769,4,2,99,5,0,1
255374,-76.9230769230769,4,2,2,80,0,1
255488,-76.9230769230769,4,2,99,5,0,1
255603,-76.9230769230769,4,2,2,80,0,1
255717,-76.9230769230769,4,2,99,5,0,1
255832,-76.9230769230769,4,2,2,80,0,1
255946,-76.9230769230769,4,2,99,5,0,1
256061,-76.9230769230769,4,2,2,80,0,1
256175,-76.9230769230769,4,2,99,5,0,1
256290,-76.9230769230769,4,2,2,80,0,1
256404,-76.9230769230769,4,2,99,5,0,1
256519,-76.9230769230769,4,2,2,80,0,1
256633,-76.9230769230769,4,2,99,5,0,1
256748,-76.9230769230769,4,2,2,80,0,1
256863,-76.9230769230769,4,2,99,5,0,1
256977,-76.9230769230769,4,2,2,80,0,1
257092,-76.9230769230769,4,2,99,5,0,1
257206,-76.9230769230769,4,2,2,80,0,1
257321,-76.9230769230769,4,2,99,5,0,1
257435,-76.9230769230769,4,2,2,80,0,1
257779,-76.9230769230769,4,2,99,5,0,1
257893,-76.9230769230769,4,2,2,80,0,1
258008,-76.9230769230769,4,2,99,5,0,1
258122,-76.9230769230769,4,2,2,80,0,1
258237,-76.9230769230769,4,2,99,5,0,1
258351,-76.9230769230769,4,2,2,80,0,1
258466,-76.9230769230769,4,2,99,5,0,1
258580,-76.9230769230769,4,2,2,80,0,1
258695,-76.9230769230769,4,2,99,5,0,1
258809,-76.9230769230769,4,2,2,80,0,1
258924,-76.9230769230769,4,2,99,5,0,1
259038,-76.9230769230769,4,2,2,80,0,1
259153,-76.9230769230769,4,2,99,5,0,1
259267,-76.9230769230769,4,2,2,80,0,1
259382,-76.9230769230769,4,2,99,5,0,1
259496,-76.9230769230769,4,2,2,80,0,1
259611,-76.9230769230769,4,2,99,5,0,1
259725,-76.9230769230769,4,2,2,80,0,1
259840,-76.9230769230769,4,2,99,5,0,1
259954,-76.9230769230769,4,2,2,80,0,1
260069,-76.9230769230769,4,2,99,5,0,1
260183,-76.9230769230769,4,2,2,80,0,1
260298,-76.9230769230769,4,2,99,5,0,1
260412,-76.9230769230769,4,2,2,80,0,1
260527,-76.9230769230769,4,2,99,5,0,1
260641,-76.9230769230769,4,2,2,80,0,1
260756,-76.9230769230769,4,2,99,5,0,1
260870,-76.9230769230769,4,2,2,80,0,1
260985,-76.9230769230769,4,2,99,5,0,1
261099,-76.9230769230769,4,2,2,80,0,1
261443,-76.9230769230769,4,2,99,5,0,1
261557,-76.9230769230769,4,2,2,80,0,1
261672,-76.9230769230769,4,2,99,5,0,1
261786,-76.9230769230769,4,2,2,80,0,1
261901,-76.9230769230769,4,2,99,5,0,1
262015,-76.9230769230769,4,2,2,80,0,1
262130,-76.9230769230769,4,2,99,5,0,1
262244,-76.9230769230769,4,2,2,80,0,1
262359,-76.9230769230769,4,2,99,5,0,1
262473,-76.9230769230769,4,2,2,80,0,1
262588,-76.9230769230769,4,2,99,5,0,1
262702,-76.9230769230769,4,2,2,80,0,1
262817,-76.9230769230769,4,2,99,5,0,1
262931,-76.9230769230769,4,2,2,80,0,1
263046,-76.9230769230769,4,2,99,5,0,1
263160,-76.9230769230769,4,2,2,80,0,1
263275,-76.9230769230769,4,2,99,5,0,1
263389,-76.9230769230769,4,2,2,80,0,1
263504,-76.9230769230769,4,2,99,5,0,1
263618,-76.9230769230769,4,2,2,80,0,1
263733,-76.9230769230769,4,2,99,5,0,1
263847,-100,4,2,2,80,0,0
265221,-76.9230769230769,4,2,2,80,0,0
265336,-76.9230769230769,4,2,99,5,0,1
265450,-76.9230769230769,4,2,2,80,0,1
265565,-76.9230769230769,4,2,99,5,0,1
265679,-76.9230769230769,4,2,2,80,0,1
265794,-76.9230769230769,4,2,99,5,0,1
265908,-76.9230769230769,4,2,2,80,0,1
266023,-76.9230769230769,4,2,99,5,0,1
266137,-76.9230769230769,4,2,2,80,0,1
266252,-76.9230769230769,4,2,99,5,0,1
266366,-76.9230769230769,4,2,2,80,0,1
266481,-76.9230769230769,4,2,99,5,0,1
266595,-76.9230769230769,4,2,2,80,0,1
266710,-76.9230769230769,4,2,99,5,0,1
266824,-76.9230769230769,4,2,2,80,0,1
266939,-76.9230769230769,4,2,99,5,0,1
267053,-76.9230769230769,4,2,2,80,0,1
267168,-76.9230769230769,4,2,99,5,0,1
267282,-76.9230769230769,4,2,2,80,0,1
267397,-76.9230769230769,4,2,99,5,0,1
267511,-76.9230769230769,4,2,2,80,0,1
267855,-76.9230769230769,4,2,99,5,0,1
267969,-76.9230769230769,4,2,2,80,0,1
268084,-76.9230769230769,4,2,99,5,0,1
268198,-76.9230769230769,4,2,2,80,0,1
268313,-76.9230769230769,4,2,99,5,0,1
268427,-76.9230769230769,4,2,2,80,0,1
269000,-76.9230769230769,4,2,99,5,0,1
269114,-76.9230769230769,4,2,2,80,0,1
269229,-76.9230769230769,4,2,99,5,0,1
269343,-76.9230769230769,4,2,2,80,0,1
269458,-76.9230769230769,4,2,99,5,0,1
269572,-76.9230769230769,4,2,2,80,0,1
269687,-76.9230769230769,4,2,99,5,0,1
269801,-76.9230769230769,4,2,2,80,0,1
269916,-76.9230769230769,4,2,99,5,0,1
270030,-76.9230769230769,4,2,2,80,0,1
270145,-76.9230769230769,4,2,99,5,0,1
270259,-76.9230769230769,4,2,2,80,0,1
270374,-76.9230769230769,4,2,99,5,0,1
270488,-76.9230769230769,4,2,2,80,0,1
270603,-76.9230769230769,4,2,99,5,0,1
270717,-76.9230769230769,4,2,2,80,0,1
270832,-76.9230769230769,4,2,99,5,0,1
270946,-76.9230769230769,4,2,2,80,0,1
271061,-76.9230769230769,4,2,99,5,0,1
271175,-76.9230769230769,4,2,2,80,0,1
271748,-76.9230769230769,4,2,99,5,0,1
271863,-76.9230769230769,4,2,2,80,0,1
272435,-76.9230769230769,4,2,99,5,0,1
272550,-76.9230769230769,4,2,2,80,0,1
272664,-76.9230769230769,4,2,99,5,0,1
272779,-76.9230769230769,4,2,2,80,0,1
272893,-76.9230769230769,4,2,99,5,0,1
273008,-76.9230769230769,4,2,2,80,0,1
273122,-76.9230769230769,4,2,99,5,0,1
273237,-76.9230769230769,4,2,2,80,0,1
273351,-76.9230769230769,4,2,99,5,0,1
273466,-76.9230769230769,4,2,2,80,0,1
273580,-76.9230769230769,4,2,99,5,0,1
273695,-76.9230769230769,4,2,2,80,0,1
273809,-76.9230769230769,4,2,99,5,0,1
273924,-76.9230769230769,4,2,2,80,0,1
274038,-76.9230769230769,4,2,99,5,0,1
274153,-76.9230769230769,4,2,2,80,0,1
274267,-76.9230769230769,4,2,99,5,0,1
274382,-76.9230769230769,4,2,2,80,0,1
274496,-76.9230769230769,4,2,99,5,0,1
274611,-76.9230769230769,4,2,2,80,0,1
274725,-76.9230769230769,4,2,99,5,0,1
274840,-76.9230769230769,4,2,2,80,0,1
276099,-76.9230769230769,4,2,99,5,0,1
276214,-76.9230769230769,4,2,2,80,0,1
276328,-76.9230769230769,4,2,99,5,0,1
276443,-76.9230769230769,4,2,2,80,0,1
276557,-76.9230769230769,4,2,99,5,0,1
276672,-76.9230769230769,4,2,2,80,0,1
276786,-76.9230769230769,4,2,99,5,0,1
276901,-76.9230769230769,4,2,2,80,0,1
277015,-76.9230769230769,4,2,99,5,0,1
277130,-76.9230769230769,4,2,2,80,0,1
277244,-76.9230769230769,4,2,99,5,0,1
277359,-76.9230769230769,4,2,2,80,0,1
277473,-76.9230769230769,4,2,99,5,0,1
277588,-76.9230769230769,4,2,2,80,0,1
277702,-76.9230769230769,4,2,99,5,0,1
277817,-76.9230769230769,4,2,2,80,0,1
277931,-76.9230769230769,4,2,99,5,0,1
278046,-76.9230769230769,4,2,2,80,0,1
278160,-76.9230769230769,4,2,99,5,0,1
278275,-76.9230769230769,4,2,2,80,0,1
278389,-76.9230769230769,4,2,99,5,0,1
278504,-76.9230769230769,4,2,2,80,0,1
280221,-76.9230769230769,4,2,99,5,0,1
280336,-76.9230769230769,4,2,2,80,0,1
280450,-76.9230769230769,4,2,99,5,0,1
280565,-76.9230769230769,4,2,2,80,0,1
280679,-76.9230769230769,4,2,99,5,0,1
280794,-76.9230769230769,4,2,2,80,0,1
280908,-76.9230769230769,4,2,99,5,0,1
281023,-76.9230769230769,4,2,2,80,0,1
281137,-76.9230769230769,4,2,99,5,0,1
281252,-76.9230769230769,4,2,2,80,0,1
281366,-76.9230769230769,4,2,99,5,0,1
281481,-76.9230769230769,4,2,2,80,0,1
281595,-76.9230769230769,4,2,99,5,0,1
281710,-76.9230769230769,4,2,2,80,0,1
281824,-76.9230769230769,4,2,99,5,0,1
281939,-76.9230769230769,4,2,2,80,0,1
282053,-76.9230769230769,4,2,99,5,0,1
282168,-76.9230769230769,4,2,2,80,0,1
282282,-76.9230769230769,4,2,99,5,0,1
282397,-76.9230769230769,4,2,2,80,0,1
282511,-76.9230769230769,4,2,99,5,0,1
282626,-76.9230769230769,4,2,2,80,0,1
282740,-76.9230769230769,4,2,99,5,0,1
282855,-76.9230769230769,4,2,2,80,0,1
282969,-76.9230769230769,4,2,99,5,0,1
283084,-76.9230769230769,4,2,2,80,0,1
283427,-76.9230769230769,4,2,99,5,0,1
283542,-76.9230769230769,4,2,2,80,0,1
283656,-76.9230769230769,4,2,99,5,0,1
283771,-76.9230769230769,4,2,2,80,0,1
283885,-76.9230769230769,4,2,99,5,0,1
284000,-76.9230769230769,4,2,2,80,0,1
284114,-76.9230769230769,4,2,99,5,0,1
284229,-76.9230769230769,4,2,2,80,0,1
284343,-76.9230769230769,4,2,99,5,0,1
284458,-76.9230769230769,4,2,2,80,0,1
284572,-76.9230769230769,4,2,99,5,0,1
284687,-76.9230769230769,4,2,2,80,0,1
284801,-76.9230769230769,4,2,99,5,0,1
284916,-76.9230769230769,4,2,2,80,0,1
285030,-76.9230769230769,4,2,99,5,0,1
285145,-76.9230769230769,4,2,2,80,0,1
285259,-76.9230769230769,4,2,99,5,0,1
285374,-76.9230769230769,4,2,2,80,0,1
285488,-76.9230769230769,4,2,99,5,0,1
285603,-76.9230769230769,4,2,2,80,0,1
285717,-76.9230769230769,4,2,99,5,0,1
285832,-76.9230769230769,4,2,2,80,0,1
285946,-76.9230769230769,4,2,99,5,0,1
286061,-76.9230769230769,4,2,2,80,0,1
286175,-76.9230769230769,4,2,99,5,0,1
286290,-76.9230769230769,4,2,2,80,0,1
286404,-76.9230769230769,4,2,99,5,0,1
286519,-76.9230769230769,4,2,2,80,0,1
286633,-76.9230769230769,4,2,99,5,0,1
286748,-76.9230769230769,4,2,2,80,0,1
286863,-76.9230769230769,4,2,99,5,0,1
286977,-76.9230769230769,4,2,2,80,0,1
287092,-76.9230769230769,4,2,99,5,0,1
287206,-76.9230769230769,4,2,2,80,0,1
287321,-76.9230769230769,4,2,99,5,0,1
287435,-76.9230769230769,4,2,2,80,0,1
287550,-76.9230769230769,4,2,99,5,0,1
287664,-76.9230769230769,4,2,2,80,0,1
287779,-76.9230769230769,4,2,99,5,0,1
287893,-76.9230769230769,4,2,2,80,0,1
288008,-76.9230769230769,4,2,99,5,0,1
288122,-76.9230769230769,4,2,2,80,0,1
288237,-76.9230769230769,4,2,99,5,0,1
288351,-76.9230769230769,4,2,2,80,0,1
288466,-76.9230769230769,4,2,99,5,0,1
288580,-76.9230769230769,4,2,2,80,0,1
288695,-76.9230769230769,4,2,99,5,0,1
288809,-76.9230769230769,4,2,2,80,0,1
288924,-76.9230769230769,4,2,99,5,0,1
289038,-76.9230769230769,4,2,2,80,0,1
289153,-76.9230769230769,4,2,99,5,0,1
289267,-76.9230769230769,4,2,2,80,0,1
289382,-76.9230769230769,4,2,99,5,0,1
289496,-76.9230769230769,4,2,2,80,0,1
289611,-76.9230769230769,4,2,99,5,0,1
289725,-76.9230769230769,4,2,2,80,0,1
289840,-76.9230769230769,4,2,99,5,0,1
289954,-76.9230769230769,4,2,2,80,0,1
290069,-76.9230769230769,4,2,99,5,0,1
290183,-76.9230769230769,4,2,2,80,0,1
290298,-76.9230769230769,4,2,99,5,0,1
290412,-76.9230769230769,4,2,2,80,0,1
290756,-76.9230769230769,4,2,99,5,0,1
290870,-76.9230769230769,4,2,2,80,0,1
290985,-76.9230769230769,4,2,99,5,0,1
291099,-76.9230769230769,4,2,2,80,0,1
291214,-76.9230769230769,4,2,99,5,0,1
291328,-76.9230769230769,4,2,2,80,0,1
291443,-76.9230769230769,4,2,99,5,0,1
291557,-76.9230769230769,4,2,2,80,0,1
291672,-76.9230769230769,4,2,99,5,0,1
291786,-76.9230769230769,4,2,2,80,0,1
291901,-76.9230769230769,4,2,99,5,0,1
292015,-76.9230769230769,4,2,2,80,0,1
292130,-76.9230769230769,4,2,99,5,0,1
292244,-76.9230769230769,4,2,2,80,0,1
292359,-76.9230769230769,4,2,99,5,0,1
292473,-76.9230769230769,4,2,2,80,0,1
292588,-76.9230769230769,4,2,99,5,0,1
292702,-76.9230769230769,4,2,2,80,0,1
292817,-76.9230769230769,4,2,99,5,0,1
292931,-76.9230769230769,4,2,2,80,0,1
293046,-76.9230769230769,4,2,99,5,0,1
293160,-76.9230769230769,4,2,2,80,0,1
293618,-76.9230769230769,4,2,2,70,0,1
294076,-76.9230769230769,4,2,2,60,0,1
294534,-76.9230769230769,4,2,2,50,0,1
294992,-100,4,2,2,50,0,0
302321,-100,4,2,2,60,0,0
302435,-100,4,2,99,5,0,0
302550,-100,4,2,2,60,0,0
302664,-100,4,2,99,5,0,0
302779,-100,4,2,2,60,0,0
302893,-100,4,2,99,5,0,0
303008,-100,4,2,2,60,0,0
303351,-100,4,2,99,5,0,0
303466,-100,4,2,2,60,0,0
303580,-100,4,2,99,5,0,0
303695,-100,4,2,2,60,0,0
303809,-100,4,2,99,5,0,0
303924,-100,4,2,2,60,0,0
304038,-100,4,2,99,5,0,0
304153,-100,4,2,2,60,0,0
304267,-100,4,2,99,5,0,0
304382,-100,4,2,2,60,0,0
304496,-100,4,2,99,5,0,0
304611,-100,4,2,2,60,0,0
304725,-100,4,2,99,5,0,0
304840,-100,4,2,2,60,0,0
304954,-100,4,2,99,5,0,0
305069,-100,4,2,2,60,0,0
305183,-100,4,2,99,5,0,0
305298,-100,4,2,2,60,0,0
305412,-100,4,2,99,5,0,0
305527,-100,4,2,2,60,0,0
305641,-100,4,2,99,5,0,0
305756,-100,4,2,2,60,0,0
305870,-100,4,2,99,5,0,0
305985,-100,4,2,2,60,0,0
306099,-100,4,2,99,5,0,0
306214,-100,4,2,2,60,0,0
306328,-100,4,2,99,5,0,0
306443,-100,4,2,2,60,0,0
306557,-100,4,2,99,5,0,0
306672,-100,4,2,2,60,0,0
307015,-100,4,2,99,5,0,0
307130,-100,4,2,2,60,0,0
307244,-100,4,2,99,5,0,0
307359,-100,4,2,2,60,0,0
307473,-100,4,2,99,5,0,0
307588,-100,4,2,2,60,0,0
307702,-100,4,2,99,5,0,0
307817,-100,4,2,2,60,0,0
307931,-100,4,2,99,5,0,0
308046,-100,4,2,2,60,0,0
308160,-100,4,2,99,5,0,0
308275,-100,4,2,2,60,0,0
308389,-100,4,2,99,5,0,0
308504,-100,4,2,2,60,0,0
308618,-100,4,2,99,5,0,0
308733,-100,4,2,2,60,0,0
308847,-100,4,2,99,5,0,0
308962,-100,4,2,2,60,0,0
309076,-100,4,2,99,5,0,0
309191,-100,4,2,2,60,0,0
309305,-100,4,2,99,5,0,0
309420,-100,4,2,2,60,0,0
309534,-100,4,2,99,5,0,0
309649,451.127819548872,4,2,2,50,1,0
309649,-100,4,2,2,50,0,0
309761,-100,4,2,99,5,0,0
309874,-100,4,2,2,50,0,0
309987,-100,4,2,99,5,0,0
310100,447.761194029851,4,2,2,50,1,0
310100,-100,4,2,2,50,0,0
310211,-100,4,2,99,5,0,0
310323,-100,4,2,2,50,0,0
310435,-100,4,2,99,5,0,0
310547,451.127819548872,4,2,2,50,1,0
310547,-100,4,2,2,50,0,0
310659,-100,4,2,99,5,0,0
310772,-100,4,2,2,50,0,0
310885,-100,4,2,99,5,0,0
310998,441.176470588235,4,2,2,50,1,0
310998,-100,4,2,2,50,0,0
311108,-100,4,2,99,5,0,0
311218,-100,4,2,2,50,0,0
311328,-100,4,2,99,5,0,0
311439,461.538461538462,4,2,2,50,1,0
311439,-100,4,2,2,50,0,0
311554,-100,4,2,99,5,0,0
311669,-100,4,2,2,50,0,0
311785,-100,4,2,99,5,0,0
311900,-100,4,2,2,50,0,0
312015,-100,4,2,99,5,0,0
312131,-100,4,2,2,50,0,0
312246,-100,4,2,99,5,0,0
312362,500,4,2,2,50,1,0
312362,-100,4,2,2,50,0,0
312612,447.761194029851,4,2,2,50,1,0
312723,-100,4,2,99,5,0,0
312835,472.44094488189,4,2,2,50,1,0
312835,-100,4,2,2,50,0,0
312953,-100,4,2,99,5,0,0
313071,535.714285714286,4,2,2,50,1,0
313071,-100,4,2,2,50,0,0
313204,-100,4,2,99,5,0,0
313338,526.315789473685,4,2,2,40,1,0
313338,-100,4,2,2,40,0,0
314390,666.666666666667,4,2,2,40,1,0
315056,645.161290322581,4,2,2,40,1,0
318443,-100,4,2,2,20,0,0

[Colours]
Combo1 : 138,244,244
Combo2 : 159,159,159
Combo3 : 93,93,93
Combo4 : 145,0,0
Combo5 : 73,189,17
Combo6 : 243,218,131
Combo7 : 128,21,234
Combo8 : 244,138,244

[HitObjects]
207,306,1634,5,0,0:0:0:0:
221,285,1749,1,0,0:0:0:0:
236,264,1863,1,2,0:0:0:0:
284,206,2092,1,0,0:0:0:0:
326,144,2321,1,0,0:0:0:0:
384,282,2550,1,2,0:0:0:0:
357,211,2779,1,0,0:0:0:0:
326,144,3008,1,0,0:0:0:0:
236,264,3237,5,8,0:0:0:0:
309,274,3466,1,0,0:0:0:0:
161,256,3695,1,2,0:0:0:0:
236,264,3924,1,0,0:0:0:0:
88,246,4153,1,2,0:0:0:0:
176,128,4382,1,8,0:0:0:0:
236,264,4611,1,2,0:0:0:0:
206,196,4840,1,0,0:0:0:0:
88,246,5069,101,8,0:0:0:0:
236,264,5298,1,2,0:0:0:0:
326,144,5527,1,8,0:0:0:0:
284,206,5756,1,0,0:0:0:0:
236,264,5985,1,2,0:0:0:0:
176,128,6214,5,8,0:0:0:0:
236,264,6443,1,8,0:0:0:0:
206,196,6672,1,0,0:0:0:0:
309,274,6901,1,8,0:0:0:0:
236,264,7129,1,2,0:0:0:0:
411,353,7359,101,8,0:0:0:0:
384,282,7588,1,0,0:0:0:0:
236,264,7817,1,2,0:0:0:0:
43,304,8046,5,8,0:0:0:0:
88,246,8275,1,0,0:0:0:0:
236,264,8503,1,2,0:0:0:0:
206,196,8732,1,0,0:0:0:0:
176,128,8962,1,2,0:0:0:0:
266,332,9191,101,8,0:0:0:0:
236,264,9419,1,0,0:0:0:0:
326,144,9648,1,2,0:0:0:0:
188,322,9878,5,8,0:0:0:0:
236,264,10107,1,0,0:0:0:0:
176,128,10335,1,2,0:0:0:0:
133,188,10564,1,0,0:0:0:0:
88,246,10793,1,2,0:0:0:0:
236,264,11023,101,2,0:0:0:0:
161,256,11252,1,0,0:0:0:0:
88,246,11481,1,0,0:0:0:0:
219,68,11709,5,8,0:0:0:0:
176,128,11938,1,0,0:0:0:0:
206,196,12167,1,2,0:0:0:0:
161,256,12396,1,0,0:0:0:0:
236,264,12625,1,2,0:0:0:0:
384,282,12854,101,2,0:0:0:0:
309,274,13083,1,0,0:0:0:0:
236,264,13312,1,0,0:0:0:0:
368,82,13541,5,8,0:0:0:0:
326,144,13770,1,0,0:0:0:0:
357,211,13999,1,0,0:0:0:0:
309,274,14228,1,0,0:0:0:0:
459,290,14457,1,2,0:0:0:0:
384,282,14687,101,2,0:0:0:0:
357,211,14915,1,0,0:0:0:0:
326,144,15144,1,0,0:0:0:0:
295,77,15374,1,0,0:0:0:0:
267,13,15603,1,0,0:0:0:0:
267,13,15831,1,0,0:0:0:0:
256,141,16060,1,8,0:0:0:0:
256,141,16289,1,0,0:0:0:0:
219,68,16518,5,2,0:0:0:0:
176,128,16747,1,0,0:0:0:0:
267,13,16977,1,2,0:0:0:0:
326,144,17206,1,2,0:0:0:0:
179,131,17435,1,2,0:0:0:0:
179,131,17663,1,0,0:0:0:0:
164,259,17893,1,8,0:0:0:0:
164,259,18121,1,0,0:0:0:0:
15,235,18350,101,0,0:0:0:0:
88,246,18580,1,0,0:0:0:0:
176,128,18809,1,2,0:0:0:0:
239,267,19038,1,2,0:0:0:0:
239,267,19267,5,8,0:0:0:0:
284,206,19495,1,0,0:0:0:0:
326,144,19724,1,0,0:0:0:0:
368,82,19953,1,0,0:0:0:0:
357,211,20182,101,2,0:0:0:0:
295,77,20411,1,2,0:0:0:0:
206,196,20640,1,2,0:0:0:0:
256,141,20869,1,0,0:0:0:0:
256,141,21098,1,0,0:0:0:0:
309,274,21327,1,0,0:0:0:0:
236,264,21556,1,2,0:0:0:0:
384,282,21785,1,2,0:0:0:0:
284,206,22015,5,8,0:0:0:0:
411,353,22244,1,0,0:0:0:0:
411,353,22472,1,0,0:0:0:0:
357,211,22702,1,8,0:0:0:0:
264,340,22931,1,0,0:0:0:0:
264,340,23159,1,0,0:0:0:0:
309,274,23388,1,2,0:0:0:0:
161,256,23617,1,2,0:0:0:0:
284,206,23847,101,8,0:0:0:0:
136,191,24075,1,0,0:0:0:0:
136,191,24304,1,0,0:0:0:0:
161,256,24533,1,0,0:0:0:0:
101,120,24762,1,2,0:0:0:0:
18,238,24991,1,2,0:0:0:0:
18,238,25220,1,0,0:0:0:0:
59,182,25449,1,0,0:0:0:0:
236,264,25679,5,8,0:0:0:0:
206,196,25907,1,0,0:0:0:0:
266,332,26136,1,2,0:0:0:0:
357,211,26366,1,2,0:0:0:0:
164,259,26595,1,8,0:0:0:0:
164,259,26823,1,0,0:0:0:0:
266,332,27052,1,0,0:0:0:0:
168,191,27281,101,2,0:0:0:0:
187,193,27396,1,2,0:0:0:0:
206,196,27510,1,2,0:0:0:0:
59,182,27739,1,0,0:0:0:0:
143,58,27968,1,2,0:0:0:0:
176,128,28197,1,0,0:0:0:0:
267,13,28426,1,2,0:0:0:0:
267,13,28655,1,0,0:0:0:0:
219,68,28884,1,0,0:0:0:0:
371,246,29113,5,2,0:0:0:0:
364,228,29228,1,2,0:0:0:0:
357,211,29343,1,2,0:0:0:0:
411,353,29571,1,0,0:0:0:0:
507,236,29801,1,2,0:0:0:0:
459,290,30029,1,0,0:0:0:0:
403,160,30259,1,2,0:0:0:0:
403,160,30488,1,0,0:0:0:0:
437,222,30716,1,0,0:0:0:0:
213,294,30945,101,2,0:0:0:0:
225,278,31060,1,2,0:0:0:0:
236,264,31174,1,2,0:0:0:0:
150,384,31403,1,0,0:0:0:0:
88,246,31633,1,0,0:0:0:0:
117,315,31862,5,0,0:0:0:0:
136,312,31976,1,0,0:0:0:0:
154,310,32091,2,0,L|207:316,3,37.5000014305115
88,246,32550,1,0,0:0:0:0:
69,243,32664,1,0,0:0:0:0:
51,241,32779,2,0,L|-2:247,1,37.5000014305115,8|2,0:0|0:0,0:0:0:0:
206,196,33008,102,0,P|244:117|125:69,1,225.000008583069,6|0,0:0|0:0,0:0:0:0:
88,246,33924,1,0,0:0:0:0:
400,157,34381,1,0,0:0:0:0:
337,344,34840,5,2,0:0:0:0:
175,40,36671,101,2,0:0:0:0:
250,201,38274,21,0,0:0:0:0:
250,182,38388,1,0,0:0:0:0:
266,192,38503,1,8,0:0:0:0:
245,210,38732,1,0,0:0:0:0:
245,173,38847,1,0,0:0:0:0:
277,192,38961,1,8,0:0:0:0:
234,229,39190,1,0,0:0:0:0:
234,154,39304,1,0,0:0:0:0:
299,192,39419,1,8,0:0:0:0:
273,358,39649,37,2,0:0:0:0:
202,351,39763,1,2,0:0:0:0:
264,323,39878,1,2,0:0:0:0:
217,318,39991,1,2,0:0:0:0:
259,289,40107,1,2,0:0:0:0:
227,286,40220,1,2,0:0:0:0:
245,217,40336,86,0,P|233:153|352:123,1,200,8|0,0:0|0:0,0:0:0:0:
414,180,41022,5,0,0:0:0:0:
420,193,41136,1,0,0:0:0:0:
425,207,41252,1,0,0:0:0:0:
364,239,41481,1,0,0:0:0:0:
390,91,41709,1,0,0:0:0:0:
447,334,41938,1,0,0:0:0:0:
227,129,42167,101,8,0:0:0:0:
256,136,42396,1,0,0:0:0:0:
285,143,42625,1,0,0:0:0:0:
266,166,42854,1,0,0:0:0:0:
64,345,43084,5,8,0:0:0:0:
51,276,43312,1,0,0:0:0:0:
346,325,43542,101,8,0:0:0:0:
366,227,43770,1,0,0:0:0:0:
288,42,43999,5,8,0:0:0:0:
229,123,44228,1,0,0:0:0:0:
232,147,44342,1,0,0:0:0:0:
236,171,44457,1,0,0:0:0:0:
357,83,44687,101,0,0:0:0:0:
340,155,44800,1,0,0:0:0:0:
326,229,44916,1,0,0:0:0:0:
236,171,45144,1,0,0:0:0:0:
432,132,45374,1,0,0:0:0:0:
255,307,45602,1,0,0:0:0:0:
322,15,45831,1,0,0:0:0:0:
512,238,46061,5,8,0:0:0:0:
477,331,46289,1,8,0:0:0:0:
336,384,46518,1,8,0:0:0:0:
188,248,46747,1,8,0:0:0:0:
284,223,46976,1,8,0:0:0:0:
65,342,47206,5,12,0:0:0:0:
121,48,47434,1,12,0:0:0:0:
185,149,47664,6,0,L|253:140,1,50,2|0,0:0|0:0,0:0:0:0:
184,223,47893,2,0,L|116:214,1,50
194,297,48122,2,0,L|262:288,1,50
325,232,48350,1,2,0:0:0:0:
321,207,48465,1,2,0:0:0:0:
317,182,48580,2,0,L|310:132,1,50,8|0,0:0|0:0,0:0:0:0:
399,177,48809,2,0,L|392:226,1,50
423,79,49038,2,0,L|416:29,1,50,8|0,0:0|0:0,0:0:0:0:
507,236,49267,2,0,L|500:285,1,50,8|0,0:0|0:0,0:0:0:0:
406,333,49496,6,0,L|356:339,1,50,8|0,0:0|0:0,0:0:0:0:
411,249,49725,2,0,L|371:218,1,50
465,170,49954,2,0,L|458:120,1,50,8|0,0:0|0:0,0:0:0:0:
415,255,50183,2,0,L|375:224,1,50
393,120,50412,2,0,L|343:126,1,50,2|0,0:0|0:0,0:0:0:0:
167,223,50641,2,0,L|216:229,1,50
378,135,50870,2,0,L|328:141,1,50,2|0,0:0|0:0,0:0:0:0:
182,208,51099,2,0,L|231:214,1,50
132,137,51328,54,0,L|83:143,1,50,8|0,0:0|0:0,0:0:0:0:
99,242,51557,2,0,L|60:211,1,50,8|0,0:0|0:0,0:0:0:0:
5,295,51786,2,0,L|-1:246,1,50
59,76,52014,1,2,0:0:0:0:
84,80,52129,1,2,0:0:0:0:
109,84,52244,2,0,L|159:91,1,50,8|0,0:0|0:0,0:0:0:0:
193,152,52473,2,0,L|143:159,1,50
91,40,52702,2,0,L|141:47,1,50,8|0,0:0|0:0,0:0:0:0:
220,188,52931,2,0,L|170:195,1,50,8|0,0:0|0:0,0:0:0:0:
29,240,53160,6,0,L|22:290,1,50,8|0,0:0|0:0,0:0:0:0:
145,301,53389,2,0,L|152:351,1,50
56,257,53618,2,0,L|49:307,1,50,8|0,0:0|0:0,0:0:0:0:
124,317,53847,2,0,L|131:367,1,50
242,320,54076,2,0,L|211:360,1,50,2|0,0:0|0:0,0:0:0:0:
323,324,54305,2,0,L|273:330,1,50
431,324,54534,22,0,P|406:309|390:293,1,50,2|0,0:0|0:0,0:0:0:0:
479,259,54763,2,0,P|478:227|472:209,1,50
404,178,54992,6,0,B|394:154|405:122|405:122|422:87|423:59|402:32|358:13|330:38,1,200
292,84,56136,1,0,0:0:0:0:
274,156,56365,1,0,0:0:0:0:
305,224,56594,1,0,0:0:0:0:
487,305,56823,1,8,0:0:0:0:
427,259,57052,1,0,0:0:0:0:
353,274,57281,2,0,P|334:319|353:373,1,100
443,129,58197,101,0,0:0:0:0:
443,129,58426,1,0,0:0:0:0:
302,271,58655,2,0,L|196:257,1,100,8|0,0:0|0:0,0:0:0:0:
144,210,59342,2,0,P|125:165|144:111,1,100
208,60,60030,5,0,0:0:0:0:
208,60,60258,1,0,0:0:0:0:
38,166,60488,1,8,0:0:0:0:
38,166,60716,2,0,L|97:177,1,50
145,127,61174,1,0,0:0:0:0:
145,127,61404,2,0,P|164:172|145:226,1,100
95,270,62091,101,0,0:0:0:0:
288,320,62320,1,8,0:0:0:0:
213,308,62549,1,0,0:0:0:0:
164,250,62778,1,0,0:0:0:0:
145,177,63007,2,0,L|154:127,1,50
197,66,63465,5,0,0:0:0:0:
126,41,63694,1,0,0:0:0:0:
57,70,63924,1,0,0:0:0:0:
15,214,64153,1,8,0:0:0:0:
15,214,64381,1,0,0:0:0:0:
83,183,64610,1,0,0:0:0:0:
83,183,64839,2,0,L|132:192,1,50
183,246,65297,101,0,0:0:0:0:
230,188,65526,1,0,0:0:0:0:
214,114,65755,1,0,0:0:0:0:
40,14,65985,2,0,L|146:0,1,100,8|0,0:0|0:0,0:0:0:0:
207,31,66671,1,0,0:0:0:0:
90,193,66901,2,0,L|99:143,1,50,8|0,0:0|0:0,0:0:0:0:
159,188,67359,2,0,L|168:237,1,50
65,346,67816,6,0,B|96:316|96:316|153:324,1,100,8|0,0:0|0:0,0:0:0:0:
292,376,68503,1,8,0:0:0:0:
292,376,68962,101,8,0:0:0:0:
240,290,69190,1,8,0:0:0:0:
262,141,69419,1,8,0:0:0:0:
274,162,69533,1,8,0:0:0:0:
269,186,69649,6,0,L|211:191,1,37.5000014305115,8|0,0:0|0:0,0:0:0:0:
174,238,69877,2,0,L|136:234,1,37.5000014305115
273,190,70107,2,0,L|215:195,1,37.5000014305115
178,242,70335,2,0,L|140:238,1,37.5000014305115
80,143,70564,102,0,P|76:124|79:96,1,37.5000014305115,2|0,0:0|0:0,0:0:0:0:
147,133,70794,2,0,L|150:170,1,37.5000014305115
77,140,71022,2,0,P|73:121|76:93,1,37.5000014305115,2|0,0:0|0:0,0:0:0:0:
144,130,71252,2,0,L|147:167,1,37.5000014305115
26,242,71481,6,0,L|22:279,1,37.5000014305115,8|0,0:0|0:0,0:0:0:0:
89,313,71709,2,0,L|85:275,1,37.5000014305115
157,251,71938,2,0,L|128:226,1,37.5000014305115,2|0,0:0|0:0,0:0:0:0:
164,160,72167,2,0,L|126:163,1,37.5000014305115,2|0,0:0|0:0,0:0:0:0:
170,273,72397,2,0,P|187:276|207:276,1,37.5000014305115,2|0,0:0|0:0,0:0:0:0:
230,204,72625,2,0,L|254:232,1,37.5000014305115,2|0,0:0|0:0,0:0:0:0:
321,198,72854,2,0,L|317:235,1,37.5000014305115
389,258,73083,2,0,L|360:282,1,37.5000014305115
291,106,73313,102,0,L|328:102,1,37.5000014305115,8|0,0:0|0:0,0:0:0:0:
247,54,73541,2,0,L|209:50,1,37.5000014305115
299,116,73771,2,0,L|336:112,1,37.5000014305115
238,43,74000,2,0,L|200:39,1,37.5000014305115
304,130,74228,2,0,P|303:148|300:167,1,37.5000014305115,2|0,0:0|0:0,0:0:0:0:
231,209,74457,2,0,L|193:205,1,37.5000014305115,2|0,0:0|0:0,0:0:0:0:
169,282,74687,2,0,L|144:253,1,37.5000014305115
78,308,74915,2,0,L|81:270,1,37.5000014305115
157,85,75144,6,0,L|160:122,1,37.5000014305115,8|0,0:0|0:0,0:0:0:0:
255,207,75373,2,0,P|302:213|359:150,1,112.500004291535
290,109,75831,2,0,L|286:146,1,37.5000014305115
324,47,76061,2,0,P|277:41|220:104,1,112.500004291535,8|0,0:0|0:0,0:0:0:0:
212,151,76518,1,0,0:0:0:0:
163,23,76747,101,0,0:0:0:0:
97,238,76976,1,8,0:0:0:0:
161,199,77205,1,0,0:0:0:0:
232,220,77434,1,0,0:0:0:0:
278,278,77663,2,0,L|271:369,1,75.0000028610231
202,380,78122,6,0,L|165:384,1,37.5000014305115
181,313,78351,2,0,L|152:289,1,37.5000014305115
203,244,78580,2,0,L|199:206,1,37.5000014305115
348,177,78809,1,8,0:0:0:0:
289,130,79038,1,0,0:0:0:0:
276,56,79266,1,0,0:0:0:0:
334,9,79495,2,0,L|418:0,1,75.0000028610231
478,89,79953,2,0,L|394:80,1,75.0000028610231
337,12,80411,101,0,0:0:0:0:
223,206,80641,2,0,L|219:168,1,37.5000014305115,8|0,0:0|0:0,0:0:0:0:
278,247,80870,2,0,L|301:218,1,37.5000014305115
307,310,81099,2,0,L|344:306,1,37.5000014305115
288,373,81327,1,0,0:0:0:0:
158,189,81557,6,0,L|150:88,1,75.0000028610231,8|0,0:0|0:0,0:0:0:0:
201,13,82014,1,0,0:0:0:0:
201,13,82243,1,0,0:0:0:0:
91,38,82472,1,0,0:0:0:0:
109,50,82702,1,0,0:0:0:0:
176,303,82931,85,2,0:0:0:0:
279,21,83388,1,2,0:0:0:0:
451,266,83847,2,0,P|453:228|426:270,1,112.500004291535,6|0,0:0|0:0,0:0:0:0:
472,145,84305,6,0,L|404:136,1,50,8|0,0:0|0:0,0:0:0:0:
427,46,84534,2,0,L|372:87,1,50
330,0,84763,2,0,L|321:67,1,50
248,116,84991,1,2,0:0:0:0:
244,91,85106,1,2,0:0:0:0:
240,66,85221,2,0,L|233:16,1,50,8|0,0:0|0:0,0:0:0:0:
176,99,85450,2,0,L|169:149,1,50
268,49,85679,2,0,L|261:-1,1,50,8|0,0:0|0:0,0:0:0:0:
139,118,85908,2,0,L|132:168,1,50,8|0,0:0|0:0,0:0:0:0:
311,247,86137,6,0,L|304:197,1,50,8|0,0:0|0:0,0:0:0:0:
372,270,86366,2,0,L|402:229,1,50
411,330,86595,2,0,L|461:323,1,50,8|0,0:0|0:0,0:0:0:0:
375,273,86824,2,0,L|405:232,1,50
256,309,87053,2,0,L|206:302,1,50,2|0,0:0|0:0,0:0:0:0:
170,380,87282,2,0,L|139:339,1,50
71,384,87511,2,0,L|78:334,1,50,2|0,0:0|0:0,0:0:0:0:
99,261,87740,2,0,L|106:311,1,50
14,117,87969,54,0,L|21:67,1,50,8|0,0:0|0:0,0:0:0:0:
81,87,88198,2,0,L|121:56,1,50
146,117,88427,2,0,L|196:124,1,50
269,237,88656,1,2,0:0:0:0:
244,240,88771,1,2,0:0:0:0:
219,245,88885,2,0,L|169:251,1,50,8|0,0:0|0:0,0:0:0:0:
152,149,89114,2,0,L|202:156,1,50
246,54,89343,2,0,L|276:94,1,50,8|0,0:0|0:0,0:0:0:0:
416,1,89572,2,0,L|409:51,1,50,8|0,0:0|0:0,0:0:0:0:
269,237,89801,6,0,L|262:187,1,50,8|0,0:0|0:0,0:0:0:0:
390,271,90030,2,0,L|383:321,1,50
254,252,90259,2,0,L|247:202,1,50,8|0,0:0|0:0,0:0:0:0:
405,256,90488,2,0,L|398:306,1,50
365,157,90717,2,0,L|324:126,1,50,2|0,0:0|0:0,0:0:0:0:
432,76,90946,2,0,L|425:26,1,50
384,145,91175,22,0,P|383:169|391:193,1,50,2|0,0:0|0:0,0:0:0:0:
426,95,91404,2,0,P|450:108|467:126,1,50
353,24,91633,6,0,B|307:6|265:0|217:32|167:52|169:104|192:148|255:165|284:131|300:101,1,320
353,24,92778,1,0,0:0:0:0:
391,93,93007,1,0,0:0:0:0:
385,172,93236,1,0,0:0:0:0:
219,284,93465,1,8,0:0:0:0:
289,245,93694,1,0,0:0:0:0:
368,249,93923,2,0,P|400:298|338:395,1,160
204,362,94839,102,0,L|138:351,1,40
219,284,95068,2,0,L|153:273,1,40
317,195,95297,2,0,L|414:183,1,80,2|0,0:0|0:0,0:0:0:0:
458,236,95755,1,0,0:0:0:0:
486,161,95984,2,0,P|491:111|462:58,1,80
335,17,96671,5,0,0:0:0:0:
291,84,96900,1,0,0:0:0:0:
308,283,97129,1,8,0:0:0:0:
263,216,97358,2,0,P|224:205|185:211,1,80
137,275,97816,1,0,0:0:0:0:
13,112,98045,2,0,P|9:58|122:6,1,160,8|0,0:0|0:0,0:0:0:0:
149,49,98732,101,0,0:0:0:0:
194,114,98961,1,0,0:0:0:0:
273,114,99190,1,0,0:0:0:0:
344,78,99419,2,0,L|356:-19,1,80
449,127,100106,5,0,0:0:0:0:
472,203,100335,1,0,0:0:0:0:
425,268,100564,1,0,0:0:0:0:
268,301,100793,1,2,0:0:0:0:
334,256,101022,1,0,0:0:0:0:
346,176,101251,1,0,0:0:0:0:
314,102,101480,2,0,P|279:69|241:58,1,80
175,90,101938,101,0,0:0:0:0:
175,170,102167,1,0,0:0:0:0:
244,130,102396,1,0,0:0:0:0:
178,93,102625,2,0,P|101:97|62:163,1,160,2|0,0:0|0:0,0:0:0:0:
92,237,103312,1,0,0:0:0:0:
57,309,103541,5,2,0:0:0:0:
285,235,103999,1,2,0:0:0:0:
79,111,104457,1,2,0:0:0:0:
59,146,105145,101,2,0:0:0:0:
69,129,105259,1,2,0:0:0:0:
75,208,105374,2,0,L|141:223,1,40,8|0,0:0|0:0,0:0:0:0:
179,143,105602,2,0,L|113:158,1,40,2|0,0:0|0:0,0:0:0:0:
60,223,105832,2,0,P|79:234|126:238,1,40,2|0,0:0|0:0,0:0:0:0:
194,128,106060,2,0,P|166:128|128:143,1,40,2|0,0:0|0:0,0:0:0:0:
243,246,106289,6,0,L|251:174,1,40
333,214,106518,2,0,L|287:157,1,40
378,127,106748,2,0,L|306:119,1,40
296,46,106976,1,0,0:0:0:0:
292,70,107091,1,0,0:0:0:0:
227,126,107205,1,8,0:0:0:0:
156,108,107320,1,0,0:0:0:0:
136,73,107434,101,0,0:0:0:0:
136,44,107550,1,0,0:0:0:0:
147,27,107664,1,2,0:0:0:0:
166,22,107778,1,2,0:0:0:0:
201,39,107892,1,2,0:0:0:0:
220,34,108007,1,2,0:0:0:0:
241,10,108122,6,0,L|280:5,1,40,2|0,0:0|0:0,0:0:0:0:
298,71,108351,2,0,L|329:95,1,40
282,148,108580,2,0,L|286:186,1,40
215,199,108808,1,0,0:0:0:0:
183,194,108923,1,0,0:0:0:0:
134,141,109038,2,0,P|129:120|129:102,1,40,8|0,0:0|0:0,0:0:0:0:
209,27,109267,102,0,P|193:41|177:50,1,40
74,14,109496,2,0,P|94:20|110:29,1,40
134,141,109724,1,0,0:0:0:0:
124,163,109839,1,0,0:0:0:0:
152,258,109954,6,0,L|191:262,1,40,8|0,0:0|0:0,0:0:0:0:
258,234,110182,1,0,0:0:0:0:
285,167,110298,1,0,0:0:0:0:
285,167,110412,2,0,L|280:128,1,40,2|0,0:0|0:0,0:0:0:0:
207,131,110641,2,0,L|202:170,1,40
349,95,110870,2,0,L|317:70,1,40,2|0,0:0|0:0,0:0:0:0:
146,95,111099,2,0,L|177:70,1,40
358,0,111328,2,0,L|319:4,1,40,2|0,0:0|0:0,0:0:0:0:
157,8,111556,1,0,0:0:0:0:
186,0,111671,1,0,0:0:0:0:
247,42,111786,102,0,L|242:81,1,40,8|0,0:0|0:0,0:0:0:0:
326,109,112015,2,0,L|294:133,1,40
345,191,112243,1,0,0:0:0:0:
356,229,112358,1,0,0:0:0:0:
355,260,112473,1,0,0:0:0:0:
343,281,112588,1,0,0:0:0:0:
253,324,112702,2,0,L|235:276,1,40,8|0,0:0|0:0,0:0:0:0:
167,282,112931,2,0,L|188:235,1,40,2|0,0:0|0:0,0:0:0:0:
288,168,113160,2,0,L|270:119,1,40,2|0,0:0|0:0,0:0:0:0:
326,80,113389,6,0,P|305:65|280:56,1,32.4999985122681,2|0,0:0|0:0,0:0:0:0:
223,62,113617,1,0,0:0:0:0:
171,116,113846,2,0,L|163:165,1,50
235,235,114304,2,0,L|227:185,1,50
184,124,114762,101,0,0:0:0:0:
109,114,114991,1,0,0:0:0:0:
61,172,115220,1,0,0:0:0:0:
154,348,115450,2,0,L|226:357,2,50,8|0|0,0:0|0:0|0:0,0:0:0:0:
97,298,116136,2,0,P|96:243|136:210,1,100
258,284,117052,1,0,0:0:0:0:
406,150,117282,6,0,L|386:1,1,150,8|0,0:0|0:0,0:0:0:0:
224,119,118197,2,0,L|214:242,1,100,8|0,0:0|0:0,0:0:0:0:
479,361,119113,1,0,0:0:0:0:
479,361,119342,1,0,0:0:0:0:
331,335,119571,85,12,0:0:0:0:
404,44,120030,1,12,0:0:0:0:
447,187,120487,5,2,0:0:0:0:
447,187,120716,1,0,0:0:0:0:
355,305,120946,2,0,L|298:293,1,37.5000014305115,8|0,0:0|0:0,0:0:0:0:
357,240,121175,2,0,L|300:228,1,37.5000014305115
286,175,121404,2,0,L|343:163,1,37.5000014305115,2|0,0:0|0:0,0:0:0:0:
284,110,121633,2,0,L|341:98,1,37.5000014305115
212,52,121863,2,0,L|243:3,1,37.5000014305115,2|0,0:0|0:0,0:0:0:0:
150,81,122091,2,0,L|138:24,1,37.5000014305115
118,143,122320,2,0,L|69:111,1,37.5000014305115,2|0,0:0|0:0,0:0:0:0:
156,200,122549,2,0,L|204:168,1,37.5000014305115
203,251,122779,70,0,P|207:273|201:303,1,37.5000014305115,2|0,0:0|0:0,0:0:0:0:
286,190,123008,2,0,P|273:208|247:225,1,37.5000014305115,2|0,0:0|0:0,0:0:0:0:
241,116,123236,2,0,P|219:119|189:113,1,37.5000014305115,2|0,0:0|0:0,0:0:0:0:
294,24,123465,2,0,P|275:11|258:-15,1,37.5000014305115,2|0,0:0|0:0,0:0:0:0:
340,108,123694,2,0,P|383:126|455:83,1,112.500004291535,2|0,0:0|0:0,0:0:0:0:
507,40,124153,38,0,L|499:-4,1,37.5000014305115
441,103,124381,2,0,L|434:139,1,37.5000014305115
493,222,124611,2,0,P|497:244|490:275,1,37.5000014305115,8|0,0:0|0:0,0:0:0:0:
430,245,124839,2,0,P|417:263|391:280,1,37.5000014305115
370,214,125068,2,0,P|347:218|316:211,1,37.5000014305115,2|0,0:0|0:0,0:0:0:0:
353,151,125297,2,0,P|334:138|317:112,1,37.5000014305115
308,202,125526,6,0,L|300:238,1,37.5000014305115,2|0,0:0|0:0,0:0:0:0:
211,149,125755,2,0,L|218:185,1,37.5000014305115
323,217,125984,2,0,L|315:253,1,37.5000014305115,2|0,0:0|0:0,0:0:0:0:
196,134,126213,2,0,L|203:170,1,37.5000014305115
256,319,126443,54,0,L|219:311,1,37.5000014305115,8|0,0:0|0:0,0:0:0:0:
154,329,126671,2,0,P|149:306|156:275,1,37.5000014305115,2|0,0:0|0:0,0:0:0:0:
70,240,126900,2,0,P|82:221|108:204,1,37.5000014305115,2|0,0:0|0:0,0:0:0:0:
65,94,127129,2,0,P|87:89|118:96,1,37.5000014305115,2|0,0:0|0:0,0:0:0:0:
299,260,127359,2,0,L|335:252,1,37.5000014305115,8|0,0:0|0:0,0:0:0:0:
404,221,127588,2,0,P|391:202|365:185,1,37.5000014305115,2|0,0:0|0:0,0:0:0:0:
253,137,127816,2,0,P|263:121|276:108,1,37.5000014305115,2|0,0:0|0:0,0:0:0:0:
381,28,128045,2,0,P|370:12|357:-1,1,37.5000014305115,2|0,0:0|0:0,0:0:0:0:
158,47,128275,37,8,0:0:0:0:
107,102,128504,2,0,P|102:144|202:195,2,150.000005722046
158,47,129648,1,0,0:0:0:0:
223,84,129877,1,0,0:0:0:0:
371,63,130107,6,0,P|408:31|343:19,1,150.000005722046,8|0,0:0|0:0,0:0:0:0:
292,119,130793,2,0,P|292:174|310:196,1,75.0000028610231,8|0,0:0|0:0,0:0:0:0:
406,231,131252,1,2,0:0:0:0:
225,280,131480,1,8,0:0:0:0:
331,317,131710,1,8,0:0:0:0:
242,195,131938,102,0,P|231:146|267:76,1,112.500004291535,2|0,0:0|0:0,0:0:0:0:
325,54,132397,2,0,P|273:89|203:67,1,120,2|0,0:0|0:0,0:0:0:0:
169,4,132855,2,0,P|214:50|200:132,1,134.999995880127,2|0,0:0|0:0,0:0:0:0:
126,172,133313,6,0,L|64:164,1,50,8|0,0:0|0:0,0:0:0:0:
231,250,133542,2,0,L|294:242,1,55.0000016784668,8|0,0:0|0:0,0:0:0:0:
140,320,133771,102,0,L|151:245,1,59.9999981689454,8|0,0:0|0:0,0:0:0:0:
78,208,133999,2,0,L|138:162,1,59.9999981689454
82,82,134228,2,0,L|157:93,1,59.9999981689454,8|0,0:0|0:0,0:0:0:0:
232,160,134458,6,0,P|262:165|297:151,1,59.9999981689454,2|0,0:0|0:0,0:0:0:0:
370,96,134687,2,0,L|359:171,1,59.9999981689454,8|0,0:0|0:0,0:0:0:0:
434,170,134916,2,0,L|445:245,1,59.9999981689454,8|0,0:0|0:0,0:0:0:0:
307,217,135145,2,0,L|296:292,1,59.9999981689454,8|0,0:0|0:0,0:0:0:0:
489,302,135373,2,0,L|500:377,1,59.9999981689454,8|0,0:0|0:0,0:0:0:0:
378,317,135602,2,0,L|332:377,1,59.9999981689454,8|0,0:0|0:0,0:0:0:0:
298,276,135831,2,0,L|223:287,1,59.9999981689454,8|0,0:0|0:0,0:0:0:0:
255,170,136060,2,0,L|194:124,1,59.9999981689454,8|0,0:0|0:0,0:0:0:0:
315,77,136289,2,0,P|307:49|317:8,1,59.9999981689454,2|0,0:0|0:0,0:0:0:0:
206,12,136518,101,2,0:0:0:0:
158,14,136633,1,0,0:0:0:0:
124,48,136747,1,0,0:0:0:0:
122,96,136862,1,0,0:0:0:0:
147,136,136976,1,0,0:0:0:0:
169,163,137091,1,0,0:0:0:0:
178,184,137205,1,0,0:0:0:0:
179,208,137320,1,0,0:0:0:0:
171,230,137434,5,8,0:0:0:0:
129,273,137549,1,0,0:0:0:0:
62,246,137663,1,0,0:0:0:0:
3,306,137778,1,0,0:0:0:0:
64,379,137893,2,0,L|127:389,1,59.9999981689454,8|0,0:0|0:0,0:0:0:0:
231,271,138122,2,0,B|248:224|231:183|231:183|206:127|241:86,1,179.999994506836,8|0,0:0|0:0,0:0:0:0:
331,145,138579,2,0,L|297:140,1,29.9999990844727,2|0,0:0|0:0,0:0:0:0:
415,5,138808,85,2,0:0:0:0:
443,13,138923,1,0,0:0:0:0:
475,39,139038,1,0,0:0:0:0:
490,103,139153,1,0,0:0:0:0:
446,172,139267,6,0,B|410:208|345:225|297:184|284:132|284:132|198:167|236:260,1,324.999985122681,8|0,0:0|0:0,0:0:0:0:
334,337,139954,2,0,P|308:295|266:270,1,64.9999970245363,2|0,0:0|0:0,0:0:0:0:
182,348,140182,1,2,0:0:0:0:
143,354,140297,1,2,0:0:0:0:
100,339,140411,1,2,0:0:0:0:
68,297,140526,1,2,0:0:0:0:
63,238,140640,1,10,0:0:0:0:
110,193,140756,1,10,0:0:0:0:
181,188,140869,1,10,0:0:0:0:
238,240,140984,1,10,0:0:0:0:
219,322,141098,5,4,0:0:0:0:
158,262,141213,1,10,0:0:0:0:
181,188,141327,1,10,0:0:0:0:
233,139,141442,1,10,0:0:0:0:
297,129,141557,1,10,0:0:0:0:
346,159,141671,1,2,0:0:0:0:
365,206,141785,1,2,0:0:0:0:
407,223,141900,1,2,0:0:0:0:
442,206,142015,37,8,0:0:0:0:
460,179,142129,1,8,0:0:0:0:
427,174,142244,1,8,0:0:0:0:
485,331,142473,6,0,P|462:315|400:314,1,64.9999970245363,2|0,0:0|0:0,0:0:0:0:
237,355,142702,2,0,P|260:371|322:372,1,64.9999970245363,2|0,0:0|0:0,0:0:0:0:
224,198,142931,2,0,B|173:169|115:201|115:201|51:235|4:206|-13:138|19:110|67:97,1,324.999985122681,8|0,0:0|0:0,0:0:0:0:
176,113,143618,2,0,P|207:106|233:87,1,64.9999970245363,2|0,0:0|0:0,0:0:0:0:
335,7,143846,1,2,0:0:0:0:
326,45,143961,1,2,0:0:0:0:
340,87,144075,1,2,0:0:0:0:
384,114,144190,1,2,0:0:0:0:
422,157,144304,1,10,0:0:0:0:
439,219,144419,1,10,0:0:0:0:
424,288,144533,1,10,0:0:0:0:
357,328,144648,1,10,0:0:0:0:
279,296,144763,5,4,0:0:0:0:
331,229,144877,1,10,0:0:0:0:
331,151,144991,1,10,0:0:0:0:
283,96,145106,1,10,0:0:0:0:
218,93,145220,1,10,0:0:0:0:
178,136,145335,1,2,0:0:0:0:
136,167,145449,1,2,0:0:0:0:
90,163,145564,1,2,0:0:0:0:
65,132,145678,5,8,0:0:0:0:
52,101,145793,1,8,0:0:0:0:
85,101,145907,1,8,0:0:0:0:
17,261,146137,6,0,P|40:277|102:278,1,64.9999970245363,2|0,0:0|0:0,0:0:0:0:
267,243,146366,2,0,P|244:227|182:226,1,64.9999970245363,2|0,0:0|0:0,0:0:0:0:
331,368,146595,2,0,B|323:303|323:303|359:264|359:195|316:166|316:166|261:167|223:105|264:46,1,324.999985122681,8|0,0:0|0:0,0:0:0:0:
354,8,147282,2,0,P|331:24|269:25,1,64.9999970245363,2|0,0:0|0:0,0:0:0:0:
132,13,147511,1,2,0:0:0:0:
115,48,147625,1,2,0:0:0:0:
111,93,147739,1,2,0:0:0:0:
131,141,147854,1,2,0:0:0:0:
179,172,147968,1,10,0:0:0:0:
241,151,148083,1,10,0:0:0:0:
311,157,148197,1,10,0:0:0:0:
364,214,148312,1,10,0:0:0:0:
343,295,148427,5,4,0:0:0:0:
286,231,148541,1,10,0:0:0:0:
311,157,148655,1,10,0:0:0:0:
377,129,148770,1,10,0:0:0:0:
434,157,148884,1,10,0:0:0:0:
450,213,148999,1,2,0:0:0:0:
440,263,149113,1,2,0:0:0:0:
416,301,149228,1,2,0:0:0:0:
428,337,149342,37,8,0:0:0:0:
441,369,149457,1,8,0:0:0:0:
464,345,149572,6,0,L|371:326,1,64.9999970245363,8|0,0:0|0:0,0:0:0:0:
277,261,149801,2,0,L|370:242,1,64.9999970245363,8|0,0:0|0:0,0:0:0:0:
497,170,150030,2,0,L|404:151,1,64.9999970245363,2|0,0:0|0:0,0:0:0:0:
260,196,150259,1,8,0:0:0:0:
260,196,150487,1,0,0:0:0:0:
242,210,150717,21,0,0:0:0:0:
237,178,150831,1,0,0:0:0:0:
269,173,150945,1,0,0:0:0:0:
274,205,151060,1,0,0:0:0:0:
235,219,151175,69,2,0:0:0:0:
228,171,151289,1,2,0:0:0:0:
276,164,151403,1,2,0:0:0:0:
283,212,151518,1,2,0:0:0:0:
225,233,151633,37,10,0:0:0:0:
214,161,151747,1,10,0:0:0:0:
286,150,151862,1,10,0:0:0:0:
297,222,151976,1,10,0:0:0:0:
242,214,152092,69,8,0:0:0:0:
242,169,152205,1,0,0:0:0:0:
282,192,152321,1,0,0:0:0:0:
236,226,152549,1,8,0:0:0:0:
236,157,152663,1,0,0:0:0:0:
295,192,152778,1,0,0:0:0:0:
226,243,153007,1,8,0:0:0:0:
226,140,153121,1,0,0:0:0:0:
315,192,153236,1,0,0:0:0:0:
211,268,153465,1,8,0:0:0:0:
211,115,153579,1,0,0:0:0:0:
344,192,153695,5,2,0:0:0:0:
383,215,153808,1,2,0:0:0:0:
396,148,153924,2,0,P|393:63|301:14,1,194.999991073609,8|0,0:0|0:0,0:0:0:0:
211,115,154382,2,0,P|188:131|126:132,1,64.9999970245363
43,51,154611,2,0,P|68:62|100:116,1,64.9999970245363
68,232,154840,2,0,P|65:204|95:150,1,64.9999970245363,2|0,0:0|0:0,0:0:0:0:
129,211,155069,2,0,L|197:223,1,64.9999970245363,2|0,0:0|0:0,0:0:0:0:
165,294,155298,2,0,L|233:282,1,64.9999970245363,2|0,0:0|0:0,0:0:0:0:
349,219,155527,2,0,P|351:191|321:137,1,64.9999970245363
162,58,155756,6,0,P|184:74|246:74,1,64.9999970245363,8|0,0:0|0:0,0:0:0:0:
312,38,155985,2,0,L|300:106,1,64.9999970245363,8|0,0:0|0:0,0:0:0:0:
400,107,156214,2,0,L|335:130,1,64.9999970245363,8|0,0:0|0:0,0:0:0:0:
387,218,156443,2,0,L|334:173,1,64.9999970245363,8|0,0:0|0:0,0:0:0:0:
212,148,156672,1,2,0:0:0:0:
226,137,156786,1,2,0:0:0:0:
232,165,156901,2,0,L|244:233,1,64.9999970245363,2|0,0:0|0:0,0:0:0:0:
309,346,157130,22,0,P|286:362|224:362,1,64.9999970245363
111,264,157359,2,0,P|142:269|169:287,1,64.9999970245363
12,357,157588,2,0,P|7:253|31:157,1,194.999991073609,8|0,0:0|0:0,0:0:0:0:
162,76,158046,2,0,L|174:144,1,64.9999970245363
253,55,158275,2,0,L|235:121,1,64.9999970245363
277,188,158504,2,0,L|321:135,1,64.9999970245363,2|0,0:0|0:0,0:0:0:0:
335,277,158733,2,0,L|351:214,1,64.9999970245363,2|0,0:0|0:0,0:0:0:0:
468,324,158962,2,0,L|451:261,1,64.9999970245363,2|0,0:0|0:0,0:0:0:0:
384,193,159191,6,0,P|368:216|368:278,1,64.9999970245363
512,376,159420,2,0,P|417:354|320:360,1,194.999991073609,8|0,0:0|0:0,0:0:0:0:
185,384,159878,2,0,L|201:321,1,64.9999970245363
109,323,160107,2,0,L|150:272,1,64.9999970245363,8|0,0:0|0:0,0:0:0:0:
237,228,160336,1,2,0:0:0:0:
255,242,160450,1,2,0:0:0:0:
236,252,160565,2,0,L|168:240,1,64.9999970245363,2|0,0:0|0:0,0:0:0:0:
230,152,160794,54,0,P|261:156|288:174,1,64.9999970245363
341,296,161023,2,0,P|329:265|331:233,1,64.9999970245363
413,143,161252,2,0,L|481:155,1,64.9999970245363,8|0,0:0|0:0,0:0:0:0:
434,221,161481,2,0,L|473:277,1,64.9999970245363
386,295,161710,2,0,L|373:363,1,64.9999970245363
262,324,161939,2,0,L|205:363,1,64.9999970245363
121,237,162168,2,0,P|151:225|183:226,1,64.9999970245363,2|0,0:0|0:0,0:0:0:0:
307,248,162397,2,0,P|277:260|244:258,1,64.9999970245363,2|0,0:0|0:0,0:0:0:0:
187,105,162626,2,0,P|211:127|224:157,1,64.9999970245363,8|0,0:0|0:0,0:0:0:0:
224,366,162855,2,0,P|201:345|188:315,1,64.9999970245363,8|0,0:0|0:0,0:0:0:0:
56,280,163084,6,0,L|67:215,1,64.9999970245363,8|0,0:0|0:0,0:0:0:0:
170,88,163313,2,0,L|181:152,1,64.9999970245363,2|0,0:0|0:0,0:0:0:0:
247,250,163542,2,0,L|258:185,1,64.9999970245363
291,164,163771,2,0,L|302:228,1,64.9999970245363,8|0,0:0|0:0,0:0:0:0:
272,272,164000,1,2,0:0:0:0:
271,248,164114,1,2,0:0:0:0:
290,258,164229,2,0,L|278:322,1,64.9999970245363,2|0,0:0|0:0,0:0:0:0:
192,359,164458,22,0,P|217:339|249:333,1,64.9999970245363
430,340,164687,2,0,P|404:359|372:365,1,64.9999970245363
230,77,164916,101,2,0:0:0:0:
245,140,165145,1,0,0:0:0:0:
260,203,165374,1,0,0:0:0:0:
275,266,165603,1,0,0:0:0:0:
305,14,165832,69,2,0:0:0:0:
290,77,166061,1,0,0:0:0:0:
275,140,166290,1,0,0:0:0:0:
260,203,166519,1,0,0:0:0:0:
215,14,166748,37,8,0:0:0:0:
256,192,168580,69,0,0:0:0:0:
217,272,168809,37,0,0:0:0:0:
220,260,168924,1,0,0:0:0:0:
222,247,169038,1,2,0:0:0:0:
364,315,169267,1,0,0:0:0:0:
347,254,169381,1,0,0:0:0:0:
330,193,169496,1,2,0:0:0:0:
222,247,169725,22,0,L|192:266,1,25
222,133,169954,2,0,L|198:91,1,25
330,193,170183,1,2,0:0:0:0:
327,215,170298,1,2,0:0:0:0:
396,218,170412,102,0,P|401:181|365:127,1,100,8|0,0:0|0:0,0:0:0:0:
281,102,171099,1,0,0:0:0:0:
281,102,171328,2,0,L|168:117,1,100
126,165,172015,1,0,0:0:0:0:
35,122,172244,1,0,0:0:0:0:
72,29,172473,1,0,0:0:0:0:
171,37,172702,1,0,0:0:0:0:
112,254,173389,5,0,0:0:0:0:
146,320,173618,1,0,0:0:0:0:
217,343,173847,1,0,0:0:0:0:
316,264,174076,102,0,L|309:226,1,25,2|0,0:0|0:0,0:0:0:0:
380,226,174305,2,0,L|373:264,1,25,2|0,0:0|0:0,0:0:0:0:
445,188,174534,2,0,L|438:150,1,25,2|0,0:0|0:0,0:0:0:0:
322,270,174763,5,0,0:0:0:0:
322,270,174878,1,0,0:0:0:0:
322,270,174992,1,2,0:0:0:0:
380,226,175221,1,2,0:0:0:0:
448,191,175450,1,2,0:0:0:0:
448,191,175679,1,0,0:0:0:0:
354,126,175908,102,0,P|351:104|352:96,1,25
419,38,176137,2,0,P|422:60|421:68,1,25
336,23,176366,2,0,L|322:20,7,12.5
348,39,176824,1,2,0:0:0:0:
245,80,177282,5,0,0:0:0:0:
282,225,177511,1,0,0:0:0:0:
252,282,177740,102,0,L|213:277,1,25,2|0,0:0|0:0,0:0:0:0:
281,342,177969,2,0,L|320:337,1,25,2|0,0:0|0:0,0:0:0:0:
229,384,178198,2,0,L|190:379,1,25,2|0,0:0|0:0,0:0:0:0:
114,275,178427,1,0,0:0:0:0:
130,254,178656,2,0,L|125:215,1,25,2|0,0:0|0:0,0:0:0:0:
190,283,178885,2,0,L|185:322,1,25,2|0,0:0|0:0,0:0:0:0:
231,230,179114,5,0,0:0:0:0:
181,138,179343,1,0,0:0:0:0:
298,133,179572,1,0,0:0:0:0:
280,152,179801,1,0,0:0:0:0:
366,207,180030,2,0,L|357:167,1,25,2|0,0:0|0:0,0:0:0:0:
314,251,180259,2,0,L|305:291,1,25,2|0,0:0|0:0,0:0:0:0:
429,164,180488,2,0,L|437:113,1,50,2|0,0:0|0:0,0:0:0:0:
346,74,180946,102,0,L|351:98,1,25,2|0,0:0|0:0,0:0:0:0:
292,124,181175,2,0,L|297:148,1,25,2|0,0:0|0:0,0:0:0:0:
215,118,181404,1,0,0:0:0:0:
157,69,181633,1,0,0:0:0:0:
215,118,181863,1,0,0:0:0:0:
292,124,182092,1,0,0:0:0:0:
346,74,182321,6,0,P|351:54|349:42,1,25,2|0,0:0|0:0,0:0:0:0:
392,147,182550,2,0,P|409:136|416:126,1,25,2|0,0:0|0:0,0:0:0:0:
380,286,182779,2,0,P|420:302|444:299,1,50,8|0,0:0|0:0,0:0:0:0:
500,213,183237,102,0,L|491:152,2,50
462,302,183924,5,2,0:0:0:0:
462,302,184038,1,2,0:0:0:0:
448,279,184153,1,8,0:0:0:0:
492,124,184382,1,8,0:0:0:0:
404,162,184611,1,8,0:0:0:0:
442,213,184840,1,8,0:0:0:0:
377,249,185069,102,0,L|333:244,1,32.4999985122681,2|0,0:0|0:0,0:0:0:0:
285,186,185298,2,0,L|329:181,1,32.4999985122681
396,261,185527,2,0,L|352:267,1,32.4999985122681,2|0,0:0|0:0,0:0:0:0:
262,170,185756,2,0,L|303:153,1,32.4999985122681
457,190,185985,2,0,P|459:174|451:145,1,32.4999985122681,8|0,0:0|0:0,0:0:0:0:
389,114,186214,2,0,L|384:146,1,32.4999985122681
293,285,186443,6,0,L|288:252,1,32.4999985122681,8|0,0:0|0:0,0:0:0:0:
314,161,186672,2,0,P|304:174|291:184,1,32.4999985122681
166,164,186901,2,0,L|170:131,1,32.4999985122681,8|0,0:0|0:0,0:0:0:0:
238,84,187130,2,0,L|242:116,1,32.4999985122681
333,78,187359,2,0,L|313:104,1,32.4999985122681,8|0,0:0|0:0,0:0:0:0:
343,181,187588,2,0,L|362:154,1,32.4999985122681,8|0,0:0|0:0,0:0:0:0:
415,63,187817,1,8,0:0:0:0:
428,93,187931,1,8,0:0:0:0:
447,68,188046,101,2,0:0:0:0:
459,164,188275,1,2,0:0:0:0:
472,260,188504,1,2,0:0:0:0:
412,337,188733,6,0,L|360:325,1,32.4999985122681,2|0,0:0|0:0,0:0:0:0:
288,269,188962,2,0,L|340:257,1,32.4999985122681
199,355,189191,2,0,P|174:353|147:343,1,32.4999985122681,2|0,0:0|0:0,0:0:0:0:
75,287,189420,2,0,L|127:275,1,32.4999985122681,2|0,0:0|0:0,0:0:0:0:
249,200,189649,2,0,P|265:180|277:154,1,32.4999985122681,2|0,0:0|0:0,0:0:0:0:
289,64,189878,2,0,L|243:92,1,32.4999985122681
440,125,190107,2,0,P|438:99|428:72,1,32.4999985122681,2|0,0:0|0:0,0:0:0:0:
365,2,190336,2,0,P|356:24|353:53,1,32.4999985122681,2|0,0:0|0:0,0:0:0:0:
371,245,190565,102,0,B|348:235|321:240|321:240|287:246|258:233,1,97.4999955368044,2|0,0:0|0:0,0:0:0:0:
211,175,191023,2,0,L|207:153,7,16.2499992561341
211,193,191481,1,8,0:0:0:0:
162,248,191595,1,8,0:0:0:0:
90,219,191710,1,8,0:0:0:0:
100,206,191939,6,0,P|95:190|89:175,1,32.4999985122681,2|0,0:0|0:0,0:0:0:0:
21,88,192168,2,0,P|25:103|31:118,1,32.4999985122681,2|0,0:0|0:0,0:0:0:0:
156,90,192397,102,0,L|164:56,1,32.4999985122681,2|0,0:0|0:0,0:0:0:0:
206,137,192626,2,0,L|198:168,1,32.4999985122681
133,69,192855,2,0,L|141:35,1,32.4999985122681,2|0,0:0|0:0,0:0:0:0:
228,157,193084,2,0,P|228:169|220:188,1,32.4999985122681,2|0,0:0|0:0,0:0:0:0:
269,249,193313,2,0,L|241:266,1,32.4999985122681,2|0,0:0|0:0,0:0:0:0:
194,323,193542,2,0,P|202:331|221:340,1,32.4999985122681
338,249,193771,6,0,P|338:237|330:217,1,32.4999985122681,2|0,0:0|0:0,0:0:0:0:
300,322,194000,2,0,P|300:334|307:353,1,32.4999985122681,2|0,0:0|0:0,0:0:0:0:
193,227,194229,2,0,L|133:240,1,32.4999985122681,2|0,0:0|0:0,0:0:0:0:
236,140,194458,2,0,L|176:153,1,32.4999985122681
344,270,194687,2,0,L|404:283,1,32.4999985122681,2|0,0:0|0:0,0:0:0:0:
301,183,194916,2,0,L|361:196,1,32.4999985122681
230,301,195145,2,0,L|170:314,1,32.4999985122681,2|0,0:0|0:0,0:0:0:0:
236,236,195374,2,0,L|176:249,1,32.4999985122681
299,340,195603,102,0,P|318:349|359:353,1,32.4999985122681,2|0,0:0|0:0,0:0:0:0:
311,278,195832,2,0,P|330:269|371:265,1,32.4999985122681,2|0,0:0|0:0,0:0:0:0:
433,310,196061,5,2,0:0:0:0:
469,219,196290,1,0,0:0:0:0:
451,143,196519,1,0,0:0:0:0:
406,95,196748,1,0,0:0:0:0:
381,217,196977,1,0,0:0:0:0:
474,132,197206,1,0,0:0:0:0:
284,86,197435,1,2,0:0:0:0:
272,79,197893,102,0,L|217:89,1,32.4999985122681,2|0,0:0|0:0,0:0:0:0:
344,141,198122,2,0,L|362:57,2,64.9999970245363
146,215,198809,5,2,0:0:0:0:
146,215,199038,1,0,0:0:0:0:
264,295,199267,101,2,0:0:0:0:
264,295,199496,1,0,0:0:0:0:
276,59,199725,5,0,0:0:0:0:
250,129,199954,1,0,0:0:0:0:
222,199,200183,1,0,0:0:0:0:
276,59,200412,1,2,0:0:0:0:
370,176,200641,1,2,0:0:0:0:
222,199,200870,1,2,0:0:0:0:
276,59,201557,101,0,0:0:0:0:
324,116,201786,1,0,0:0:0:0:
370,176,202015,1,0,0:0:0:0:
276,59,202244,1,2,0:0:0:0:
222,199,202473,1,2,0:0:0:0:
370,176,202702,1,2,0:0:0:0:
250,269,203389,5,0,0:0:0:0:
276,339,203618,1,2,0:0:0:0:
222,199,203847,1,8,0:0:0:0:
276,339,204076,1,8,0:0:0:0:
370,222,204305,1,2,0:0:0:0:
222,199,204534,1,2,0:0:0:0:
296,210,204763,1,0,0:0:0:0:
128,316,205221,101,0,0:0:0:0:
176,259,205450,1,0,0:0:0:0:
222,199,205679,1,0,0:0:0:0:
276,339,205908,1,2,0:0:0:0:
370,222,206137,1,2,0:0:0:0:
176,259,206366,1,8,0:0:0:0:
128,316,206595,1,0,0:0:0:0:
91,119,206824,1,8,0:0:0:0:
91,119,207511,6,0,L|147:125,1,50
109,194,207969,2,0,L|53:200,1,50,2|0,0:0|0:0,0:0:0:0:
140,267,208427,2,0,L|196:273,1,50
284,129,208885,102,0,P|294:95|257:29,1,100,2|0,0:0|0:0,0:0:0:0:
195,24,209572,1,0,0:0:0:0:
139,106,209801,2,0,L|127:171,1,50,8|0,0:0|0:0,0:0:0:0:
185,238,210259,5,0,0:0:0:0:
185,238,210488,1,8,0:0:0:0:
146,330,210717,102,0,P|114:344|33:341,1,100,8|0,0:0|0:0,0:0:0:0:
213,330,211633,70,0,P|271:339|350:258,1,150.000005722046,8|2,0:0|0:0,0:0:0:0:
270,173,212321,37,2,0:0:0:0:
270,173,212550,2,0,L|354:185,1,75.0000028610231,8|0,0:0|0:0,0:0:0:0:
438,127,213008,2,0,P|453:83|445:44,2,75.0000028610231
360,145,213695,6,0,P|360:106|381:75,2,64.9999970245363
436,276,214382,54,0,L|204:244,1,200,8|0,0:0|0:0,0:0:0:0:
228,237,215069,2,0,L|285:245,1,50,8|0,0:0|0:0,0:0:0:0:
444,287,215985,38,0,L|332:271,1,75.0000028610231,2|0,0:0|0:0,0:0:0:0:
243,300,216214,5,2,0:0:0:0:
277,243,216328,1,2,0:0:0:0:
266,111,216443,1,8,0:0:0:0:
266,111,216672,54,0,P|259:140|268:176,1,50
352,220,216901,1,8,0:0:0:0:
277,243,217015,1,0,0:0:0:0:
336,293,217130,2,0,P|393:283|416:207,1,100
365,147,217473,2,0,L|248:133,1,100,2|0,0:0|0:0,0:0:0:0:
411,83,217817,2,0,L|340:74,1,50,2|0,0:0|0:0,0:0:0:0:
145,169,218046,6,0,L|152:219,1,50,8|0,0:0|0:0,0:0:0:0:
205,124,218275,2,0,L|198:74,1,50,2|0,0:0|0:0,0:0:0:0:
83,219,218504,2,0,P|58:223|25:221,1,50,2|0,0:0|0:0,0:0:0:0:
270,75,218733,2,0,P|295:71|328:73,1,50,2|0,0:0|0:0,0:0:0:0:
230,309,218962,2,0,P|214:289|199:259,1,50,2|0,0:0|0:0,0:0:0:0:
278,200,219191,2,0,L|271:249,1,50,8|0,0:0|0:0,0:0:0:0:
216,143,219420,2,0,L|209:192,1,50,8|0,0:0|0:0,0:0:0:0:
287,86,219649,22,0,P|291:111|289:144,1,50,8|0,0:0|0:0,0:0:0:0:
75,17,219878,2,0,L|81:66,1,50,8|0,0:0|0:0,0:0:0:0:
154,107,220107,2,0,P|158:82|156:49,1,50,2|0,0:0|0:0,0:0:0:0:
90,155,220336,2,0,L|96:204,1,50,2|0,0:0|0:0,0:0:0:0:
158,247,220565,1,2,0:0:0:0:
107,302,220679,1,2,0:0:0:0:
179,321,220794,6,0,P|204:325|237:323,1,50,2|0,0:0|0:0,0:0:0:0:
324,259,221023,2,0,P|306:277|286:291,1,50,8|0,0:0|0:0,0:0:0:0:
125,160,221252,2,0,P|150:164|183:162,1,50,2|0,0:0|0:0,0:0:0:0:
335,80,221481,2,0,P|317:98|297:112,1,50,2|0,0:0|0:0,0:0:0:0:
145,7,221710,53,2,0:0:0:0:
203,34,221824,1,2,0:0:0:0:
138,46,221939,1,2,0:0:0:0:
196,73,222053,1,2,0:0:0:0:
148,124,222168,6,0,P|144:149|146:181,1,50,8|0,0:0|0:0,0:0:0:0:
254,303,222397,2,0,P|258:278|256:245,1,50,2|0,0:0|0:0,0:0:0:0:
229,163,222626,2,0,P|248:178|278:193,1,50,2|0,0:0|0:0,0:0:0:0:
380,193,222855,21,8,0:0:0:0:
366,179,223084,6,0,L|371:140,1,25,2|0,0:0|0:0,0:0:0:0:
351,198,223198,2,0,L|356:237,1,25,2|0,0:0|0:0,0:0:0:0:
312,142,223313,2,0,L|317:103,1,25,2|0,0:0|0:0,0:0:0:0:
266,213,223427,1,2,0:0:0:0:
212,152,223542,54,0,L|199:82,1,50,2|0,0:0|0:0,0:0:0:0:
253,21,223771,6,0,L|266:94,1,75.0000028610231,8|0,0:0|0:0,0:0:0:0:
154,200,224000,22,0,P|143:224|141:270,1,50,2|0,0:0|0:0,0:0:0:0:
192,300,224229,1,8,0:0:0:0:
142,355,224343,1,0,0:0:0:0:
72,325,224458,2,0,P|33:287|34:229,1,100
114,161,224801,2,0,L|94:271,1,100,2|0,0:0|0:0,0:0:0:0:
193,131,225145,2,0,L|183:195,1,50,2|0,0:0|0:0,0:0:0:0:
152,70,225374,6,0,P|184:59|217:63,1,50,8|0,0:0|0:0,0:0:0:0:
86,104,225603,2,0,P|54:115|21:111,1,50,2|0,0:0|0:0,0:0:0:0:
193,131,225832,2,0,P|204:163|200:196,1,50,2|0,0:0|0:0,0:0:0:0:
46,47,226061,2,0,P|35:15|39:-18,1,50,2|0,0:0|0:0,0:0:0:0:
213,52,226290,2,0,P|224:20|220:-13,1,50,2|0,0:0|0:0,0:0:0:0:
66,136,226519,2,0,P|55:168|59:201,1,50,8|0,0:0|0:0,0:0:0:0:
174,107,226748,2,0,P|206:118|239:114,1,50,8|0,0:0|0:0,0:0:0:0:
108,73,226977,102,0,P|76:62|43:66,1,50,8|0,0:0|0:0,0:0:0:0:
219,226,227206,2,0,L|317:215,1,50,8|0,0:0|0:0,0:0:0:0:
325,150,227435,2,0,L|227:139,1,50,2|0,0:0|0:0,0:0:0:0:
221,62,227664,2,0,L|319:51,1,50,2|0,0:0|0:0,0:0:0:0:
349,39,227893,2,0,P|347:63|338:86,1,50,2|0,0:0|0:0,0:0:0:0:
443,109,228122,2,0,P|424:125|401:135,1,50,2|0,0:0|0:0,0:0:0:0:
447,317,228351,2,0,P|422:315|399:306,1,50,2|0,0:0|0:0,0:0:0:0:
450,200,228580,2,0,L|444:249,1,50,2|0,0:0|0:0,0:0:0:0:
340,164,228809,6,0,P|333:191|335:218,1,55.0000016784668,2|0,0:0|0:0,0:0:0:0:
507,96,229038,2,0,L|502:151,1,55.0000016784668,8|0,0:0|0:0,0:0:0:0:
273,51,229267,2,0,L|278:106,1,55.0000016784668,2|0,0:0|0:0,0:0:0:0:
334,217,229496,2,0,P|336:245|329:272,1,55.0000016784668,8|0,0:0|0:0,0:0:0:0:
222,341,229725,2,0,L|217:286,1,55.0000016784668,2|0,0:0|0:0,0:0:0:0:
148,252,229954,2,0,P|166:230|190:216,1,55.0000016784668,2|0,0:0|0:0,0:0:0:0:
386,169,230183,2,0,P|367:190|343:204,1,55.0000016784668,2|0,0:0|0:0,0:0:0:0:
172,151,230412,2,0,P|200:149|227:156,1,55.0000016784668,2|0,0:0|0:0,0:0:0:0:
366,266,230641,2,0,P|337:267|310:261,1,55.0000016784668,2|0,0:0|0:0,0:0:0:0:
247,96,230870,102,0,P|263:65|261:18,1,59.9999981689454,8|0,0:0|0:0,0:0:0:0:
179,59,231099,2,0,L|193:-19,1,59.9999981689454,2|2,0:0|0:0,0:0:0:0:
80,59,231328,2,0,L|66:-19,1,59.9999981689454,8|0,0:0|0:0,0:0:0:0:
18,114,231557,2,0,P|2:83|4:36,1,59.9999981689454,8|0,0:0|0:0,0:0:0:0:
103,165,231786,2,0,P|99:194|84:220,1,59.9999981689454,8|0,0:0|0:0,0:0:0:0:
0,303,232015,2,0,P|28:294|52:276,1,59.9999981689454,2|0,0:0|0:0,0:0:0:0:
233,209,232244,5,2,0:0:0:0:
287,183,232359,1,2,0:0:0:0:
343,216,232473,1,2,0:0:0:0:
378,279,232588,1,2,0:0:0:0:
345,349,232702,102,0,P|306:360|251:347,1,59.9999981689454,8|0,0:0|0:0,0:0:0:0:
171,248,232931,2,0,B|148:200|181:153|181:153|208:102|156:38,1,179.999994506836,2|0,0:0|0:0,0:0:0:0:
56,25,233389,2,0,P|83:37|113:40,1,59.9999981689454,2|0,0:0|0:0,0:0:0:0:
327,5,233618,2,0,P|279:81|435:131,1,299.999990844727,8|0,0:0|0:0,0:0:0:0:
483,25,234305,2,0,P|471:52|468:82,1,59.9999981689454,2|0,0:0|0:0,0:0:0:0:
474,320,234534,6,0,L|360:300,1,59.9999981689454,8|0,0:0|0:0,0:0:0:0:
260,271,234763,2,0,L|374:251,1,59.9999981689454,8|0,0:0|0:0,0:0:0:0:
512,233,234992,2,0,L|398:213,1,59.9999981689454,8|0,0:0|0:0,0:0:0:0:
210,201,235221,2,0,L|324:181,1,59.9999981689454,8|0,0:0|0:0,0:0:0:0:
356,97,235450,1,8,0:0:0:0:
214,24,235679,85,2,0:0:0:0:
154,13,235794,1,0,0:0:0:0:
111,34,235908,1,2,0:0:0:0:
93,65,236023,1,0,0:0:0:0:
97,88,236137,1,0,0:0:0:0:
118,99,236252,1,0,0:0:0:0:
130,73,236366,6,0,B|76:130|113:198|113:198|159:198|156:146,1,194.999991073609,8|0,0:0|0:0,0:0:0:0:
275,26,236824,2,0,P|288:55|291:87,1,64.9999970245363,2|0,0:0|0:0,0:0:0:0:
237,288,237053,2,0,P|223:258|220:226,1,64.9999970245363,2|0,0:0|0:0,0:0:0:0:
422,91,237282,1,2,0:0:0:0:
455,111,237397,1,2,0:0:0:0:
466,154,237511,1,2,0:0:0:0:
456,205,237626,1,2,0:0:0:0:
406,235,237740,1,10,0:0:0:0:
343,215,237855,1,10,0:0:0:0:
271,211,237969,1,10,0:0:0:0:
203,250,238084,1,10,0:0:0:0:
215,333,238198,5,4,0:0:0:0:
286,287,238313,1,10,0:0:0:0:
271,211,238427,1,10,0:0:0:0:
217,163,238542,1,10,0:0:0:0:
152,161,238656,1,10,0:0:0:0:
97,183,238771,1,2,0:0:0:0:
45,183,238885,1,2,0:0:0:0:
13,150,239000,1,2,0:0:0:0:
15,111,239114,37,8,0:0:0:0:
28,80,239229,1,8,0:0:0:0:
51,103,239343,1,8,0:0:0:0:
22,282,239572,6,0,P|53:276|82:260,1,64.9999970245363,2|0,0:0|0:0,0:0:0:0:
154,135,239801,2,0,P|142:165|142:197,1,64.9999970245363,2|0,0:0|0:0,0:0:0:0:
251,312,240030,2,0,B|301:333|346:304|346:304|400:269|463:297|464:344|431:366|381:372|344:325,1,324.999985122681,8|0,0:0|0:0,0:0:0:0:
435,231,240717,2,0,P|464:244|487:267,1,64.9999970245363,2|0,0:0|0:0,0:0:0:0:
290,248,240946,1,2,0:0:0:0:
264,218,241061,1,2,0:0:0:0:
246,176,241175,1,2,0:0:0:0:
250,123,241290,1,2,0:0:0:0:
285,77,241404,1,10,0:0:0:0:
348,60,241519,1,10,0:0:0:0:
413,88,241633,1,10,0:0:0:0:
427,164,241748,1,10,0:0:0:0:
364,221,241863,5,4,0:0:0:0:
331,143,241977,1,10,0:0:0:0:
259,112,242092,1,10,0:0:0:0:
189,125,242206,1,10,0:0:0:0:
143,172,242321,1,10,0:0:0:0:
133,229,242435,1,2,0:0:0:0:
169,265,242550,1,2,0:0:0:0:
212,276,242664,1,2,0:0:0:0:
246,256,242779,5,8,0:0:0:0:
259,225,242894,1,8,0:0:0:0:
226,225,243008,1,8,0:0:0:0:
348,326,243237,6,0,P|360:296|360:264,1,64.9999970245363,2|0,0:0|0:0,0:0:0:0:
211,148,243466,2,0,P|210:115|222:85,1,64.9999970245363,2|0,0:0|0:0,0:0:0:0:
408,38,243695,2,0,B|450:17|497:55|497:55|447:117|389:79|389:79|340:37|265:70,1,324.999985122681,8|0,0:0|0:0,0:0:0:0:
285,218,244382,2,0,P|309:195|321:165,1,64.9999970245363,2|0,0:0|0:0,0:0:0:0:
126,87,244611,1,2,0:0:0:0:
100,116,244725,1,2,0:0:0:0:
88,160,244840,1,2,0:0:0:0:
98,210,244954,1,2,0:0:0:0:
141,249,245069,1,10,0:0:0:0:
205,249,245183,1,10,0:0:0:0:
258,200,245298,1,10,0:0:0:0:
272,123,245412,1,10,0:0:0:0:
218,57,245527,5,4,0:0:0:0:
296,25,245641,1,10,0:0:0:0:
372,43,245756,1,10,0:0:0:0:
409,103,245870,1,10,0:0:0:0:
402,167,245985,1,10,0:0:0:0:
355,202,246099,1,2,0:0:0:0:
340,252,246214,1,2,0:0:0:0:
342,297,246328,1,2,0:0:0:0:
361,331,246443,37,8,0:0:0:0:
385,353,246558,1,8,0:0:0:0:
397,323,246672,6,0,L|305:315,1,64.9999970245363,8|0,0:0|0:0,0:0:0:0:
219,362,246901,2,0,L|159:291,1,64.9999970245363,8|0,0:0|0:0,0:0:0:0:
64,303,247130,2,0,L|71:211,1,64.9999970245363,2|0,0:0|0:0,0:0:0:0:
256,192,247359,1,8,0:0:0:0:
256,192,247588,1,0,0:0:0:0:
270,210,247817,21,0,0:0:0:0:
275,178,247932,1,0,0:0:0:0:
243,173,248046,1,0,0:0:0:0:
238,205,248161,1,0,0:0:0:0:
277,219,248275,69,2,0:0:0:0:
284,171,248390,1,2,0:0:0:0:
236,164,248504,1,2,0:0:0:0:
229,212,248619,1,2,0:0:0:0:
287,233,248734,37,8,0:0:0:0:
298,161,248848,1,8,0:0:0:0:
226,150,248963,1,8,0:0:0:0:
215,222,249077,1,8,0:0:0:0:
270,214,249191,69,8,0:0:0:0:
270,169,249306,1,0,0:0:0:0:
230,192,249421,1,0,0:0:0:0:
276,226,249650,1,8,0:0:0:0:
276,157,249764,1,0,0:0:0:0:
217,192,249879,1,0,0:0:0:0:
286,243,250108,1,8,0:0:0:0:
286,140,250222,1,0,0:0:0:0:
197,192,250337,1,0,0:0:0:0:
301,268,250565,1,8,0:0:0:0:
301,115,250680,1,0,0:0:0:0:
168,192,250794,6,0,P|150:230|156:276,1,64.9999970245363,2|0,0:0|0:0,0:0:0:0:
243,371,251023,2,0,P|219:336|176:318,1,64.9999970245363,8|0,0:0|0:0,0:0:0:0:
88,292,251252,2,0,L|16:310,1,64.9999970245363
62,368,251481,2,0,L|134:386,1,64.9999970245363
283,290,251710,6,0,P|280:257|264:229,1,64.9999970245363
142,114,251939,2,0,P|165:148|208:166,1,64.9999970245363,2|0,0:0|0:0,0:0:0:0:
292,75,252168,2,0,L|220:93,1,64.9999970245363,2|0,0:0|0:0,0:0:0:0:
65,25,252397,2,0,L|128:9,1,64.9999970245363,2|0,0:0|0:0,0:0:0:0:
247,15,252626,2,0,P|218:30|186:33,1,64.9999970245363
0,0,252855,22,0,P|15:28|18:60,1,64.9999970245363,8|0,0:0|0:0,0:0:0:0:
110,113,253084,2,0,L|94:176,1,64.9999970245363,8|0,0:0|0:0,0:0:0:0:
185,238,253313,2,0,L|129:271,1,64.9999970245363,8|0,0:0|0:0,0:0:0:0:
137,363,253542,2,0,L|73:347,1,64.9999970245363,8|0,0:0|0:0,0:0:0:0:
250,190,253771,1,2,0:0:0:0:
264,172,253885,1,2,0:0:0:0:
274,191,254000,2,0,L|258:254,1,64.9999970245363,2|0,0:0|0:0,0:0:0:0:
216,122,254229,6,0,P|244:106|276:103,1,64.9999970245363
291,20,254458,2,0,P|322:28|346:49,1,64.9999970245363
386,236,254687,2,0,P|370:207|367:175,1,64.9999970245363,8|0,0:0|0:0,0:0:0:0:
449,118,254916,2,0,L|433:181,1,64.9999970245363
512,227,255145,2,0,L|456:260,1,64.9999970245363,2|0,0:0|0:0,0:0:0:0:
353,365,255374,2,0,P|386:362|414:346,1,64.9999970245363,2|0,0:0|0:0,0:0:0:0:
475,290,255603,2,0,L|412:274,1,64.9999970245363,2|0,0:0|0:0,0:0:0:0:
485,166,255832,2,0,L|430:199,1,64.9999970245363,2|0,0:0|0:0,0:0:0:0:
366,26,256061,2,0,L|351:89,1,64.9999970245363,2|0,0:0|0:0,0:0:0:0:
286,195,256290,54,0,P|288:162|304:134,1,64.9999970245363
428,107,256519,2,0,P|411:134|385:153,1,64.9999970245363,8|0,0:0|0:0,0:0:0:0:
261,76,256748,2,0,L|197:60,1,64.9999970245363
193,191,256977,2,0,L|175:128,1,64.9999970245363,8|0,0:0|0:0,0:0:0:0:
350,89,257206,2,0,L|304:135,1,64.9999970245363,8|0,0:0|0:0,0:0:0:0:
117,282,257435,1,2,0:0:0:0:
99,268,257549,1,2,0:0:0:0:
118,258,257664,2,0,L|181:273,1,64.9999970245363,2|0,0:0|0:0,0:0:0:0:
241,321,257893,6,0,P|256:292|259:260,1,64.9999970245363
173,208,258122,2,0,P|175:175|191:147,1,64.9999970245363
312,179,258351,2,0,L|247:191,1,64.9999970245363,8|0,0:0|0:0,0:0:0:0:
127,159,258580,2,0,L|190:147,1,64.9999970245363,2|0,0:0|0:0,0:0:0:0:
314,102,258809,2,0,L|377:119,1,64.9999970245363,2|0,0:0|0:0,0:0:0:0:
389,223,259038,2,0,L|327:207,1,64.9999970245363,2|0,0:0|0:0,0:0:0:0:
281,312,259267,2,0,L|230:270,1,64.9999970245363
140,105,259496,2,0,L|190:146,1,64.9999970245363
172,322,259725,22,0,P|152:296|146:264,1,64.9999970245363,2|0,0:0|0:0,0:0:0:0:
165,89,259954,2,0,P|185:114|190:145,1,64.9999970245363,2|0,0:0|0:0,0:0:0:0:
354,60,260183,2,0,L|342:123,1,64.9999970245363,8|0,0:0|0:0,0:0:0:0:
189,145,260412,2,0,L|225:198,1,64.9999970245363,2|0,0:0|0:0,0:0:0:0:
196,270,260641,2,0,L|259:281,1,64.9999970245363
313,330,260870,2,0,P|328:301|331:269,1,64.9999970245363
196,168,261099,1,2,0:0:0:0:
178,154,261213,1,2,0:0:0:0:
197,144,261328,2,0,L|260:155,1,64.9999970245363,2|0,0:0|0:0,0:0:0:0:
119,200,261557,6,0,P|103:171|100:139,1,64.9999970245363,2|0,0:0|0:0,0:0:0:0:
28,131,261786,2,0,P|36:99|57:75,1,64.9999970245363,2|0,0:0|0:0,0:0:0:0:
247,25,262015,2,0,L|183:36,1,64.9999970245363
263,116,262244,2,0,L|198:105,1,64.9999970245363
40,8,262473,2,0,L|103:19,1,64.9999970245363,2|0,0:0|0:0,0:0:0:0:
0,160,262702,2,0,L|64:149,1,64.9999970245363,2|0,0:0|0:0,0:0:0:0:
146,209,262931,54,0,P|161:180|164:148,1,64.9999970245363,8|0,0:0|0:0,0:0:0:0:
199,277,263160,2,0,P|214:305|217:337,1,64.9999970245363,8|0,0:0|0:0,0:0:0:0:
283,97,263389,2,0,P|280:64|264:36,1,64.9999970245363,8|0,0:0|0:0,0:0:0:0:
346,324,263618,2,0,P|343:356|327:384,1,64.9999970245363,8|0,0:0|0:0,0:0:0:0:
195,192,263847,22,0,L|135:179,2,50,2|0|0,0:0|0:0|0:0,0:0:0:0:
285,139,264305,2,0,L|327:93,2,50,2|0|0,0:0|0:0|0:0,0:0:0:0:
286,243,264763,2,0,L|305:303,2,50,2|0|0,0:0|0:0|0:0,0:0:0:0:
232,293,265221,6,0,P|216:265|214:233,1,64.9999970245363,2|0,0:0|0:0,0:0:0:0:
285,139,265450,2,0,P|300:167|303:199,1,64.9999970245363,2|0,0:0|0:0,0:0:0:0:
225,319,265679,6,0,P|249:339|280:348,1,64.9999970245363
296,107,265908,2,0,P|271:85|240:77,1,64.9999970245363,8|0,0:0|0:0,0:0:0:0:
107,270,266137,2,0,L|125:175,1,64.9999970245363
357,332,266366,54,0,P|354:299|338:271,1,64.9999970245363,8|0,0:0|0:0,0:0:0:0:
221,205,266595,2,0,P|251:218|283:219,1,64.9999970245363,2|0,0:0|0:0,0:0:0:0:
296,107,266824,2,0,L|350:186,1,64.9999970245363,2|0,0:0|0:0,0:0:0:0:
425,85,267053,2,0,L|406:180,1,64.9999970245363,2|0,0:0|0:0,0:0:0:0:
484,306,267282,6,0,P|487:265|465:210,1,64.9999970245363,8|0,0:0|0:0,0:0:0:0:
341,39,267511,2,0,B|300:14|243:41|243:41|195:64|134:37,1,194.999991073609,2|0,0:0|0:0,0:0:0:0:
81,16,267969,2,0,L|99:111,1,64.9999970245363
43,329,268198,2,0,P|73:315|105:314,1,64.9999970245363,8|0,0:0|0:0,0:0:0:0:
209,358,268427,1,0,0:0:0:0:
202,332,268542,1,0,0:0:0:0:
277,295,268656,1,2,0:0:0:0:
270,321,268771,1,0,0:0:0:0:
213,268,268885,22,0,P|229:239|255:220,1,64.9999970245363,2|0,0:0|0:0,0:0:0:0:
339,338,269114,2,0,P|322:366|296:385,1,64.9999970245363,2|0,0:0|0:0,0:0:0:0:
67,335,269343,2,0,P|50:306|47:274,1,64.9999970245363,8|0,0:0|0:0,0:0:0:0:
128,214,269572,2,0,L|109:309,1,64.9999970245363
109,150,269801,2,0,P|142:150|171:163,1,64.9999970245363
290,328,270030,2,0,P|323:327|352:314,1,64.9999970245363,8|0,0:0|0:0,0:0:0:0:
415,154,270259,2,0,P|381:154|352:167,1,64.9999970245363
487,186,270488,2,0,L|474:122,1,64.9999970245363,2|0,0:0|0:0,0:0:0:0:
387,282,270717,2,0,L|399:218,1,64.9999970245363,8|0,0:0|0:0,0:0:0:0:
460,47,270946,6,0,P|434:67|403:75,1,64.9999970245363,2|0,0:0|0:0,0:0:0:0:
208,17,271175,2,0,B|245:62|205:127|205:127|132:220|230:288|292:237|300:170,1,324.999985122681,8|0,0:0|0:0,0:0:0:0:
304,97,271863,1,2,0:0:0:0:
321,115,271977,1,0,0:0:0:0:
344,103,272092,1,0,0:0:0:0:
361,121,272206,1,0,0:0:0:0:
421,71,272321,2,0,L|433:7,1,64.9999970245363,8|0,0:0|0:0,0:0:0:0:
496,155,272550,54,0,P|487:186|468:211,1,64.9999970245363,2|0,0:0|0:0,0:0:0:0:
211,188,272779,2,0,P|238:204|270:208,1,64.9999970245363,8|0,0:0|0:0,0:0:0:0:
356,81,273008,2,0,L|368:145,1,64.9999970245363,2|0,0:0|0:0,0:0:0:0:
334,338,273237,2,0,L|346:274,1,64.9999970245363
250,76,273466,2,0,L|262:140,1,64.9999970245363,2|0,0:0|0:0,0:0:0:0:
451,210,273695,6,0,P|421:222|388:223,1,64.9999970245363,8|0,0:0|0:0,0:0:0:0:
213,153,273924,2,0,L|277:165,1,64.9999970245363
302,254,274153,2,0,L|238:242,1,64.9999970245363
166,94,274382,2,0,P|195:81|228:80,1,64.9999970245363,2|0,0:0|0:0,0:0:0:0:
353,311,274611,2,0,P|323:323|290:324,1,64.9999970245363,2|0,0:0|0:0,0:0:0:0:
89,220,274840,21,8,0:0:0:0:
104,199,274954,1,0,0:0:0:0:
53,137,275069,1,2,0:0:0:0:
97,131,275183,1,2,0:0:0:0:
80,102,275298,1,2,0:0:0:0:
124,108,275412,1,2,0:0:0:0:
226,100,275527,1,8,0:0:0:0:
216,75,275641,1,0,0:0:0:0:
161,39,275756,1,0,0:0:0:0:
143,25,275870,1,0,0:0:0:0:
162,15,275985,6,0,P|191:2|224:1,1,64.9999970245363,2|0,0:0|0:0,0:0:0:0:
82,130,276214,2,0,P|111:117|135:95,1,64.9999970245363,2|0,0:0|0:0,0:0:0:0:
171,267,276443,2,0,P|158:237|157:204,1,64.9999970245363,2|0,0:0|0:0,0:0:0:0:
305,20,276672,2,0,P|317:49|318:82,1,64.9999970245363,8|0,0:0|0:0,0:0:0:0:
261,129,276901,2,0,P|248:99|247:66,1,64.9999970245363
371,139,277130,2,0,L|359:203,1,64.9999970245363,8|0,0:0|0:0,0:0:0:0:
313,267,277359,2,0,P|342:279|375:280,1,64.9999970245363
467,171,277588,54,0,L|455:107,1,64.9999970245363,2|0,0:0|0:0,0:0:0:0:
499,256,277817,2,0,L|487:320,1,64.9999970245363,2|0,0:0|0:0,0:0:0:0:
344,106,278046,2,0,L|332:42,1,64.9999970245363,8|0,0:0|0:0,0:0:0:0:
392,321,278275,2,0,L|380:385,1,64.9999970245363,8|0,0:0|0:0,0:0:0:0:
242,214,278504,101,2,0:0:0:0:
242,169,278618,1,0,0:0:0:0:
282,192,278733,1,0,0:0:0:0:
236,226,278962,1,2,0:0:0:0:
236,157,279076,1,0,0:0:0:0:
295,192,279191,1,0,0:0:0:0:
226,243,279420,1,2,0:0:0:0:
226,140,279534,1,0,0:0:0:0:
315,192,279649,1,0,0:0:0:0:
211,268,279878,1,2,0:0:0:0:
211,115,279992,1,0,0:0:0:0:
344,192,280107,6,0,P|362:230|356:276,1,64.9999970245363,2|0,0:0|0:0,0:0:0:0:
256,353,280336,2,0,P|280:332|311:323,1,64.9999970245363,8|0,0:0|0:0,0:0:0:0:
447,361,280565,2,0,L|383:373,1,64.9999970245363
479,299,280794,2,0,L|415:287,1,64.9999970245363,2|0,0:0|0:0,0:0:0:0:
238,323,281023,6,0,P|259:299|268:268,1,64.9999970245363
187,191,281252,2,0,L|199:255,1,64.9999970245363,2|0,0:0|0:0,0:0:0:0:
286,95,281481,2,0,L|274:159,1,64.9999970245363
188,55,281710,2,0,L|134:91,1,64.9999970245363,2|0,0:0|0:0,0:0:0:0:
108,188,281939,22,0,P|76:179|52:157,1,64.9999970245363
146,27,282168,2,0,L|134:91,1,64.9999970245363,8|0,0:0|0:0,0:0:0:0:
286,95,282397,2,0,L|232:131,1,64.9999970245363,8|0,0:0|0:0,0:0:0:0:
311,250,282626,2,0,L|247:238,1,64.9999970245363,8|0,0:0|0:0,0:0:0:0:
385,187,282855,2,0,L|448:175,1,64.9999970245363,8|0,0:0|0:0,0:0:0:0:
349,312,283084,1,2,0:0:0:0:
335,330,283198,1,2,0:0:0:0:
325,311,283313,6,0,P|312:282|311:249,1,64.9999970245363,2|0,0:0|0:0,0:0:0:0:
207,224,283542,2,0,P|218:194|240:170,1,64.9999970245363,8|0,0:0|0:0,0:0:0:0:
194,93,283771,2,0,P|223:80|256:79,1,64.9999970245363,2|0,0:0|0:0,0:0:0:0:
322,222,284000,54,0,L|385:210,1,64.9999970245363,8|0,0:0|0:0,0:0:0:0:
422,288,284229,2,0,L|459:234,1,64.9999970245363
432,67,284458,2,0,P|419:97|418:130,1,64.9999970245363,2|0,0:0|0:0,0:0:0:0:
260,108,284687,2,0,P|283:131|313:143,1,64.9999970245363,2|0,0:0|0:0,0:0:0:0:
173,230,284916,2,0,L|236:242,1,64.9999970245363,8|0,0:0|0:0,0:0:0:0:
135,53,285145,2,0,L|72:65,1,64.9999970245363,8|0,0:0|0:0,0:0:0:0:
237,243,285374,2,0,P|224:213|223:180,1,64.9999970245363,2|0,0:0|0:0,0:0:0:0:
216,1,285603,2,0,P|215:33|201:62,1,64.9999970245363
91,220,285832,6,0,L|78:157,1,64.9999970245363,8|0,0:0|0:0,0:0:0:0:
166,189,286061,2,0,L|181:126,1,64.9999970245363
237,243,286290,2,0,L|277:193,1,64.9999970245363,2|0,0:0|0:0,0:0:0:0:
297,367,286519,2,0,L|354:339,1,64.9999970245363,2|0,0:0|0:0,0:0:0:0:
312,272,286748,2,0,L|381:264,1,64.9999970245363,2|0,0:0|0:0,0:0:0:0:
360,141,286977,2,0,L|438:157,1,64.9999970245363,2|0,0:0|0:0,0:0:0:0:
442,13,287206,38,0,P|455:42|456:74,1,64.9999970245363,2|0,0:0|0:0,0:0:0:0:
375,203,287435,2,0,P|361:173|360:141,1,64.9999970245363,2|0,0:0|0:0,0:0:0:0:
502,267,287664,2,0,L|439:254,1,64.9999970245363,8|0,0:0|0:0,0:0:0:0:
487,140,287893,2,0,L|424:153,1,64.9999970245363,2|0,0:0|0:0,0:0:0:0:
359,55,288122,2,0,L|347:117,1,64.9999970245363,2|0,0:0|0:0,0:0:0:0:
276,230,288351,2,0,P|252:252|222:263,1,64.9999970245363,8|0,0:0|0:0,0:0:0:0:
145,228,288580,2,0,P|168:205|198:194,1,64.9999970245363,8|0,0:0|0:0,0:0:0:0:
120,106,288809,2,0,L|183:118,1,64.9999970245363,2|0,0:0|0:0,0:0:0:0:
263,24,289038,102,0,P|276:53|277:85,1,64.9999970245363,8|0,0:0|0:0,0:0:0:0:
451,139,289267,2,0,P|431:165|404:182,1,64.9999970245363,2|0,0:0|0:0,0:0:0:0:
172,291,289496,2,0,L|235:303,1,64.9999970245363,8|0,0:0|0:0,0:0:0:0:
322,382,289725,2,0,L|375:345,1,64.9999970245363
449,384,289954,2,0,L|461:321,1,64.9999970245363,2|0,0:0|0:0,0:0:0:0:
430,290,290183,2,0,L|442:353,1,64.9999970245363,2|0,0:0|0:0,0:0:0:0:
485,230,290412,1,2,0:0:0:0:
503,244,290526,1,2,0:0:0:0:
485,262,290641,70,0,P|455:261|422:246,1,64.9999970245363,2|0,0:0|0:0,0:0:0:0:
343,57,290870,2,0,P|357:83|360:119,1,64.9999970245363,8|0,0:0|0:0,0:0:0:0:
352,219,291099,2,0,P|367:193|397:172,1,64.9999970245363,2|0,0:0|0:0,0:0:0:0:
363,369,291328,6,0,L|300:356,1,64.9999970245363,2|0,0:0|0:0,0:0:0:0:
198,309,291557,2,0,L|261:296,1,64.9999970245363,2|0,0:0|0:0,0:0:0:0:
427,267,291786,2,0,L|364:254,1,64.9999970245363,2|0,0:0|0:0,0:0:0:0:
135,196,292015,2,0,L|198:183,1,64.9999970245363,2|0,0:0|0:0,0:0:0:0:
366,0,292244,22,0,L|353:63,1,64.9999970245363,8|0,0:0|0:0,0:0:0:0:
146,384,292473,2,0,L|159:321,1,64.9999970245363,8|0,0:0|0:0,0:0:0:0:
146,0,292702,2,0,L|159:63,1,64.9999970245363,8|0,0:0|0:0,0:0:0:0:
366,384,292931,2,0,L|353:321,1,64.9999970245363,8|0,0:0|0:0,0:0:0:0:
211,116,293160,101,2,0:0:0:0:
211,269,293274,1,0,0:0:0:0:
344,192,293389,1,0,0:0:0:0:
226,141,293618,1,2,0:0:0:0:
226,244,293732,1,0,0:0:0:0:
315,192,293847,1,0,0:0:0:0:
236,158,294076,1,2,0:0:0:0:
236,227,294190,1,0,0:0:0:0:
295,192,294305,1,0,0:0:0:0:
242,170,294534,1,2,0:0:0:0:
242,215,294648,1,0,0:0:0:0:
282,192,294763,1,0,0:0:0:0:
256,192,294992,85,8,0:0:0:0:
419,39,295679,5,0,0:0:0:0:
418,54,295794,1,0,0:0:0:0:
417,68,295908,1,0,0:0:0:0:
361,110,296137,1,0,0:0:0:0:
447,232,296366,1,0,0:0:0:0:
220,125,296595,1,0,0:0:0:0:
498,12,296824,101,8,0:0:0:0:
494,41,297053,1,0,0:0:0:0:
490,70,297282,1,0,0:0:0:0:
465,52,297511,1,0,0:0:0:0:
165,61,297740,5,8,0:0:0:0:
234,74,297969,1,0,0:0:0:0:
26,290,298198,101,8,0:0:0:0:
124,270,298427,1,0,0:0:0:0:
273,137,298656,5,8,0:0:0:0:
237,230,298885,1,0,0:0:0:0:
242,254,299000,1,0,0:0:0:0:
247,278,299114,1,0,0:0:0:0:
390,233,299343,101,0,0:0:0:0:
407,161,299457,1,0,0:0:0:0:
421,87,299572,1,0,0:0:0:0:
344,23,299801,1,0,0:0:0:0:
495,153,300030,1,0,0:0:0:0:
249,202,300259,1,0,0:0:0:0:
477,7,300488,1,0,0:0:0:0:
168,58,300717,5,8,0:0:0:0:
76,99,300946,1,8,0:0:0:0:
35,243,301175,1,8,0:0:0:0:
195,362,301404,1,8,0:0:0:0:
276,303,301633,1,8,0:0:0:0:
120,45,301863,5,4,0:0:0:0:
400,150,302092,1,4,0:0:0:0:
137,296,302321,6,0,L|205:287,1,50,2|0,0:0|0:0,0:0:0:0:
253,214,302550,2,0,L|185:205,1,50
143,127,302779,2,0,L|211:118,1,50
341,175,303008,1,2,0:0:0:0:
349,198,303122,1,2,0:0:0:0:
354,222,303237,2,0,L|347:271,1,50,8|0,0:0|0:0,0:0:0:0:
424,183,303466,2,0,L|417:133,1,50
281,281,303695,2,0,L|274:330,1,50,8|0,0:0|0:0,0:0:0:0:
497,314,303924,2,0,L|490:264,1,50,8|0,0:0|0:0,0:0:0:0:
382,43,304153,6,0,L|375:92,1,50,8|0,0:0|0:0,0:0:0:0:
246,60,304382,2,0,L|276:99,1,50
185,161,304611,2,0,L|234:167,1,50,8|0,0:0|0:0,0:0:0:0:
234,254,304840,2,0,L|273:223,1,50
381,153,305069,2,0,L|387:202,1,50,2|0,0:0|0:0,0:0:0:0:
300,346,305298,2,0,L|306:296,1,50
366,168,305527,2,0,L|372:217,1,50,2|0,0:0|0:0,0:0:0:0:
316,331,305756,2,0,L|322:281,1,50
200,361,305985,54,0,L|150:367,1,50,8|0,0:0|0:0,0:0:0:0:
0,269,306214,2,0,L|49:275,1,50,8|0,0:0|0:0,0:0:0:0:
87,337,306443,2,0,L|37:343,1,50
0,165,306672,1,2,0:0:0:0:
13,144,306786,1,2,0:0:0:0:
29,124,306901,2,0,L|78:117,1,50,8|0,0:0|0:0,0:0:0:0:
194,194,307130,2,0,L|144:187,1,50
194,11,307359,2,0,L|243:4,1,50,8|0,0:0|0:0,0:0:0:0:
355,148,307588,2,0,L|305:141,1,50,8|0,0:0|0:0,0:0:0:0:
194,11,307817,6,0,L|200:60,1,50,8|0,0:0|0:0,0:0:0:0:
132,54,308046,2,0,L|138:103,1,50
304,13,308275,2,0,L|297:62,1,50,8|0,0:0|0:0,0:0:0:0:
423,72,308504,2,0,L|416:121,1,50
213,225,308733,22,0,L|163:231,1,50,2|0,0:0|0:0,0:0:0:0:
299,159,308962,2,0,L|348:152,1,50
213,159,309191,2,0,L|163:152,1,50,2|0,0:0|0:0,0:0:0:0:
299,225,309420,2,0,L|348:231,1,50
256,112,309649,70,0,L|256:32,1,50,8|0,0:0|0:0,0:0:0:0:
256,272,309874,2,0,L|256:352,1,50
336,192,310100,6,0,L|400:192,1,50,2|0,0:0|0:0,0:0:0:0:
176,192,310323,2,0,L|112:192,1,50,2|0,0:0|0:0,0:0:0:0:
336,112,310547,22,0,L|336:32,1,50,2|0,0:0|0:0,0:0:0:0:
336,272,310772,2,0,L|336:352,1,50
176,112,310998,6,0,L|176:32,1,50,2|0,0:0|0:0,0:0:0:0:
176,272,311218,2,0,L|176:336,1,50
336,192,311439,86,0,L|278:192,1,50,2|0,0:0|0:0,0:0:0:0:
176,192,311669,2,0,L|240:192,1,50
256,272,311900,70,0,L|256:208,1,50,2|0,0:0|0:0,0:0:0:0:
256,112,312131,2,0,L|256:176,1,50
256,192,312362,37,8,0:0:0:0:
284,224,312612,70,0,L|220:224,1,50,2|0,0:0|0:0,0:0:0:0:
214,200,312835,2,0,L|244:145,1,50,2|0,0:0|0:0,0:0:0:0:
269,156,313071,2,0,L|301:212,1,50,2|0,0:0|0:0,0:0:0:0:
130,66,313338,85,8,0:0:0:0:
378,305,314390,5,2,0:0:0:0:
132,251,315056,101,2,0:0:0:0:
310,61,315701,5,4,0:0:0:0:
256,192,315862,12,0,318443,0:0:0:0:
