osu file format v14

[General]
AudioFilename: audio.mp3
AudioLeadIn: 0
PreviewTime: 331668
Countdown: 0
SampleSet: Soft
StackLeniency: 0.5
Mode: 0
LetterboxInBreaks: 0
WidescreenStoryboard: 0

[Editor]
Bookmarks: 309992
DistanceSpacing: 1.7
BeatDivisor: 4
GridSize: 32
TimelineZoom: 2.1

[Metadata]
Title:Karakurenai no Kage
TitleUnicode:からくれなゐの影
Artist:Diao Ye Zong feat. Meramipop
ArtistUnicode:凋叶棕 feat. めらみぽっぷ
Creator:Melwoine
Version:Bon Odori
Source:東方非想天則 ~ 超弩級ギニョルの謎を追え.
Tags:RD-Sounds 東方project 求 The Crimson Shadow アンノウンX ~ Unfound Adventure Japanese Touhou
BeatmapID:2176942
BeatmapSetID:1041603

[Difficulty]
HPDrainRate:5
CircleSize:4
OverallDifficulty:9
ApproachRate:9.3
SliderMultiplier:1.4
SliderTickRate:1

[Events]
//Background and Video events
0,0,"BG-Higher res.jpg",0,0
//Break Periods
2,174182,177590
2,310136,320480
//Storyboard Layer 0 (Background)
//Storyboard Layer 1 (Fail)
//Storyboard Layer 2 (Pass)
//Storyboard Layer 3 (Foreground)
//Storyboard Layer 4 (Overlay)
//Storyboard Sound Samples

[TimingPoints]
1950,346.820809248555,4,2,1,80,1,0
9233,388.349514563107,4,2,1,80,1,0
9621,346.820809248555,4,2,1,80,1,0
10285,346.820809248555,4,2,1,80,1,0
13058,346.820809248555,4,2,1,80,1,0
25196,-100,4,2,1,30,0,0
25543,-100,4,2,3,30,0,0
29011,-100,4,2,1,70,0,0
30052,-100,4,2,1,5,0,0
30399,-100,4,2,1,70,0,0
31005,-100,4,2,1,5,0,0
31092,-100,4,2,1,70,0,0
31439,-100,4,2,1,5,0,0
31786,-100,4,2,1,70,0,0
32306,-100,4,2,1,5,0,0
32479,-100,4,2,1,70,0,0
32826,-100,4,2,1,5,0,0
33173,-100,4,2,1,70,0,0
33347,-100,4,2,1,5,0,0
33867,-100,4,2,1,70,0,0
34907,-100,4,2,1,40,0,0
35081,-100,4,2,3,40,0,0
40110,-100,4,2,1,70,0,0
42017,-100,4,2,1,5,0,0
42190,-100,4,2,1,70,0,0
42537,-100,4,2,1,5,0,0
42884,-100,4,2,1,70,0,0
43404,-100,4,2,1,5,0,0
43578,-100,4,2,1,70,0,0
43925,-100,4,2,1,5,0,0
44271,-100,4,2,1,70,0,0
44445,-100,4,2,1,5,0,0
44965,-100,4,2,1,70,0,0
46873,-100,4,2,1,5,0,0
47046,-100,4,2,3,45,0,0
50514,-52.6315789473684,4,2,1,80,0,0
51901,-41.6666666666667,4,2,1,80,0,0
57277,-100,4,2,1,80,0,0
57451,-45.4545454545455,4,2,1,80,0,0
60225,-41.6666666666667,4,2,1,80,0,0
62133,-66.6666666666667,4,2,1,80,0,0
62306,-45.4545454545455,4,2,1,80,0,0
63347,-66.6666666666667,4,2,1,80,0,0
67162,-50,4,2,1,80,0,0
68549,-100,4,2,2,70,0,0
72711,-66.6666666666667,4,2,2,70,0,0
74098,-100,4,2,2,70,0,0
79300,-66.6666666666667,4,2,1,80,0,0
79647,-200,4,2,1,80,0,0
79994,-50,4,2,1,80,0,0
81034,-200,4,2,1,80,0,0
81381,-50,4,2,1,80,0,0
84676,-50,4,2,1,50,0,0
85196,-58.8235294117647,4,2,1,80,0,0
96294,-58.8235294117647,4,2,2,70,0,0
96641,-100,4,2,2,70,0,0
97682,-100,4,2,2,70,0,0
104358,-100,4,2,2,5,0,0
104445,-100,4,2,2,70,0,0
107393,-100,4,2,2,80,0,0
110167,-100,4,2,1,55,0,0
112595,-200,4,2,1,80,0,0
113289,-45.4545454545455,4,2,1,80,0,0
114329,-200,4,2,1,80,0,0
114676,-47.6190476190476,4,2,1,80,0,0
117451,-66.6666666666667,4,2,1,80,0,0
117797,-50,4,2,1,80,0,0
118491,-38.4615384615385,4,2,1,80,0,1
139474,-38.4615384615385,4,3,3,60,0,1
139647,-38.4615384615385,4,3,4,60,0,1
139821,-38.4615384615385,4,3,5,60,0,1
139994,-100,4,2,1,80,0,1
140341,-52.6315789473684,4,2,1,80,0,1
140688,-40,4,2,1,80,0,1
151092,-38.4615384615385,4,3,3,60,0,1
151265,-38.4615384615385,4,3,4,60,0,1
151439,-38.4615384615385,4,3,5,60,0,1
151612,-38.4615384615385,4,3,6,60,0,1
151786,-41.6666666666667,4,2,1,80,0,1
162884,-52.6315789473684,4,2,1,80,0,0
164271,-45.4545454545455,4,2,1,80,0,0
164618,-52.6315789473684,4,2,1,80,0,0
165659,-45.4545454545455,4,2,1,80,0,0
166005,-52.6315789473684,4,2,1,80,0,0
179011,-100,4,2,1,65,0,0
179531,-100,4,2,2,70,0,0
190977,-50,4,2,1,80,0,0
192017,-142.857142857143,4,2,1,80,0,0
192364,-45.4545454545455,4,2,1,80,0,0
193404,-142.857142857143,4,2,1,80,0,0
193751,-45.4545454545455,4,2,1,80,0,0
195485,-45.4545454545455,4,2,1,55,0,0
196352,-45.4545454545455,4,2,2,80,0,0
197913,-62.5,4,2,2,80,0,0
207277,-62.5,4,2,2,65,0,0
207624,-100,4,2,2,65,0,0
207971,-62.5,4,2,2,65,0,0
215601,-100,4,2,2,65,0,0
218375,-100,4,2,2,80,0,0
222537,-100,4,2,2,55,0,0
223578,-100,4,2,2,80,0,0
224271,-45.4545454545455,4,2,1,60,0,0
229474,-40,4,2,1,80,0,1
250456,-38.4615384615385,4,3,3,60,0,1
250629,-38.4615384615385,4,3,4,60,0,1
250803,-38.4615384615385,4,3,5,60,0,1
250976,-40,4,2,1,80,0,1
273867,-66.6666666666667,4,2,1,80,0,0
275254,-55.5555555555556,4,2,1,80,0,0
276121,-66.6666666666667,4,2,1,80,0,0
278029,-52.6315789473684,4,2,1,80,0,0
278375,-62.5,4,2,1,80,0,0
281497,-66.6666666666667,4,2,1,80,0,0
282364,-100,4,2,1,80,0,0
286352,-50,4,3,3,60,0,0
286612,-50,4,3,4,60,0,0
286873,-50,4,3,5,60,0,0
287046,-50,4,2,1,80,0,0
288086,-41.6666666666667,4,2,4,80,0,0
288780,-47.6190476190476,4,2,1,80,0,0
289127,-47.6190476190476,4,2,4,80,0,0
319994,-100,4,2,1,60,0,0
326063,-100,4,2,2,60,0,0
326584,-100,4,2,1,60,0,0
329358,-100,4,2,1,80,0,0
331439,-200,4,2,1,80,0,0
332133,-41.6666666666667,4,2,1,80,0,1
333520,-41.6666666666667,4,2,1,100,0,1
334734,-41.6666666666667,4,2,1,60,0,1
334907,-41.6666666666667,4,2,1,80,0,1
353115,-38.4615384615385,4,3,3,60,0,1
353288,-38.4615384615385,4,3,4,60,0,1
353462,-41.6666666666667,4,3,5,60,0,1
353635,-41.6666666666667,4,2,1,80,0,1
364734,-38.4615384615385,4,3,3,60,0,1
364907,-38.4615384615385,4,3,4,60,0,1
365254,-38.4615384615385,4,3,6,60,0,1
365427,-41.6666666666667,4,2,2,80,0,1
368896,-41.6666666666667,4,2,1,80,0,1
369589,-41.6666666666667,4,3,3,60,0,1
369676,-41.6666666666667,4,2,1,5,0,1
369821,-41.6666666666667,4,3,4,60,0,1
370052,-41.6666666666667,4,3,5,60,0,1
370283,-41.6666666666667,4,2,1,80,0,1
374965,-58.8235294117647,4,2,1,80,0,1
375832,-58.8235294117647,4,3,3,60,0,1
376005,-58.8235294117647,4,3,4,60,0,1
376179,-58.8235294117647,4,3,5,60,0,1
376352,-58.8235294117647,4,2,1,80,0,1
376526,-52.6315789473684,4,2,1,65,0,1
395948,-47.6190476190476,4,2,1,80,0,1
398722,-100,4,2,1,80,0,0
399069,-66.6666666666667,4,2,1,70,0,0
409821,-47.6190476190476,4,2,1,80,0,1
420919,-100,4,2,1,60,0,0
421612,-100,4,2,1,65,0,0
421786,-100,4,2,1,70,0,0
421959,-100,4,2,1,80,0,0
422133,-100,4,2,1,85,0,0
422479,-100,4,2,1,85,0,0
423000,-100,4,2,1,70,0,0
423520,-100,4,2,1,60,0,0
423693,-100,4,2,1,30,0,0
425427,-100,4,2,1,40,0,0
425774,-100,4,2,1,50,0,0
425948,-100,4,2,1,60,0,0
426121,-100,4,2,1,70,0,0
426294,-100,4,2,1,80,0,0
426468,357.142857142857,4,2,1,35,1,0
427538,-100,4,2,1,40,0,0
428610,382.165605095541,4,2,1,35,1,0
429756,394.736842105263,4,2,1,30,1,0
431334,419.58041958042,4,2,1,20,1,0
432592,419.58041958042,4,2,1,35,1,0
433010,-100,4,2,1,50,0,0
434269,-100,4,2,1,40,0,0
435108,-100,4,2,1,30,0,0
435947,-100,4,2,1,10,0,0
437625,-100,4,2,1,5,0,0

[Colours]
Combo1 : 188,158,131
Combo2 : 216,78,37
Combo3 : 111,81,142
Combo4 : 65,5,165

[HitObjects]
256,192,22768,12,0,25196,0:0:0:0:
46,248,25543,5,2,0:0:0:0:
122,259,25716,1,0,0:0:0:0:
168,320,25890,1,0,0:0:0:0:
329,374,26063,1,0,0:0:0:0:
185,309,26237,1,0,0:0:0:0:
300,369,26410,1,0,0:0:0:0:
259,254,26584,1,0,0:0:0:0:
259,254,26757,1,0,0:0:0:0:
259,254,26930,5,2,0:0:0:0:
339,360,27104,1,0,0:0:0:0:
414,257,27277,1,0,0:0:0:0:
337,281,27451,1,0,0:0:0:0:
376,160,27624,1,0,0:0:0:0:
322,209,27797,1,0,0:0:0:0:
322,209,27971,1,0,0:0:0:0:
224,165,28144,1,0,0:0:0:0:
224,165,28318,5,2,0:0:0:0:
356,36,28491,1,0,0:0:0:0:
306,94,28664,1,0,0:0:0:0:
457,123,28838,1,0,0:0:0:0:
306,94,29011,6,0,P|232:88|143:87,1,140,4|0,3:0|0:0,0:0:0:0:
28,220,29705,6,0,P|47:134|62:55,1,140,4|0,0:3|0:0,0:0:0:0:
136,233,30399,2,0,P|147:306|301:375,1,245,4|0,0:3|0:0,0:0:0:0:
305,355,31092,6,0,L|317:196,1,140,4|0,0:3|0:0,0:0:0:0:
510,64,31786,2,0,P|410:94|390:202,1,210,4|0,0:3|0:0,0:0:0:0:
470,318,32479,6,0,L|487:162,1,140,4|0,0:3|0:0,0:0:0:0:
370,343,33173,2,0,L|284:321,1,70,4|0,0:3|0:0,0:0:0:0:
174,214,33867,6,0,P|35:241|193:335,1,420,4|0,0:3|0:0,0:0:0:0:
275,281,35081,1,0,0:0:0:0:
279,158,35254,6,0,L|269:73,1,70,2|0,0:0|0:0,0:0:0:0:
363,207,35601,2,0,L|446:225,2,70,0|0|0,0:0|0:0|0:0,0:0:0:0:
184,118,36121,1,0,0:0:0:0:
217,15,36294,1,0,0:0:0:0:
217,15,36468,1,0,0:0:0:0:
217,15,36641,6,0,P|162:27|129:33,1,70,2|0,0:0|0:0,0:0:0:0:
16,133,36988,2,0,P|23:99|29:65,2,70,0|0|0,0:0|0:0|0:0,0:0:0:0:
131,180,37508,1,0,0:0:0:0:
131,180,37682,2,0,P|165:197|198:210,1,70,0|0,0:0|0:0,0:0:0:0:
365,232,38029,6,0,P|375:164|357:83,1,140,2|0,0:0|0:0,0:0:0:0:
431,287,38549,1,0,0:0:0:0:
431,287,38722,1,0,0:0:0:0:
366,340,38896,1,0,0:0:0:0:
281,338,39069,1,0,0:0:0:0:
359,361,39242,1,0,0:0:0:0:
229,266,39416,6,0,P|156:267|86:295,1,140,2|0,0:0|0:0,0:0:0:0:
17,361,39936,1,0,0:0:0:0:
97,205,40110,2,0,P|90:162|81:118,1,70,4|0,0:3|0:0,0:0:0:0:
0,15,40456,2,0,P|29:48|68:82,1,70,0|0,0:0|0:0,0:0:0:0:
216,121,40803,5,4,0:3:0:0:
216,121,41497,2,0,P|188:194|239:337,1,210,4|0,0:3|0:0,0:0:0:0:
373,188,42190,6,0,P|286:206|307:259,1,140,4|0,0:3|0:0,0:0:0:0:
404,291,42884,2,0,P|455:253|450:106,1,210,4|0,0:3|0:0,0:0:0:0:
458,0,43578,6,0,L|420:157,1,140,4|0,0:3|0:0,0:0:0:0:
262,76,44271,2,0,L|354:67,1,70,4|0,0:3|0:0,0:0:0:0:
206,141,44965,6,0,P|84:156|171:368,1,420,4|0,0:3|0:0,0:0:0:0:
285,302,46179,1,0,0:0:0:0:
147,213,46352,6,0,P|131:284|196:228,1,210,4|0,0:3|0:0,0:0:0:0:
44,95,47046,1,0,0:0:0:0:
206,141,47393,2,0,P|241:148|277:150,1,70,0|0,0:0|0:0,0:0:0:0:
248,37,47740,5,2,0:0:0:0:
364,186,47913,1,0,0:0:0:0:
433,136,48086,2,0,P|445:101|455:58,1,70,0|0,0:0|0:0,0:0:0:0:
426,237,48433,2,0,P|422:284|427:329,2,70,0|0|0,0:0|0:0|0:0,0:0:0:0:
296,22,49127,5,2,0:0:0:0:
250,116,49300,1,0,0:0:0:0:
313,206,49474,1,0,0:0:0:0:
422,197,49647,1,0,0:0:0:0:
318,314,49821,1,0,0:0:0:0:
318,314,49994,1,0,0:0:0:0:
470,343,50167,5,2,0:0:0:0:
476,322,50254,1,0,0:0:0:0:
478,289,50341,1,0,0:0:0:0:
467,247,50427,1,0,0:0:0:0:
429,213,50514,6,0,P|396:227|340:240,1,66.4999982242585,4|0,0:3|0:0,0:0:0:0:
74,348,50774,2,0,P|45:327|6:284,1,66.4999982242585,4|0,0:3|0:0,0:0:0:0:
224,311,51034,1,4,0:3:0:0:
109,164,51208,5,0,0:0:0:0:
125,117,51294,1,0,0:0:0:0:
157,98,51381,1,0,0:0:0:0:
187,98,51468,1,0,0:0:0:0:
206,107,51555,1,0,0:0:0:0:
215,117,51641,1,0,0:0:0:0:
215,124,51728,1,0,0:0:0:0:
211,130,51815,1,0,0:0:0:0:
206,133,51901,6,0,P|204:92|225:24,1,83.9999974365235,6|0,0:0|0:0,0:0:0:0:
306,9,52075,1,8,0:0:0:0:
203,223,52248,2,0,P|253:209|341:212,1,83.9999974365235,2|0,0:0|0:0,0:0:0:0:
428,248,52422,1,8,0:0:0:0:
263,345,52595,1,2,0:0:0:0:
263,345,52682,1,2,0:0:0:0:
263,345,52768,1,8,0:0:0:0:
299,124,52942,2,0,P|295:166|275:228,1,83.9999974365235,2|0,0:0|0:0,0:0:0:0:
71,252,53115,2,0,P|75:209|95:148,1,83.9999974365235,8|0,0:0|0:0,0:0:0:0:
185,31,53289,6,0,B|214:63|214:63|223:137,1,83.9999974365235,2|0,0:0|0:0,0:0:0:0:
91,254,53462,1,8,0:0:0:0:
230,114,53636,2,0,L|221:218,1,83.9999974365235,2|0,0:0|0:0,0:0:0:0:
164,354,53809,1,8,0:0:0:0:
317,132,53982,1,2,0:0:0:0:
310,174,54069,1,2,0:0:0:0:
302,216,54156,1,8,0:0:0:0:
476,328,54329,2,0,L|456:221,1,83.9999974365235,2|0,0:0|0:0,0:0:0:0:
381,41,54503,2,0,L|396:123,1,83.9999974365235,8|0,0:0|0:0,0:0:0:0:
245,265,54676,6,0,L|125:246,1,83.9999974365235,2|0,0:0|0:0,0:0:0:0:
390,384,54849,2,0,P|373:329|352:274,1,83.9999974365235,8|0,0:0|0:0,0:0:0:0:
246,103,55023,1,2,0:0:0:0:
246,102,55110,1,2,0:0:0:0:
246,102,55196,1,8,0:0:0:0:
347,289,55370,6,0,P|339:246|333:174,1,83.9999974365235,2|0,0:0|0:0,0:0:0:0:
467,54,55543,2,0,P|456:98|448:136,1,83.9999974365235,8|0,0:0|0:0,0:0:0:0:
471,297,55716,1,2,0:0:0:0:
471,297,55803,1,2,0:0:0:0:
471,297,55890,1,8,0:0:0:0:
226,132,56063,6,0,P|238:105|253:50,1,83.9999974365235,2|0,0:0|0:0,0:0:0:0:
98,188,56237,1,8,0:0:0:0:
226,313,56410,1,2,0:0:0:0:
257,329,56497,1,0,0:0:0:0:
293,325,56584,1,8,0:0:0:0:
400,97,56757,6,0,L|392:259,1,83.9999974365235,2|0,0:0|0:0,0:0:0:0:
430,357,56930,2,0,P|401:317|350:270,1,83.9999974365235,8|0,0:0|0:0,0:0:0:0:
159,206,57104,1,10,0:0:0:0:
139,260,57190,1,8,0:0:0:0:
150,320,57277,1,8,0:0:0:0:
188,365,57364,1,8,0:0:0:0:
238,380,57451,6,0,P|247:340|258:282,1,77.0000023498536,6|0,0:0|0:0,0:0:0:0:
239,165,57624,1,8,0:0:0:0:
398,259,57797,2,0,P|354:250|308:248,1,77.0000023498536,2|0,0:0|0:0,0:0:0:0:
161,306,57971,1,8,0:0:0:0:
358,73,58144,1,2,0:0:0:0:
338,83,58231,1,2,0:0:0:0:
327,95,58318,2,0,P|316:136|312:195,1,77.0000023498536,8|0,0:0|0:0,0:0:0:0:
375,364,58491,2,0,P|421:359|476:349,1,77.0000023498536,2|0,0:0|0:0,0:0:0:0:
512,181,58664,2,0,P|466:185|411:196,1,77.0000023498536,8|0,0:0|0:0,0:0:0:0:
231,277,58838,6,0,L|240:177,1,77.0000023498536,2|0,0:0|0:0,0:0:0:0:
168,32,59011,2,0,L|165:156,1,77.0000023498536,8|0,0:0|0:0,0:0:0:0:
398,259,59185,2,0,L|315:201,1,77.0000023498536,2|0,0:0|0:0,0:0:0:0:
66,178,59358,2,0,L|171:242,1,77.0000023498536,8|0,0:0|0:0,0:0:0:0:
349,129,59531,1,2,0:0:0:0:
354,113,59618,1,2,0:0:0:0:
360,94,59705,1,8,0:0:0:0:
324,313,59878,2,0,P|399:258|375:152,1,154.000004699707,2|8,0:0|0:0,0:0:0:0:
456,35,60138,1,0,0:0:0:0:
456,35,60225,6,0,L|442:181,1,83.9999974365235,2|0,0:0|0:0,0:0:0:0:
285,164,60399,2,0,L|237:88,1,83.9999974365235,8|0,0:0|0:0,0:0:0:0:
336,0,60572,2,0,P|339:47|330:102,1,83.9999974365235,2|0,0:0|0:0,0:0:0:0:
306,332,60745,2,0,P|300:286|279:208,1,83.9999974365235,8|0,0:0|0:0,0:0:0:0:
157,164,60919,1,2,0:0:0:0:
157,164,61005,1,2,0:0:0:0:
157,164,61092,2,0,P|101:165|48:175,1,83.9999974365235,8|0,0:0|0:0,0:0:0:0:
0,299,61266,2,0,P|29:283|64:240,1,83.9999974365235,2|0,0:0|0:0,0:0:0:0:
162,0,61439,2,0,P|177:38|178:80,1,83.9999974365235,8|0,0:0|0:0,0:0:0:0:
143,345,61612,6,0,P|103:268|-14:287,1,167.999994873047,6|8,0:0|0:0,0:0:0:0:
263,374,61959,1,2,0:0:0:0:
296,363,62046,1,2,0:0:0:0:
312,340,62133,2,0,P|317:306|322:255,1,52.5000020027161,8|0,0:0|0:0,0:0:0:0:
229,77,62306,6,0,P|278:152|383:124,1,154.000004699707,2|8,0:0|0:0,0:0:0:0:
395,95,62566,1,8,0:0:0:0:
405,49,62653,1,10,0:0:0:0:
424,102,62740,1,8,0:0:0:0:
470,115,62826,1,8,0:0:0:0:
512,87,62913,1,8,0:0:0:0:
509,68,63000,5,2,0:0:0:0:
495,182,63173,1,8,0:0:0:0:
476,313,63347,2,0,P|381:299|336:300,1,105.000004005432,2|8,0:0|0:0,0:0:0:0:
332,318,63607,1,0,0:0:0:0:
332,318,63693,2,0,P|334:287|334:245,1,52.5000020027161
302,146,63867,1,8,0:0:0:0:
72,206,64040,6,0,L|207:222,1,105.000004005432,2|8,0:0|0:0,0:0:0:0:
197,237,64300,1,0,0:0:0:0:
197,237,64387,1,2,0:0:0:0:
100,336,64560,1,8,0:0:0:0:
284,273,64734,2,0,P|282:210|260:127,1,105.000004005432,0|8,0:0|0:0,0:0:0:0:
219,115,64994,1,0,0:0:0:0:
219,115,65081,2,0,P|242:127|283:142,1,52.5000020027161,2|0,0:0|0:0,0:0:0:0:
393,151,65254,1,8,0:0:0:0:
409,0,65427,1,2,0:0:0:0:
318,68,65601,1,8,0:0:0:0:
481,211,65774,6,0,P|495:126|489:75,1,105.000004005432,2|8,0:0|0:0,0:0:0:0:
368,164,66034,1,0,0:0:0:0:
368,164,66121,2,0,P|369:216|377:246,1,52.5000020027161,2|0,0:0|0:0,0:0:0:0:
357,317,66294,2,0,P|392:304|420:297,1,52.5000020027161,8|0,0:0|0:0,0:0:0:0:
494,332,66468,1,2,0:0:0:0:
494,332,66555,1,2,0:0:0:0:
494,332,66641,1,8,0:0:0:0:
246,348,66815,2,0,P|247:295|253:211,1,105.000004005432,2|8,0:0|0:0,0:0:0:0:
214,87,67162,6,0,P|197:118|153:152,1,70,2|0,0:0|0:0,0:0:0:0:
198,154,67508,2,0,P|211:121|214:87,1,70,2|0,0:0|0:0,0:0:0:0:
214,87,67855,2,0,P|237:183|221:254,1,140,2|8,0:0|0:0,0:0:0:0:
179,286,68115,1,8,0:0:0:0:
124,285,68202,1,8,0:0:0:0:
91,261,68289,1,8,0:0:0:0:
81,230,68375,1,8,0:0:0:0:
88,206,68462,1,8,0:0:0:0:
99,201,68549,6,0,L|182:200,1,70,2|0,0:0|0:0,0:0:0:0:
271,201,68896,1,0,0:0:0:0:
271,201,69069,1,0,0:0:0:0:
291,47,69242,1,0,0:0:0:0:
243,118,69416,1,0,0:0:0:0:
345,235,69589,2,0,L|426:219,1,70,8|0,0:0|0:0,0:0:0:0:
478,103,69936,5,0,0:0:0:0:
503,177,70110,1,0,0:0:0:0:
348,79,70283,1,0,0:0:0:0:
458,112,70456,1,0,0:0:0:0:
345,235,70630,2,0,L|279:259,1,70,2|0,0:0|0:0,0:0:0:0:
111,354,70977,2,0,L|186:323,1,70,8|0,0:0|0:0,0:0:0:0:
166,209,71323,5,0,0:0:0:0:
262,283,71497,1,0,0:0:0:0:
309,139,71670,1,0,0:0:0:0:
244,201,71844,1,0,0:0:0:0:
101,101,72017,1,0,0:0:0:0:
198,123,72190,1,0,0:0:0:0:
98,264,72364,2,0,L|37:299,1,70,8|0,0:0|0:0,0:0:0:0:
284,365,72711,6,0,P|335:325|325:217,1,157.500006008148,2|0,0:0|0:0,0:0:0:0:
269,175,73058,1,0,0:0:0:0:
416,220,73231,1,0,0:0:0:0:
423,22,73404,2,0,P|372:62|382:170,1,157.500006008148,2|0,0:0|0:0,0:0:0:0:
432,235,73751,1,8,0:0:0:0:
432,235,73838,1,0,0:0:0:0:
432,235,73925,1,0,0:0:0:0:
432,235,74011,1,0,0:0:0:0:
432,235,74098,6,0,L|378:280,1,70,0|0,0:0|0:0,0:0:0:0:
180,207,74445,1,0,0:0:0:0:
170,179,74618,1,0,0:0:0:0:
265,211,74792,1,0,0:0:0:0:
158,147,74965,1,0,0:0:0:0:
45,224,75138,2,0,L|0:277,1,70,8|0,0:0|0:0,0:0:0:0:
76,367,75485,1,2,0:0:0:0:
76,367,75659,5,0,0:0:0:0:
115,248,75832,1,0,0:0:0:0:
189,306,76005,1,0,0:0:0:0:
255,248,76179,1,0,0:0:0:0:
255,248,76352,1,0,0:0:0:0:
225,113,76526,2,0,L|189:173,1,70,8|0,0:0|0:0,0:0:0:0:
255,248,76873,5,2,0:0:0:0:
325,154,77046,1,0,0:0:0:0:
233,321,77219,1,0,0:0:0:0:
367,248,77392,1,0,0:0:0:0:
177,261,77566,1,0,0:0:0:0:
326,330,77740,1,0,0:0:0:0:
479,259,77913,2,0,L|503:193,1,70,8|0,0:0|0:0,0:0:0:0:
473,0,78260,5,2,0:0:0:0:
482,57,78433,1,0,0:0:0:0:
446,142,78607,1,0,0:0:0:0:
350,200,78780,1,0,0:0:0:0:
220,168,78953,2,0,L|232:98,1,70,2|0,0:0|0:0,0:0:0:0:
83,0,79300,6,0,P|131:62|107:162,1,157.500006008148,10|0,0:0|0:0,0:0:0:0:
25,207,79647,2,0,L|18:133,1,52.5000020027161,2|0,0:0|0:0,0:0:0:0:
45,84,79994,6,0,P|115:132|114:309,1,210,14|0,0:0|0:0,0:0:0:0:
82,318,80341,1,2,0:0:0:0:
0,201,80514,1,2,0:0:0:0:
231,309,80688,6,0,P|310:243|324:142,1,210,10|0,0:0|0:0,0:0:0:0:
258,82,81034,2,0,L|251:134,1,52.5,2|0,0:0|0:0,0:0:0:0:
320,276,81381,6,0,P|416:312|511:273,1,210,10|0,0:0|0:0,0:0:0:0:
420,120,81728,1,2,0:0:0:0:
415,234,81901,1,2,0:0:0:0:
191,223,82075,6,0,L|131:13,1,210,10|0,0:0|0:0,0:0:0:0:
61,12,82422,1,2,0:0:0:0:
23,133,82595,1,2,0:0:0:0:
273,168,82768,6,0,L|447:36,1,210,10|0,0:0|0:0,0:0:0:0:
490,124,83115,1,2,0:0:0:0:
438,18,83289,1,2,0:0:0:0:
512,290,83462,6,0,L|308:239,1,210,10|0,0:0|0:0,0:0:0:0:
191,223,83809,6,0,P|206:293|214:367,1,140,10|0,0:0|0:0,0:0:0:0:
100,341,84156,2,0,P|101:305|113:256,1,70,10|0,0:0|0:0,0:0:0:0:
100,127,84329,1,2,0:0:0:0:
86,159,84416,1,2,0:0:0:0:
71,190,84503,1,8,0:0:0:0:
226,28,84676,1,8,0:0:0:0:
232,62,84763,1,8,0:0:0:0:
238,96,84849,1,8,0:0:0:0:
244,130,84936,1,8,0:0:0:0:
250,164,85023,1,8,0:0:0:0:
447,132,85196,6,0,L|416:-5,1,119.000002269745,2|8,0:0|0:0,0:0:0:0:
406,9,85456,1,0,0:0:0:0:
406,9,85543,1,2,0:0:0:0:
363,210,85716,1,8,0:0:0:0:
363,210,85803,1,0,0:0:0:0:
363,210,85890,2,0,P|421:217|485:228,1,119.000002269745,2|8,0:0|0:0,0:0:0:0:
488,248,86150,1,0,0:0:0:0:
488,248,86237,1,2,0:0:0:0:
418,95,86410,1,8,0:0:0:0:
425,300,86584,6,0,P|385:347|278:353,1,119.000002269745,2|8,0:0|0:0,0:0:0:0:
147,319,86844,1,0,0:0:0:0:
147,319,86930,2,0,P|223:304|295:358,1,119.000002269745,2|8,0:0|0:0,0:0:0:0:
379,172,87191,1,0,0:0:0:0:
379,172,87277,2,0,P|366:248|291:297,1,119.000002269745,2|8,0:0|0:0,0:0:0:0:
151,82,87624,1,2,0:0:0:0:
231,198,87797,1,8,0:0:0:0:
231,198,87884,1,2,0:0:0:0:
231,198,87971,6,0,P|238:135|242:68,1,119.000002269745,2|8,0:0|0:0,0:0:0:0:
207,9,88231,1,0,0:0:0:0:
207,9,88318,1,2,0:0:0:0:
66,102,88491,1,8,0:0:0:0:
80,120,88578,1,0,0:0:0:0:
92,138,88664,2,0,L|99:273,1,119.000002269745,2|8,0:0|0:0,0:0:0:0:
51,327,88925,1,0,0:0:0:0:
51,327,89011,1,2,0:0:0:0:
210,288,89185,1,8,0:0:0:0:
175,118,89358,6,0,L|168:-17,1,119.000002269745,2|8,0:0|0:0,0:0:0:0:
260,18,89618,1,0,0:0:0:0:
275,33,89705,2,0,L|268:151,1,119.000002269745,2|8,0:0|0:0,0:0:0:0:
363,284,90052,1,2,0:0:0:0:
496,203,90225,1,8,0:0:0:0:
408,94,90399,1,2,0:0:0:0:
485,10,90572,1,8,0:0:0:0:
485,10,90659,1,2,0:0:0:0:
485,10,90745,6,0,P|491:95|472:140,1,119.000002269745,2|8,0:0|0:0,0:0:0:0:
363,284,91092,2,0,P|357:199|376:154,1,119.000002269745,2|8,0:0|0:0,0:0:0:0:
408,94,91439,1,2,0:0:0:0:
512,230,91612,1,8,0:0:0:0:
416,354,91786,1,2,0:0:0:0:
416,354,91873,1,2,0:0:0:0:
416,354,91959,1,8,0:0:0:0:
471,146,92133,5,2,0:0:0:0:
432,228,92306,1,8,0:0:0:0:
241,146,92479,1,2,0:0:0:0:
280,64,92652,1,8,0:0:0:0:
327,239,92826,6,0,P|272:281|198:277,1,119.000002269745,2|8,0:0|0:0,0:0:0:0:
252,34,93173,2,0,P|261:102|221:164,1,119.000002269745,2|8,0:0|0:0,0:0:0:0:
154,171,93433,1,0,0:0:0:0:
154,171,93520,5,2,0:0:0:0:
333,139,93693,1,8,0:0:0:0:
116,59,93867,1,2,0:0:0:0:
265,187,94040,1,8,0:0:0:0:
336,0,94214,1,2,0:0:0:0:
214,83,94387,1,8,0:0:0:0:
367,227,94560,1,2,0:0:0:0:
367,227,94647,1,2,0:0:0:0:
367,227,94734,1,8,0:0:0:0:
496,110,94907,5,2,0:0:0:0:
485,229,95081,1,8,0:0:0:0:
479,384,95254,5,2,0:0:0:0:
450,267,95427,1,8,0:0:0:0:
415,111,95601,5,2,0:0:0:0:
415,111,95774,1,8,0:0:0:0:
291,240,95948,1,2,0:0:0:0:
193,108,96121,1,8,0:0:0:0:
193,108,96208,1,2,0:0:0:0:
193,108,96294,5,2,0:0:0:0:
248,166,96468,1,0,0:0:0:0:
248,166,96641,2,0,P|244:236|236:263,1,70
48,249,96988,1,0,0:0:0:0:
36,171,97162,1,0,0:0:0:0:
70,371,97335,1,8,0:0:0:0:
337,370,97682,6,0,L|423:342,1,70,2|0,0:0|0:0,0:0:0:0:
239,308,98029,1,0,0:0:0:0:
239,308,98202,1,0,0:0:0:0:
161,217,98375,2,0,L|116:97,1,105,2|0,0:0|0:0,0:0:0:0:
94,101,98722,2,0,P|95:138|86:187,1,70,8|0,0:0|0:0,0:0:0:0:
206,94,99069,6,0,L|299:96,1,70,2|0,0:0|0:0,0:0:0:0:
162,27,99416,1,0,0:0:0:0:
162,27,99589,1,0,0:0:0:0:
7,140,99763,1,0,0:0:0:0:
144,148,99936,1,0,0:0:0:0:
21,8,100110,1,8,0:0:0:0:
295,213,100456,6,0,P|305:276|309:356,1,140,2|0,0:0|0:0,0:0:0:0:
117,307,100977,1,0,0:0:0:0:
153,227,101150,1,0,0:0:0:0:
229,212,101323,1,0,0:0:0:0:
229,212,101410,1,0,0:0:0:0:
229,212,101497,2,0,L|281:206,1,35,8|0,0:0|0:0,0:0:0:0:
360,81,101670,1,0,0:0:0:0:
332,110,101757,1,0,0:0:0:0:
300,130,101844,5,2,0:0:0:0:
436,111,102017,1,0,0:0:0:0:
368,1,102190,1,0,0:0:0:0:
368,1,102364,1,0,0:0:0:0:
494,198,102537,1,2,0:0:0:0:
354,360,102884,2,0,L|257:365,1,70,8|0,0:0|0:0,0:0:0:0:
286,266,103231,5,2,0:0:0:0:
286,266,103404,1,0,0:0:0:0:
423,328,103578,2,0,L|492:324,1,70,0|0,0:0|0:0,0:0:0:0:
286,266,103925,2,0,B|163:293,1,105,2|0,0:0|0:0,0:0:0:0:
159,313,104271,2,0,L|224:312,1,35,8|0,0:0|0:0,0:0:0:0:
392,285,104445,1,0,0:0:0:0:
247,176,104618,6,0,L|203:101,1,70,2|0,0:0|0:0,0:0:0:0:
136,8,104965,1,0,0:0:0:0:
144,81,105138,1,0,0:0:0:0:
80,181,105312,2,0,L|-8:194,1,70,0|0,0:0|0:0,0:0:0:0:
314,253,105659,2,0,L|329:135,1,105,8|0,0:0|0:0,0:0:0:0:
382,81,106005,6,0,P|472:160|468:195,2,140,2|0|2,0:0|0:0|0:0,0:0:0:0:
234,138,106873,1,0,0:0:0:0:
382,81,107046,2,0,P|434:50|444:-2,1,105,8|0,0:0|0:0,0:0:0:0:
365,4,107393,5,6,0:0:0:0:
293,187,107566,1,0,0:0:0:0:
457,130,107740,1,0,0:0:0:0:
274,95,107913,1,0,0:0:0:0:
274,95,108000,1,0,0:0:0:0:
274,95,108086,1,2,0:0:0:0:
398,180,108260,1,0,0:0:0:0:
398,180,108347,1,0,0:0:0:0:
398,180,108433,1,0,0:0:0:0:
336,294,108607,1,0,0:0:0:0:
336,294,108693,1,0,0:0:0:0:
336,294,108780,5,2,0:0:0:0:
447,276,108953,2,0,P|448:314|443:368,1,70
285,366,109300,1,0,0:0:0:0:
237,362,109387,1,0,0:0:0:0:
188,355,109474,2,0,L|135:350,1,35,2|0,0:0|0:0,0:0:0:0:
27,307,109647,1,0,0:0:0:0:
46,305,109734,1,0,0:0:0:0:
68,304,109821,1,0,0:0:0:0:
166,243,109994,1,0,0:0:0:0:
166,243,110081,1,0,0:0:0:0:
166,243,110167,6,0,L|153:164,1,70,8|0,0:0|0:0,0:0:0:0:
245,256,110514,2,0,L|232:177,1,70,8|0,0:0|0:0,0:0:0:0:
83,227,110861,2,0,P|72:191|70:148,1,70,8|0,0:0|0:0,0:0:0:0:
280,28,111208,2,0,P|289:57|291:97,1,70,8|0,0:0|0:0,0:0:0:0:
339,278,111555,5,10,0:0:0:0:
364,265,111641,1,8,0:0:0:0:
380,240,111728,1,8,0:0:0:0:
385,206,111815,1,8,0:0:0:0:
374,178,111901,2,8,L|352:114,1,35,10|0,0:0|0:0,0:0:0:0:
237,261,112075,1,8,0:0:0:0:
251,309,112162,1,8,0:0:0:0:
291,334,112248,1,10,0:0:0:0:
276,285,112335,1,8,0:0:0:0:
237,261,112422,1,8,0:0:0:0:
190,263,112508,1,8,0:0:0:0:
144,284,112595,6,0,L|136:337,1,52.5,2|0,0:0|0:0,0:0:0:0:
206,370,112942,1,2,0:0:0:0:
111,97,113289,6,0,P|113:175|6:282,1,231.000007049561,14|0,0:0|0:0,0:0:0:0:
8,304,113636,1,2,0:0:0:0:
88,378,113809,1,2,0:0:0:0:
231,208,113982,6,0,P|299:245|338:391,1,231.000007049561,10|0,0:0|0:0,0:0:0:0:
313,384,114329,2,0,L|305:326,1,52.5,2|0,0:0|0:0,0:0:0:0:
403,215,114676,6,0,L|452:-15,1,220.499993270874,10|0,0:0|0:0,0:0:0:0:
343,14,115023,1,2,0:0:0:0:
271,95,115196,1,2,0:0:0:0:
467,162,115370,6,0,L|512:377,1,220.499993270874,10|0,0:0|0:0,0:0:0:0:
436,377,115716,1,2,0:0:0:0:
361,303,115890,1,2,0:0:0:0:
327,105,116063,6,0,P|251:199|127:209,1,220.499993270874,10|0,0:0|0:0,0:0:0:0:
90,142,116410,1,2,0:0:0:0:
6,215,116584,1,2,0:0:0:0:
268,298,116757,6,0,P|332:211|326:104,1,220.499993270874,10|0,0:0|0:0,0:0:0:0:
230,10,117104,2,0,L|245:89,1,73.4999977569581,2|0,0:0|0:0,0:0:0:0:
450,251,117451,2,0,L|426:112,1,105.000004005432,10|0,0:0|0:0,0:0:0:0:
497,100,117711,1,0,0:0:0:0:
497,100,117797,6,0,L|462:169,1,70,2|0,0:0|0:0,0:0:0:0:
358,232,117971,1,8,0:0:0:0:
358,232,118058,1,10,0:0:0:0:
358,232,118144,1,10,0:0:0:0:
304,225,118231,1,8,0:0:0:0:
266,187,118318,1,8,0:0:0:0:
271,134,118404,1,8,0:0:0:0:
308,93,118491,6,0,L|411:71,1,90.9999958343508,6|0,0:0|0:0,0:0:0:0:
473,132,118664,2,0,L|452:239,1,90.9999958343508,8|0,0:0|0:0,0:0:0:0:
362,104,118838,6,0,L|340:5,1,90.9999958343508,2|0,0:0|0:0,0:0:0:0:
356,260,119011,2,0,P|328:288|263:321,1,90.9999958343508,8|0,0:0|0:0,0:0:0:0:
97,360,119185,1,2,0:0:0:0:
141,352,119271,1,2,0:0:0:0:
182,327,119358,2,0,L|178:200,1,90.9999958343508,8|0,0:0|0:0,0:0:0:0:
0,54,119531,2,0,L|100:71,1,90.9999958343508,2|0,0:0|0:0,0:0:0:0:
270,265,119705,2,0,L|366:236,1,90.9999958343508,8|0,0:0|0:0,0:0:0:0:
317,38,119878,6,0,P|203:72|157:147,1,181.999991668702,2|8,0:0|0:0,0:0:0:0:
50,307,120138,1,0,0:0:0:0:
50,307,120225,2,0,L|76:180,1,90.9999958343508,2|0,0:0|0:0,0:0:0:0:
185,29,120399,2,0,L|159:156,1,90.9999958343508,8|0,0:0|0:0,0:0:0:0:
160,316,120572,1,2,0:0:0:0:
198,283,120659,1,2,0:0:0:0:
248,276,120745,2,0,L|370:316,1,90.9999958343508,8|0,0:0|0:0,0:0:0:0:
512,125,120919,2,0,P|416:206|332:218,1,181.999991668702,2|8,0:0|0:0,0:0:0:0:
152,108,121179,1,0,0:0:0:0:
152,108,121266,6,0,L|178:267,1,90.9999958343508,6|0,0:0|0:0,0:0:0:0:
0,335,121439,2,0,P|43:311|69:259,1,90.9999958343508,8|0,0:0|0:0,0:0:0:0:
222,62,121612,2,0,P|240:101|298:158,1,90.9999958343508,2|0,0:0|0:0,0:0:0:0:
416,294,121786,2,0,P|363:273|284:260,1,90.9999958343508,8|0,0:0|0:0,0:0:0:0:
94,363,121959,1,2,0:0:0:0:
139,347,122046,1,2,0:0:0:0:
171,315,122133,2,0,L|199:203,1,90.9999958343508,8|0,0:0|0:0,0:0:0:0:
249,40,122306,2,0,L|334:71,1,90.9999958343508,2|0,0:0|0:0,0:0:0:0:
472,173,122479,2,0,L|382:188,1,90.9999958343508,8|0,0:0|0:0,0:0:0:0:
55,204,122653,6,0,L|18:16,1,181.999991668702,6|8,0:0|0:0,0:0:0:0:
181,65,123000,1,2,0:0:0:0:
119,279,123173,1,8,0:0:0:0:
0,17,123347,2,0,L|194:42,1,181.999991668702,0|8,0:0|0:0,0:0:0:0:
438,113,123607,1,0,0:0:0:0:
391,83,123693,5,2,0:0:0:0:
338,87,123780,1,0,0:0:0:0:
299,120,123867,1,8,0:0:0:0:
255,153,123953,1,0,0:0:0:0:
199,154,124040,6,0,P|150:145|93:129,1,90.9999958343508,6|0,0:0|0:0,0:0:0:0:
375,197,124214,2,0,P|424:211|497:246,1,90.9999958343508,8|0,0:0|0:0,0:0:0:0:
271,380,124387,2,0,P|284:329|291:264,1,90.9999958343508,2|0,0:0|0:0,0:0:0:0:
203,38,124560,2,0,L|187:154,1,90.9999958343508,8|0,0:0|0:0,0:0:0:0:
201,341,124734,1,2,0:0:0:0:
175,302,124821,1,2,0:0:0:0:
137,282,124907,2,0,L|42:285,1,90.9999958343508,8|0,0:0|0:0,0:0:0:0:
0,103,125081,2,0,P|50:139|75:183,1,90.9999958343508,2|0,0:0|0:0,0:0:0:0:
67,312,125254,2,0,P|35:364|-6:393,1,90.9999958343508,8|0,0:0|0:0,0:0:0:0:
376,134,125427,6,0,P|243:168|202:259,1,181.999991668702,2|8,0:0|0:0,0:0:0:0:
342,349,125688,1,0,0:0:0:0:
342,349,125774,2,0,L|326:217,1,90.9999958343508,2|0,0:0|0:0,0:0:0:0:
220,50,125948,2,0,L|122:-15,1,90.9999958343508,8|0,0:0|0:0,0:0:0:0:
323,9,126121,1,2,0:0:0:0:
359,43,126208,1,2,0:0:0:0:
400,63,126294,2,0,P|446:73|506:73,1,90.9999958343508,8|0,0:0|0:0,0:0:0:0:
341,126,126468,2,0,P|293:159|258:211,1,90.9999958343508,2|0,0:0|0:0,0:0:0:0:
207,321,126641,2,8,L|191:205,1,90.9999958343508,8|0,0:0|0:0,0:0:0:0:
111,0,126815,6,0,P|159:98|116:203,1,181.999991668702,6|8,0:0|0:0,0:0:0:0:
2,336,127075,1,0,0:0:0:0:
2,336,127162,2,0,P|28:299|48:258,1,90.9999958343508,2|0,0:0|0:0,0:0:0:0:
60,63,127335,2,0,P|33:99|13:140,1,90.9999958343508,8|0,0:0|0:0,0:0:0:0:
122,287,127508,1,2,0:0:0:0:
163,309,127595,1,2,0:0:0:0:
207,321,127682,2,0,L|324:334,1,90.9999958343508,8|0,0:0|0:0,0:0:0:0:
480,206,127855,2,0,L|446:387,1,181.999991668702,2|8,0:0|0:0,0:0:0:0:
444,11,128202,6,0,P|400:40|354:101,1,90.9999958343508,6|0,0:0|0:0,0:0:0:0:
231,214,128375,1,8,0:0:0:0:
290,195,128462,1,2,0:0:0:0:
310,139,128549,2,0,P|302:85|289:36,1,90.9999958343508,2|0,0:0|0:0,0:0:0:0:
147,19,128722,2,0,P|164:60|198:106,1,90.9999958343508,8|0,0:0|0:0,0:0:0:0:
377,237,128896,2,0,P|474:212|485:82,1,181.999991668702,6|8,0:0|0:0,0:0:0:0:
293,49,129242,5,2,0:0:0:0:
232,60,129329,1,0,0:0:0:0:
191,99,129416,1,8,0:0:0:0:
159,148,129503,1,0,0:0:0:0:
112,170,129589,6,0,P|61:167|9:36,1,181.999991668702,6|8,0:0|0:0,0:0:0:0:
184,232,129849,1,0,0:0:0:0:
184,232,129936,2,0,P|211:280|216:371,1,90.9999958343508,2|0,0:0|0:0,0:0:0:0:
106,367,130110,2,0,P|58:346|5:331,1,90.9999958343508,8|0,0:0|0:0,0:0:0:0:
313,268,130283,1,2,0:0:0:0:
365,257,130370,1,2,0:0:0:0:
410,270,130456,2,0,P|453:289|496:314,1,90.9999958343508,8|0,0:0|0:0,0:0:0:0:
431,135,130630,2,0,P|440:90|453:46,1,90.9999958343508,2|0,0:0|0:0,0:0:0:0:
242,184,130803,2,0,L|329:159,1,90.9999958343508,8|0,0:0|0:0,0:0:0:0:
512,232,130977,6,0,P|463:128|357:77,1,181.999991668702,2|8,0:0|0:0,0:0:0:0:
124,97,131237,1,0,0:0:0:0:
124,97,131323,2,0,L|235:72,1,90.9999958343508,2|0,0:0|0:0,0:0:0:0:
382,3,131497,2,0,P|333:18|285:22,1,90.9999958343508,8|0,0:0|0:0,0:0:0:0:
21,33,131670,1,2,0:0:0:0:
0,73,131757,1,2,0:0:0:0:
4,126,131844,2,0,P|29:163|65:191,1,90.9999958343508,8|0,0:0|0:0,0:0:0:0:
311,161,132017,2,0,P|241:217|209:301,1,181.999991668702,2|8,0:0|0:0,0:0:0:0:
426,359,132277,1,0,0:0:0:0:
426,359,132364,6,0,P|421:308|405:215,1,90.9999958343508,6|0,0:0|0:0,0:0:0:0:
474,7,132537,2,0,P|463:51|458:96,1,90.9999958343508,8|0,0:0|0:0,0:0:0:0:
512,235,132711,2,0,P|466:213|417:177,1,90.9999958343508,2|0,0:0|0:0,0:0:0:0:
231,63,132884,2,0,L|125:120,1,90.9999958343508,8|0,0:0|0:0,0:0:0:0:
2,284,133058,1,2,0:0:0:0:
20,244,133144,1,2,0:0:0:0:
59,217,133231,2,0,P|112:202|165:215,1,90.9999958343508,8|0,0:0|0:0,0:0:0:0:
265,336,133404,2,0,P|137:306|84:364,1,181.999991668702,2|8,0:0|0:0,0:0:0:0:
388,122,133751,6,0,P|329:219|233:228,1,181.999991668702,6|0,0:0|0:0,0:0:0:0:
438,17,134098,2,0,P|492:116|452:204,1,181.999991668702,10|0,0:0|0:0,0:0:0:0:
270,115,134445,1,2,0:0:0:0:
415,358,134618,1,8,0:0:0:0:
430,310,134705,1,8,0:0:0:0:
411,257,134792,1,8,0:0:0:0:
357,243,134878,1,8,0:0:0:0:
311,255,134965,1,8,0:0:0:0:
52,358,135138,6,0,L|67:169,1,181.999991668702,6|0,0:0|0:0,0:0:0:0:
153,0,135485,2,0,P|165:43|160:105,1,90.9999958343508,2|0,0:0|0:0,0:0:0:0:
90,152,135659,2,0,P|46:164|-15:159,1,90.9999958343508,8|0,0:0|0:0,0:0:0:0:
218,167,135832,1,2,0:0:0:0:
232,219,135919,1,2,0:0:0:0:
245,270,136005,2,0,L|270:371,1,90.9999958343508,8|0,0:0|0:0,0:0:0:0:
446,278,136179,6,0,P|392:269|326:282,1,90.9999958343508,2|0,0:0|0:0,0:0:0:0:
79,340,136352,2,0,P|124:343|168:334,1,90.9999958343508,8|0,0:0|0:0,0:0:0:0:
374,192,136526,6,0,P|369:120|351:-12,1,181.999991668702,6|8,0:0|0:0,0:0:0:0:
463,59,136786,1,0,0:0:0:0:
463,59,136873,2,0,P|413:94|357:115,1,90.9999958343508,2|0,0:0|0:0,0:0:0:0:
270,105,137046,2,0,P|220:67|160:50,1,90.9999958343508,8|0,0:0|0:0,0:0:0:0:
32,58,137219,1,2,0:0:0:0:
91,69,137306,1,2,0:0:0:0:
136,103,137393,2,0,P|151:147|159:210,1,90.9999958343508,8|0,0:0|0:0,0:0:0:0:
28,363,137566,6,0,P|75:345|141:333,1,90.9999958343508,2|0,0:0|0:0,0:0:0:0:
351,368,137740,2,0,P|366:324|374:261,1,90.9999958343508,8|0,0:0|0:0,0:0:0:0:
250,54,137913,6,0,P|262:150|284:246,1,181.999991668702,6|0,0:0|0:0,0:0:0:0:
91,0,138260,2,0,P|120:92|197:142,1,181.999991668702,2|0,0:0|0:0,0:0:0:0:
0,140,138607,2,0,P|65:211|159:190,1,181.999991668702,2|0,0:0|0:0,0:0:0:0:
76,368,138953,2,0,P|171:340|148:259,1,181.999991668702,2|0,0:0|0:0,0:0:0:0:
287,7,139300,6,0,P|270:56|261:121,1,90.9999958343508,6|0,0:0|0:0,0:0:0:0:
356,232,139474,1,8,0:0:0:0:
405,262,139560,1,8,0:0:0:0:
449,245,139647,1,8,0:0:0:0:
465,207,139734,1,8,0:0:0:0:
451,170,139821,1,8,0:0:0:0:
439,142,139907,1,8,0:0:0:0:
448,118,139994,6,0,P|470:91|500:114,1,70,6|0,0:0|0:0,0:0:0:0:
269,97,140341,2,0,P|361:44|435:60,1,132.999996448517,2|0,0:0|0:0,0:0:0:0:
116,145,140688,6,0,P|170:147|221:155,1,87.5,10|0,0:0|0:0,0:0:0:0:
465,207,140861,2,0,L|378:199,1,87.5,8|0,0:0|0:0,0:0:0:0:
171,350,141381,6,0,P|220:328|270:314,1,87.5,10|0,0:0|0:0,0:0:0:0:
465,292,141554,2,0,L|382:321,1,87.5,8|0,0:0|0:0,0:0:0:0:
103,25,142075,6,0,P|152:46|202:60,1,87.5,10|0,0:0|0:0,0:0:0:0:
512,123,142248,2,0,L|429:93,1,87.5,8|0,0:0|0:0,0:0:0:0:
55,142,142768,6,0,P|109:144|160:152,1,87.5,10|0,0:0|0:0,0:0:0:0:
497,214,142942,2,0,L|410:206,1,87.5,8|0,0:0|0:0,0:0:0:0:
220,345,143462,6,0,P|245:301|274:224,1,87.5,10|0,0:0|0:0,0:0:0:0:
275,27,143636,2,0,P|270:73|277:142,1,87.5,8|0,0:0|0:0,0:0:0:0:
512,295,144156,6,0,P|466:302|397:297,1,87.5,8|0,0:0|0:0,0:0:0:0:
31,216,144329,2,0,P|75:241|156:261,1,87.5,10|0,0:0|0:0,0:0:0:0:
273,115,144676,6,0,B|205:76|106:126|108:191|96:275|23:290|-31:275,1,350,4|8,0:0|0:0,0:0:0:0:
338,369,145370,1,8,0:0:0:0:
360,375,145456,1,0,0:0:0:0:
395,371,145543,1,2,0:0:0:0:
431,349,145630,1,0,0:0:0:0:
445,305,145716,1,8,0:0:0:0:
436,249,145803,1,0,0:0:0:0:
391,213,145890,2,8,P|340:217|293:235,1,87.5,8|0,0:0|0:0,0:0:0:0:
151,297,146063,1,8,0:0:0:0:
151,297,146237,6,0,P|153:250|154:166,1,87.5,10|0,0:0|0:0,0:0:0:0:
83,87,146410,2,0,P|80:40|80:-44,1,87.5,8|0,0:0|0:0,0:0:0:0:
307,255,146930,6,0,P|289:211|254:135,1,87.5,10|0,0:0|0:0,0:0:0:0:
83,87,147104,2,0,P|61:45|24:-30,1,87.5,8|0,0:0|0:0,0:0:0:0:
0,361,147624,6,0,P|46:381|155:359,1,87.5,10|0,0:0|0:0,0:0:0:0:
252,340,147797,2,0,P|274:301|307:274,1,87.5,8|0,0:0|0:0,0:0:0:0:
76,93,148318,6,0,P|81:142|155:226,1,87.5,10|0,0:0|0:0,0:0:0:0:
334,356,148491,2,0,P|376:356|418:371,1,87.5,8|0,0:0|0:0,0:0:0:0:
121,297,149011,6,0,P|107:257|105:213,1,87.5,10|0,0:0|0:0,0:0:0:0:
179,29,149185,2,0,P|194:71|195:114,1,87.5,8|0,0:0|0:0,0:0:0:0:
121,297,149705,6,0,P|125:254|142:214,1,87.5,10|0,0:0|0:0,0:0:0:0:
333,0,149879,2,0,P|327:43|310:83,1,87.5,8|0,0:0|0:0,0:0:0:0:
464,223,150399,6,0,P|431:193|340:146,1,87.5,8|0,0:0|0:0,0:0:0:0:
210,161,150572,1,8,0:0:0:0:
210,161,150919,2,0,P|231:184|284:207,1,87.5
373,255,151092,1,8,0:0:0:0:
325,235,151179,1,8,0:0:0:0:
282,246,151266,1,8,0:0:0:0:
254,275,151352,1,8,0:0:0:0:
250,309,151439,1,8,0:0:0:0:
256,333,151526,1,8,0:0:0:0:
266,346,151612,2,0,P|260:297|241:241,1,90.9999958343508
43,178,151786,6,0,P|92:182|151:185,1,83.9999974365235,6|0,0:0|0:0,0:0:0:0:
247,96,151959,1,8,0:0:0:0:
41,267,152133,2,0,P|90:271|149:274,1,83.9999974365235,2|0,0:0|0:0,0:0:0:0:
245,185,152306,1,8,0:0:0:0:
7,101,152479,6,0,P|111:37|178:44,1,167.999994873047,6|8,0:0|0:0,0:0:0:0:
329,110,152826,2,0,L|246:95,1,83.9999974365235,2|0,0:0|0:0,0:0:0:0:
489,192,153000,1,8,0:0:0:0:
489,192,153086,1,0,0:0:0:0:
489,192,153173,6,0,P|445:300|346:294,1,167.999994873047,6|8,0:0|0:0,0:0:0:0:
399,76,153520,2,0,L|411:176,1,83.9999974365235,2|0,0:0|0:0,0:0:0:0:
310,290,153693,1,8,0:0:0:0:
310,290,153780,1,8,0:0:0:0:
310,290,153867,6,0,B|218:260|191:322|92:334,1,167.999994873047,6|8,0:0|0:0,0:0:0:0:
0,298,154214,1,8,0:0:0:0:
39,260,154300,1,8,0:0:0:0:
53,211,154387,1,8,0:0:0:0:
32,158,154474,1,8,0:0:0:0:
5,116,154560,6,0,P|8:65|22:30,1,83.9999974365235,6|0,0:0|0:0,0:0:0:0:
181,25,154734,1,8,0:0:0:0:
0,113,154907,2,0,P|24:68|51:42,1,83.9999974365235,2|0,3:0|3:0,3:0:0:0:
294,133,155081,1,2,0:0:0:0:
294,133,155167,1,2,0:0:0:0:
294,133,155254,6,0,P|234:225|167:233,1,167.999994873047,4|8,0:0|0:0,0:0:0:0:
87,373,155601,1,8,0:0:0:0:
118,335,155688,1,8,0:0:0:0:
165,317,155774,1,8,0:0:0:0:
218,331,155861,1,8,0:0:0:0:
270,311,155948,6,0,P|310:293|355:253,1,83.9999974365235,6|0,0:0|0:0,0:0:0:0:
204,139,156121,1,8,0:0:0:0:
204,139,156468,2,0,P|256:116|302:113,1,83.9999974365235
474,102,156641,1,10,0:0:0:0:
434,71,156728,1,8,0:0:0:0:
386,76,156815,1,8,0:0:0:0:
344,112,156901,1,8,0:0:0:0:
304,141,156988,1,10,0:0:0:0:
256,148,157075,1,8,0:0:0:0:
204,139,157162,1,8,0:0:0:0:
167,104,157248,1,8,0:0:0:0:
176,56,157335,6,0,P|226:60|267:68,1,83.9999974365235,12|0,0:0|0:0,0:0:0:0:
414,165,157508,1,2,0:0:0:0:
414,165,157855,1,2,0:0:0:0:
266,334,158029,6,0,P|266:292|272:223,1,83.9999974365235,6|0,0:0|0:0,0:0:0:0:
369,237,158202,1,8,0:0:0:0:
185,281,158375,2,0,P|150:244|127:210,1,83.9999974365235,8|0,0:0|0:0,0:0:0:0:
64,93,158636,1,2,0:0:0:0:
64,93,158722,6,0,P|30:191|11:231,1,83.9999974365235,4|0,0:0|0:0,0:0:0:0:
39,348,158896,1,0,0:0:0:0:
220,276,159069,2,0,P|176:250|182:81,1,167.999994873047,8|0,0:0|0:0,0:0:0:0:
258,63,159329,1,2,0:0:0:0:
258,63,159416,6,0,B|355:69|320:145|435:170,1,167.999994873047,4|10,0:0|0:0,0:0:0:0:
456,306,159763,1,10,0:0:0:0:
464,314,159849,1,0,0:0:0:0:
464,314,159936,1,10,0:0:0:0:
431,267,160023,1,2,0:0:0:0:
380,253,160110,6,0,L|279:279,1,83.9999974365235,6|0,0:0|0:0,0:0:0:0:
155,362,160283,1,8,0:0:0:0:
331,360,160456,1,8,0:0:0:0:
176,150,160630,1,2,0:0:0:0:
176,150,160716,1,2,0:0:0:0:
176,150,160803,6,0,L|202:60,1,83.9999974365235,6|0,0:0|0:0,0:0:0:0:
360,52,160977,1,8,0:0:0:0:
278,116,161150,1,8,0:0:0:0:
360,52,161323,6,0,P|376:183|309:273,1,167.999994873047,2|2,0:0|0:0,0:0:0:0:
139,295,161670,2,0,P|182:245|284:258,1,167.999994873047,4|0,0:0|0:0,0:0:0:0:
120,276,162017,2,0,P|163:226|276:224,1,167.999994873047,12|2,0:0|0:0,0:0:0:0:
382,329,162277,1,8,0:0:0:0:
294,357,162364,6,0,P|255:347|205:325,1,83.9999974365235,8|0,0:0|0:0,0:0:0:0:
92,177,162537,2,0,P|52:112|15:17,1,167.999994873047,6|0,0:0|0:0,0:0:0:0:
180,26,162884,6,0,L|173:132,1,66.4999982242585,2|0,0:0|0:0,0:0:0:0:
324,263,163058,1,8,0:0:0:0:
299,93,163231,2,0,L|284:173,1,66.4999982242585,2|0,0:0|0:0,0:0:0:0:
191,249,163404,1,8,0:0:0:0:
360,24,163578,1,2,0:0:0:0:
360,24,163664,1,0,0:0:0:0:
360,24,163751,2,0,P|377:63|390:112,1,66.4999982242585,8|0,0:0|0:0,0:0:0:0:
490,244,163925,2,0,P|496:196|514:140,1,66.4999982242585,2|0,0:0|0:0,0:0:0:0:
512,11,164098,2,0,P|478:29|431:62,1,66.4999982242585,8|0,0:0|0:0,0:0:0:0:
289,186,164271,6,0,P|342:254|363:297,1,77.0000023498536,6|0,0:0|0:0,0:0:0:0:
388,363,164445,1,8,0:0:0:0:
490,244,164618,2,0,P|454:260|409:290,1,66.4999982242585,2|0,0:0|0:0,0:0:0:0:
305,368,164792,1,8,0:0:0:0:
379,98,164965,1,2,0:0:0:0:
377,141,165052,1,0,0:0:0:0:
354,175,165138,2,0,P|315:184|275:185,1,66.4999982242585,8|0,0:0|0:0,0:0:0:0:
110,227,165312,6,0,P|128:198|141:168,1,66.4999982242585,2|0,0:0|0:0,0:0:0:0:
62,2,165485,2,0,P|65:41|82:106,1,66.4999982242585,8|0,0:0|0:0,0:0:0:0:
232,88,165659,6,0,P|304:61|341:31,1,77.0000023498536,6|0,0:0|0:0,0:0:0:0:
375,4,165832,1,8,0:0:0:0:
509,149,166005,2,0,P|498:199|479:244,1,66.4999982242585,2|0,0:0|0:0,0:0:0:0:
427,374,166179,2,0,P|411:325|405:276,1,66.4999982242585,8|0,0:0|0:0,0:0:0:0:
244,180,166352,1,2,0:0:0:0:
244,180,166439,1,0,0:0:0:0:
244,180,166526,2,0,P|254:217|264:275,1,66.4999982242585,8|0,0:0|0:0,0:0:0:0:
159,353,166699,1,2,0:0:0:0:
388,240,166873,1,8,0:0:0:0:
135,240,167046,6,0,P|92:158|100:76,1,132.999996448517,6|8,0:0|0:0,0:0:0:0:
129,24,167306,1,0,0:0:0:0:
175,11,167393,1,2,0:0:0:0:
209,18,167479,1,0,0:0:0:0:
244,46,167566,1,8,0:0:0:0:
274,68,167653,1,0,0:0:0:0:
318,75,167740,2,0,P|349:64|401:37,1,66.4999982242585,2|0,0:0|0:0,0:0:0:0:
276,158,167913,1,8,0:0:0:0:
231,183,168000,1,8,0:0:0:0:
210,236,168086,2,0,P|206:278|211:345,1,66.4999982242585,8|0,0:0|0:0,0:0:0:0:
464,337,168260,1,8,0:0:0:0:
445,295,168347,1,8,0:0:0:0:
410,265,168433,6,0,P|375:254|329:247,1,66.4999982242585,6|0,0:0|0:0,0:0:0:0:
152,175,168607,2,0,P|147:142|139:110,1,66.4999982242585,8|0,0:0|0:0,0:0:0:0:
31,335,168780,2,0,P|66:313|111:301,1,66.4999982242585,2|0,0:0|0:0,0:0:0:0:
346,250,168953,2,0,P|317:233|285:224,1,66.4999982242585,8|0,0:0|0:0,0:0:0:0:
45,114,169127,1,2,0:0:0:0:
55,151,169214,1,0,0:0:0:0:
85,171,169300,2,0,L|171:176,1,66.4999982242585,8|0,0:0|0:0,0:0:0:0:
283,128,169474,2,0,P|279:85|266:13,1,66.4999982242585,2|0,0:0|0:0,0:0:0:0:
232,0,169647,1,8,0:0:0:0:
254,228,169821,6,0,L|249:335,1,66.4999982242585,6|0,0:0|0:0,0:0:0:0:
490,346,169994,2,0,P|458:349|399:348,1,66.4999982242585,8|0,0:0|0:0,0:0:0:0:
244,212,170167,2,0,P|279:207|332:196,1,66.4999982242585,2|0,0:0|0:0,0:0:0:0:
430,61,170341,2,0,P|424:104|414:155,1,66.4999982242585,8|0,0:0|0:0,0:0:0:0:
499,271,170514,1,2,0:0:0:0:
499,271,170601,1,0,0:0:0:0:
499,271,170688,2,0,P|469:245|443:210,1,66.4999982242585,8|0,0:0|0:0,0:0:0:0:
444,42,170861,2,0,P|439:82|431:126,1,66.4999982242585,2|0,0:0|0:0,0:0:0:0:
375,248,171034,1,8,0:0:0:0:
334,68,171208,6,0,L|318:0,1,66.4999982242585,6|0,0:0|0:0,0:0:0:0:
214,89,171381,2,0,L|205:185,1,66.4999982242585,8|0,0:0|0:0,0:0:0:0:
168,288,171555,2,0,L|141:203,1,66.4999982242585,2|0,0:0|0:0,0:0:0:0:
171,23,171728,1,8,0:0:0:0:
202,56,171815,1,0,0:0:0:0:
214,89,171901,2,2,P|183:106|149:114,2,66.4999982242585,2|0|8,0:0|0:0|0:0,0:0:0:0:
325,103,172248,2,0,P|347:126|371:160,1,66.4999982242585,2|0,0:0|0:0,0:0:0:0:
332,298,172422,1,8,0:0:0:0:
52,125,172595,6,0,P|51:208|52:279,1,132.999996448517,6|8,0:0|0:0,0:0:0:0:
162,384,172942,1,2,0:0:0:0:
162,384,173029,1,0,0:0:0:0:
162,384,173115,1,8,0:0:0:0:
162,384,173202,1,0,0:0:0:0:
162,384,173289,2,0,L|185:303,1,66.4999982242585,2|0,0:0|0:0,0:0:0:0:
321,163,173462,1,2,0:0:0:0:
308,212,173549,1,2,0:0:0:0:
276,248,173636,1,8,0:0:0:0:
285,265,173722,1,8,0:0:0:0:
294,275,173809,1,8,0:0:0:0:
306,284,173896,1,8,0:0:0:0:
316,289,173982,5,2,0:0:0:0:
256,192,178144,5,0,0:0:0:0:
256,192,178491,1,0,0:0:0:0:
256,192,178838,1,0,0:0:0:0:
86,78,179011,2,0,L|75:132,1,35,8|0,0:0|0:0,0:0:0:0:
58,208,179185,1,8,0:0:0:0:
58,208,179271,1,8,0:0:0:0:
58,208,179358,1,8,0:0:0:0:
250,50,179531,5,2,0:0:0:0:
200,140,179705,1,0,0:0:0:0:
309,210,179878,2,0,L|408:193,1,70,2|8,0:0|0:0,0:0:0:0:
211,318,180225,1,2,0:0:0:0:
406,310,180399,1,0,0:0:0:0:
308,353,180572,1,8,0:0:0:0:
314,205,180745,6,0,P|348:209|404:229,1,70,0|2,0:0|0:0,0:0:0:0:
255,269,181092,1,0,0:0:0:0:
482,345,181266,1,10,0:0:0:0:
376,324,181439,1,0,0:0:0:0:
274,360,181612,2,0,P|210:357|187:339,1,70,2|0,0:0|0:0,0:0:0:0:
112,262,181959,1,8,0:0:0:0:
237,182,182133,1,0,0:0:0:0:
91,255,182306,6,0,L|53:329,1,70,2|0,0:0|0:0,0:0:0:0:
102,99,182653,2,0,L|64:173,1,70,2|8,0:0|0:0,0:0:0:0:
187,182,183000,1,2,0:0:0:0:
284,117,183173,1,0,0:0:0:0:
205,78,183347,1,8,0:0:0:0:
277,201,183520,1,0,0:0:0:0:
377,128,183693,6,0,P|380:91|377:39,1,70,2|0,0:0|0:0,0:0:0:0:
459,188,184040,1,10,0:0:0:0:
459,188,184214,1,0,0:0:0:0:
333,258,184387,1,2,0:0:0:0:
333,258,184560,2,0,L|336:215,2,35,0|0|8,0:0|0:0|0:0,0:0:0:0:
238,338,184907,1,0,0:0:0:0:
478,381,185081,6,0,P|460:341|386:368,1,140,2|8,0:0|0:0,0:0:0:0:
229,359,185601,1,0,0:0:0:0:
261,238,185774,1,2,0:0:0:0:
186,138,185948,1,0,0:0:0:0:
239,244,186121,1,8,0:0:0:0:
82,155,186294,1,0,0:0:0:0:
193,154,186468,6,0,P|204:96|205:65,1,70,2|0,0:0|0:0,0:0:0:0:
90,6,186815,1,10,0:0:0:0:
90,6,186988,1,0,0:0:0:0:
239,92,187162,2,0,P|273:44|287:16,1,70,2|0,0:0|0:0,0:0:0:0:
8,73,187508,2,0,L|-3:164,1,70,8|0,0:0|0:0,0:0:0:0:
11,171,187768,1,0,0:0:0:0:
11,171,187855,5,2,0:0:0:0:
123,152,188029,1,0,0:0:0:0:
52,238,188202,1,8,0:0:0:0:
122,170,188375,1,0,0:0:0:0:
195,314,188549,1,2,0:0:0:0:
201,122,188722,1,0,0:0:0:0:
116,279,188896,1,8,0:0:0:0:
216,200,189069,1,0,0:0:0:0:
333,384,189242,5,2,0:0:0:0:
291,234,189416,1,0,0:0:0:0:
437,279,189589,1,8,0:0:0:0:
319,363,189763,1,0,0:0:0:0:
207,180,189936,1,2,0:0:0:0:
379,203,190110,1,0,0:0:0:0:
379,203,190196,1,0,0:0:0:0:
379,203,190283,2,0,L|423:209,1,35,8|0,0:0|0:0,0:0:0:0:
512,59,190456,1,0,0:0:0:0:
512,59,190543,1,0,0:0:0:0:
512,59,190630,1,2,0:0:0:0:
57,333,190977,6,0,P|96:228|87:88,1,210,14|0,0:0|0:0,0:0:0:0:
138,53,191323,1,2,0:0:0:0:
30,16,191497,1,2,0:0:0:0:
246,171,191670,6,0,P|361:212|485:169,1,210,10|0,0:0|0:0,0:0:0:0:
355,117,192017,2,0,L|341:27,1,73.4999977569581,2|0,0:0|0:0,0:0:0:0:
472,120,192364,6,0,L|447:364,1,231.000007049561,10|0,0:0|0:0,0:0:0:0:
339,370,192711,1,2,0:0:0:0:
360,288,192884,1,2,0:0:0:0:
227,202,193058,6,0,P|144:222|52:355,1,231.000007049561,10|0,0:0|0:0,0:0:0:0:
163,384,193404,2,0,L|155:298,1,73.4999977569581,2|0,0:0|0:0,0:0:0:0:
152,136,193751,6,0,P|214:230|322:266,1,231.000007049561,10|0,0:0|0:0,0:0:0:0:
446,249,194098,1,2,0:0:0:0:
512,126,194271,1,2,0:0:0:0:
345,38,194445,6,0,P|251:77|321:175,1,231.000007049561,10|0,0:0|0:0,0:0:0:0:
484,104,194792,6,0,P|447:125|399:141,1,77.0000023498536,10|0,0:0|0:0,0:0:0:0:
218,112,194965,1,2,0:0:0:0:
469,255,195138,6,0,P|428:164|342:108,1,154.000004699707,10|0,0:0|0:0,0:0:0:0:
219,9,195485,1,8,0:0:0:0:
224,47,195572,1,8,0:0:0:0:
229,85,195659,1,8,0:0:0:0:
234,122,195745,1,8,0:0:0:0:
239,160,195832,1,8,0:0:0:0:
244,198,195919,1,8,0:0:0:0:
249,235,196005,1,8,0:0:0:0:
54,113,196179,5,8,0:0:0:0:
44,261,196352,1,8,0:0:0:0:
44,261,196439,1,0,0:0:0:0:
44,261,196526,1,2,0:0:0:0:
88,250,196612,1,0,0:0:0:0:
134,254,196699,1,8,0:0:0:0:
177,269,196786,1,0,0:0:0:0:
218,289,196873,1,2,0:0:0:0:
261,303,196959,1,0,0:0:0:0:
307,306,197046,1,8,0:0:0:0:
353,300,197133,1,0,0:0:0:0:
394,280,197219,1,2,0:0:0:0:
347,275,197306,1,0,0:0:0:0:
308,248,197393,1,8,0:0:0:0:
290,204,197479,1,0,0:0:0:0:
304,160,197566,5,2,0:0:0:0:
263,182,197653,1,0,0:0:0:0:
216,184,197740,1,8,0:0:0:0:
174,163,197826,1,0,0:0:0:0:
150,129,197913,2,0,L|120:30,1,56,2|0,0:0|0:0,0:0:0:0:
244,0,198086,1,8,0:0:0:0:
244,0,198173,1,0,0:0:0:0:
244,0,198260,2,0,L|232:127,1,112,2|8,0:0|0:0,0:0:0:0:
308,248,198520,1,0,0:0:0:0:
308,248,198607,2,0,L|402:243,1,56,2|0,0:0|0:0,0:0:0:0:
512,118,198780,2,0,L|416:149,1,56,8|0,0:0|0:0,0:0:0:0:
336,359,198953,5,2,0:0:0:0:
308,323,199040,1,0,0:0:0:0:
267,304,199127,1,8,0:0:0:0:
222,296,199214,1,0,0:0:0:0:
177,302,199300,1,2,0:0:0:0:
184,257,199387,1,0,0:0:0:0:
190,212,199474,1,8,0:0:0:0:
196,168,199560,1,0,0:0:0:0:
203,123,199647,2,0,L|178:30,1,56,2|0,0:0|0:0,0:0:0:0:
20,4,199821,2,0,L|5:58,1,56,8|0,0:0|0:0,0:0:0:0:
0,283,199994,1,2,0:0:0:0:
7,236,200081,1,0,0:0:0:0:
14,192,200167,1,8,0:0:0:0:
38,158,200254,1,0,0:0:0:0:
73,139,200341,6,0,L|150:131,1,56,2|0,0:0|0:0,0:0:0:0:
352,167,200514,1,8,0:0:0:0:
400,138,200601,1,0,0:0:0:0:
419,85,200688,2,0,L|404:10,1,56,2|0,0:0|0:0,0:0:0:0:
512,238,200861,1,8,0:0:0:0:
465,209,200947,1,0,0:0:0:0:
410,217,201034,1,2,0:0:0:0:
373,257,201121,1,0,0:0:0:0:
369,312,201208,1,8,0:0:0:0:
401,356,201294,1,0,0:0:0:0:
456,367,201381,2,0,L|431:291,1,56,2|0,0:0|0:0,0:0:0:0:
201,277,201555,1,8,0:0:0:0:
221,316,201641,1,0,0:0:0:0:
255,334,201728,6,0,L|279:263,1,56,2|0,0:0|0:0,0:0:0:0:
323,4,201901,1,8,0:0:0:0:
277,25,201988,1,0,0:0:0:0:
253,69,202075,1,2,0:0:0:0:
258,119,202162,1,0,0:0:0:0:
284,161,202248,1,8,0:0:0:0:
323,192,202335,1,0,0:0:0:0:
371,206,202422,1,2,0:0:0:0:
414,231,202508,1,0,0:0:0:0:
441,273,202595,1,8,0:0:0:0:
454,321,202682,1,0,0:0:0:0:
450,370,202768,1,2,0:0:0:0:
433,316,202855,1,0,0:0:0:0:
416,262,202942,1,8,0:0:0:0:
399,208,203029,1,0,0:0:0:0:
382,154,203115,6,0,L|348:228,1,56,2|0,0:0|0:0,0:0:0:0:
302,353,203289,2,0,L|262:253,1,56,8|0,0:0|0:0,0:0:0:0:
222,114,203462,2,0,L|164:166,1,56,2|0,0:0|0:0,0:0:0:0:
50,286,203636,2,0,L|-37:246,1,56,8|0,0:0|0:0,0:0:0:0:
0,57,203809,1,2,0:0:0:0:
51,79,203896,1,0,0:0:0:0:
78,118,203982,1,8,0:0:0:0:
87,163,204069,1,0,0:0:0:0:
80,203,204156,1,0,0:0:0:0:
61,233,204242,1,0,0:0:0:0:
39,246,204329,1,10,0:0:0:0:
85,248,204416,1,2,0:0:0:0:
134,251,204503,6,0,P|158:252|198:264,1,56,2|0,0:0|0:0,0:0:0:0:
299,378,204676,2,0,P|289:345|280:300,1,56,8|0,0:0|0:0,0:0:0:0:
321,138,204849,1,2,0:0:0:0:
310,169,204936,1,0,0:0:0:0:
315,202,205023,1,10,0:0:0:0:
333,229,205110,1,2,0:0:0:0:
363,242,205196,2,0,P|389:240|442:233,1,56,0|0,0:0|0:0,0:0:0:0:
484,78,205370,2,0,P|449:94|419:114,1,56,8|0,0:0|0:0,0:0:0:0:
455,314,205543,1,0,0:0:0:0:
490,286,205630,1,2,0:0:0:0:
505,244,205716,1,10,0:0:0:0:
498,199,205803,1,2,0:0:0:0:
468,166,205890,5,6,0:0:0:0:
468,166,206237,1,8,0:0:0:0:
276,245,206410,1,0,0:0:0:0:
205,18,206584,1,0,0:0:0:0:
151,316,206844,1,0,0:0:0:0:
151,316,206930,1,2,0:0:0:0:
22,92,207104,1,8,0:0:0:0:
22,92,207190,1,2,0:0:0:0:
22,92,207277,5,2,0:0:0:0:
87,150,207451,1,0,0:0:0:0:
87,150,207624,2,0,P|90:184|87:241,1,70
13,294,207971,1,0,0:0:0:0:
13,294,208144,1,0,0:0:0:0:
177,227,208318,1,8,0:0:0:0:
408,358,208664,5,2,0:0:0:0:
177,227,209011,1,0,0:0:0:0:
371,260,209358,1,0,0:0:0:0:
348,155,209531,1,0,0:0:0:0:
371,260,209705,1,8,0:0:0:0:
293,335,209878,1,0,0:0:0:0:
469,332,210052,5,2,0:0:0:0:
349,18,210399,1,0,0:0:0:0:
224,201,210745,5,0,0:0:0:0:
114,118,210919,1,0,0:0:0:0:
341,133,211092,1,8,0:0:0:0:
121,368,211439,5,2,0:0:0:0:
104,274,211612,1,0,0:0:0:0:
136,192,211786,1,0,0:0:0:0:
204,156,211959,1,0,0:0:0:0:
271,176,212133,1,2,0:0:0:0:
181,66,212306,1,0,0:0:0:0:
181,66,212393,1,0,0:0:0:0:
181,66,212479,1,8,0:0:0:0:
158,88,212566,1,0,0:0:0:0:
117,95,212653,1,0,0:0:0:0:
68,76,212740,1,0,0:0:0:0:
42,29,212826,5,2,0:0:0:0:
0,164,213000,1,0,0:0:0:0:
136,192,213173,1,0,0:0:0:0:
499,0,213520,1,0,0:0:0:0:
483,7,213867,1,8,0:0:0:0:
484,100,214040,1,0,0:0:0:0:
357,158,214214,5,2,0:0:0:0:
473,177,214387,1,0,0:0:0:0:
344,51,214560,1,0,0:0:0:0:
421,287,214907,1,2,0:0:0:0:
154,187,215254,1,8,0:0:0:0:
171,166,215427,1,0,0:0:0:0:
314,298,215601,6,0,P|265:311|235:314,1,70,2|0,0:0|0:0,0:0:0:0:
104,343,215948,2,0,P|68:318|48:288,1,70,0|0,0:0|0:0,0:0:0:0:
204,246,216294,2,0,P|164:264|128:266,1,70,0|0,0:0|0:0,0:0:0:0:
5,79,216641,2,0,L|32:14,1,70,8|0,0:0|0:0,0:0:0:0:
118,127,216988,5,2,0:0:0:0:
194,167,217335,1,0,0:0:0:0:
262,118,217682,5,2,0:0:0:0:
194,167,217855,1,0,0:0:0:0:
118,127,218029,1,8,0:0:0:0:
339,243,218375,5,6,0:0:0:0:
321,342,218549,1,0,0:0:0:0:
326,221,218722,1,0,0:0:0:0:
442,358,218896,1,0,0:0:0:0:
442,358,218982,1,0,0:0:0:0:
442,358,219069,1,2,0:0:0:0:
210,362,219242,1,0,0:0:0:0:
210,362,219329,1,0,0:0:0:0:
210,362,219416,1,2,0:0:0:0:
162,187,219589,1,0,0:0:0:0:
162,187,219676,1,0,0:0:0:0:
162,187,219763,5,2,0:0:0:0:
126,294,219936,1,0,0:0:0:0:
255,289,220110,1,0,0:0:0:0:
219,108,220283,1,0,0:0:0:0:
219,108,220370,1,0,0:0:0:0:
219,108,220456,1,2,0:0:0:0:
301,195,220630,1,0,0:0:0:0:
301,195,220716,1,0,0:0:0:0:
301,195,220803,1,2,0:0:0:0:
412,168,220977,1,0,0:0:0:0:
412,168,221063,1,0,0:0:0:0:
412,168,221150,5,2,0:0:0:0:
436,82,221497,1,2,0:0:0:0:
367,33,221844,1,2,0:0:0:0:
478,226,222190,1,2,0:0:0:0:
447,3,222537,5,8,0:0:0:0:
413,10,222624,1,8,0:0:0:0:
390,31,222711,1,8,0:0:0:0:
380,57,222797,1,8,0:0:0:0:
381,85,222884,1,8,0:0:0:0:
394,111,222971,1,8,0:0:0:0:
416,130,223058,1,8,0:0:0:0:
443,140,223144,1,8,0:0:0:0:
470,141,223231,2,8,L|480:77,1,35,8|8,0:0|0:0,0:0:0:0:
393,209,223404,1,8,0:0:0:0:
364,227,223491,1,8,0:0:0:0:
325,231,223578,6,8,L|213:207,1,105,2|0,0:0|0:0,0:0:0:0:
130,233,223925,1,2,0:0:0:0:
79,77,224271,6,0,P|96:197|98:333,1,231.000007049561,14|0,0:0|0:0,0:0:0:0:
199,359,224618,1,2,0:0:0:0:
82,384,224792,1,2,0:0:0:0:
445,284,224965,6,0,P|363:233|225:200,1,231.000007049561,10|0,0:0|0:0,0:0:0:0:
176,262,225312,1,2,0:0:0:0:
443,183,225659,6,0,P|470:82|346:10,1,231.000007049561,10|0,0:0|0:0,0:0:0:0:
366,119,226005,1,2,0:0:0:0:
512,90,226179,1,2,0:0:0:0:
216,209,226352,6,0,P|322:294|423:253,1,231.000007049561,10|0,0:0|0:0,0:0:0:0:
443,183,226699,1,2,0:0:0:0:
417,303,226873,1,2,0:0:0:0:
228,118,227046,6,0,P|93:123|-18:147,1,231.000007049561,10|0,0:0|0:0,0:0:0:0:
18,234,227393,1,2,0:0:0:0:
184,232,227566,1,2,0:0:0:0:
103,0,227740,6,0,P|142:88|135:265,1,231.000007049561,10|0,0:0|0:0,0:0:0:0:
33,367,228086,6,0,P|114:317|240:353,1,231.000007049561,2|0,0:0|0:0,0:0:0:0:
364,364,228433,2,0,L|319:241,1,77.0000023498536,2|0,0:0|0:0,0:0:0:0:
361,153,228607,2,0,L|383:46,1,77.0000023498536,2|0,0:0|0:0,0:0:0:0:
420,234,228780,1,8,0:0:0:0:
161,221,228954,1,8,0:0:0:0:
166,173,229041,1,8,0:0:0:0:
195,129,229127,1,8,0:0:0:0:
238,103,229214,1,8,0:0:0:0:
289,100,229300,1,8,0:0:0:0:
80,45,229474,6,0,L|109:166,1,87.5,6|0,0:0|0:0,0:0:0:0:
15,318,229647,2,0,P|48:298|121:276,1,87.5,8|0,0:0|0:0,0:0:0:0:
320,176,229821,6,0,P|279:182|199:229,1,87.5,2|0,0:0|0:0,0:0:0:0:
354,327,229994,2,0,L|367:229,1,87.5,8|0,0:0|0:0,0:0:0:0:
384,0,230167,1,2,0:0:0:0:
384,0,230254,1,0,0:0:0:0:
384,0,230341,2,0,L|391:112,1,87.5,8|0,0:0|0:0,0:0:0:0:
214,221,230514,2,0,L|359:175,1,87.5,2|0,0:0|0:0,0:0:0:0:
512,203,230688,2,0,P|486:165|469:128,1,87.5,8|0,0:0|0:0,0:0:0:0:
267,67,230861,6,0,P|256:176|186:235,1,175,2|8,0:0|0:0,0:0:0:0:
40,290,231121,1,0,0:0:0:0:
40,290,231208,2,0,P|83:283|126:282,1,87.5,2|0,0:0|0:0,0:0:0:0:
303,363,231381,2,0,L|277:260,1,87.5,8|0,0:0|0:0,0:0:0:0:
80,94,231555,1,2,0:0:0:0:
124,137,231641,1,0,0:0:0:0:
138,196,231728,2,0,L|125:298,1,87.5,8|0,0:0|0:0,0:0:0:0:
9,384,231901,2,0,L|117:363,1,87.5,2|0,0:0|0:0,0:0:0:0:
281,278,232075,2,0,P|278:228|270:169,1,87.5,8|0,0:0|0:0,0:0:0:0:
127,28,232248,6,0,P|113:134|140:200,1,175,6|8,0:0|0:0,0:0:0:0:
246,358,232508,1,0,0:0:0:0:
246,358,232595,2,0,P|264:320|284:261,1,87.5,2|0,0:0|0:0,0:0:0:0:
445,111,232768,2,0,P|416:147|360:182,1,87.5,8|0,0:0|0:0,0:0:0:0:
216,203,232942,1,2,0:0:0:0:
147,182,233029,1,0,0:0:0:0:
125,114,233115,2,0,P|120:78|131:15,1,87.5,8|0,0:0|0:0,0:0:0:0:
0,221,233289,2,0,P|42:365|28:413,1,175,2|8,0:0|0:0,0:0:0:0:
273,255,233549,1,0,0:0:0:0:
273,255,233636,6,0,P|221:270|170:313,1,87.5,2|0,0:0|0:0,0:0:0:0:
347,384,233809,2,0,P|351:333|351:260,1,87.5,8|0,0:0|0:0,0:0:0:0:
270,78,233982,2,0,P|308:99|338:130,1,87.5,2|0,0:0|0:0,0:0:0:0:
193,288,234156,2,0,L|94:265,1,87.5,8|0,0:0|0:0,0:0:0:0:
448,292,234329,1,6,0:0:0:0:
484,254,234416,1,0,0:0:0:0:
505,205,234503,1,8,0:0:0:0:
504,152,234589,1,0,0:0:0:0:
486,102,234676,2,0,P|470:146|439:197,1,87.5,2|0,0:0|0:0,0:0:0:0:
332,332,234849,2,0,P|327:288|315:246,1,87.5,8|0,0:0|0:0,0:0:0:0:
65,73,235023,6,0,P|119:87|219:268,1,262.5,6|0,0:0|0:0,0:0:0:0:
105,362,235370,2,0,P|97:310|101:247,1,87.5,2|0,0:0|0:0,0:0:0:0:
204,96,235543,2,0,P|172:147|127:179,1,87.5,8|0,0:0|0:0,0:0:0:0:
2,232,235716,1,2,0:0:0:0:
45,267,235803,1,0,0:0:0:0:
97,275,235890,2,0,L|193:294,1,87.5,8|0,0:0|0:0,0:0:0:0:
378,244,236063,2,0,P|314:292|258:374,1,175,2|8,0:0|0:0,0:0:0:0:
475,356,236323,1,0,0:0:0:0:
475,356,236410,6,0,L|460:254,1,87.5,2|0,0:0|0:0,0:0:0:0:
512,82,236584,2,0,P|478:121|428:150,1,87.5,8|0,0:0|0:0,0:0:0:0:
250,91,236757,2,0,L|261:-12,1,87.5,2|0,0:0|0:0,0:0:0:0:
262,293,236930,2,0,L|251:396,1,87.5,8|0,0:0|0:0,0:0:0:0:
146,211,237104,1,2,0:0:0:0:
112,178,237190,1,0,0:0:0:0:
103,132,237277,2,0,L|100:29,1,87.5,8|0,0:0|0:0,0:0:0:0:
254,187,237451,2,0,P|228:286|136:323,1,175,2|8,0:0|0:0,0:0:0:0:
362,326,237711,1,0,0:0:0:0:
362,326,237797,6,0,P|415:338|493:335,1,87.5,6|0,0:0|0:0,0:0:0:0:
465,171,237971,2,0,P|448:131|437:89,1,87.5,8|0,0:0|0:0,0:0:0:0:
332,239,238144,2,0,P|304:261|247:277,1,87.5,2|0,0:0|0:0,0:0:0:0:
144,200,238318,2,0,L|129:89,1,87.5,8|0,0:0|0:0,0:0:0:0:
307,9,238491,1,2,0:0:0:0:
355,27,238578,1,0,0:0:0:0:
381,71,238664,2,0,P|373:119|362:158,1,87.5,8|0,0:0|0:0,0:0:0:0:
163,280,238838,2,0,P|256:294|338:297,1,175,2|8,0:0|0:0,0:0:0:0:
472,350,239098,1,0,0:0:0:0:
472,350,239185,6,0,P|416:369|345:354,1,87.5,6|0,0:0|0:0,0:0:0:0:
194,384,239358,2,0,P|177:346|174:288,1,87.5,8|0,0:0|0:0,0:0:0:0:
195,95,239531,2,0,P|224:132|237:186,1,87.5,2|0,0:0|0:0,0:0:0:0:
0,300,239705,2,0,L|86:311,1,87.5,8|0,0:0|0:0,0:0:0:0:
289,252,239878,6,0,L|269:78,1,175,2|8,0:0|0:0,0:0:0:0:
362,9,240138,1,0,0:0:0:0:
406,37,240225,1,2,0:0:0:0:
436,80,240312,1,0,0:0:0:0:
451,130,240399,1,8,0:0:0:0:
449,182,240485,1,0,0:0:0:0:
428,233,240572,6,0,B|382:316|297:333|235:295|178:234|77:288,1,350,6|2,0:0|0:0,0:0:0:0:
512,340,241092,2,0,P|465:359|404:350,1,87.5,8|0,0:0|0:0,0:0:0:0:
240,145,241266,1,2,0:0:0:0:
281,166,241352,1,0,0:0:0:0:
312,206,241439,2,0,P|319:252|316:319,1,87.5,8|0,0:0|0:0,0:0:0:0:
179,368,241612,2,0,P|191:325|206:246,1,87.5,2|0,0:0|0:0,0:0:0:0:
31,127,241786,2,0,P|57:170|108:229,1,87.5,8|0,0:0|0:0,0:0:0:0:
240,145,241959,6,0,P|186:141|134:108,1,87.5,2|0,0:0|0:0,0:0:0:0:
35,23,242133,2,0,L|148:42,1,87.5,8|0,0:0|0:0,0:0:0:0:
391,63,242306,6,0,P|326:67|263:107,1,87.5,2|0,0:0|0:0,0:0:0:0:
127,265,242479,2,0,P|174:259|247:260,1,87.5,8|0,0:0|0:0,0:0:0:0:
343,346,242653,1,2,0:0:0:0:
391,339,242740,1,0,0:0:0:0:
430,320,242826,2,0,P|438:275|440:214,1,87.5,8|0,0:0|0:0,0:0:0:0:
165,99,243000,2,0,P|211:129|298:169,1,87.5,2|0,0:0|0:0,0:0:0:0:
498,128,243173,2,0,P|445:125|389:133,1,87.5,8|0,0:0|0:0,0:0:0:0:
104,157,243347,6,0,P|48:231|42:320,1,175,6|8,0:0|0:0,0:0:0:0:
154,353,243607,1,0,0:0:0:0:
154,353,243693,2,0,L|251:354,1,87.5,2|0,0:0|0:0,0:0:0:0:
239,144,243867,2,0,P|215:192|205:250,1,87.5,8|0,0:0|0:0,0:0:0:0:
363,221,244040,1,2,0:0:0:0:
385,170,244127,1,0,0:0:0:0:
371,116,244214,2,0,P|386:155|424:202,1,87.5,8|0,0:0|0:0,0:0:0:0:
512,345,244387,2,0,L|506:248,1,87.5,2|0,0:0|0:0,0:0:0:0:
496,0,244560,1,8,0:0:0:0:
503,31,244647,1,0,0:0:0:0:
500,62,244734,6,0,P|397:95|306:37,1,175,2|0,0:0|0:0,0:0:0:0:
0,205,245081,2,0,B|94:136|110:247|169:233,1,175,2|0,0:0|0:0,0:0:0:0:
512,345,245427,2,0,L|479:208,1,87.5,2|0,0:0|0:0,0:0:0:0:
239,229,245601,1,8,0:0:0:0:
244,280,245688,1,8,0:0:0:0:
273,323,245774,1,10,0:0:0:0:
318,349,245861,1,8,0:0:0:0:
365,358,245948,2,0,L|355:256,1,87.5,8|0,0:0|0:0,0:0:0:0:
274,48,246121,6,0,P|240:140|110:123,1,175,2|8,0:0|0:0,0:0:0:0:
48,96,246381,1,0,0:0:0:0:
48,96,246468,2,0,L|35:-9,1,87.5,2|0,0:0|0:0,0:0:0:0:
151,161,246641,2,0,P|111:199|86:245,1,87.5,8|0,0:0|0:0,0:0:0:0:
156,384,246815,1,2,0:0:0:0:
156,384,246901,1,0,0:0:0:0:
156,384,246988,2,0,L|166:283,1,87.5,8|0,0:0|0:0,0:0:0:0:
303,128,247162,2,0,P|298:181|307:268,1,87.5,2|0,0:0|0:0,0:0:0:0:
453,325,247335,2,0,P|415:302|375:284,1,87.5,8|0,0:0|0:0,0:0:0:0:
127,140,247508,5,6,0:0:0:0:
461,0,247682,1,0,0:0:0:0:
297,247,247855,1,2,0:0:0:0:
297,247,247942,1,2,0:0:0:0:
297,247,248029,2,0,P|283:210|271:148,1,87.5,8|0,0:0|0:0,0:0:0:0:
415,87,248202,1,2,0:0:0:0:
415,87,248289,1,0,0:0:0:0:
415,87,248375,2,0,P|412:134|403:188,1,87.5,8|0,0:0|0:0,0:0:0:0:
197,288,248549,2,0,L|68:270,1,87.5,2|0,0:0|0:0,0:0:0:0:
0,112,248722,2,0,L|124:88,1,87.5,8|0,0:0|0:0,0:0:0:0:
324,15,248896,6,0,P|255:62|223:155,1,175,6|0,0:0|0:0,0:0:0:0:
375,384,249242,2,0,P|300:310|308:222,1,175,2|0,0:0|0:0,0:0:0:0:
476,6,249589,2,0,P|491:55|506:139,1,87.5,2|0,0:0|0:0,0:0:0:0:
461,210,249763,2,0,P|422:230|382:249,1,87.5,10|0,0:0|0:0,0:0:0:0:
268,75,249936,2,0,P|370:97|366:201,1,175,2|0,0:0|0:0,0:0:0:0:
186,324,250283,6,0,L|34:284,1,87.5,6|0,0:0|0:0,0:0:0:0:
108,62,250456,1,8,0:0:0:0:
153,76,250543,1,8,0:0:0:0:
179,114,250630,1,8,0:0:0:0:
187,155,250716,1,8,0:0:0:0:
170,195,250803,1,8,0:0:0:0:
151,214,250890,1,8,0:0:0:0:
131,221,250977,6,0,L|107:120,1,87.5,10|0,0:0|0:0,0:0:0:0:
272,3,251150,1,8,0:0:0:0:
272,3,251237,1,8,0:0:0:0:
272,3,251323,2,0,L|246:113,1,87.5,10|0,0:0|0:0,0:0:0:0:
292,316,251497,1,8,0:0:0:0:
292,316,251584,1,8,0:0:0:0:
292,316,251670,6,0,L|266:206,1,87.5,6|0,0:0|0:0,0:0:0:0:
424,110,251844,1,8,0:0:0:0:
153,285,252017,2,0,P|276:330|289:362,1,175,2|8,0:0|0:0,0:0:0:0:
200,378,252277,1,0,0:0:0:0:
200,378,252364,6,0,L|84:375,1,87.5,2|0,0:0|0:0,0:0:0:0:
0,257,252537,1,8,0:0:0:0:
113,65,252711,2,0,P|149:162|220:197,1,175,2|8,0:0|0:0,0:0:0:0:
379,246,252971,1,0,0:0:0:0:
379,246,253058,6,0,L|407:116,1,87.5,6|0,0:0|0:0,0:0:0:0:
504,1,253231,1,8,0:0:0:0:
452,330,253404,2,0,L|480:200,1,87.5,2|0,0:0|0:0,0:0:0:0:
357,15,253577,2,0,L|338:100,1,87.5,8|0,0:0|0:0,0:0:0:0:
279,305,253751,6,0,L|251:175,1,87.5,2|0,0:0|0:0,0:0:0:0:
156,36,253924,2,0,L|174:121,1,87.5,8|0,0:0|0:0,0:0:0:0:
401,294,254098,2,0,L|373:162,1,87.5,2|0,0:0|0:0,0:0:0:0:
240,33,254271,2,0,L|258:118,1,87.5,8|0,0:0|0:0,0:0:0:0:
156,374,254445,6,0,P|102:358|59:302,1,87.5,2|0,0:0|0:0,0:0:0:0:
18,156,254618,2,0,P|71:171|114:227,1,87.5,8|0,0:0|0:0,0:0:0:0:
279,305,254792,2,0,P|225:289|182:233,1,87.5,2|0,0:0|0:0,0:0:0:0:
0,62,254965,2,0,P|54:67|106:115,1,87.5,8|0,0:0|0:0,0:0:0:0:
297,331,255138,1,2,0:0:0:0:
297,331,255225,1,0,0:0:0:0:
297,331,255312,1,8,0:0:0:0:
355,70,255485,6,0,B|286:91|209:46|171:87,1,175,10|8,0:0|0:0,0:0:0:0:
0,132,255745,1,0,0:0:0:0:
29,115,255832,6,0,B|124:104|85:195|203:186,1,175,2|8,0:0|0:0,0:0:0:0:
364,258,256179,2,0,P|377:209|374:139,1,87.5,2|0,0:0|0:0,0:0:0:0:
324,24,256352,2,0,L|267:111,1,87.5,8|0,0:0|0:0,0:0:0:0:
229,330,256526,2,0,L|229:220,1,87.5,2|0,0:0|0:0,0:0:0:0:
137,40,256699,1,8,0:0:0:0:
127,90,256786,1,8,0:0:0:0:
148,138,256873,1,10,0:0:0:0:
185,174,256959,1,8,0:0:0:0:
224,208,257046,1,8,0:0:0:0:
245,257,257133,1,8,0:0:0:0:
239,308,257219,6,0,P|263:265|304:226,1,87.5,6|0,0:0|0:0,0:0:0:0:
483,97,257393,1,8,0:0:0:0:
475,203,257566,2,0,P|428:189|371:143,1,87.5,2|0,0:0|0:0,0:0:0:0:
303,22,257740,1,8,0:0:0:0:
383,2,257913,5,2,0:0:0:0:
393,37,258000,1,0,0:0:0:0:
381,76,258086,2,0,P|335:107|281:128,1,87.5,8|0,0:0|0:0,0:0:0:0:
0,101,258260,2,0,P|31:144|55:202,1,87.5,2|0,0:0|0:0,0:0:0:0:
140,331,258433,1,8,0:0:0:0:
43,358,258607,6,0,P|47:314|74:248,1,87.5,2|0,0:0|0:0,0:0:0:0:
152,90,258780,2,0,L|172:227,1,87.5,8|0,0:0|0:0,0:0:0:0:
284,365,258953,2,0,P|238:338|216:308,1,87.5,2|0,0:0|0:0,0:0:0:0:
302,108,259127,2,0,P|296:156|304:228,1,87.5,8|0,0:0|0:0,0:0:0:0:
459,354,259300,5,2,0:0:0:0:
490,325,259387,1,0,0:0:0:0:
505,283,259474,2,0,P|498:236|482:172,1,87.5,8|0,0:0|0:0,0:0:0:0:
328,32,259647,2,0,P|378:42|421:41,1,87.5,2|0,0:0|0:0,0:0:0:0:
501,15,259821,1,8,0:0:0:0:
364,265,259994,6,0,P|231:261|206:177,1,175,6|8,0:0|0:0,0:0:0:0:
42,64,260341,2,0,P|86:83|144:98,1,87.5,2|0,0:0|0:0,0:0:0:0:
338,114,260514,2,0,P|286:126|245:151,1,87.5,8|0,0:0|0:0,0:0:0:0:
70,256,260688,5,2,0:0:0:0:
70,256,260774,1,0,0:0:0:0:
70,256,260861,2,0,P|117:273|191:287,1,87.5,8|0,0:0|0:0,0:0:0:0:
333,347,261034,2,0,P|346:311|367:252,1,87.5,2|0,0:0|0:0,0:0:0:0:
338,114,261208,1,8,0:0:0:0:
511,342,261381,6,0,P|464:324|380:303,1,87.5,2|0,0:0|0:0,0:0:0:0:
276,207,261555,2,0,P|226:211|140:227,1,87.5,8|0,0:0|0:0,0:0:0:0:
255,324,261728,1,2,0:0:0:0:
392,128,261901,1,8,0:0:0:0:
371,114,261988,1,8,0:0:0:0:
338,114,262075,1,10,0:0:0:0:
315,129,262162,1,8,0:0:0:0:
271,157,262248,5,8,0:0:0:0:
218,158,262335,1,8,0:0:0:0:
172,131,262422,1,10,0:0:0:0:
157,80,262508,1,8,0:0:0:0:
178,31,262595,1,8,0:0:0:0:
227,8,262682,1,8,0:0:0:0:
277,22,262768,6,0,P|277:65|270:137,1,87.5,6|0,0:0|0:0,0:0:0:0:
116,260,262942,2,0,P|170:244|245:231,1,87.5,8|0,0:0|0:0,0:0:0:0:
387,219,263115,2,0,L|402:305,1,87.5,2|0,0:0|0:0,0:0:0:0:
252,371,263289,2,0,L|93:348,1,87.5,8|0,0:0|0:0,0:0:0:0:
1,265,263462,1,2,0:0:0:0:
1,265,263549,1,0,0:0:0:0:
1,265,263636,2,0,L|11:158,1,87.5,8|0,0:0|0:0,0:0:0:0:
184,69,263809,2,0,L|108:172,1,87.5,2|0,0:0|0:0,0:0:0:0:
0,92,263982,2,0,L|1:-6,1,87.5,8|0,0:0|0:0,0:0:0:0:
180,0,264156,6,0,L|160:203,1,175,2|8,0:0|0:0,0:0:0:0:
223,297,264416,1,0,0:0:0:0:
223,297,264503,2,0,P|261:295|347:257,1,87.5,2|0,0:0|0:0,0:0:0:0:
429,299,264676,2,0,P|458:275|507:195,1,87.5,8|0,0:0|0:0,0:0:0:0:
460,60,264849,5,6,0:0:0:0:
397,47,264936,1,0,0:0:0:0:
346,65,265023,1,8,0:0:0:0:
315,106,265110,1,0,0:0:0:0:
311,149,265196,1,2,0:0:0:0:
327,183,265283,1,0,0:0:0:0:
356,197,265370,1,8,0:0:0:0:
371,196,265456,1,0,0:0:0:0:
374,190,265543,6,0,L|323:6,1,175,2|8,0:0|0:0,0:0:0:0:
482,174,265803,1,0,0:0:0:0:
482,174,265890,2,0,P|479:225|454:281,1,87.5,2|0,0:0|0:0,0:0:0:0:
336,333,266063,2,0,P|290:355|229:362,1,87.5,8|0,0:0|0:0,0:0:0:0:
133,296,266237,5,2,0:0:0:0:
133,296,266323,1,0,0:0:0:0:
133,296,266410,2,0,L|162:177,1,87.5,8|0,0:0|0:0,0:0:0:0:
154,62,266584,1,2,0:0:0:0:
137,39,266670,1,0,0:0:0:0:
95,27,266757,1,8,0:0:0:0:
47,44,266844,1,0,0:0:0:0:
10,86,266930,6,0,L|-3:299,1,175,6|8,0:0|0:0,0:0:0:0:
238,173,267277,1,2,0:0:0:0:
238,173,267364,1,0,0:0:0:0:
238,173,267451,2,0,P|200:204|155:225,1,87.5,8|0,0:0|0:0,0:0:0:0:
61,340,267624,2,0,P|144:315|257:303,1,175,6|8,0:0|0:0,0:0:0:0:
248,317,267884,1,8,0:0:0:0:
248,317,267971,1,8,0:0:0:0:
298,331,268058,1,8,0:0:0:0:
349,322,268144,1,8,0:0:0:0:
392,292,268231,1,8,0:0:0:0:
417,245,268318,6,0,L|292:200,1,87.5,2|0,0:0|0:0,0:0:0:0:
159,100,268491,2,0,L|292:90,1,87.5,8|0,0:0|0:0,0:0:0:0:
457,122,268664,2,0,L|399:24,1,87.5,2|0,0:0|0:0,0:0:0:0:
309,6,268838,1,8,0:0:0:0:
510,186,269011,5,2,0:0:0:0:
509,235,269098,1,0,0:0:0:0:
506,283,269185,1,8,0:0:0:0:
353,367,269358,2,0,P|299:344|239:331,1,87.5,2|0,0:0|0:0,0:0:0:0:
67,268,269531,2,0,P|110:264|183:239,1,87.5,8|0,0:0|0:0,0:0:0:0:
254,1,269705,6,0,P|254:93|258:168,1,87.5,6|0,0:0|0:0,0:0:0:0:
349,249,269878,2,0,P|332:197|321:114,1,87.5,8|0,0:0|0:0,0:0:0:0:
497,0,270052,2,0,L|474:120,1,87.5,6|0,0:0|0:0,0:0:0:0:
414,331,270225,2,0,P|402:293|368:207,1,87.5,8|0,0:0|0:0,0:0:0:0:
163,87,270399,5,2,0:0:0:0:
130,78,270486,1,0,0:0:0:0:
100,76,270572,2,0,P|51:87|4:100,1,87.5,8|0,0:0|0:0,0:0:0:0:
399,155,270745,2,0,P|447:166|496:328,1,175,2|8,0:0|0:0,0:0:0:0:
282,342,271092,6,0,P|174:330|55:308,1,175,6|8,0:0|0:0,0:0:0:0:
274,79,271439,2,0,L|397:64,1,87.5,2|0,0:0|0:0,0:0:0:0:
486,310,271612,2,0,L|347:290,1,87.5,8|0,0:0|0:0,0:0:0:0:
0,384,271959,6,0,P|39:365|74:339,1,87.5,8|0,0:0|0:0,0:0:0:0:
257,191,272306,5,12,0:0:0:0:
257,191,272653,1,8,0:0:0:0:
156,167,272826,1,2,0:0:0:0:
257,191,273000,1,8,0:0:0:0:
354,215,273173,1,2,0:0:0:0:
257,191,273347,5,8,0:0:0:0:
257,137,273433,1,8,0:0:0:0:
255,86,273520,1,10,0:0:0:0:
265,90,273607,1,8,0:0:0:0:
276,94,273693,1,8,0:0:0:0:
288,100,273780,1,8,0:0:0:0:
299,104,273867,6,0,P|325:116|368:132,1,52.5000020027161,2|0,0:0|0:0,0:0:0:0:
512,148,274040,1,8,0:0:0:0:
354,229,274214,1,2,0:0:0:0:
448,15,274387,1,8,0:0:0:0:
448,15,274474,1,0,0:0:0:0:
448,15,274560,1,2,0:0:0:0:
411,43,274647,1,2,0:0:0:0:
394,85,274734,2,0,P|393:114|396:170,1,52.5000020027161,8|0,0:0|0:0,0:0:0:0:
461,223,274907,1,2,0:0:0:0:
282,325,275081,1,8,0:0:0:0:
494,384,275254,6,0,P|479:323|463:288,1,62.9999980773926,2|0,0:0|0:0,0:0:0:0:
289,198,275427,2,0,P|322:224|375:247,1,62.9999980773926,8|0,0:0|0:0,0:0:0:0:
512,244,275601,2,0,P|431:257|382:324,1,125.999996154785,2|8,0:0|0:0,0:0:0:0:
199,353,275948,1,2,0:0:0:0:
214,306,276034,1,0,0:0:0:0:
208,262,276121,2,0,P|204:237|203:202,1,52.5000020027161,8|0,0:0|0:0,0:0:0:0:
320,66,276294,2,0,L|289:127,1,52.5000020027161,2|0,0:0|0:0,0:0:0:0:
102,191,276468,2,0,P|119:160|149:127,1,52.5000020027161,8|0,0:0|0:0,0:0:0:0:
308,221,276641,6,0,P|307:267|294:342,1,105.000004005432,6|8,0:0|0:0,0:0:0:0:
122,273,276988,1,0,0:0:0:0:
350,250,277162,2,0,P|323:236|294:200,1,52.5000020027161,8|0,0:0|0:0,0:0:0:0:
247,92,277335,1,2,0:0:0:0:
247,92,277422,1,2,0:0:0:0:
247,92,277508,2,0,P|223:115|184:133,1,52.5000020027161,8|0,0:0|0:0,0:0:0:0:
0,143,277682,1,2,0:0:0:0:
106,32,277855,1,8,0:0:0:0:
194,276,278029,6,0,P|182:236|167:193,1,66.4999982242585,6|0,0:0|0:0,0:0:0:0:
87,127,278202,2,0,P|82:165|47:225,1,66.4999982242585,8|0,0:0|0:0,0:0:0:0:
0,295,278375,2,0,P|95:309|149:346,1,112,0|8,0:0|0:0,0:0:0:0:
272,384,278722,2,0,P|224:375|176:356,1,56
98,287,278896,1,8,0:0:0:0:
98,287,278982,1,8,0:0:0:0:
98,287,279069,1,10,0:0:0:0:
111,246,279156,1,8,0:0:0:0:
141,217,279242,1,8,0:0:0:0:
183,202,279329,1,8,0:0:0:0:
227,205,279416,6,0,P|190:195|148:177,1,56,10|0,0:0|0:0,0:0:0:0:
112,73,279589,1,8,0:0:0:0:
305,177,279763,2,0,P|289:146|274:90,1,56,2|0,0:0|0:0,0:0:0:0:
310,0,279936,1,8,0:0:0:0:
384,208,280110,1,2,0:0:0:0:
384,208,280196,1,0,0:0:0:0:
384,208,280283,1,8,0:0:0:0:
512,67,280456,2,0,P|456:119|440:196,1,112,2|8,0:0|0:0,0:0:0:0:
266,328,280803,5,2,0:0:0:0:
285,102,280977,1,8,0:0:0:0:
209,268,281150,1,2,0:0:0:0:
37,271,281323,2,0,P|82:253|133:238,1,56,8|0,0:0|0:0,0:0:0:0:
307,231,281497,6,0,P|359:247|425:306,1,105.000004005432,2|8,0:0|0:0,0:0:0:0:
511,354,281844,2,0,P|482:334|451:292,1,52.5000020027161,2|0,0:0|0:0,0:0:0:0:
409,181,282017,2,0,P|407:211|393:275,1,52.5000020027161,8|0,0:0|0:0,0:0:0:0:
273,365,282190,5,8,0:0:0:0:
337,151,282364,2,0,L|326:58,1,70,8|2,0:0|0:0,0:0:0:0:
512,255,282711,5,2,0:0:0:0:
337,151,282884,2,0,L|290:71,1,70,10|2,0:0|0:0,0:0:0:0:
199,344,283231,5,2,0:0:0:0:
337,151,283404,2,0,L|353:61,1,70,8|2,0:0|0:0,0:0:0:0:
371,315,283751,6,0,L|381:397,1,70,10|2,0:0|0:0,0:0:0:0:
246,256,284098,1,8,0:0:0:0:
405,190,284271,1,2,0:0:0:0:
230,135,284445,1,8,0:0:0:0:
210,87,284531,1,8,0:0:0:0:
225,41,284618,1,8,0:0:0:0:
226,67,284705,1,8,0:0:0:0:
210,87,284792,1,8,0:0:0:0:
189,96,284878,1,8,0:0:0:0:
165,92,284965,5,0,0:0:0:0:
82,133,285138,1,0,0:0:0:0:
169,212,285312,1,0,0:0:0:0:
169,212,285399,1,0,0:0:0:0:
143,229,285485,1,0,0:0:0:0:
132,251,285572,1,0,0:0:0:0:
113,233,285659,1,0,0:0:0:0:
106,253,285745,1,0,0:0:0:0:
88,247,285832,1,0,0:0:0:0:
78,261,285919,1,0,0:0:0:0:
63,264,286005,5,0,0:0:0:0:
21,261,286092,1,0,0:0:0:0:
32,294,286179,1,0,0:0:0:0:
0,250,286266,1,0,0:0:0:0:
0,299,286352,6,0,P|87:354|172:355,1,140,8|0,0:0|0:0,0:0:0:0:
338,288,286612,2,0,P|273:313|203:322,1,140,8|0,0:0|0:0,0:0:0:0:
419,350,286873,2,0,L|429:258,1,70,8|0,0:0|0:0,0:0:0:0:
334,115,287046,2,0,L|339:211,1,70,8|0,0:0|0:0,0:0:0:0:
506,347,287219,1,0,0:0:0:0:
506,347,287306,1,0,0:0:0:0:
506,347,287393,2,0,P|504:267|500:233,1,70,10|0,0:0|0:0,0:0:0:0:
503,159,287566,2,0,P|461:172|429:173,1,70,10|0,0:0|0:0,0:0:0:0:
263,202,287740,6,0,P|211:142|249:17,1,210,6|0,0:0|0:0,0:0:0:0:
423,148,288086,6,0,B|360:194|285:197|194:163|202:94|233:11|66:-8|-26:35|-56:107|-15:229|41:243|96:238,1,587.999982055665,2|0,0:0|0:0,0:0:0:0:
120,225,288780,2,0,P|150:271|163:326,1,73.4999977569581,2|0,0:0|0:0,0:0:0:0:
27,384,288953,2,0,L|52:284,1,73.4999977569581,8|0,0:0|0:0,0:0:0:0:
77,142,289127,6,0,P|95:181|140:222,1,73.4999977569581,2|0,0:0|0:0,0:0:0:0:
308,294,289300,1,8,0:0:0:0:
308,294,289387,1,0,0:0:0:0:
308,294,289474,2,0,L|221:303,1,73.4999977569581
375,369,289647,2,0,P|396:346|420:297,1,73.4999977569581,8|0,0:0|0:0,0:0:0:0:
485,136,289821,1,0,0:0:0:0:
434,151,289907,1,0,0:0:0:0:
381,170,289994,2,0,L|297:190,1,73.4999977569581,10|0,0:0|0:0,0:0:0:0:
253,93,290167,2,0,L|307:-4,1,73.4999977569581,2|0,0:0|0:0,0:0:0:0:
105,32,290341,2,0,P|131:80|160:147,1,73.4999977569581,10|0,0:0|0:0,0:0:0:0:
81,232,290514,5,6,0:0:0:0:
266,220,290688,2,0,P|212:207|161:184,1,73.4999977569581,10|0,0:0|0:0,0:0:0:0:
0,113,290861,2,0,P|30:128|88:141,1,73.4999977569581,2|0,0:0|0:0,0:0:0:0:
165,108,291034,1,10,0:0:0:0:
253,311,291208,1,2,0:0:0:0:
253,311,291294,1,0,0:0:0:0:
253,311,291381,2,0,L|252:392,1,73.4999977569581,8|0,0:0|0:0,0:0:0:0:
396,384,291555,2,0,P|371:367|323:292,1,73.4999977569581,2|0,0:0|0:0,0:0:0:0:
211,233,291728,2,0,P|236:216|284:141,1,73.4999977569581,10|0,0:0|0:0,0:0:0:0:
380,33,291901,6,0,P|365:177|357:243,1,146.999995513916,6|8,0:0|0:0,0:0:0:0:
439,278,292162,1,0,0:0:0:0:
439,278,292248,2,0,L|522:323,1,73.4999977569581,2|0,0:0|0:0,0:0:0:0:
342,334,292422,2,0,P|350:260|357:187,1,146.999995513916,10|0,0:0|0:0,0:0:0:0:
179,10,292768,1,8,0:0:0:0:
189,57,292855,1,0,0:0:0:0:
197,107,292942,2,0,L|182:207,1,73.4999977569581,2|0,0:0|0:0,0:0:0:0:
72,234,293115,2,0,L|-8:223,1,73.4999977569581,8|0,0:0|0:0,0:0:0:0:
81,134,293289,6,0,P|162:191|172:317,1,220.499993270874,6|0,0:0|0:0,0:0:0:0:
230,374,293636,2,0,L|318:369,1,73.4999977569581,2|0,0:0|0:0,0:0:0:0:
151,312,293809,2,0,P|85:336|19:378,1,146.999995513916,10|2,0:0|0:0,0:0:0:0:
47,384,294069,1,0,0:0:0:0:
61,383,294156,2,0,L|69:272,1,73.4999977569581,8|0,0:0|0:0,0:0:0:0:
144,161,294329,2,0,P|176:196|243:247,1,73.4999977569581,2|0,0:0|0:0,0:0:0:0:
291,300,294503,2,0,P|337:289|414:257,1,73.4999977569581,10|0,0:0|0:0,0:0:0:0:
509,283,294676,6,0,P|473:265|434:237,1,73.4999977569581,2|0,0:0|0:0,0:0:0:0:
394,110,294849,2,0,P|395:154|402:203,1,73.4999977569581,10|0,0:0|0:0,0:0:0:0:
273,281,295023,2,0,P|305:182|299:47,1,220.499993270874,2|0,0:0|0:0,0:0:0:0:
213,39,295370,1,2,0:0:0:0:
213,39,295456,1,0,0:0:0:0:
213,39,295543,2,0,L|208:147,1,73.4999977569581,10|0,0:0|0:0,0:0:0:0:
86,215,295716,2,0,P|53:199|29:168,2,73.4999977569581,2|0|8,0:0|0:0|0:0,0:0:0:0:
204,271,295977,1,0,0:0:0:0:
204,271,296063,6,0,B|335:231|299:335|436:303,1,220.499993270874,6|0,0:0|0:0,0:0:0:0:
219,182,296410,6,0,B|83:201|159:280|22:309,1,220.499993270874,2|0,0:0|0:0,0:0:0:0:
21,217,296757,1,2,0:0:0:0:
21,217,296844,1,0,0:0:0:0:
21,217,296930,2,0,L|30:129,1,73.4999977569581,10|0,0:0|0:0,0:0:0:0:
64,0,297104,2,0,P|107:67|218:111,1,146.999995513916,2|8,0:0|0:0,0:0:0:0:
368,95,297364,1,0,0:0:0:0:
368,95,297451,6,0,B|326:115|247:131|260:27|208:9|129:15,1,220.499993270874,2|0,0:0|0:0,0:0:0:0:
313,187,297797,2,0,P|363:182|410:158,1,73.4999977569581,2|0,0:0|0:0,0:0:0:0:
512,48,297971,2,0,P|488:121|480:188,1,73.4999977569581,10|0,0:0|0:0,0:0:0:0:
493,304,298144,2,0,B|364:288|399:364|244:353,1,220.499993270874,2|0,0:0|0:0,0:0:0:0:
185,310,298491,1,10,0:0:0:0:
185,310,298578,1,8,0:0:0:0:
185,310,298664,1,8,0:0:0:0:
185,310,298751,1,8,0:0:0:0:
185,310,298838,6,0,L|196:203,1,73.4999977569581,6|0,0:0|0:0,0:0:0:0:
112,153,299011,2,0,L|24:154,1,73.4999977569581,10|0,0:0|0:0,0:0:0:0:
216,247,299185,2,0,L|323:258,1,73.4999977569581,2|0,0:0|0:0,0:0:0:0:
373,174,299358,2,0,L|372:86,1,73.4999977569581,10|0,0:0|0:0,0:0:0:0:
497,266,299531,1,2,0:0:0:0:
497,266,299618,1,0,0:0:0:0:
497,266,299705,2,0,P|444:256|397:241,1,73.4999977569581,2|0,0:0|0:0,0:0:0:0:
239,178,299878,2,0,P|219:221|215:265,1,73.4999977569581,2|0,0:0|0:0,0:0:0:0:
300,330,300052,2,0,P|328:369|363:394,1,73.4999977569581,10|0,0:0|0:0,0:0:0:0:
162,311,300225,6,0,P|74:346|30:395,1,146.999995513916,6|8,0:0|0:0,0:0:0:0:
153,129,300572,2,0,L|159:35,1,73.4999977569581,2|0,0:0|0:0,0:0:0:0:
149,0,300745,2,0,L|145:110,1,73.4999977569581,10|0,0:0|0:0,0:0:0:0:
239,178,300919,1,2,0:0:0:0:
239,178,301005,1,0,0:0:0:0:
239,178,301092,2,0,L|346:212,1,73.4999977569581,8|0,0:0|0:0,0:0:0:0:
175,237,301266,2,0,L|101:242,1,73.4999977569581,2|0,0:0|0:0,0:0:0:0:
0,146,301439,2,0,L|73:140,1,73.4999977569581,10|0,0:0|0:0,0:0:0:0:
266,22,301612,6,0,L|275:101,1,73.4999977569581,6|0,0:0|0:0,0:0:0:0:
248,273,301786,2,0,B|255:306|293:326|337:304,1,73.4999977569581,10|0,0:0|0:0,0:0:0:0:
457,306,301959,2,0,L|340:338,1,73.4999977569581,2|0,0:0|0:0,0:0:0:0:
180,369,302133,2,0,P|210:376|307:382,1,73.4999977569581,10|0,0:0|0:0,0:0:0:0:
459,382,302306,1,2,0:0:0:0:
474,343,302393,1,0,0:0:0:0:
457,306,302479,2,0,L|455:218,1,73.4999977569581,8|0,0:0|0:0,0:0:0:0:
291,115,302653,2,0,L|409:141,1,73.4999977569581,2|0,0:0|0:0,0:0:0:0:
512,57,302826,2,0,L|444:156,1,73.4999977569581,10|0,0:0|0:0,0:0:0:0:
358,230,303000,6,0,L|188:259,1,146.999995513916,4|8,0:0|0:0,0:0:0:0:
400,68,303347,2,0,P|381:105|336:156,1,73.4999977569581,2|0,0:0|0:0,0:0:0:0:
192,247,303520,2,0,P|189:200|200:136,1,73.4999977569581,10|0,0:0|0:0,0:0:0:0:
28,4,303693,2,0,P|100:22|98:165,1,220.499993270874,2|0,0:0|0:0,0:0:0:0:
27,213,304040,1,10,0:0:0:0:
27,213,304127,1,8,0:0:0:0:
27,213,304214,1,8,0:0:0:0:
27,213,304300,1,8,0:0:0:0:
27,213,304387,6,0,L|43:384,1,146.999995513916,6|8,0:0|0:0,0:0:0:0:
160,308,304734,2,0,L|241:294,1,73.4999977569581,2|0,0:0|0:0,0:0:0:0:
381,297,304907,2,0,L|308:309,1,73.4999977569581,10|0,0:0|0:0,0:0:0:0:
181,169,305081,1,2,0:0:0:0:
181,169,305167,1,0,0:0:0:0:
181,169,305254,2,0,P|203:195|244:227,1,73.4999977569581,10|0,0:0|0:0,0:0:0:0:
381,297,305427,2,0,L|391:169,1,73.4999977569581,2|0,0:0|0:0,0:0:0:0:
455,101,305601,2,0,L|445:209,1,73.4999977569581,8|0,0:0|0:0,0:0:0:0:
501,372,305774,6,0,P|494:335|459:270,1,73.4999977569581,2|0,0:0|0:0,0:0:0:0:
326,178,305948,2,0,P|303:150|392:55,1,146.999995513916,10|0,0:0|0:0,0:0:0:0:
179,265,306294,2,0,P|146:273|52:263,1,73.4999977569581,8|0,0:0|0:0,0:0:0:0:
0,151,306468,1,2,0:0:0:0:
0,151,306555,1,0,0:0:0:0:
0,151,306641,2,0,P|16:189|25:223,1,73.4999977569581,10|0,0:0|0:0,0:0:0:0:
12,384,306815,2,0,P|18:350|46:272,1,73.4999977569581,2|0,0:0|0:0,0:0:0:0:
114,194,306988,2,0,P|134:166|192:106,1,73.4999977569581,10|0,0:0|0:0,0:0:0:0:
179,265,307162,6,0,P|247:343|382:323,1,220.499993270874,6|0,0:0|0:0,0:0:0:0:
474,288,307508,2,0,B|455:293|453:251|391:259,1,73.4999977569581,2|0,0:0|0:0,0:0:0:0:
225,197,307682,2,0,B|270:157|264:209|310:212|374:137,1,146.999995513916,10|2,0:0|0:0,0:0:0:0:
384,123,307942,1,0,0:0:0:0:
384,123,308029,2,0,L|388:22,1,73.4999977569581,10|0,0:0|0:0,0:0:0:0:
446,188,308202,2,0,L|535:232,1,73.4999977569581,2|0,0:0|0:0,0:0:0:0:
274,96,308375,2,0,L|135:126,1,73.4999977569581,10|0,0:0|0:0,0:0:0:0:
17,30,308549,6,0,P|162:110|220:88,1,220.499993270874,6|0,0:0|0:0,0:0:0:0:
95,192,308896,2,0,P|48:200|-37:236,1,73.4999977569581,10|0,0:0|0:0,0:0:0:0:
74,286,309069,1,8,0:0:0:0:
74,286,309156,1,8,0:0:0:0:
74,286,309242,5,12,0:0:0:0:
487,349,309589,5,6,0:0:0:0:
332,44,309936,5,6,0:0:0:0:
480,322,321034,5,2,0:0:0:0:
480,322,321381,1,2,0:0:0:0:
480,322,321728,1,2,0:0:0:0:
480,322,322075,1,2,0:0:0:0:
411,111,322422,5,2,0:0:0:0:
411,111,322768,1,2,0:0:0:0:
411,111,323115,1,2,0:0:0:0:
411,111,323462,1,2,0:0:0:0:
210,232,323809,5,2,0:0:0:0:
210,232,324156,1,2,0:0:0:0:
210,232,324503,1,2,0:0:0:0:
210,232,324850,1,2,0:0:0:0:
215,60,325196,5,0,0:0:0:0:
215,60,325543,1,0,0:0:0:0:
215,60,325890,1,0,0:0:0:0:
81,101,326063,1,0,0:0:0:0:
81,101,326150,1,0,0:0:0:0:
81,101,326237,1,0,0:0:0:0:
77,124,326323,1,0,0:0:0:0:
77,126,326410,1,0,0:0:0:0:
77,126,326497,1,0,0:0:0:0:
80,141,326584,5,2,0:0:0:0:
61,227,326930,1,2,0:0:0:0:
350,86,327277,5,2,0:0:0:0:
257,251,327624,1,2,0:0:0:0:
211,169,327797,1,0,0:0:0:0:
164,87,327971,5,2,0:0:0:0:
164,87,328318,1,2,0:0:0:0:
140,255,328491,1,0,0:0:0:0:
308,179,328664,1,0,0:0:0:0:
308,179,329011,5,2,0:0:0:0:
260,42,329185,1,0,0:0:0:0:
445,191,329358,5,2,0:0:0:0:
445,191,329531,1,2,0:0:0:0:
470,103,329705,5,2,0:0:0:0:
470,103,329878,1,2,0:0:0:0:
510,258,330052,5,2,0:0:0:0:
510,258,330225,1,2,0:0:0:0:
377,93,330399,5,0,0:0:0:0:
377,93,330572,1,0,0:0:0:0:
360,345,330745,5,6,0:0:0:0:
368,247,330919,1,8,0:0:0:0:
368,247,331005,1,8,0:0:0:0:
368,247,331092,1,8,0:0:0:0:
240,353,331266,1,8,0:0:0:0:
240,353,331352,1,8,0:0:0:0:
240,353,331439,6,0,P|190:352|178:352,1,52.5,2|0,0:0|0:0,0:0:0:0:
149,348,331786,1,2,0:0:0:0:
210,131,331959,1,2,0:0:0:0:
9,260,332133,6,0,P|101:187|81:42,1,251.999992309571,6|0,0:0|0:0,0:0:0:0:
0,137,332479,2,0,L|94:176,1,83.9999974365235,2|0,0:0|0:0,0:0:0:0:
218,250,332653,2,0,L|338:209,1,83.9999974365235,8|0,0:0|0:0,0:0:0:0:
474,206,332826,1,2,0:0:0:0:
474,206,332913,1,0,0:0:0:0:
474,206,333000,2,0,L|500:107,1,83.9999974365235,8|0,0:0|0:0,0:0:0:0:
439,351,333173,6,0,P|400:331|344:266,1,83.9999974365235,2|0,0:0|0:0,0:0:0:0:
431,0,333347,1,8,0:0:0:0:
492,48,333433,1,2,0:0:0:0:
495,124,333520,6,0,P|382:186|297:124,1,167.999994873047,6|0,0:0|0:0,0:0:0:0:
7,95,333867,6,0,P|117:29|106:-76,1,167.999994873047,6|0,0:0|0:0,0:0:0:0:
387,287,334214,6,0,P|472:382|573:351,1,167.999994873047,6|0,0:0|0:0,0:0:0:0:
131,128,334560,6,0,P|134:173|126:234,1,83.9999974365235,6|0,0:0|0:0,0:0:0:0:
0,384,334734,1,8,0:0:0:0:
0,384,334821,1,8,0:0:0:0:
0,384,334907,6,0,P|36:357|73:317,1,83.9999974365235,2|0,0:0|0:0,0:0:0:0:
11,99,335081,2,0,P|33:140|76:179,1,83.9999974365235,8|0,0:0|0:0,0:0:0:0:
233,294,335254,2,0,P|242:248|252:159,1,83.9999974365235,2|0,0:0|0:0,0:0:0:0:
187,20,335427,2,0,P|202:60|241:98,1,83.9999974365235,8|0,0:0|0:0,0:0:0:0:
418,138,335601,1,2,0:0:0:0:
349,168,335688,1,0,0:0:0:0:
326,242,335774,2,0,L|312:353,1,83.9999974365235,8|0,0:0|0:0,0:0:0:0:
512,240,335948,2,0,P|461:231|414:228,1,83.9999974365235,2|0,0:0|0:0,0:0:0:0:
160,253,336121,2,0,P|194:276|232:293,1,83.9999974365235,8|0,0:0|0:0,0:0:0:0:
415,370,336294,6,0,P|343:312|333:201,1,167.999994873047,6|8,0:0|0:0,0:0:0:0:
213,3,336555,1,0,0:0:0:0:
213,3,336641,2,0,P|224:40|237:137,1,83.9999974365235,2|0,0:0|0:0,0:0:0:0:
92,222,336815,1,8,0:0:0:0:
40,163,336901,1,0,0:0:0:0:
46,84,336988,2,0,L|66:-16,1,83.9999974365235,6|0,0:0|0:0,0:0:0:0:
232,84,337162,1,8,0:0:0:0:
257,142,337248,1,0,0:0:0:0:
251,204,337335,1,2,0:0:0:0:
302,167,337422,1,0,0:0:0:0:
363,159,337508,1,8,0:0:0:0:
418,180,337595,1,0,0:0:0:0:
456,225,337682,6,0,P|462:272|466:338,1,83.9999974365235,6|0,0:0|0:0,0:0:0:0:
246,384,337855,2,0,P|204:381|118:354,1,83.9999974365235,8|0,0:0|0:0,0:0:0:0:
294,250,338029,2,0,P|299:215|298:112,1,83.9999974365235,2|0,0:0|0:0,0:0:0:0:
455,0,338202,2,0,P|473:63|501:119,1,83.9999974365235,8|0,0:0|0:0,0:0:0:0:
428,295,338375,1,2,0:0:0:0:
456,225,338462,1,0,0:0:0:0:
428,155,338549,2,0,L|364:89,1,83.9999974365235,8|0,0:0|0:0,0:0:0:0:
156,18,338722,2,0,P|150:55|192:221,1,167.999994873047,2|8,0:0|0:0,0:0:0:0:
122,333,338982,1,0,0:0:0:0:
122,333,339069,6,0,P|147:301|186:229,1,83.9999974365235,6|0,0:0|0:0,0:0:0:0:
4,67,339242,1,8,0:0:0:0:
30,136,339329,1,2,0:0:0:0:
89,180,339416,2,0,P|135:184|203:179,1,83.9999974365235,2|0,0:0|0:0,0:0:0:0:
402,158,339589,2,0,P|351:189|297:239,1,83.9999974365235,8|0,0:0|0:0,0:0:0:0:
204,361,339763,1,2,0:0:0:0:
240,295,339849,1,2,0:0:0:0:
249,221,339936,2,0,P|247:176|235:125,1,83.9999974365235,8|0,0:0|0:0,0:0:0:0:
370,308,340110,2,0,P|445:377|508:384,1,167.999994873047,2|8,0:0|0:0,0:0:0:0:
512,50,340456,6,0,L|481:137,1,83.9999974365235,6|0,0:0|0:0,0:0:0:0:
483,259,340630,2,0,P|438:190|421:173,1,83.9999974365235,8|0,0:0|0:0,0:0:0:0:
218,102,340803,2,0,L|308:118,1,83.9999974365235,2|0,0:0|0:0,0:0:0:0:
483,259,340977,2,0,P|430:246|377:225,1,83.9999974365235,8|0,0:0|0:0,0:0:0:0:
398,23,341150,1,2,0:0:0:0:
398,23,341237,1,0,0:0:0:0:
398,23,341323,2,0,P|401:73|387:156,1,83.9999974365235,8|0,0:0|0:0,0:0:0:0:
192,310,341497,2,0,P|209:272|220:228,1,83.9999974365235,2|0,0:0|0:0,0:0:0:0:
218,102,341670,2,0,L|337:111,1,83.9999974365235,8|0,0:0|0:0,0:0:0:0:
100,238,341844,6,0,P|32:145|65:56,1,167.999994873047,6|8,0:0|0:0,0:0:0:0:
192,310,342104,1,0,0:0:0:0:
192,310,342190,2,0,L|304:316,1,83.9999974365235,2|0,0:0|0:0,0:0:0:0:
512,240,342364,2,0,L|407:261,1,83.9999974365235,8|0,0:0|0:0,0:0:0:0:
192,310,342537,2,0,P|287:255|296:189,1,167.999994873047,6|8,0:0|0:0,0:0:0:0:
242,37,342797,1,0,0:0:0:0:
242,37,342884,2,0,P|259:82|290:139,1,83.9999974365235,2|0,0:0|0:0,0:0:0:0:
486,155,343058,1,8,0:0:0:0:
498,82,343144,1,0,0:0:0:0:
455,22,343231,6,0,P|415:15|370:13,1,83.9999974365235,6|0,0:0|0:0,0:0:0:0:
154,72,343404,2,0,P|174:115|194:174,1,83.9999974365235,8|0,0:0|0:0,0:0:0:0:
44,342,343578,2,0,P|68:305|124:256,1,83.9999974365235,2|0,0:0|0:0,0:0:0:0:
297,173,343751,2,0,P|297:219|294:280,1,83.9999974365235,8|0,0:0|0:0,0:0:0:0:
230,369,343925,1,2,0:0:0:0:
158,348,344011,1,0,0:0:0:0:
116,286,344098,2,0,P|115:241|122:189,1,83.9999974365235,8|0,0:0|0:0,0:0:0:0:
346,25,344271,2,0,P|320:66|274:117,1,83.9999974365235,2|0,0:0|0:0,0:0:0:0:
117,124,344445,2,0,P|157:130|212:148,1,83.9999974365235,8|0,0:0|0:0,0:0:0:0:
475,318,344618,6,0,P|421:282|367:230,1,83.9999974365235,6|0,0:0|0:0,0:0:0:0:
407,94,344792,2,0,L|397:201,1,83.9999974365235,8|0,0:0|0:0,0:0:0:0:
297,331,344965,2,0,L|192:317,1,83.9999974365235,2|0,0:0|0:0,0:0:0:0:
116,46,345138,2,0,L|116:152,1,83.9999974365235,8|0,0:0|0:0,0:0:0:0:
0,328,345312,1,2,0:0:0:0:
62,279,345399,1,0,0:0:0:0:
137,289,345485,2,0,P|183:304|225:328,1,83.9999974365235,8|0,0:0|0:0,0:0:0:0:
336,364,345659,2,0,L|301:239,1,83.9999974365235,2|0,0:0|0:0,0:0:0:0:
306,56,345832,2,0,P|288:100|238:154,1,83.9999974365235,8|0,0:0|0:0,0:0:0:0:
386,223,346005,6,0,P|488:261|513:358,1,167.999994873047,6|8,0:0|0:0,0:0:0:0:
486,68,346266,1,0,0:0:0:0:
486,68,346352,2,0,P|439:106|369:141,1,83.9999974365235,2|0,0:0|0:0,0:0:0:0:
229,177,346526,2,0,P|227:135|222:93,1,83.9999974365235,8|0,0:0|0:0,0:0:0:0:
17,17,346699,1,2,0:0:0:0:
91,44,346786,1,0,0:0:0:0:
126,113,346873,2,0,L|120:206,1,83.9999974365235,8|0,0:0|0:0,0:0:0:0:
2,318,347046,2,0,P|108:219|238:197,1,251.999992309571,2|0,0:0|0:0,0:0:0:0:
302,154,347393,6,0,P|404:264|483:274,1,167.999994873047,6|8,0:0|0:0,0:0:0:0:
269,373,347653,1,0,0:0:0:0:
269,373,347740,2,0,P|276:325|294:274,1,83.9999974365235,2|0,0:0|0:0,0:0:0:0:
402,165,347913,2,0,P|416:122|423:73,1,83.9999974365235,8|0,0:0|0:0,0:0:0:0:
367,1,348086,2,0,P|383:97|458:162,1,167.999994873047,0|8,0:0|0:0,0:0:0:0:
508,141,348347,1,8,0:0:0:0:
504,90,348433,1,10,0:0:0:0:
474,44,348520,1,8,0:0:0:0:
421,23,348607,1,8,0:0:0:0:
366,20,348693,1,8,0:0:0:0:
318,41,348780,6,0,P|277:70|228:115,1,83.9999974365235,6|0,0:0|0:0,0:0:0:0:
220,250,348953,2,0,P|185:214|150:155,1,83.9999974365235,8|0,0:0|0:0,0:0:0:0:
21,0,349127,2,0,P|74:15|131:64,1,83.9999974365235,2|0,0:0|0:0,0:0:0:0:
302,265,349300,2,0,P|251:254|174:247,1,83.9999974365235,8|0,0:0|0:0,0:0:0:0:
61,173,349474,1,2,0:0:0:0:
99,108,349560,1,0,0:0:0:0:
168,82,349647,2,0,L|271:95,1,83.9999974365235,8|0,0:0|0:0,0:0:0:0:
482,151,349821,6,0,P|420:107|387:66,1,83.9999974365235,2|0,0:0|0:0,0:0:0:0:
231,0,349994,2,0,L|277:150,1,83.9999974365235,8|0,0:0|0:0,0:0:0:0:
398,304,350167,6,0,P|335:217|236:198,1,167.999994873047,6|8,0:0|0:0,0:0:0:0:
28,340,350427,1,0,0:0:0:0:
28,340,350514,2,0,L|67:216,1,83.9999974365235,2|0,0:0|0:0,0:0:0:0:
143,154,350688,2,0,L|120:51,1,83.9999974365235,8|0,0:0|0:0,0:0:0:0:
183,286,350861,1,2,0:0:0:0:
246,321,350948,1,0,0:0:0:0:
317,326,351034,2,0,L|434:293,1,83.9999974365235,8|0,0:0|0:0,0:0:0:0:
477,130,351208,6,0,P|417:137|356:194,1,83.9999974365235,2|0,0:0|0:0,0:0:0:0:
246,321,351381,2,0,P|258:281|256:239,1,83.9999974365235,8|0,0:0|0:0,0:0:0:0:
219,7,351555,6,0,P|208:128|144:173,1,167.999994873047,6|8,0:0|0:0,0:0:0:0:
477,130,351901,2,0,P|409:98|282:114,1,167.999994873047,2|0,0:0|0:0,0:0:0:0:
0,176,352248,2,0,P|79:109|77:23,1,167.999994873047,2|0,0:0|0:0,0:0:0:0:
365,274,352595,2,0,P|257:221|190:247,1,167.999994873047,2|0,0:0|0:0,0:0:0:0:
8,269,352942,5,2,0:0:0:0:
48,330,353029,1,2,0:0:0:0:
125,332,353115,5,8,0:0:0:0:
125,311,353202,1,8,0:0:0:0:
124,293,353289,1,8,0:0:0:0:
124,276,353375,1,8,0:0:0:0:
122,259,353462,2,0,L|117:175,1,83.9999974365235,8|0,0:0|0:0,0:0:0:0:
261,322,353636,6,0,P|373:354|457:331,1,167.999994873047,6|0,0:0|0:0,0:0:0:0:
97,163,353982,2,0,L|40:0,1,167.999994873047,2|0,0:0|0:0,0:0:0:0:
483,17,354329,6,0,P|469:75|361:166,1,167.999994873047,6|0,0:0|0:0,0:0:0:0:
396,152,355023,2,0,P|457:96|482:17,1,167.999994873047,6|0,0:0|0:0,0:0:0:0:
103,166,355716,6,0,L|117:334,1,167.999994873047,6|0,0:0|0:0,0:0:0:0:
117,334,356410,2,0,L|103:166,1,167.999994873047,6|0,0:0|0:0,0:0:0:0:
497,322,357104,6,0,P|440:262|362:234,1,167.999994873047,6|0,0:0|0:0,0:0:0:0:
362,234,357797,2,0,P|440:262|498:323,1,167.999994873047,6|0,0:0|0:0,0:0:0:0:
512,109,358491,6,0,B|426:42|234:39|352:353|173:350|62:310,1,503.999984619141,6|0,0:0|0:0,0:0:0:0:
20,235,359185,1,8,0:0:0:0:
20,235,359271,1,8,0:0:0:0:
20,235,359358,1,8,0:0:0:0:
20,235,359445,1,8,0:0:0:0:
20,235,359531,1,8,0:0:0:0:
161,241,359705,1,8,0:0:0:0:
148,0,359878,6,0,P|198:98|209:216,1,167.999994873047,6|0,0:0|0:0,0:0:0:0:
209,154,360572,2,0,P|189:72|148:0,1,167.999994873047,6|0,0:0|0:0,0:0:0:0:
37,384,361266,6,0,P|129:312|205:305,1,167.999994873047,6|0,0:0|0:0,0:0:0:0:
341,327,361612,1,0,0:0:0:0:
42,64,361959,6,0,P|76:175|134:225,1,167.999994873047,6|0,0:0|0:0,0:0:0:0:
258,285,362305,1,0,0:0:0:0:
436,64,362653,6,0,P|372:123|288:111,1,167.999994873047,6|0,0:0|0:0,0:0:0:0:
204,3,363000,1,0,0:0:0:0:
472,301,363347,6,0,P|368:287|314:201,1,167.999994873047,6|0,0:0|0:0,0:0:0:0:
348,40,363694,1,0,0:0:0:0:
427,208,364040,6,0,P|341:329|159:270,1,335.999989746094,6|0,0:0|0:0,0:0:0:0:
146,120,364560,1,8,0:0:0:0:
326,37,364734,5,8,0:0:0:0:
346,96,364821,1,8,0:0:0:0:
340,140,364907,1,8,0:0:0:0:
325,178,364994,1,8,0:0:0:0:
298,201,365081,1,8,0:0:0:0:
269,210,365167,1,8,0:0:0:0:
252,206,365254,1,8,0:0:0:0:
495,172,365427,5,4,0:0:0:0:
495,172,365514,1,0,0:0:0:0:
495,172,365601,2,0,L|487:290,1,83.9999974365235,0|0,0:0|0:0,0:0:0:0:
415,351,365774,1,8,0:0:0:0:
252,206,365948,1,0,0:0:0:0:
252,206,366034,1,0,0:0:0:0:
252,206,366121,6,0,L|169:225,1,83.9999974365235,4|0,0:0|0:0,0:0:0:0:
43,258,366294,1,0,0:0:0:0:
43,258,366381,1,0,0:0:0:0:
43,258,366468,1,8,0:0:0:0:
191,29,366641,1,0,0:0:0:0:
191,29,366728,1,0,0:0:0:0:
191,29,366815,6,0,L|181:130,1,83.9999974365235,6|0,0:0|0:0,0:0:0:0:
335,223,366988,1,0,0:0:0:0:
335,223,367075,1,0,0:0:0:0:
335,223,367162,1,8,0:0:0:0:
301,14,367335,1,0,0:0:0:0:
301,14,367422,1,0,0:0:0:0:
301,14,367509,6,0,L|272:126,1,83.9999974365235,6|0,0:0|0:0,0:0:0:0:
288,296,367682,1,0,0:0:0:0:
288,296,367768,1,0,0:0:0:0:
288,296,367855,1,8,0:0:0:0:
105,347,368029,1,0,0:0:0:0:
105,347,368115,1,0,0:0:0:0:
105,347,368202,6,0,L|95:248,1,83.9999974365235,6|0,0:0|0:0,0:0:0:0:
184,64,368375,2,0,L|158:187,1,83.9999974365235,8|0,0:0|0:0,0:0:0:0:
18,297,368549,2,0,P|16:251|-6:190,1,83.9999974365235,2|0,0:0|0:0,0:0:0:0:
129,10,368722,2,0,P|83:36|39:37,1,83.9999974365235,8|0,0:0|0:0,0:0:0:0:
271,162,368896,6,0,P|462:180|531:241,1,251.999992309571,6|0,0:0|0:0,0:0:0:0:
503,293,369242,2,0,L|373:286,1,83.9999974365235,2|0,0:0|0:0,0:0:0:0:
186,240,369416,1,8,0:0:0:0:
186,240,369503,1,0,0:0:0:0:
186,240,369589,2,0,L|197:130,1,83.9999974365235,8|0,0:0|0:0,0:0:0:0:
374,11,369821,5,8,0:0:0:0:
469,205,370052,5,8,0:0:0:0:
280,304,370283,5,10,0:0:0:0:
290,248,370370,1,8,0:0:0:0:
324,199,370456,1,8,0:0:0:0:
370,168,370543,1,8,0:0:0:0:
424,155,370630,2,0,L|459:253,1,83.9999974365235,10|0,0:0|0:0,0:0:0:0:
342,384,370803,2,0,L|366:280,1,83.9999974365235,0|0,0:0|0:0,0:0:0:0:
304,66,370977,6,0,L|206:102,1,83.9999974365235,6|0,0:0|0:0,0:0:0:0:
68,184,371150,2,0,L|166:148,1,83.9999974365235,8|0,0:0|0:0,0:0:0:0:
340,57,371323,2,0,L|235:48,1,83.9999974365235,2|0,0:0|0:0,0:0:0:0:
58,56,371497,2,0,L|157:63,1,83.9999974365235,8|0,0:0|0:0,0:0:0:0:
463,64,371670,6,0,L|445:166,1,83.9999974365235,6|0,0:0|0:0,0:0:0:0:
396,315,371843,2,0,L|413:212,1,83.9999974365235,8|0,0:0|0:0,0:0:0:0:
512,39,372017,2,0,L|452:124,1,83.9999974365235,2|0,0:0|0:0,0:0:0:0:
311,348,372190,2,0,L|332:225,1,83.9999974365235,8|0,0:0|0:0,0:0:0:0:
177,52,372364,6,0,L|194:154,1,83.9999974365235,6|0,0:0|0:0,0:0:0:0:
189,384,372537,2,0,L|171:281,1,83.9999974365235,8|0,0:0|0:0,0:0:0:0:
59,31,372710,2,0,L|118:116,1,83.9999974365235,2|0,0:0|0:0,0:0:0:0:
375,384,372884,2,0,L|325:310,1,83.9999974365235,8|0,0:0|0:0,0:0:0:0:
187,63,373058,5,6,0:0:0:0:
247,15,373144,1,8,0:0:0:0:
323,0,373231,1,8,0:0:0:0:
396,15,373318,1,8,0:0:0:0:
461,61,373404,1,10,0:0:0:0:
500,124,373491,1,8,0:0:0:0:
511,200,373578,1,8,0:0:0:0:
492,275,373664,1,8,0:0:0:0:
446,336,373751,5,12,0:0:0:0:
438,220,374098,5,2,0:0:0:0:
281,299,374271,1,2,0:0:0:0:
394,296,374445,5,6,0:0:0:0:
137,0,374618,1,2,0:0:0:0:
394,296,374965,6,0,P|336:226|177:274,1,238.00000453949,4|8,0:0|0:0,0:0:0:0:
75,10,375659,5,8,0:0:0:0:
120,26,375745,1,8,0:0:0:0:
131,70,375832,1,8,0:0:0:0:
151,101,375919,1,8,0:0:0:0:
151,101,376005,1,8,0:0:0:0:
151,101,376092,1,8,0:0:0:0:
151,101,376179,1,8,0:0:0:0:
4,54,376352,1,8,0:0:0:0:
248,144,376526,6,0,L|361:117,1,66.4999982242585,6|0,0:0|0:0,0:0:0:0:
164,220,376699,1,8,0:0:0:0:
233,65,376873,2,0,L|246:-10,1,66.4999982242585,2|0,0:0|0:0,0:0:0:0:
274,269,377046,1,8,0:0:0:0:
156,115,377219,1,2,0:0:0:0:
156,115,377306,1,0,0:0:0:0:
156,115,377393,1,8,0:0:0:0:
65,220,377566,1,2,0:0:0:0:
158,304,377740,2,0,P|189:297|239:276,1,66.4999982242585,8|0,0:0|0:0,0:0:0:0:
166,193,377913,6,0,P|192:279|242:347,1,132.999996448517,2|8,0:0|0:0,0:0:0:0:
332,349,378173,1,0,0:0:0:0:
332,349,378260,2,0,P|314:310|301:260,1,66.4999982242585,2|0,0:0|0:0,0:0:0:0:
401,113,378433,2,0,P|379:157|362:209,1,66.4999982242585,8|0,0:0|0:0,0:0:0:0:
402,290,378607,1,2,0:0:0:0:
413,317,378693,1,2,0:0:0:0:
424,345,378780,1,8,0:0:0:0:
476,188,378953,1,2,0:0:0:0:
267,127,379127,1,8,0:0:0:0:
491,44,379300,6,0,P|455:100|399:134,1,132.999996448517,6|8,0:0|0:0,0:0:0:0:
161,209,379647,2,0,L|165:120,1,66.4999982242585,2|0,0:0|0:0,0:0:0:0:
212,19,379821,2,0,L|136:60,1,66.4999982242585,8|0,0:0|0:0,0:0:0:0:
28,57,379994,1,2,0:0:0:0:
28,57,380081,1,2,0:0:0:0:
28,57,380167,2,0,P|57:91|77:105,1,66.4999982242585,8|0,0:0|0:0,0:0:0:0:
279,132,380341,1,2,0:0:0:0:
162,262,380514,2,0,P|155:227|133:179,1,66.4999982242585,8|0,0:0|0:0,0:0:0:0:
0,152,380688,6,0,P|49:241|56:309,1,132.999996448517,2|8,0:0|0:0,0:0:0:0:
276,355,381034,2,0,P|246:335|216:325,1,66.4999982242585,2|0,0:0|0:0,0:0:0:0:
111,200,381208,1,8,0:0:0:0:
257,249,381381,2,0,P|308:232|360:202,1,66.4999982242585,2|8,0:0|0:0,0:0:0:0:
402,112,381555,1,8,0:0:0:0:
402,112,381641,1,8,0:0:0:0:
402,112,381728,2,0,L|404:30,1,66.4999982242585,10|0,0:0|0:0,0:0:0:0:
194,96,381901,2,0,P|253:86|287:92,1,66.4999982242585,8|0,0:0|0:0,0:0:0:0:
465,238,382075,6,0,P|448:326|353:343,1,132.999996448517,6|8,0:0|0:0,0:0:0:0:
261,316,382335,1,0,0:0:0:0:
261,316,382422,2,0,P|274:271|291:197,1,66.4999982242585,2|0,0:0|0:0,0:0:0:0:
280,152,382595,2,0,P|271:110|263:53,1,66.4999982242585,8|0,0:0|0:0,0:0:0:0:
141,65,382768,1,2,0:0:0:0:
146,92,382855,1,0,0:0:0:0:
150,116,382942,2,0,P|179:138|222:163,1,66.4999982242585,8|0,0:0|0:0,0:0:0:0:
428,63,383115,2,0,P|364:34|266:17,1,132.999996448517,2|8,0:0|0:0,0:0:0:0:
61,42,383462,6,0,L|67:142,1,66.4999982242585,2|0,0:0|0:0,0:0:0:0:
26,253,383636,1,8,0:0:0:0:
220,361,383809,2,0,L|185:283,1,66.4999982242585,2|0,0:0|0:0,0:0:0:0:
115,193,383982,1,8,0:0:0:0:
278,116,384156,1,2,0:0:0:0:
278,116,384242,1,0,0:0:0:0:
278,116,384329,2,0,P|297:149|320:201,1,66.4999982242585,8|0,0:0|0:0,0:0:0:0:
371,285,384503,2,0,B|325:210|396:173|348:51,1,199.499994672775,2|0,0:0|0:0,0:0:0:0:
408,30,384849,6,0,P|396:67|360:133,1,66.4999982242585,6|0,0:0|0:0,0:0:0:0:
254,219,385023,1,8,0:0:0:0:
461,133,385196,2,0,L|475:240,1,66.4999982242585,2|0,0:0|0:0,0:0:0:0:
512,376,385370,2,0,P|477:365|428:341,1,66.4999982242585,8|0,0:0|0:0,0:0:0:0:
371,285,385543,1,2,0:0:0:0:
371,285,385630,1,0,0:0:0:0:
371,285,385716,2,0,P|365:323|348:369,1,66.4999982242585,8|0,0:0|0:0,0:0:0:0:
218,384,385890,2,0,L|237:302,1,66.4999982242585,2|0,0:0|0:0,0:0:0:0:
147,130,386063,2,0,L|162:194,1,66.4999982242585,8|0,0:0|0:0,0:0:0:0:
88,333,386237,6,0,P|24:298|5:203,1,132.999996448517,2|8,0:0|0:0,0:0:0:0:
109,328,386584,2,0,P|45:293|26:198,1,132.999996448517,2|8,0:0|0:0,0:0:0:0:
147,235,386844,1,0,0:0:0:0:
147,235,386930,6,0,L|276:254,1,66.4999982242585,2|0,0:0|0:0,0:0:0:0:
396,209,387104,1,8,0:0:0:0:
364,199,387190,1,8,0:0:0:0:
336,190,387277,2,0,L|261:159,1,66.4999982242585,8|0,0:0|0:0,0:0:0:0:
204,1,387451,2,0,L|202:68,1,66.4999982242585,8|0,0:0|0:0,0:0:0:0:
326,312,387624,6,0,P|310:283|290:256,1,66.4999982242585,6|0,0:0|0:0,0:0:0:0:
113,149,387797,2,0,L|221:136,1,66.4999982242585,8|0,0:0|0:0,0:0:0:0:
348,62,387971,2,0,P|421:75|486:118,1,132.999996448517,2|8,0:0|0:0,0:0:0:0:
493,244,388318,1,2,0:0:0:0:
493,244,388404,1,0,0:0:0:0:
493,244,388491,2,0,P|461:268|421:293,1,66.4999982242585,8|0,0:0|0:0,0:0:0:0:
257,333,388664,2,0,L|249:187,1,132.999996448517,2|8,0:0|0:0,0:0:0:0:
265,122,389011,6,0,L|209:215,1,66.4999982242585,2|0,0:0|0:0,0:0:0:0:
40,283,389185,2,0,P|70:267|95:246,1,66.4999982242585,8|0,0:0|0:0,0:0:0:0:
130,107,389358,2,0,P|122:146|123:182,1,66.4999982242585,2|0,0:0|0:0,0:0:0:0:
113,353,389531,2,0,P|142:329|224:287,1,66.4999982242585,8|0,0:0|0:0,0:0:0:0:
337,284,389705,1,2,0:0:0:0:
337,284,389792,1,0,0:0:0:0:
337,284,389878,1,8,0:0:0:0:
300,52,390052,5,2,0:0:0:0:
98,184,390225,1,8,0:0:0:0:
337,284,390399,6,0,P|415:316|506:299,1,132.999996448517,6|8,0:0|0:0,0:0:0:0:
417,108,390745,2,0,P|424:216|378:231,1,132.999996448517,2|8,0:0|0:0,0:0:0:0:
295,158,391092,1,2,0:0:0:0:
295,158,391179,1,0,0:0:0:0:
295,158,391266,1,8,0:0:0:0:
361,30,391439,2,0,L|274:51,1,66.4999982242585,2|0,0:0|0:0,0:0:0:0:
175,127,391612,2,0,L|110:111,1,66.4999982242585,8|0,0:0|0:0,0:0:0:0:
0,69,391786,6,0,P|72:107|80:191,1,132.999996448517,2|8,0:0|0:0,0:0:0:0:
34,267,392133,2,0,L|129:301,1,66.4999982242585,2|0,0:0|0:0,0:0:0:0:
227,349,392306,2,0,L|191:251,1,66.4999982242585,8|0,0:0|0:0,0:0:0:0:
291,169,392479,2,0,L|253:256,1,66.4999982242585,2|0,0:0|0:0,0:0:0:0:
103,336,392653,1,8,0:0:0:0:
97,290,392740,1,2,0:0:0:0:
103,247,392826,6,2,L|123:165,1,66.4999982242585,6|0,0:0|0:0,0:0:0:0:
224,98,393000,2,0,L|139:99,1,66.4999982242585,8|0,0:0|0:0,0:0:0:0:
17,7,393173,6,0,L|68:68,1,66.4999982242585,6|0,0:0|0:0,0:0:0:0:
201,194,393347,1,8,0:0:0:0:
201,194,393520,2,0,L|342:201,1,132.999996448517,2|8,0:0|0:0,0:0:0:0:
455,169,393867,1,2,0:0:0:0:
455,169,393953,1,0,0:0:0:0:
455,169,394040,1,8,0:0:0:0:
384,0,394214,2,0,P|377:142|392:163,1,132.999996448517,2|8,0:0|0:0,0:0:0:0:
493,303,394560,6,0,L|506:197,1,66.4999982242585,2|0,0:0|0:0,0:0:0:0:
498,98,394734,1,8,0:0:0:0:
498,324,394907,2,0,L|412:259,1,66.4999982242585,2|0,0:0|0:0,0:0:0:0:
322,217,395081,1,8,0:0:0:0:
237,321,395254,1,2,0:0:0:0:
237,321,395341,1,0,0:0:0:0:
237,321,395427,1,8,0:0:0:0:
322,217,395601,2,0,P|316:145|286:60,1,132.999996448517,2|8,0:0|0:0,0:0:0:0:
155,0,395948,6,0,P|189:57|106:187,1,220.499993270874,6|0,0:0|0:0,0:0:0:0:
94,174,396294,2,0,P|51:247|133:384,1,220.499993270874,2|0,0:0|0:0,0:0:0:0:
206,340,396641,1,10,0:0:0:0:
167,328,396728,1,8,0:0:0:0:
139,297,396815,1,8,0:0:0:0:
365,294,396988,2,0,P|329:285|297:262,1,73.4999977569581,2|0,0:0|0:0,0:0:0:0:
304,171,397162,2,0,P|293:135|296:99,1,73.4999977569581,8|0,0:0|0:0,0:0:0:0:
446,1,397335,6,0,P|398:66|385:170,1,146.999995513916,2|8,0:0|0:0,0:0:0:0:
495,97,397682,1,2,0:0:0:0:
173,123,397855,1,8,0:0:0:0:
211,360,398029,2,0,P|237:266|238:174,1,146.999995513916,2|0,0:0|0:0,0:0:0:0:
222,203,398289,1,8,0:0:0:0:
222,203,398375,1,10,0:0:0:0:
189,173,398462,1,8,0:0:0:0:
174,123,398549,1,8,0:0:0:0:
187,70,398636,1,8,0:0:0:0:
225,40,398722,5,6,0:0:0:0:
66,172,398896,1,8,0:0:0:0:
275,119,399069,2,0,L|326:130,1,52.5000020027161,2|0,0:0|0:0,0:0:0:0:
225,40,399242,1,8,0:0:0:0:
154,258,399416,1,2,0:0:0:0:
154,258,399503,1,0,0:0:0:0:
154,258,399589,1,8,0:0:0:0:
365,221,399763,1,2,0:0:0:0:
271,314,399936,1,8,0:0:0:0:
400,354,400110,6,0,P|452:342|505:267,1,105.000004005432,2|8,0:0|0:0,0:0:0:0:
427,119,400456,1,2,0:0:0:0:
511,192,400630,1,8,0:0:0:0:
365,221,400803,1,2,0:0:0:0:
355,195,400890,1,0,0:0:0:0:
345,167,400977,1,8,0:0:0:0:
274,238,401150,1,2,0:0:0:0:
348,307,401323,1,8,0:0:0:0:
169,244,401497,6,0,P|129:174|143:113,1,105.000004005432,2|8,0:0|0:0,0:0:0:0:
89,325,401844,2,0,P|11:372|-31:370,1,105.000004005432,2|8,0:0|0:0,0:0:0:0:
188,335,402190,1,2,0:0:0:0:
188,335,402277,1,0,0:0:0:0:
188,335,402364,1,8,0:0:0:0:
54,221,402537,1,2,0:0:0:0:
192,135,402711,1,8,0:0:0:0:
328,260,402884,6,0,L|453:289,1,105.000004005432,2|8,0:0|0:0,0:0:0:0:
491,157,403231,1,2,0:0:0:0:
478,181,403318,1,0,0:0:0:0:
454,195,403404,1,8,0:0:0:0:
314,99,403578,2,0,P|324:32|354:-16,1,105.000004005432,2|8,0:0|0:0,0:0:0:0:
259,188,403925,1,2,0:0:0:0:
236,200,404011,1,0,0:0:0:0:
210,207,404098,1,8,0:0:0:0:
186,212,404185,1,0,0:0:0:0:
159,212,404271,6,0,L|101:202,1,52.5000020027161,2|0,0:0|0:0,0:0:0:0:
272,279,404445,1,8,0:0:0:0:
195,105,404618,2,0,L|179:20,1,52.5000020027161,2|0,0:0|0:0,0:0:0:0:
259,188,404792,1,8,0:0:0:0:
177,315,404965,1,2,0:0:0:0:
177,315,405052,1,0,0:0:0:0:
177,315,405138,1,8,0:0:0:0:
355,347,405312,1,2,0:0:0:0:
253,380,405485,1,8,0:0:0:0:
363,254,405659,6,0,P|383:190|393:119,2,105.000004005432,2|8|2,0:0|0:0|0:0,0:0:0:0:
512,352,406179,1,8,0:0:0:0:
464,211,406352,1,2,0:0:0:0:
464,211,406439,1,0,0:0:0:0:
464,211,406526,1,8,0:0:0:0:
422,316,406699,1,2,0:0:0:0:
295,279,406873,1,8,0:0:0:0:
426,333,407046,6,0,P|497:302|518:271,1,105.000004005432,6|8,0:0|0:0,0:0:0:0:
480,129,407393,1,2,0:0:0:0:
480,129,407566,1,8,0:0:0:0:
367,183,407740,1,2,0:0:0:0:
367,183,407826,1,0,0:0:0:0:
367,183,407913,1,8,0:0:0:0:
248,123,408086,1,2,0:0:0:0:
371,143,408260,1,8,0:0:0:0:
223,246,408433,6,0,P|168:237|108:217,1,105.000004005432,2|8,0:0|0:0,0:0:0:0:
80,142,408780,1,2,0:0:0:0:
86,116,408867,1,0,0:0:0:0:
93,90,408953,1,8,0:0:0:0:
48,245,409127,6,0,P|50:285|67:321,1,52.5000020027161,2|0,0:0|0:0,0:0:0:0:
175,342,409300,1,8,0:0:0:0:
175,342,409387,1,0,0:0:0:0:
175,342,409474,1,10,0:0:0:0:
209,355,409560,1,8,0:0:0:0:
258,346,409647,1,8,0:0:0:0:
302,316,409734,1,8,0:0:0:0:
325,265,409821,6,0,L|303:123,1,73.4999977569581,6|0,0:0|0:0,0:0:0:0:
354,30,409994,2,0,P|341:77|316:112,1,73.4999977569581,8|0,0:0|0:0,0:0:0:0:
199,134,410167,2,0,L|213:17,1,73.4999977569581,2|0,0:0|0:0,0:0:0:0:
95,155,410341,2,0,L|4:131,1,73.4999977569581,8|0,0:0|0:0,0:0:0:0:
148,270,410514,1,2,0:0:0:0:
181,263,410601,1,0,0:0:0:0:
217,255,410688,2,0,L|308:231,1,73.4999977569581,8|0,0:0|0:0,0:0:0:0:
469,186,410861,2,0,P|467:231|457:312,1,73.4999977569581,2|0,0:0|0:0,0:0:0:0:
316,365,411034,2,8,P|351:336|384:276,1,73.4999977569581,8|0,0:0|0:0,0:0:0:0:
275,84,411208,6,0,P|304:120|362:161,1,73.4999977569581,2|0,0:0|0:0,0:0:0:0:
506,65,411381,1,8,0:0:0:0:
506,65,411468,1,0,0:0:0:0:
506,65,411555,2,0,P|464:62|430:70,1,73.4999977569581,2|0,0:0|0:0,0:0:0:0:
234,149,411728,2,0,P|262:157|338:165,1,73.4999977569581,8|0,0:0|0:0,0:0:0:0:
439,276,411901,1,2,0:0:0:0:
439,276,411988,1,0,0:0:0:0:
439,276,412075,2,0,L|531:279,1,73.4999977569581,8|0,0:0|0:0,0:0:0:0:
389,173,412248,2,0,P|373:212|343:252,1,73.4999977569581,2|0,0:0|0:0,0:0:0:0:
222,354,412422,2,0,P|180:359|130:353,1,73.4999977569581,8|0,0:0|0:0,0:0:0:0:
376,384,412595,6,0,P|354:356|296:311,1,73.4999977569581,6|0,0:0|0:0,0:0:0:0:
176,240,412768,2,0,P|148:215|126:186,1,73.4999977569581,8|0,0:0|0:0,0:0:0:0:
211,21,412942,2,0,P|224:100|202:192,1,146.999995513916,2|8,0:0|0:0,0:0:0:0:
70,253,413289,1,2,0:0:0:0:
70,253,413375,1,0,0:0:0:0:
70,253,413462,1,8,0:0:0:0:
47,58,413636,2,0,L|108:140,1,73.4999977569581,2|0,0:0|0:0,0:0:0:0:
162,312,413809,2,0,L|176:235,1,73.4999977569581,8|0,0:0|0:0,0:0:0:0:
301,169,413982,6,0,P|339:169|427:195,1,73.4999977569581,2|0,0:0|0:0,0:0:0:0:
417,276,414156,2,0,P|436:308|457:398,1,73.4999977569581,8|0,0:0|0:0,0:0:0:0:
435,112,414329,1,2,0:0:0:0:
435,112,414416,1,0,0:0:0:0:
435,112,414503,1,8,0:0:0:0:
305,276,414676,2,0,L|186:289,1,73.4999977569581,2|0,0:0|0:0,0:0:0:0:
51,308,414849,1,8,0:0:0:0:
51,308,414936,1,0,0:0:0:0:
51,308,415023,2,0,L|57:196,1,73.4999977569581,2|0,0:0|0:0,0:0:0:0:
25,117,415196,1,8,0:0:0:0:
66,142,415283,1,0,0:0:0:0:
114,149,415370,6,0,P|178:142|261:117,1,146.999995513916,6|8,0:0|0:0,0:0:0:0:
177,233,415716,2,0,P|150:291|136:338,1,73.4999977569581,2|0,0:0|0:0,0:0:0:0:
300,384,415890,2,0,P|289:336|259:283,1,73.4999977569581,8|0,0:0|0:0,0:0:0:0:
322,160,416063,1,2,0:0:0:0:
316,192,416150,1,0,0:0:0:0:
325,224,416237,2,0,P|352:243|405:275,1,73.4999977569581,8|0,0:0|0:0,0:0:0:0:
485,342,416410,2,0,L|470:232,1,73.4999977569581,2|0,0:0|0:0,0:0:0:0:
469,61,416584,2,0,L|459:133,1,73.4999977569581,8|0,0:0|0:0,0:0:0:0:
251,158,416757,6,0,P|196:154|144:145,1,73.4999977569581,2|0,0:0|0:0,0:0:0:0:
82,69,416930,1,8,0:0:0:0:
123,240,417104,2,0,P|130:282|127:360,1,73.4999977569581,2|0,0:0|0:0,0:0:0:0:
21,176,417277,1,8,0:0:0:0:
221,283,417451,1,2,0:0:0:0:
221,283,417537,1,0,0:0:0:0:
221,283,417624,1,8,0:0:0:0:
46,322,417797,1,2,0:0:0:0:
210,384,417971,1,8,0:0:0:0:
290,181,418144,6,0,L|280:95,1,73.4999977569581,6|0,0:0|0:0,0:0:0:0:
392,277,418318,2,0,L|486:292,1,73.4999977569581,8|0,0:0|0:0,0:0:0:0:
443,125,418491,2,0,P|422:173|395:217,1,73.4999977569581,2|0,0:0|0:0,0:0:0:0:
288,291,418664,2,0,P|235:297|184:295,1,73.4999977569581,8|0,0:0|0:0,0:0:0:0:
113,231,418838,1,2,0:0:0:0:
113,231,418925,1,0,0:0:0:0:
113,231,419011,1,8,0:0:0:0:
19,355,419185,2,0,P|30:318|38:273,1,73.4999977569581,2|0,0:0|0:0,0:0:0:0:
39,83,419358,2,0,P|47:119|65:151,1,73.4999977569581,8|0,0:0|0:0,0:0:0:0:
231,221,419531,6,0,P|244:150|257:59,1,146.999995513916,2|8,0:0|0:0,0:0:0:0:
371,161,419878,1,2,0:0:0:0:
405,191,419965,1,0,0:0:0:0:
455,195,420052,1,8,0:0:0:0:
495,165,420138,1,0,0:0:0:0:
506,119,420225,6,0,B|481:60|422:52|406:-12,1,146.999995513916,6|8,0:0|0:0,0:0:0:0:
371,0,420485,1,8,0:0:0:0:
357,49,420572,1,8,0:0:0:0:
329,93,420659,1,8,0:0:0:0:
295,117,420745,1,8,0:0:0:0:
258,134,420832,1,8,0:0:0:0:
225,138,420919,5,8,0:0:0:0:
273,214,421092,1,0,0:0:0:0:
252,299,421266,1,0,0:0:0:0:
358,199,421439,1,0,0:0:0:0:
251,320,421612,1,0,0:0:0:0:
94,271,421786,1,0,0:0:0:0:
75,113,421959,1,0,0:0:0:0:
250,42,422133,1,4,0:0:0:0:
247,67,422479,5,0,0:0:0:0:
246,186,422653,1,0,0:0:0:0:
328,256,422826,1,0,0:0:0:0:
406,268,423000,1,0,0:0:0:0:
449,252,423173,1,0,0:0:0:0:
472,156,423347,1,0,0:0:0:0:
503,315,423520,1,0,0:0:0:0:
329,374,423693,5,4,0:0:0:0:
300,369,424040,1,0,0:0:0:0:
276,367,424387,5,0,0:0:0:0:
226,302,424560,1,0,0:0:0:0:
251,225,424734,1,0,0:0:0:0:
149,315,424907,1,0,0:0:0:0:
32,293,425081,1,0,0:0:0:0:
168,222,425254,1,0,0:0:0:0:
205,384,425427,1,0,0:0:0:0:
97,248,425601,1,0,0:0:0:0:
170,115,425774,1,0,0:0:0:0:
326,96,425948,1,0,0:0:0:0:
226,230,426121,1,0,0:0:0:0:
51,147,426294,1,0,0:0:0:0:
483,214,426467,5,4,0:0:0:0:
174,33,427538,1,0,0:0:0:0:
163,52,427895,1,0,0:0:0:0:
155,77,428252,1,0,0:0:0:0:
139,159,428609,1,0,0:0:0:0:
144,182,428991,1,0,0:0:0:0:
154,200,429373,1,0,0:0:0:0:
205,270,429755,1,0,0:0:0:0:
224,276,430149,1,0,0:0:0:0:
245,277,430544,1,0,0:0:0:0:
263,269,430939,1,0,0:0:0:0:
346,321,431333,1,0,0:0:0:0:
361,324,431752,1,0,0:0:0:0:
376,325,432172,1,0,0:0:0:0:
506,188,432591,5,4,0:0:0:0:
256,192,432643,12,0,437625,0:0:0:0:
