osu file format v14

[General]
AudioFilename: audio.mp3
AudioLeadIn: 0
PreviewTime: 331755
Countdown: 0
SampleSet: Soft
StackLeniency: 0.2
Mode: 0
LetterboxInBreaks: 0
WidescreenStoryboard: 1

[Editor]
Bookmarks: 24415,51942,85237,118531,162924,196219,229514,273907,309976,321075,332173,376566,409876,420959
DistanceSpacing: 1
BeatDivisor: 8
GridSize: 4
TimelineZoom: 3.830003

[Metadata]
Title:Karakurenai no Kage
TitleUnicode:からくれなゐの影
Artist:Diao ye zong feat. Meramipop
ArtistUnicode:凋叶棕 feat. めらみぽっぷ
Creator:Hey lululu
Version:Shadow Dance
Source:東方非想天則 ~ 超弩級ギニョルの謎を追え.
Tags:RD-Sounds 東方project 求 The Crimson Shadow アンノウンX ~ Unfound Adventure
BeatmapID:1460627
BeatmapSetID:690105

[Difficulty]
HPDrainRate:6
CircleSize:4.2
OverallDifficulty:8.8
ApproachRate:9.6
SliderMultiplier:3.1
SliderTickRate:1

[Events]
//Background and Video events
0,0,"BG.jpg",0,0
//Break Periods
2,310192,320581
//Storyboard Layer 0 (Background)
//Storyboard Layer 1 (Fail)
//Storyboard Layer 2 (Pass)
//Storyboard Layer 3 (Foreground)
//Storyboard Sound Samples

[TimingPoints]
2005,346.820809248555,4,2,3,30,1,0
2005,-400,4,2,3,30,0,0
9288,388.349514563107,4,2,3,30,1,0
9288,-400,4,2,3,30,0,0
9676,346.820809248555,4,2,3,30,1,0
9676,-400,4,2,3,30,0,0
10340,346.820809248555,4,2,3,30,1,0
10340,-400,4,2,3,30,0,0
13114,346.820809248555,4,2,3,30,1,0
13114,-400,4,2,3,30,0,0
24386,-400,4,2,3,30,0,0
29068,-400,4,2,3,30,0,0
29761,-200,4,2,3,30,0,0
30107,-200,4,2,3,5,0,0
30454,-200,4,2,3,30,0,0
31061,-200,4,2,3,5,0,0
31148,-200,4,2,3,30,0,0
31495,-200,4,2,3,5,0,0
31841,-200,4,2,3,30,0,0
32448,-200,4,2,3,5,0,0
32535,-200,4,2,3,30,0,0
32882,-200,4,2,3,5,0,0
33229,-200,4,2,3,30,0,0
33576,-200,4,2,3,5,0,0
33922,-200,4,2,3,30,0,0
35310,-222.222222222222,4,2,3,30,0,0
35917,-222.222222222222,4,2,3,5,0,0
36003,-285.714285714286,4,2,3,20,0,0
36610,-285.714285714286,4,2,3,5,0,0
36697,-400,4,2,3,10,0,0
37997,-400,4,2,3,5,0,0
38084,-400,4,2,3,30,0,0
40859,-200,4,2,3,30,0,0
41206,-200,4,2,3,5,0,0
41552,-200,4,2,3,30,0,0
42159,-200,4,2,3,5,0,0
42246,-200,4,2,3,30,0,0
42593,-200,4,2,3,5,0,0
42939,-200,4,2,3,30,0,0
43546,-200,4,2,3,5,0,0
43633,-200,4,2,3,30,0,0
43980,-200,4,2,3,5,0,0
44327,-200,4,2,3,30,0,0
44674,-200,4,2,3,5,0,0
45020,-200,4,2,3,30,0,0
46408,-222.222222222222,4,2,3,30,0,0
47015,-222.222222222222,4,2,3,5,0,0
47101,-285.714285714286,4,2,3,20,0,0
47708,-285.714285714286,4,2,3,5,0,0
47795,-400,4,2,3,10,0,0
49095,-400,4,2,3,5,0,0
49182,-400,4,2,1,30,0,0
50223,-125,4,2,3,55,0,0
51957,-83.3333333333333,4,2,1,60,0,0
68604,-200,4,2,2,45,0,0
79356,-300,4,2,1,45,0,0
79616,-300,4,2,1,5,0,0
79702,-200,4,2,1,60,0,0
79963,-200,4,2,1,5,0,0
80049,-125,4,2,1,60,0,0
80309,-125,4,2,1,5,0,0
80396,-200,4,2,1,60,0,0
80743,-125,4,2,1,60,0,0
81003,-125,4,2,1,5,0,0
81090,-200,4,2,1,60,0,0
81350,-200,4,2,1,5,0,0
81437,-125,4,2,1,60,0,0
81783,-200,4,2,1,60,0,0
82130,-125,4,2,1,60,0,0
82390,-125,4,2,1,5,0,0
82477,-200,4,2,1,60,0,0
82737,-200,4,2,1,5,0,0
82824,-125,4,2,1,60,0,0
83084,-125,4,2,1,5,0,0
83171,-200,4,2,1,60,0,0
83518,-125,4,2,1,60,0,0
83778,-125,4,2,1,5,0,0
83864,-125,4,2,1,60,0,0
85252,-100,4,2,1,60,0,0
86986,-83.3333333333333,4,2,1,60,0,0
87333,-100,4,2,1,60,0,0
89761,-83.3333333333333,4,2,1,60,0,0
90108,-100,4,2,1,60,0,0
96350,-200,4,2,2,45,0,0
111610,-200,4,2,1,45,0,0
112651,-300,4,2,2,45,0,0
112997,-200,4,2,1,45,0,0
113258,-200,4,2,1,5,0,0
113344,-125,4,2,1,45,0,0
113604,-125,4,2,1,5,0,0
113691,-200,4,2,1,45,0,0
114038,-125,4,2,1,45,0,0
114298,-125,4,2,1,5,0,0
114385,-200,4,2,1,45,0,0
114645,-200,4,2,1,5,0,0
114732,-125,4,2,1,45,0,0
115078,-200,4,2,1,45,0,0
115425,-125,4,2,1,45,0,0
115685,-125,4,2,1,5,0,0
115772,-200,4,2,1,45,0,0
116032,-200,4,2,1,5,0,0
116119,-125,4,2,1,45,0,0
116379,-125,4,2,1,5,0,0
116466,-200,4,2,1,45,0,0
116813,-125,4,2,1,45,0,0
117073,-125,4,2,1,5,0,0
117159,-125,4,2,1,45,0,0
118547,-83.3333333333333,4,2,1,70,0,1
140050,-200,4,2,1,45,0,0
140396,-100,4,2,1,55,0,0
140744,-83.3333333333333,4,2,1,70,0,1
141437,-90.9090909090909,4,2,1,70,0,1
142130,-100,4,2,1,70,0,1
142824,-111.111111111111,4,2,1,70,0,1
143517,-125,4,2,1,70,0,1
144211,-142.857142857143,4,2,1,70,0,1
146206,-83.3333333333333,4,2,1,70,0,0
146293,-83.3333333333333,4,2,1,70,0,1
146986,-90.9090909090909,4,2,1,70,0,1
147679,-100,4,2,1,70,0,1
148373,-111.111111111111,4,2,1,70,0,1
149066,-125,4,2,1,70,0,1
149760,-142.857142857143,4,2,1,70,0,1
151755,-83.3333333333333,4,2,1,70,0,0
151842,-83.3333333333333,4,2,1,70,0,1
162940,-83.3333333333333,4,2,1,60,0,0
179587,-200,4,2,2,45,0,0
190339,-300,4,2,2,45,0,0
190685,-200,4,2,1,70,0,0
190946,-200,4,2,1,5,0,0
191032,-125,4,2,1,70,0,0
191292,-125,4,2,1,5,0,0
191379,-200,4,2,1,70,0,0
191726,-125,4,2,1,70,0,0
191986,-125,4,2,1,5,0,0
192073,-200,4,2,1,70,0,0
192333,-200,4,2,1,5,0,0
192419,-125,4,2,1,70,0,0
192766,-200,4,2,1,70,0,0
193113,-125,4,2,1,70,0,0
193373,-125,4,2,1,5,0,0
193460,-200,4,2,1,70,0,0
193720,-200,4,2,1,5,0,0
193807,-125,4,2,1,70,0,0
194067,-125,4,2,1,5,0,0
194154,-200,4,2,1,70,0,0
194500,-125,4,2,1,70,0,0
194761,-125,4,2,1,5,0,0
194847,-125,4,2,1,70,0,0
196234,-166.666666666667,4,2,1,55,0,0
197968,-83.3333333333333,4,2,1,60,0,0
198315,-166.666666666667,4,2,1,55,0,0
200743,-83.3333333333333,4,2,1,60,0,0
201090,-166.666666666667,4,2,1,55,0,0
205945,-166.666666666667,4,2,1,55,0,0
207333,-200,4,2,2,45,0,0
222593,-200,4,2,1,45,0,0
223634,-300,4,2,2,45,0,0
223980,-200,4,2,1,60,0,0
224241,-200,4,2,1,5,0,0
224327,-125,4,2,1,60,0,0
224587,-125,4,2,1,5,0,0
224674,-200,4,2,1,60,0,0
225021,-125,4,2,1,60,0,0
225281,-125,4,2,1,5,0,0
225368,-200,4,2,1,60,0,0
225628,-200,4,2,1,5,0,0
225714,-125,4,2,1,60,0,0
226061,-200,4,2,1,60,0,0
226408,-125,4,2,1,60,0,0
226668,-125,4,2,1,5,0,0
226754,-200,4,2,1,60,0,0
227015,-200,4,2,1,5,0,0
227101,-125,4,2,1,60,0,0
227362,-125,4,2,1,5,0,0
227449,-200,4,2,1,60,0,0
227796,-125,4,2,1,60,0,0
228056,-125,4,2,1,5,0,0
228142,-125,4,2,1,60,0,0
229530,-83.3333333333333,4,2,1,70,0,1
251033,-200,4,2,1,45,0,0
251379,-100,4,2,1,55,0,0
251726,-83.3333333333333,4,2,1,70,0,1
273923,-83.3333333333333,4,2,1,70,0,0
285021,-166.666666666667,4,2,1,60,0,0
286061,-125,4,2,1,60,0,0
287796,-83.3333333333333,4,2,1,70,0,1
309992,-200,4,2,1,70,0,0
321090,-166.666666666667,4,2,2,50,0,0
330801,-166.666666666667,4,2,1,50,0,0
331841,-100,4,2,1,60,0,0
332189,-83.3333333333333,4,2,1,70,0,1
353692,-200,4,2,1,45,0,0
354038,-100,4,2,1,55,0,0
354385,-83.3333333333333,4,2,1,70,0,1
355079,-90.9090909090909,4,2,1,70,0,1
355772,-100,4,2,1,70,0,1
356466,-111.111111111111,4,2,1,70,0,1
357159,-125,4,2,1,70,0,1
357853,-142.857142857143,4,2,1,70,0,1
359848,-83.3333333333333,4,2,1,70,0,0
359934,-83.3333333333333,4,2,1,70,0,1
360628,-90.9090909090909,4,2,1,70,0,1
361321,-100,4,2,1,70,0,1
362015,-111.111111111111,4,2,1,70,0,1
362708,-125,4,2,1,70,0,1
363402,-142.857142857143,4,2,1,70,0,1
365397,-83.3333333333333,4,2,1,70,0,0
365483,-83.3333333333333,4,2,2,70,0,1
365830,-83.3333333333333,4,2,1,70,0,1
366177,-83.3333333333333,4,2,2,70,0,1
366524,-83.3333333333333,4,2,1,70,0,1
366870,-83.3333333333333,4,2,2,70,0,1
367217,-83.3333333333333,4,2,1,70,0,1
367564,-83.3333333333333,4,2,2,70,0,1
367911,-83.3333333333333,4,2,1,70,0,1
369645,-125,4,2,1,70,0,0
370339,-83.3333333333333,4,2,1,70,0,0
371033,-83.3333333333333,4,2,1,70,0,1
376495,-83.3333333333333,4,2,1,70,0,0
376582,-83.3333333333333,4,2,1,70,0,1
398778,-83.3333333333333,4,2,1,60,0,0
409876,-83.3333333333333,4,2,1,70,0,0
420974,-200,4,2,3,30,0,0
423749,-200,4,2,3,10,0,0
425483,-200,4,2,3,20,0,0
425830,-200,4,2,3,30,0,0
426177,-200,4,2,3,40,0,0
426523,357.142857142857,4,2,3,50,1,0
426523,-400,4,2,3,50,0,0
427594,-400,4,2,3,10,0,0
428665,382.165605095541,4,2,3,10,1,0
428665,-400,4,2,3,10,0,0
429811,394.736842105263,4,2,3,10,1,0
429811,-285.714285714286,4,2,3,10,0,0
430600,-333.333333333333,4,2,3,10,0,0
431389,419.58041958042,4,2,3,10,1,0
431389,-400,4,2,3,10,0,0
432228,-500,4,2,3,10,0,0
432542,-500,4,2,3,5,0,0
432647,419.58041958042,4,2,3,30,1,0
432647,-400,4,2,3,30,0,0

[Colours]
Combo1 : 255,0,128
Combo2 : 255,128,128
Combo3 : 255,0,255
Combo4 : 128,128,192

[HitObjects]
3,121,2005,6,0,B|51:106|51:106|98:129|98:129|159:110,1,155,2|2,0:0|0:0,0:0:0:0:
112,23,3045,1,0,0:0:0:0:
224,75,3392,2,0,P|229:117|228:165,1,77.5,2|0,0:0|0:0,0:0:0:0:
314,183,4085,2,0,P|309:225|310:273,1,77.5,2|0,0:0|0:0,0:0:0:0:
389,351,4779,6,0,P|348:346|299:351,1,77.5,2|0,0:0|0:0,0:0:0:0:
135,367,5473,2,0,P|176:372|225:367,1,77.5,2|0,0:0|0:0,0:0:0:0:
165,213,6166,2,0,P|88:202|7:220,1,155,2|2,0:0|0:0,0:0:0:0:
230,293,7207,1,0,0:0:0:0:
282,187,7554,6,0,L|296:104,1,77.5,2|0,0:0|0:0,0:0:0:0:
230,293,8594,1,0,0:0:0:0:
282,187,8941,2,0,L|296:104,1,77.5,2|0,0:0|0:0,0:0:0:0:
313,26,9676,2,0,P|267:27|229:51,1,77.5,2|0,0:0|0:0,0:0:0:0:
184,113,10340,6,0,P|142:121|103:117,1,77.5,2|0,0:0|0:0,0:0:0:0:
0,214,11033,2,0,P|42:206|81:210,1,77.5,2|0,0:0|0:0,0:0:0:0:
154,293,11727,2,0,B|200:317|200:317|316:288,1,155,2|2,0:0|0:0,0:0:0:0:
323,205,13114,6,0,P|374:242|380:336,1,155,2|2,0:0|0:0,0:0:0:0:
296,379,14154,1,0,0:0:0:0:
239,229,14501,2,0,L|242:151,1,77.5,2|0,0:0|0:0,0:0:0:0:
157,25,15194,2,0,L|160:103,1,77.5,2|0,0:0|0:0,0:0:0:0:
66,163,15888,6,0,L|76:244,2,77.5,2|0|2,0:0|0:0|0:0,0:0:0:0:
160,103,16929,1,0,0:0:0:0:
267,177,17275,2,0,P|344:180|401:124,1,155,2|2,0:0|0:0,0:0:0:0:
310,90,18316,1,0,0:0:0:0:
189,184,18663,6,0,L|180:277,2,77.5,2|0|2,0:0|0:0|0:0,0:0:0:0:
202,52,19703,1,0,0:0:0:0:
75,91,20050,2,0,P|93:125|102:175,1,77.5,2|0,0:0|0:0,0:0:0:0:
189,222,20744,2,0,P|171:256|162:306,1,77.5,2|0,0:0|0:0,0:0:0:0:
349,293,21437,6,0,P|341:256|323:222,1,77.5,2|0,0:0|0:0,0:0:0:0:
410,162,22131,2,0,P|418:125|437:91,1,77.5,2|0,0:0|0:0,0:0:0:0:
256,192,22824,1,2,0:0:0:0:
256,192,22911,12,0,24212,0:0:0:0:
117,217,24386,5,0,0:0:0:0:
43,193,24559,1,0,0:0:0:0:
43,115,24732,1,0,0:0:0:0:
117,91,24906,1,0,0:0:0:0:
162,154,25079,1,2,0:0:0:0:
162,154,25426,1,0,0:0:0:0:
162,154,25599,5,0,0:0:0:0:
236,178,25773,1,0,0:0:0:0:
281,115,25946,1,0,0:0:0:0:
236,52,26120,1,0,0:0:0:0:
162,76,26293,1,0,0:0:0:0:
162,154,26466,1,2,0:0:0:0:
162,154,26813,1,0,0:0:0:0:
162,154,26986,5,0,0:0:0:0:
188,227,27160,1,0,0:0:0:0:
238,284,27333,1,0,0:0:0:0:
307,319,27506,1,0,0:0:0:0:
384,326,27680,1,0,0:0:0:0:
455,307,27854,1,2,0:0:0:0:
455,307,28201,1,0,0:0:0:0:
455,307,28374,5,0,0:0:0:0:
402,250,28547,1,0,0:0:0:0:
327,229,28721,1,0,0:0:0:0:
254,238,28895,1,0,0:0:0:0:
185,273,29068,6,0,L|178:181,1,77.5,0|0,0:0|0:0,0:0:0:0:
239,72,29761,6,0,P|298:60|264:110,1,155,2|0,0:0|0:0,0:0:0:0:
271,79,30454,2,0,B|383:51|334:143|492:99|492:99|466:92|439:69,1,271.25,2|0,0:0|0:0,0:0:0:0:
455,81,31148,6,0,B|423:138|454:203|454:203|474:161,1,155,2|0,0:0|0:0,0:0:0:0:
361,180,31842,2,0,B|287:167|229:209|229:209|170:249|89:224,1,271.25,2|0,0:0|0:0,0:0:0:0:
102,227,32535,6,0,B|83:187|96:150|96:150|122:172|124:220,1,155,2|0,0:0|0:0,0:0:0:0:
229,266,33229,2,0,B|267:241|273:207|273:207|235:215|210:251,1,155,2|0,0:0|0:0,0:0:0:0:
140,313,33922,6,0,B|215:281|289:325|289:325|359:362|430:350|436:304|397:245|327:325,1,387.5,2|0,0:0|0:0,0:0:0:0:
487,358,34963,2,0,L|472:254,1,77.5,0|0,0:0|0:0,0:0:0:0:
465,188,35310,6,0,B|531:120|485:28|485:28|446:54|443:96,1,244.124992549896,0|0,0:0|0:0,0:0:0:0:
329,152,36004,6,0,P|266:141|249:21,1,189.874994205475
311,72,36697,6,0,B|274:131|313:176|313:176|286:203|274:242|274:242|313:290|282:353,1,290.625,0|0,0:0|0:0,0:0:0:0:
210,300,38084,5,2,0:0:0:0:
359,196,39471,5,2,0:0:0:0:
359,196,40165,6,0,L|369:280,1,77.5,0|0,0:0|0:0,0:0:0:0:
386,372,40859,6,0,P|358:309|279:295,1,155,2|0,0:0|0:0,0:0:0:0:
220,351,41553,2,0,B|176:301|220:235|220:235|241:163|194:84,1,271.25,2|0,0:0|0:0,0:0:0:0:
151,21,42246,6,0,P|199:66|287:41,1,155,2|0,0:0|0:0,0:0:0:0:
397,1,42940,2,0,B|382:92|382:92|406:162|406:162|383:271,1,271.25,2|0,0:0|0:0,0:0:0:0:
367,361,43634,6,0,B|367:280|367:280|315:340,1,155,2|0,0:0|0:0,0:0:0:0:
145,361,44327,2,0,B|145:280|145:280|197:340,1,155,2|0,0:0|0:0,0:0:0:0:
256,376,45021,6,0,B|233:306|258:236|258:236|289:134|259:84|259:84|232:134|265:189,1,387.5,2|0,0:0|0:0,0:0:0:0:
357,217,46061,2,0,P|397:228|462:223,1,77.5,0|0,0:0|0:0,0:0:0:0:
397,137,46408,6,0,B|324:119|280:171|280:171|238:213|164:198,1,244.124992549896,0|0,0:0|0:0,0:0:0:0:
96,182,47102,6,0,B|84:153|103:125|103:125|143:176|115:256,1,189.874994205475,0|0,0:0|0:0,0:0:0:0:
49,305,47795,6,0,B|116:273|189:304|189:304|261:332|336:291,1,290.625,0|0,0:0|0:0,0:0:0:0:
349,260,49182,5,0,0:0:0:0:
349,260,49356,1,0,0:0:0:0:
265,186,49529,1,0,0:0:0:0:
265,186,49703,1,0,0:0:0:0:
367,148,49876,1,0,0:0:0:0:
367,148,50050,1,0,0:0:0:0:
256,310,50223,5,0,0:0:0:0:
261,248,50309,1,0,0:0:0:0:
265,186,50396,1,0,0:0:0:0:
269,124,50483,1,0,0:0:0:0:
272,62,50570,6,0,B|325:43|376:66|376:66|423:64|454:24,2,186,2|2|2,0:0|0:0|0:0,0:0:0:0:
27,53,51264,5,0,0:0:0:0:
4,109,51350,1,0,0:0:0:0:
27,164,51437,1,0,0:0:0:0:
82,189,51524,1,0,0:0:0:0:
119,138,51610,5,0,0:0:0:0:
115,119,51696,1,0,0:0:0:0:
112,101,51783,1,0,0:0:0:0:
109,82,51870,1,0,0:0:0:0:
105,66,51958,6,0,P|163:73|210:86,1,92.9999971618653,6|0,0:0|0:0,0:0:0:0:
407,66,52131,2,0,P|349:73|302:86,1,92.9999971618653,8|0,0:0|0:0,0:0:0:0:
112,262,52305,2,0,P|122:216|144:168,1,92.9999971618653,2|0,0:0|0:0,0:0:0:0:
400,262,52478,2,0,P|390:216|368:168,1,92.9999971618653,8|0,0:0|0:0,0:0:0:0:
256,134,52651,5,2,0:0:0:0:
256,134,52738,1,2,0:0:0:0:
256,134,52824,2,0,L|256:260,1,92.9999971618653,8|0,0:0|0:0,0:0:0:0:
255,342,52998,2,0,P|212:316|151:296,1,92.9999971618653,2|0,0:0|0:0,0:0:0:0:
2,268,53172,2,0,P|45:242|106:222,1,92.9999971618653,8|0,0:0|0:0,0:0:0:0:
256,134,53345,6,0,B|266:87|266:87|247:28,1,92.9999971618653,2|0,0:1|0:0,0:0:0:0:
77,47,53518,2,0,B|67:94|67:94|86:153,1,92.9999971618653,8|0,0:0|0:0,0:0:0:0:
254,272,53692,2,0,B|236:227|236:227|188:188,1,92.9999971618653,2|0,0:0|0:0,0:0:0:0:
56,296,53865,2,0,B|73:340|73:340|121:379,1,92.9999971618653,8|0,0:0|0:0,0:0:0:0:
342,372,54038,5,2,0:0:0:0:
342,372,54125,1,2,0:0:0:0:
342,372,54211,2,0,L|329:265,1,92.9999971618653,8|0,0:0|0:0,0:0:0:0:
400,115,54386,2,0,L|411:207,1,92.9999971618653,2|0,0:0|0:0,0:0:0:0:
287,93,54559,2,0,L|298:0,1,92.9999971618653,8|0,0:0|0:0,0:0:0:0:
126,289,54732,6,0,P|81:298|9:309,1,92.9999971618653,2|0,0:1|0:0,0:0:0:0:
107,130,54906,2,0,P|62:118|-6:96,1,92.9999971618653,8|0,0:0|0:0,0:0:0:0:
254,230,55079,1,2,0:0:0:0:
254,230,55166,1,2,0:0:0:0:
254,230,55253,1,10,0:0:0:0:
95,216,55426,6,0,P|51:203|-17:179,1,92.9999971618653,2|0,0:0|0:0,0:0:0:0:
153,67,55600,2,0,P|119:36|68:-15,1,92.9999971618653,8|0,0:0|0:0,0:0:0:0:
250,195,55773,1,2,0:0:0:0:
250,195,55860,1,2,0:0:0:0:
250,195,55945,1,10,0:0:0:0:
323,0,56120,6,0,P|318:47|299:102,1,92.9999971618653,2|0,0:1|0:0,0:0:0:0:
468,173,56293,2,0,P|473:126|492:71,1,92.9999971618653,8|0,0:0|0:0,0:0:0:0:
331,241,56466,1,2,0:0:0:0:
396,307,56553,1,2,0:0:0:0:
305,330,56640,2,0,L|194:342,1,92.9999971618653,8|0,0:0|0:0,0:0:0:0:
93,384,56813,6,0,P|92:342|81:274,1,92.9999971618653,6|0,0:0|0:0,0:0:0:0:
62,165,56986,1,8,0:0:0:0:
62,165,57073,1,8,0:0:0:0:
62,165,57159,5,10,0:0:0:0:
110,139,57245,1,8,0:0:0:0:
166,135,57332,1,8,0:0:0:0:
219,151,57419,1,8,0:0:0:0:
264,184,57506,6,0,P|313:183|366:162,1,92.9999971618653,6|0,0:0|0:0,0:0:0:0:
512,46,57680,2,0,P|463:47|410:68,1,92.9999971618653,8|0,0:0|0:0,0:0:0:0:
457,286,57854,2,0,L|478:169,1,92.9999971618653,2|0,0:0|0:0,0:0:0:0:
272,0,58027,2,0,L|288:91,1,92.9999971618653,8|0,0:0|0:0,0:0:0:0:
200,253,58200,5,2,0:0:0:0:
200,253,58287,1,2,0:0:0:0:
200,253,58373,2,0,P|157:270|98:275,1,92.9999971618653,8|0,0:0|0:0,0:0:0:0:
33,90,58547,2,0,P|79:95|122:112,1,92.9999971618653,2|0,0:0|0:0,0:0:0:0:
25,347,58721,2,0,L|3:230,1,92.9999971618653,8|0,0:0|0:0,0:0:0:0:
143,193,58894,6,0,L|160:284,1,92.9999971618653,2|0,0:1|0:0,0:0:0:0:
370,206,59068,2,0,L|352:297,1,92.9999971618653,8|0,0:0|0:0,0:0:0:0:
258,187,59241,2,0,L|254:279,1,92.9999971618653,2|0,0:0|0:0,0:0:0:0:
485,250,59415,2,0,L|447:335,1,92.9999971618653,8|0,0:0|0:0,0:0:0:0:
289,384,59587,5,2,0:0:0:0:
289,384,59674,1,2,0:0:0:0:
289,384,59761,2,0,L|304:281,1,92.9999971618653,8|0,0:0|0:0,0:0:0:0:
241,111,59934,2,0,P|235:162|248:220,1,92.9999971618653,2|0,0:0|0:0,0:0:0:0:
437,116,60107,2,0,P|443:65|430:7,1,92.9999971618653,8|0,0:0|0:0,0:0:0:0:
241,111,60281,6,0,P|190:109|137:98,1,92.9999971618653,2|0,0:1|0:0,0:0:0:0:
343,216,60455,2,0,P|386:242|437:260,1,92.9999971618653,8|0,0:0|0:0,0:0:0:0:
365,64,60628,1,2,0:0:0:0:
365,64,60715,1,2,0:0:0:0:
365,64,60802,1,10,0:0:0:0:
282,142,60975,6,0,P|236:121|191:90,1,92.9999971618653,2|0,0:0|0:0,0:0:0:0:
335,278,61148,2,0,P|365:319|404:356,1,92.9999971618653,8|0,0:0|0:0,0:0:0:0:
414,147,61322,1,2,0:0:0:0:
414,147,61409,1,2,0:0:0:0:
414,147,61496,1,10,0:0:0:0:
318,276,61669,6,0,B|275:299|275:299|216:294,1,92.9999971618653,2|0,0:1|0:0,0:0:0:0:
0,157,61842,2,0,B|43:134|43:134|102:139,1,92.9999971618653,8|0,0:0|0:0,0:0:0:0:
150,194,62016,1,2,0:0:0:0:
148,285,62102,1,2,0:0:0:0:
148,378,62189,1,8,0:0:0:0:
231,296,62362,6,0,L|224:201,1,92.9999971618653,6|0,0:0|0:0,0:0:0:0:
294,26,62535,1,8,0:0:0:0:
294,26,62623,1,8,0:0:0:0:
294,26,62709,6,0,L|302:92,1,46.4999985809327,2|0,0:1|0:0,0:0:0:0:
310,26,62796,2,0,L|318:92,1,46.4999985809327,0|0,0:0|0:0,0:0:0:0:
327,26,62883,2,0,L|335:92,1,46.4999985809327,0|0,0:0|0:0,0:0:0:0:
343,26,62970,2,0,L|351:92,1,46.4999985809327,0|0,0:0|0:0,0:0:0:0:
359,27,63056,5,6,0:0:0:0:
404,177,63229,1,8,0:0:0:0:
512,74,63403,1,2,0:0:0:0:
404,177,63576,1,8,0:0:0:0:
500,320,63750,6,0,L|385:316,1,92.9999971618653,2|0,0:0|0:0,0:0:0:0:
321,355,63922,2,0,L|206:351,1,92.9999971618653,10|0,0:0|0:0,0:0:0:0:
138,278,64097,1,2,0:0:0:0:
236,165,64270,1,8,0:0:0:0:
236,165,64357,1,0,0:0:0:0:
236,165,64443,5,2,0:1:0:0:
50,82,64617,1,8,0:0:0:0:
236,165,64790,1,2,0:0:0:0:
50,82,64964,1,8,0:0:0:0:
146,0,65137,6,0,L|156:97,1,92.9999971618653,2|0,0:0|0:0,0:0:0:0:
128,185,65310,2,0,L|138:282,1,92.9999971618653,10|0,0:0|0:0,0:0:0:0:
223,270,65484,1,2,0:0:0:0:
37,187,65656,1,8,0:0:0:0:
239,86,65831,5,2,0:1:0:0:
223,270,66004,1,8,0:0:0:0:
239,86,66177,1,2,0:0:0:0:
223,270,66350,1,8,0:0:0:0:
410,219,66524,5,2,0:0:0:0:
410,219,66611,1,0,0:0:0:0:
410,219,66698,1,8,0:0:0:0:
233,181,66871,1,2,0:0:0:0:
354,27,67044,1,8,0:0:0:0:
410,219,67218,5,2,0:0:0:0:
102,165,67565,5,2,0:0:0:0:
410,219,67912,5,2,0:0:0:0:
314,357,68085,5,8,0:0:0:0:
314,357,68171,1,8,0:0:0:0:
314,357,68258,5,8,0:0:0:0:
314,338,68344,1,8,0:0:0:0:
315,319,68431,1,8,0:0:0:0:
316,301,68518,1,8,0:0:0:0:
317,282,68605,6,0,B|250:242|250:242|153:264,1,155,6|0,0:0|0:0,0:0:0:0:
80,294,69125,1,0,0:0:0:0:
30,206,69299,1,0,0:0:0:0:
94,128,69472,1,0,0:0:0:0:
55,34,69645,1,8,0:0:0:0:
55,34,69819,1,0,0:0:0:0:
94,128,69992,6,0,P|134:120|171:98,1,77.5,2|0,0:0|0:0,0:0:0:0:
239,204,70339,2,0,P|264:172|278:131,1,77.5,0|0,0:0|0:0,0:0:0:0:
221,0,70686,1,0,0:0:0:0:
221,0,70860,1,0,0:0:0:0:
340,62,71033,1,8,0:0:0:0:
462,40,71380,6,0,L|452:118,1,77.5,2|0,0:0|0:0,0:0:0:0:
363,258,71727,2,0,L|372:181,1,77.5,0|0,0:0|0:0,0:0:0:0:
470,269,72073,1,0,0:0:0:0:
470,269,72247,1,0,0:0:0:0:
302,337,72420,1,8,0:0:0:0:
302,337,72594,1,0,0:0:0:0:
224,234,72767,6,0,P|136:203|80:237,1,155,2|0,0:0|0:0,0:0:0:0:
152,307,73287,1,0,0:0:0:0:
302,337,73460,2,0,L|314:251,1,77.5,0|0,0:0|0:0,0:0:0:0:
245,141,73807,1,8,0:0:0:0:
245,141,73981,1,0,0:0:0:0:
372,70,74154,6,0,L|364:164,1,77.5,2|0,0:0|0:0,0:0:0:0:
481,260,74501,1,0,0:0:0:0:
481,260,74675,1,0,0:0:0:0:
345,292,74848,2,0,P|306:291|260:304,1,77.5,0|0,0:0|0:0,0:0:0:0:
420,366,75195,2,0,P|459:367|505:354,1,77.5,8|0,0:0|0:0,0:0:0:0:
481,260,75542,6,0,L|492:105,2,155,2|0|0,0:0|0:0|0:0,0:0:0:0:
346,292,76409,1,0,0:0:0:0:
279,173,76582,1,8,0:0:0:0:
336,43,76929,6,0,L|439:33,1,77.5,2|0,0:0|0:0,0:0:0:0:
428,131,77276,2,0,L|531:121,1,77.5,0|0,0:0|0:0,0:0:0:0:
279,173,77623,2,0,L|382:163,1,77.5,0|0,0:0|0:0,0:0:0:0:
371,261,77969,2,8,L|474:251,1,77.5,8|0,0:0|0:0,0:0:0:0:
231,384,78316,5,2,0:0:0:0:
179,249,78490,1,0,0:0:0:0:
300,327,78663,1,0,0:0:0:0:
156,335,78836,1,0,0:0:0:0:
268,244,79010,1,0,0:0:0:0:
268,244,79183,1,0,0:0:0:0:
91,253,79357,6,0,L|81:158,1,77.5,8|0,0:0|0:0,0:0:0:0:
21,50,79703,6,0,B|51:89|51:89|80:96|129:67,1,116.25,2|0,0:0|0:0,0:0:0:0:
195,6,80050,6,0,B|276:12|299:94|299:94|256:123,1,186,2|0,0:3|0:0,0:0:0:0:
180,185,80397,5,2,0:0:0:0:
180,185,80571,1,2,0:0:0:0:
295,227,80743,6,0,B|354:201|430:215|430:215|395:260,1,186,2|0,0:3|0:0,0:0:0:0:
224,384,81090,6,0,B|216:344|216:344|229:305|222:257,1,116.25,2|0,0:0|0:0,0:0:0:0:
180,185,81438,6,0,P|112:189|79:245,1,124,2|2,0:0|0:0,0:0:0:0:
79,308,81784,5,2,0:0:0:0:
41,119,81958,1,2,0:0:0:0:
180,185,82131,6,0,B|246:196|246:196|294:162|315:98,1,186,2|0,0:3|0:0,0:0:0:0:
315,24,82478,6,0,P|355:82|376:148,1,116.25,2|0,0:0|0:0,0:0:0:0:
382,235,82825,6,0,B|451:252|499:213|499:213|464:213|419:198,1,186,2|0,0:3|0:0,0:0:0:0:
298,276,83172,5,2,0:0:0:0:
298,276,83345,1,2,0:0:0:0:
242,185,83518,6,0,P|182:140|82:183,1,186,2|0,0:3|0:0,0:0:0:0:
99,274,83865,5,2,0:0:0:0:
48,84,84212,5,2,0:1:0:0:
4,197,84386,1,2,0:0:0:0:
4,197,84471,1,2,0:0:0:0:
4,197,84559,5,8,0:0:0:0:
7,215,84645,1,8,0:0:0:0:
10,233,84732,1,8,0:0:0:0:
13,252,84819,1,8,0:0:0:0:
16,270,84905,1,8,0:0:0:0:
19,288,84992,1,8,0:0:0:0:
22,307,85079,1,8,0:0:0:0:
148,368,85252,5,6,0:0:0:0:
203,201,85425,1,8,0:0:0:0:
99,292,85599,5,2,0:0:0:0:
285,196,85772,1,8,0:0:0:0:
90,146,85945,5,2,0:0:0:0:
249,292,86119,1,8,0:0:0:0:
31,214,86292,5,2,0:0:0:0:
31,214,86379,1,2,0:0:0:0:
31,214,86466,1,8,0:0:0:0:
168,20,86639,6,0,P|178:92|178:179,1,155,2|10,0:0|0:0,0:0:0:0:
280,293,86899,1,2,0:0:0:0:
280,293,86986,6,0,P|193:268|88:290,1,185.999994323731,0|8,0:0|0:0,0:0:0:0:
373,383,87333,5,2,0:0:0:0:
346,192,87506,1,8,0:0:0:0:
452,308,87680,5,2,0:0:0:0:
479,117,87853,1,10,0:0:0:0:
479,117,87940,1,2,0:0:0:0:
479,117,88026,5,2,0:0:0:0:
356,284,88200,1,8,0:0:0:0:
257,133,88373,5,2,0:0:0:0:
478,215,88547,1,8,0:0:0:0:
232,269,88720,5,2,0:0:0:0:
401,93,88893,1,8,0:0:0:0:
442,329,89067,5,2,0:0:0:0:
442,329,89154,1,2,0:0:0:0:
442,329,89240,1,8,0:0:0:0:
232,269,89414,6,0,P|139:260|74:284,1,155,2|10,0:0|0:0,0:0:0:0:
36,350,89674,1,2,0:0:0:0:
36,350,89761,6,0,P|64:272|58:162,1,185.999994323731,2|8,0:0|0:0,0:0:0:0:
16,82,90107,5,2,0:0:0:0:
258,174,90281,1,8,0:0:0:0:
226,3,90454,5,2,0:0:0:0:
154,231,90628,1,10,0:0:0:0:
154,231,90714,1,2,0:0:0:0:
154,231,90801,5,6,0:0:0:0:
342,71,90974,1,8,0:0:0:0:
321,271,91148,5,2,0:0:0:0:
144,105,91321,1,8,0:0:0:0:
146,318,91495,5,2,0:0:0:0:
391,187,91668,1,8,0:0:0:0:
323,370,91841,5,2,0:0:0:0:
323,370,91928,1,2,0:0:0:0:
323,370,92015,1,8,0:0:0:0:
256,161,92188,5,2,0:0:0:0:
419,263,92362,1,8,0:0:0:0:
196,92,92535,5,2,0:0:0:0:
438,151,92708,1,8,0:0:0:0:
117,42,92882,6,0,L|106:-16,6,38.75,2|2|0|2|8|2|0,0:0|0:0|0:0|0:0|0:0|0:0|0:0,0:0:0:0:
196,92,93229,6,0,L|207:34,4,38.75,2|0|0|0|8,0:0|0:0|0:0|0:0|0:0,0:0:0:0:
182,176,93489,1,2,0:0:0:0:
182,176,93576,5,2,0:0:0:0:
397,109,93749,1,8,0:0:0:0:
272,251,93922,1,2,0:0:0:0:
203,53,94096,1,8,0:0:0:0:
406,248,94269,5,2,0:0:0:0:
182,176,94443,1,8,0:0:0:0:
347,23,94616,1,2,0:0:0:0:
347,23,94703,1,2,0:0:0:0:
347,23,94789,1,8,0:0:0:0:
423,332,94963,5,2,0:0:0:0:
339,121,95137,1,8,0:0:0:0:
300,325,95310,5,2,0:0:0:0:
256,131,95484,1,8,0:0:0:0:
184,290,95656,5,2,0:0:0:0:
185,92,95830,1,8,0:0:0:0:
86,213,96003,5,2,0:0:0:0:
142,24,96177,1,8,0:0:0:0:
5,78,96350,6,0,P|42:81|95:69,1,77.5,6|0,0:0|0:0,0:0:0:0:
235,133,96697,2,0,P|198:136|145:124,1,77.5,0|0,0:0|0:0,0:0:0:0:
203,22,97044,2,0,P|240:25|293:13,1,77.5,0|0,0:0|0:0,0:0:0:0:
353,112,97391,1,8,0:0:0:0:
353,112,97564,1,0,0:0:0:0:
447,45,97737,6,0,P|456:89|461:134,1,77.5,2|0,0:0|0:0,0:0:0:0:
353,112,98084,2,0,P|344:156|339:201,1,77.5,0|0,0:0|0:0,0:0:0:0:
491,225,98431,2,0,P|500:269|505:314,1,77.5,0|0,0:0|0:0,0:0:0:0:
352,354,98778,1,8,0:0:0:0:
352,354,98952,1,0,0:0:0:0:
255,281,99125,6,0,P|217:286|182:306,1,77.5,2|0,0:0|0:0,0:0:0:0:
81,358,99471,2,0,P|95:322|95:282,1,77.5,0|0,0:0|0:0,0:0:0:0:
100,158,99818,2,0,P|123:188|158:208,1,77.5,0|0,0:0|0:0,0:0:0:0:
262,173,100165,1,8,0:0:0:0:
262,173,100339,1,0,0:0:0:0:
341,257,100512,6,0,L|443:274,1,77.5,2|0,0:0|0:0,0:0:0:0:
262,331,100859,2,0,L|185:318,1,77.5,0|0,0:0|0:0,0:0:0:0:
350,280,101206,2,0,L|452:297,1,77.5,0|0,0:0|0:0,0:0:0:0:
271,354,101552,2,0,L|194:341,1,77.5,8|0,0:0|0:0,0:0:0:0:
15,187,101899,6,0,L|6:100,2,77.5,2|0|0,0:0|0:0|0:0,0:0:0:0:
156,241,102593,2,0,P|100:292|19:266,1,155,0|8,0:0|0:0,0:0:0:0:
305,77,103287,6,0,L|314:-10,2,77.5,2|0|0,0:0|0:0|0:0,0:0:0:0:
164,131,103981,2,0,P|220:182|301:156,1,155,0|8,0:0|0:0,0:0:0:0:
368,73,104674,6,0,L|459:64,1,77.5,2|0,0:0|0:0,0:0:0:0:
504,165,105021,1,0,0:0:0:0:
504,165,105194,1,0,0:0:0:0:
436,259,105368,2,0,P|361:240|278:237,1,155,0|8,0:0|0:0,0:0:0:0:
104,336,106061,6,0,L|91:228,1,77.5,2|0,0:0|0:0,0:0:0:0:
159,152,106408,2,0,L|168:228,1,77.5,0|0,0:0|0:0,0:0:0:0:
41,158,106755,2,0,L|31:81,2,77.5,0|0|8,0:0|0:0|0:0,0:0:0:0:
111,91,107448,6,0,P|155:82|211:80,1,77.5,6|0,0:0|0:0,0:0:0:0:
395,161,107795,2,0,P|351:170|295:172,1,77.5,0|0,0:0|0:0,0:0:0:0:
319,173,108055,1,0,0:0:0:0:
319,173,108142,1,2,0:0:0:0:
414,52,108316,1,0,0:0:0:0:
414,52,108402,1,0,0:0:0:0:
414,52,108489,1,0,0:0:0:0:
502,166,108662,1,0,0:0:0:0:
502,166,108748,1,0,0:0:0:0:
502,166,108836,6,0,L|486:275,1,77.5,2|0,0:0|0:0,0:0:0:0:
396,377,109182,2,0,L|407:300,1,77.5,0|0,0:0|0:0,0:0:0:0:
407,300,109443,1,0,0:0:0:0:
407,300,109529,1,2,0:0:0:0:
319,173,109703,1,0,0:0:0:0:
319,173,109789,1,0,0:0:0:0:
319,173,109876,1,0,0:0:0:0:
216,266,110050,1,0,0:0:0:0:
216,266,110136,1,0,0:0:0:0:
216,266,110223,6,0,P|182:285|130:284,1,77.5,10|0,0:0|0:0,0:0:0:0:
158,206,110570,2,0,P|120:195|84:157,1,77.5,2|0,0:0|0:0,0:0:0:0:
159,122,110917,2,0,P|140:87|141:36,1,77.5,2|0,0:0|0:0,0:0:0:0:
218,65,111263,2,0,P|228:27|266:-8,1,77.5,2|2,0:0|0:0,0:0:0:0:
277,157,111610,5,10,0:0:0:0:
310,175,111696,1,8,0:0:0:0:
348,186,111783,1,8,0:0:0:0:
386,187,111870,1,8,0:0:0:0:
425,186,111957,5,10,0:0:0:0:
380,197,112043,1,8,0:0:0:0:
339,219,112130,1,8,0:0:0:0:
305,252,112217,1,8,0:0:0:0:
278,290,112304,5,10,0:0:0:0:
325,316,112390,1,8,0:0:0:0:
377,328,112477,1,8,0:0:0:0:
431,325,112564,1,8,0:0:0:0:
507,236,112651,5,8,0:0:0:0:
507,236,112997,6,0,P|451:228|379:247,1,116.25,6|0,0:0|0:0,0:0:0:0:
299,335,113344,6,0,B|292:309|265:289|265:289|252:222|289:157,1,186,2|0,0:3|0:0,0:0:0:0:
383,103,113691,5,2,0:0:0:0:
383,103,113865,1,2,0:0:0:0:
285,145,114038,6,0,B|220:144|174:178|174:178|138:181|68:147,1,186,2|0,0:3|0:0,0:0:0:0:
22,110,114385,6,0,P|55:165|42:231,1,116.25,2|0,0:0|0:0,0:0:0:0:
8,313,114732,6,0,P|66:291|147:302,1,124,2|2,0:0|0:0,0:0:0:0:
238,357,115078,5,2,0:0:0:0:
238,357,115251,1,2,0:0:0:0:
380,365,115425,6,0,P|362:294|256:270,1,186,2|0,0:3|0:0,0:0:0:0:
386,283,115772,6,0,P|405:228|408:150,1,116.25,2|0,0:0|0:0,0:0:0:0:
330,91,116119,6,0,B|385:120|467:65|467:65|406:43,1,186,2|0,0:3|0:0,0:0:0:0:
258,6,116466,5,2,0:0:0:0:
258,6,116639,1,2,0:0:0:0:
182,102,116813,6,0,L|208:287,1,186,2|0,0:3|0:0,0:0:0:0:
224,373,117159,5,2,0:0:0:0:
323,150,117506,5,2,0:1:0:0:
505,167,117680,1,2,0:0:0:0:
505,167,117766,1,2,0:0:0:0:
505,167,117853,5,8,0:0:0:0:
507,129,117939,1,8,0:0:0:0:
498,93,118026,1,8,0:0:0:0:
480,61,118113,1,8,0:0:0:0:
453,34,118200,5,8,0:0:0:0:
400,64,118286,1,8,0:0:0:0:
339,73,118373,1,8,0:0:0:0:
279,60,118460,1,8,0:0:0:0:
235,30,118547,6,0,P|189:20|129:26,1,92.9999971618653,6|0,0:0|0:0,0:0:0:0:
414,160,118720,2,0,P|460:170|520:164,1,92.9999971618653,8|0,0:0|0:0,0:0:0:0:
233,152,118894,2,0,L|250:257,1,92.9999971618653,2|0,0:0|0:0,0:0:0:0:
393,282,119068,2,0,L|376:387,1,92.9999971618653,8|0,0:0|0:0,0:0:0:0:
177,369,119241,5,2,0:0:0:0:
177,369,119328,1,0,0:0:0:0:
177,369,119414,2,0,P|171:327|187:256,1,92.9999971618653,8|0,0:0|0:0,0:0:0:0:
334,232,119588,2,0,P|340:190|324:119,1,92.9999971618653,2|0,0:0|0:0,0:0:0:0:
179,91,119761,2,0,P|173:49|189:-22,1,92.9999971618653,8|0,0:0|0:0,0:0:0:0:
233,152,119935,6,0,B|191:185|191:185|53:167,1,185.999994323731,2|8,0:1|0:0,0:0:0:0:
5,91,120195,1,0,0:0:0:0:
54,13,120281,2,0,P|82:48|89:114,1,92.9999971618653,2|0,0:0|0:0,0:0:0:0:
37,310,120455,2,0,P|9:275|2:209,1,92.9999971618653,8|0,0:0|0:0,0:0:0:0:
135,292,120628,5,2,0:0:0:0:
135,292,120715,1,0,0:0:0:0:
135,292,120802,2,0,L|144:397,1,92.9999971618653,8|0,0:0|0:0,0:0:0:0:
373,254,120975,2,0,L|364:359,1,92.9999971618653,2|0,0:0|0:0,0:0:0:0:
206,113,121149,2,0,L|215:218,1,92.9999971618653,8|0,0:0|0:0,0:0:0:0:
467,279,121322,6,0,P|434:177|327:166,1,185.999994323731,2|8,0:1|0:0,0:0:0:0:
300,88,121582,1,0,0:0:0:0:
374,32,121669,2,0,L|493:47,1,92.9999971618653,2|0,0:0|0:0,0:0:0:0:
206,113,121842,2,0,L|113:101,1,92.9999971618653,8|0,0:0|0:0,0:0:0:0:
34,209,122016,5,2,0:0:0:0:
34,209,122102,1,0,0:0:0:0:
34,209,122189,2,0,P|53:248|62:322,1,92.9999971618653,8|0,0:0|0:0,0:0:0:0:
206,113,122362,2,0,P|187:152|178:226,1,92.9999971618653,2|0,0:0|0:0,0:0:0:0:
92,81,122536,1,8,0:0:0:0:
439,279,122709,6,0,P|431:230|409:164,1,92.9999971618653,2|0,0:1|0:0,0:0:0:0:
376,104,122883,2,0,P|343:65|291:20,1,92.9999971618653,8|0,0:0|0:0,0:0:0:0:
425,275,123056,2,0,P|395:234|347:184,1,92.9999971618653,2|0,0:0|0:0,0:0:0:0:
292,145,123230,2,0,P|246:124|179:107,1,92.9999971618653,8|0,0:0|0:0,0:0:0:0:
341,370,123402,6,0,P|340:320|327:259,1,92.9999971618653,6|0,0:0|0:0,0:0:0:0:
124,279,123576,2,0,P|116:324|115:371,1,92.9999971618653,8|0,0:0|0:0,0:0:0:0:
224,349,123750,5,10,0:0:0:0:
244,259,123836,1,8,0:0:0:0:
188,183,123923,1,8,0:0:0:0:
208,93,124009,1,8,0:0:0:0:
231,1,124097,6,0,P|278:21|335:28,1,92.9999971618653,6|0,0:0|0:0,0:0:0:0:
503,75,124270,2,0,P|456:95|399:102,1,92.9999971618653,8|0,0:0|0:0,0:0:0:0:
246,30,124443,2,0,P|284:63|336:87,1,92.9999971618653,2|0,0:0|0:0,0:0:0:0:
481,184,124616,2,0,P|430:188|373:177,1,92.9999971618653,8|0,0:0|0:0,0:0:0:0:
178,110,124790,5,2,0:0:0:0:
178,110,124877,1,0,0:0:0:0:
178,110,124964,2,0,L|188:212,1,92.9999971618653,8|0,0:0|0:0,0:0:0:0:
289,340,125137,2,0,B|301:292|301:292|286:242,1,92.9999971618653,2|0,0:0|0:0,0:0:0:0:
94,284,125310,2,0,B|95:327|95:327|121:369,1,92.9999971618653,8|0,0:0|0:0,0:0:0:0:
188,203,125484,6,0,L|-5:184,1,185.999994323731,2|8,0:1|0:0,0:0:0:0:
55,107,125744,1,0,0:0:0:0:
108,30,125831,2,0,P|138:65|148:118,1,92.9999971618653,2|0,0:0|0:0,0:0:0:0:
258,189,126004,2,0,P|228:224|218:277,1,92.9999971618653,8|0,0:0|0:0,0:0:0:0:
358,368,126177,5,2,0:0:0:0:
358,368,126264,1,0,0:0:0:0:
358,368,126351,2,0,L|350:270,1,92.9999971618653,8|0,0:0|0:0,0:0:0:0:
468,101,126524,2,0,L|475:193,1,92.9999971618653,2|0,0:0|0:0,0:0:0:0:
285,92,126698,2,0,L|277:0,1,92.9999971618653,8|0,0:0|0:0,0:0:0:0:
369,158,126871,6,0,B|334:199|334:199|244:204|198:147,1,185.999994323731,2|8,0:1|0:0,0:0:0:0:
168,78,127131,1,0,0:0:0:0:
97,139,127218,2,0,L|112:249,1,92.9999971618653,2|0,0:0|0:0,0:0:0:0:
231,367,127391,2,0,L|218:274,1,92.9999971618653,8|0,0:0|0:0,0:0:0:0:
19,217,127565,5,2,0:0:0:0:
19,217,127651,1,0,0:0:0:0:
19,217,127738,2,0,P|65:232|120:228,1,92.9999971618653,8|0,0:0|0:0,0:0:0:0:
247,183,127912,2,0,P|293:181|337:196,1,92.9999971618653,2|0,0:0|0:0,0:0:0:0:
454,300,128085,2,0,L|466:188,1,92.9999971618653,8|0,0:0|0:0,0:0:0:0:
272,75,128258,6,0,P|237:109|218:165,1,92.9999971618653,2|0,0:1|0:0,0:0:0:0:
210,239,128432,2,0,P|211:287|239:340,1,92.9999971618653,8|0,0:0|0:0,0:0:0:0:
279,92,128605,2,0,P|268:139|282:197,1,92.9999971618653,2|0,0:0|0:0,0:0:0:0:
317,263,128779,2,0,P|344:302|396:331,1,92.9999971618653,8|0,0:0|0:0,0:0:0:0:
484,59,128951,6,0,P|433:50|378:70,1,92.9999971618653,6|0,0:0|0:0,0:0:0:0:
396,241,129125,2,0,P|447:250|502:230,1,92.9999971618653,8|0,0:0|0:0,0:0:0:0:
440,150,129299,5,10,0:0:0:0:
349,170,129386,1,8,0:0:0:0:
266,128,129472,1,8,0:0:0:0:
175,148,129559,1,8,0:0:0:0:
83,170,129645,6,0,P|80:116|71:60,1,92.9999971618653,6|0,0:0|0:0,0:0:0:0:
188,268,129819,2,0,P|191:322|200:378,1,92.9999971618653,8|0,0:0|0:0,0:0:0:0:
92,269,129992,2,0,P|38:272|-18:281,1,92.9999971618653,2|0,0:0|0:0,0:0:0:0:
186,170,130166,2,0,P|240:167|296:158,1,92.9999971618653,8|0,0:0|0:0,0:0:0:0:
369,15,130339,5,2,0:0:0:0:
369,15,130426,1,0,0:0:0:0:
369,15,130513,2,0,P|358:61|355:118,1,92.9999971618653,8|0,0:0|0:0,0:0:0:0:
476,245,130686,2,0,P|472:198|461:153,1,92.9999971618653,2|0,0:0|0:0,0:0:0:0:
308,258,130860,2,0,P|297:304|294:361,1,92.9999971618653,8|0,0:0|0:0,0:0:0:0:
377,193,131033,6,0,B|285:174|285:174|190:218,1,185.999994323731,2|8,0:1|0:0,0:0:0:0:
122,263,131293,1,0,0:0:0:0:
65,184,131380,2,0,L|49:78,1,92.9999971618653,2|0,0:0|0:0,0:0:0:0:
147,1,131553,2,0,L|160:92,1,92.9999971618653,8|0,0:0|0:0,0:0:0:0:
199,303,131727,5,2,0:0:0:0:
199,303,131813,1,0,0:0:0:0:
199,303,131900,2,0,B|209:257|209:257|188:196,1,92.9999971618653,8|0,0:0|0:0,0:0:0:0:
37,360,132073,2,0,L|139:347,1,92.9999971618653,2|0,0:0|0:0,0:0:0:0:
279,330,132247,2,0,L|381:317,1,92.9999971618653,8|0,0:0|0:0,0:0:0:0:
450,112,132420,6,0,B|391:110|391:110|344:162|365:236,1,185.999994323731,2|8,0:1|0:0,0:0:0:0:
445,271,132680,1,0,0:0:0:0:
382,202,132767,2,0,P|336:191|270:204,1,92.9999971618653,2|0,0:0|0:0,0:0:0:0:
97,239,132940,2,0,P|143:244|188:233,1,92.9999971618653,8|0,0:0|0:0,0:0:0:0:
74,2,133114,5,2,0:0:0:0:
74,2,133201,1,0,0:0:0:0:
74,2,133287,2,0,B|55:46|55:46|74:119,1,92.9999971618653,8|0,0:0|0:0,0:0:0:0:
222,152,133461,2,0,B|241:108|241:108|222:35,1,92.9999971618653,2|0,0:0|0:0,0:0:0:0:
97,239,133634,2,0,L|117:364,1,92.9999971618653,8|0,0:0|0:0,0:0:0:0:
312,338,133807,5,2,0:0:0:0:
348,109,133980,1,8,0:0:0:0:
279,248,134154,2,0,B|397:227|341:285|473:267,1,185.999994323731,2|8,0:0|0:0,0:0:0:0:
348,109,134501,5,10,0:0:0:0:
348,109,134587,1,8,0:0:0:0:
348,109,134674,1,8,0:0:0:0:
348,109,134761,1,8,0:0:0:0:
348,109,134848,5,10,0:0:0:0:
255,122,134934,1,8,0:0:0:0:
203,199,135021,1,8,0:0:0:0:
110,212,135107,1,8,0:0:0:0:
16,225,135195,6,0,P|0:180|2:124,1,92.9999971618653,6|0,0:0|0:0,0:0:0:0:
179,281,135368,2,0,P|195:326|193:382,1,92.9999971618653,8|0,0:0|0:0,0:0:0:0:
0,353,135542,2,0,L|97:336,1,92.9999971618653,2|0,0:0|0:0,0:0:0:0:
375,287,135715,2,0,L|283:303,1,92.9999971618653,8|0,0:0|0:0,0:0:0:0:
144,108,135888,5,2,0:0:0:0:
144,108,135975,1,0,0:0:0:0:
144,108,136061,2,0,P|128:66|124:10,1,92.9999971618653,8|0,0:0|0:0,0:0:0:0:
293,49,136235,2,0,L|188:33,1,92.9999971618653,2|0,0:0|0:0,0:0:0:0:
0,192,136409,2,0,L|91:206,1,92.9999971618653,8|0,0:0|0:0,0:0:0:0:
228,292,136582,6,0,B|244:336|244:336|229:398,1,92.9999971618653,2|0,0:1|0:0,0:0:0:0:
373,187,136755,2,0,B|357:231|357:231|372:293,1,92.9999971618653,8|0,0:0|0:0,0:0:0:0:
160,158,136929,2,0,B|176:202|176:202|161:264,1,92.9999971618653,2|0,0:0|0:0,0:0:0:0:
468,63,137102,2,0,B|452:107|452:107|467:169,1,92.9999971618653,8|0,0:0|0:0,0:0:0:0:
368,276,137275,5,2,0:0:0:0:
368,276,137362,1,0,0:0:0:0:
368,276,137449,2,0,P|384:318|388:374,1,92.9999971618653,8|0,0:0|0:0,0:0:0:0:
219,335,137623,2,0,L|324:351,1,92.9999971618653,2|0,0:0|0:0,0:0:0:0:
512,192,137795,2,0,L|420:177,1,92.9999971618653,8|0,0:0|0:0,0:0:0:0:
307,81,137969,6,0,P|332:13|443:7,1,185.999994323731,10|0,0:0|0:0,0:0:0:0:
347,164,138229,1,0,0:0:0:0:
347,164,138316,2,0,B|248:194|274:121|159:161,1,185.999994323731,10|0,0:0|0:0,0:0:0:0:
72,316,138576,1,0,0:0:0:0:
72,316,138663,6,0,P|100:223|21:177,1,185.999994323731,10|0,0:0|0:0,0:0:0:0:
4,64,138923,1,0,0:0:0:0:
4,64,139010,2,0,B|111:26|85:99|184:69,1,185.999994323731,10|0,0:0|0:0,0:0:0:0:
316,63,139357,5,6,0:0:0:0:
325,247,139529,1,2,0:0:0:0:
325,247,139617,1,2,0:0:0:0:
325,247,139703,5,2,0:0:0:0:
360,204,139789,1,2,0:0:0:0:
372,150,139876,1,2,0:0:0:0:
358,97,139963,1,2,0:0:0:0:
316,63,140050,6,0,P|260:82|194:86,1,116.25,6|0,0:0|0:0,0:0:0:0:
98,15,140397,6,0,B|95:60|116:89|116:89|96:126|97:162|97:162|114:199|109:243,1,232.5,0|0,0:0|0:0,0:0:0:0:
85,326,140744,6,0,P|133:328|180:297,1,92.9999971618653,10|0,0:0|0:0,0:0:0:0:
89,351,140917,2,0,P|137:353|184:322,1,92.9999971618653,2|0,0:0|0:0,0:0:0:0:
423,299,141438,6,0,P|375:301|328:270,1,85.2500026016236,10|0,0:0|0:0,0:0:0:0:
419,324,141611,2,0,P|371:326|324:295,1,85.2500026016236,2|0,0:0|0:0,0:0:0:0:
91,209,142131,6,0,P|139:211|186:180,1,77.5,10|0,0:0|0:0,0:0:0:0:
95,234,142304,2,0,P|143:236|190:205,1,77.5,2|0,0:0|0:0,0:0:0:0:
416,175,142825,6,0,P|368:177|321:146,1,69.749997871399,10|0,0:0|0:0,0:0:0:0:
412,200,142998,2,0,P|364:202|317:171,1,69.749997871399,2|0,0:0|0:0,0:0:0:0:
85,83,143518,6,0,P|133:85|180:54,1,62,10|0,0:0|0:0,0:0:0:0:
89,108,143692,2,0,P|137:110|184:79,1,62,2|0,0:0|0:0,0:0:0:0:
413,62,144211,6,0,P|365:64|318:33,1,54.2499983444214,10|0,0:0|0:0,0:0:0:0:
409,87,144385,2,0,P|361:89|314:58,1,54.2499983444214,2|0,0:0|0:0,0:0:0:0:
249,38,144732,6,0,B|241:82|262:114|262:114|243:146|239:181|239:181|265:214|264:275,1,216.999993377686,2|8,0:0|0:0,0:0:0:0:
262,242,145426,5,8,0:0:0:0:
291,197,145512,1,8,0:0:0:0:
340,175,145599,1,8,0:0:0:0:
393,183,145686,1,8,0:0:0:0:
433,219,145773,5,8,0:0:0:0:
430,235,145859,1,8,0:0:0:0:
428,251,145946,1,8,0:0:0:0:
426,267,146033,1,8,0:0:0:0:
423,283,146120,5,10,0:0:0:0:
170,342,146293,6,0,L|75:365,1,92.9999971618653,10|0,0:0|0:0,0:0:0:0:
161,321,146466,2,0,L|66:344,1,92.9999971618653,2|0,0:0|0:0,0:0:0:0:
343,307,146987,6,0,L|438:330,1,85.2500026016236,10|0,0:0|0:0,0:0:0:0:
352,286,147160,2,0,L|447:309,1,85.2500026016236,2|0,0:0|0:0,0:0:0:0:
153,227,147680,6,0,L|70:247,1,77.5,10|0,0:0|0:0,0:0:0:0:
144,206,147853,2,0,L|61:226,1,77.5,2|0,0:0|0:0,0:0:0:0:
363,200,148374,6,0,L|445:220,1,69.749997871399,10|0,0:0|0:0,0:0:0:0:
372,179,148547,2,0,L|454:199,1,69.749997871399,2|0,0:0|0:0,0:0:0:0:
138,121,149068,6,0,L|55:141,1,62,10|0,0:0|0:0,0:0:0:0:
129,100,149240,2,0,L|46:120,1,62,2|0,0:0|0:0,0:0:0:0:
398,83,149761,6,0,L|458:97,1,54.2499983444214,10|0,0:0|0:0,0:0:0:0:
407,62,149934,2,0,L|467:76,1,54.2499983444214,2|0,0:0|0:0,0:0:0:0:
203,262,150455,5,8,0:0:0:0:
166,133,150628,1,8,0:0:0:0:
309,262,150802,1,8,0:0:0:0:
346,133,150975,1,8,0:0:0:0:
256,170,151149,5,0,0:0:0:0:
256,197,151235,1,0,0:0:0:0:
256,224,151322,1,0,0:0:0:0:
256,251,151409,1,0,0:0:0:0:
256,278,151495,1,0,0:0:0:0:
256,305,151582,1,0,0:0:0:0:
256,332,151669,1,0,0:0:0:0:
29,342,151842,6,0,L|11:250,1,92.9999971618653,10|0,0:0|0:0,0:0:0:0:
59,145,152016,1,0,0:0:0:0:
152,215,152189,1,10,0:0:0:0:
152,215,152362,1,0,0:0:0:0:
169,12,152536,6,0,B|122:7|122:7|62:32,1,92.9999971618653,10|0,0:0|0:0,0:0:0:0:
59,145,152709,1,0,0:0:0:0:
152,215,152882,1,10,0:0:0:0:
152,215,153055,1,2,0:0:0:0:
177,203,153143,1,2,0:0:0:0:
203,193,153229,6,0,L|208:92,1,92.9999971618653,10|0,0:0|0:0,0:0:0:0:
316,71,153403,1,0,0:0:0:0:
279,267,153576,1,10,0:0:0:0:
279,267,153750,1,2,0:0:0:0:
289,292,153836,1,2,0:0:0:0:
299,317,153923,6,0,L|413:339,1,92.9999971618653,10|0,0:0|0:0,0:0:0:0:
492,252,154097,1,0,0:0:0:0:
353,154,154270,1,10,0:0:0:0:
353,154,154443,1,2,0:0:0:0:
356,181,154530,1,2,0:0:0:0:
360,208,154617,6,0,L|472:177,1,92.9999971618653,10|0,0:0|0:0,0:0:0:0:
504,64,154789,1,0,0:0:0:0:
337,37,154964,1,10,0:0:0:0:
337,37,155137,1,2,0:0:0:0:
351,60,155224,1,2,0:0:0:0:
364,84,155310,6,0,P|405:58|435:16,1,92.9999971618653,8|0,0:0|0:0,0:0:0:0:
399,180,155484,2,0,P|446:188|497:178,1,92.9999971618653,8|0,0:0|0:0,0:0:0:0:
346,274,155657,2,0,P|373:314|416:342,1,92.9999971618653,8|0,0:0|0:0,0:0:0:0:
250,292,155831,2,0,P|241:339|251:390,1,92.9999971618653,8|0,0:0|0:0,0:0:0:0:
296,188,156004,5,8,0:0:0:0:
105,225,156177,1,0,0:0:0:0:
105,225,156524,1,8,0:0:0:0:
105,225,156611,1,8,0:0:0:0:
105,225,156698,5,12,0:0:0:0:
85,174,156784,1,8,0:0:0:0:
111,126,156871,1,8,0:0:0:0:
164,114,156958,1,8,0:0:0:0:
204,152,157044,1,8,0:0:0:0:
201,207,157130,1,8,0:0:0:0:
157,241,157217,1,8,0:0:0:0:
58,325,157391,6,0,L|153:339,1,92.9999971618653,10|0,0:0|0:0,0:0:0:0:
251,274,157565,1,0,0:0:0:0:
271,384,157738,1,10,0:0:0:0:
271,384,157912,1,0,0:0:0:0:
369,312,158085,6,0,P|364:261|380:205,1,92.9999971618653,10|0,0:0|0:0,0:0:0:0:
480,119,158258,1,0,0:0:0:0:
393,14,158432,1,10,0:0:0:0:
393,14,158605,1,2,0:0:0:0:
384,40,158692,1,2,0:0:0:0:
374,66,158779,6,0,L|265:80,1,92.9999971618653,10|0,0:0|0:0,0:0:0:0:
141,39,158952,1,0,0:0:0:0:
192,198,159125,1,10,0:0:0:0:
192,198,159299,1,2,0:0:0:0:
164,193,159386,1,2,0:0:0:0:
136,188,159472,6,0,B|126:238|126:238|144:297,1,92.9999971618653,10|0,0:0|0:0,0:0:0:0:
258,384,159646,1,0,0:0:0:0:
307,225,159819,1,10,0:0:0:0:
307,225,159992,1,2,0:0:0:0:
333,238,160079,1,2,0:0:0:0:
357,252,160166,6,0,L|475:245,1,92.9999971618653,10|0,0:0|0:0,0:0:0:0:
477,81,160339,1,0,0:0:0:0:
290,91,160513,1,10,0:0:0:0:
290,91,160686,1,2,0:0:0:0:
294,118,160772,1,2,0:0:0:0:
299,145,160859,6,0,B|350:147|350:147|402:118,1,92.9999971618653,8|0,0:0|0:0,0:0:0:0:
193,17,161032,2,0,B|142:15|142:15|90:44,1,92.9999971618653,8|0,0:0|0:0,0:0:0:0:
45,134,161206,2,0,L|59:226,1,92.9999971618653,8|0,0:0|0:0,0:0:0:0:
208,293,161380,2,0,L|194:385,1,92.9999971618653,8|0,0:0|0:0,0:0:0:0:
58,225,161553,5,8,0:0:0:0:
321,255,161727,1,0,0:0:0:0:
321,255,162074,1,8,0:0:0:0:
321,255,162160,1,8,0:0:0:0:
321,255,162247,5,8,0:0:0:0:
310,200,162333,1,8,0:0:0:0:
299,145,162420,2,0,L|267:268,1,92.9999971618653,10|0,0:0|0:0,0:0:0:0:
150,297,162594,6,0,B|161:255|139:206|139:206|169:173|165:130|165:130|140:84|158:28,1,278.999991485596,2|0,0:0|0:0,0:0:0:0:
248,72,162940,6,0,L|364:58,1,92.9999971618653,6|0,0:0|0:0,0:0:0:0:
92,148,163113,2,0,L|-24:134,1,92.9999971618653,8|0,0:0|0:0,0:0:0:0:
248,172,163287,2,0,L|364:158,1,92.9999971618653,2|0,0:0|0:0,0:0:0:0:
92,248,163460,2,0,L|-24:234,1,92.9999971618653,8|0,0:0|0:0,0:0:0:0:
170,193,163633,5,2,0:0:0:0:
170,193,163720,1,2,0:0:0:0:
170,193,163807,2,0,P|186:240|170:305,1,92.9999971618653,8|0,0:0|0:0,0:0:0:0:
261,100,163980,2,0,P|212:90|164:44,1,92.9999971618653,2|0,0:0|0:0,0:0:0:0:
293,233,164154,2,0,P|325:195|389:177,1,92.9999971618653,8|0,0:0|0:0,0:0:0:0:
482,282,164327,6,0,L|473:374,1,92.9999971618653,2|0,0:1|0:0,0:0:0:0:
364,178,164500,2,0,L|372:85,1,92.9999971618653,8|0,0:0|0:0,0:0:0:0:
342,309,164674,2,0,P|292:322|230:295,1,92.9999971618653,2|0,0:0|0:0,0:0:0:0:
129,181,164847,2,0,P|179:168|241:195,1,92.9999971618653,8|0,0:0|0:0,0:0:0:0:
44,300,165021,5,2,0:0:0:0:
44,300,165107,1,2,0:0:0:0:
44,300,165194,2,0,B|21:265|21:265|31:186,1,92.9999971618653,8|0,0:0|0:0,0:0:0:0:
96,0,165368,2,0,B|119:35|119:35|109:114,1,92.9999971618653,2|0,0:0|0:0,0:0:0:0:
173,260,165541,2,0,P|217:270|262:257,1,92.9999971618653,8|0,0:0|0:0,0:0:0:0:
290,55,165714,6,0,L|184:71,1,92.9999971618653,2|0,0:1|0:0,0:0:0:0:
418,163,165888,2,0,L|509:176,1,92.9999971618653,8|0,0:0|0:0,0:0:0:0:
420,24,166061,1,2,0:0:0:0:
420,24,166148,1,2,0:0:0:0:
420,24,166234,1,10,0:0:0:0:
275,52,166408,6,0,L|171:79,1,92.9999971618653,2|0,0:0|0:0,0:0:0:0:
414,146,166582,2,0,L|506:150,1,92.9999971618653,8|0,0:0|0:0,0:0:0:0:
401,7,166755,1,2,0:0:0:0:
401,7,166842,1,2,0:0:0:0:
401,7,166928,1,10,0:0:0:0:
271,165,167102,6,0,P|249:206|244:275,1,92.9999971618653,2|0,0:1|0:0,0:0:0:0:
397,360,167275,2,0,P|419:318|420:272,1,92.9999971618653,8|0,0:0|0:0,0:0:0:0:
329,113,167448,1,2,0:0:0:0:
271,165,167535,1,0,0:0:0:0:
186,157,167622,2,0,P|133:147|84:118,1,92.9999971618653,8|0,0:0|0:0,0:0:0:0:
5,6,167795,6,0,L|26:120,1,92.9999971618653,6|0,0:0|0:0,0:0:0:0:
99,218,167969,1,8,0:0:0:0:
99,218,168055,1,8,0:0:0:0:
99,218,168142,5,10,0:0:0:0:
47,237,168228,1,8,0:0:0:0:
26,287,168315,1,8,0:0:0:0:
49,337,168402,1,8,0:0:0:0:
98,363,168489,6,0,L|199:376,1,92.9999971618653,6|0,0:0|0:0,0:0:0:0:
362,280,168662,2,0,L|269:268,1,92.9999971618653,8|0,0:0|0:0,0:0:0:0:
424,338,168836,2,0,P|442:299|437:238,1,92.9999971618653,2|0,0:0|0:0,0:0:0:0:
363,1,169009,2,0,P|345:40|350:101,1,92.9999971618653,8|0,0:0|0:0,0:0:0:0:
497,182,169182,5,2,0:0:0:0:
497,182,169269,1,2,0:0:0:0:
497,182,169356,2,0,L|490:80,1,92.9999971618653,8|0,0:0|0:0,0:0:0:0:
355,187,169529,2,0,L|361:279,1,92.9999971618653,2|0,0:0|0:0,0:0:0:0:
512,378,169703,2,0,L|505:285,1,92.9999971618653,8|0,0:0|0:0,0:0:0:0:
328,106,169876,6,0,P|289:135|271:194,1,92.9999971618653,2|0,0:1|0:0,0:0:0:0:
299,350,170050,2,0,P|295:304|268:266,1,92.9999971618653,8|0,0:0|0:0,0:0:0:0:
108,202,170223,2,0,P|152:221|212:207,1,92.9999971618653,2|0,0:0|0:0,0:0:0:0:
92,34,170396,2,0,L|-9:46,1,92.9999971618653,8|0,0:0|0:0,0:0:0:0:
161,128,170570,5,2,0:0:0:0:
161,128,170656,1,2,0:0:0:0:
161,128,170743,2,0,L|253:117,1,92.9999971618653,8|0,0:0|0:0,0:0:0:0:
359,0,170917,2,0,L|322:85,1,92.9999971618653,2|0,0:0|0:0,0:0:0:0:
372,235,171090,2,0,L|316:160,1,92.9999971618653,8|0,0:0|0:0,0:0:0:0:
505,182,171263,6,0,P|496:132|465:80,1,92.9999971618653,2|0,0:1|0:0,0:0:0:0:
372,326,171437,2,0,P|365:276|378:217,1,92.9999971618653,8|0,0:0|0:0,0:0:0:0:
492,366,171610,1,2,0:0:0:0:
492,366,171697,1,2,0:0:0:0:
492,366,171784,1,10,0:0:0:0:
506,164,171957,6,0,P|492:115|456:66,1,92.9999971618653,2|0,0:0|0:0,0:0:0:0:
388,321,172131,2,0,P|375:272|382:211,1,92.9999971618653,8|0,0:0|0:0,0:0:0:0:
512,348,172304,1,2,0:0:0:0:
512,348,172391,1,2,0:0:0:0:
512,348,172478,1,10,0:0:0:0:
334,148,172651,6,0,B|287:141|287:141|227:157,1,92.9999971618653,2|0,0:1|0:0,0:0:0:0:
54,303,172824,2,0,B|101:310|101:310|161:294,1,92.9999971618653,8|0,0:0|0:0,0:0:0:0:
173,209,172997,1,2,0:0:0:0:
164,116,173084,1,2,0:0:0:0:
154,23,173171,1,10,0:0:0:0:
38,109,173344,6,0,L|29:174,1,46.4999985809327,4|0,0:0|0:0,0:0:0:0:
55,114,173431,2,0,L|46:179,1,46.4999985809327,0|0,0:0|0:0,0:0:0:0:
68,117,173518,2,0,L|59:182,1,46.4999985809327,0|0,0:0|0:0,0:0:0:0:
85,122,173605,2,0,L|76:187,1,46.4999985809327,0|0,0:0|0:0,0:0:0:0:
164,116,173691,6,0,L|157:69,1,46.4999985809327,2|0,0:1|0:0,0:0:0:0:
181,111,173778,2,0,L|174:64,1,46.4999985809327,0|0,0:0|0:0,0:0:0:0:
194,108,173865,2,0,L|187:61,1,46.4999985809327,0|0,0:0|0:0,0:0:0:0:
211,103,173952,2,0,L|204:56,1,46.4999985809327,0|0,0:0|0:0,0:0:0:0:
226,97,174038,5,6,0:0:0:0:
175,277,174211,1,8,0:0:0:0:
29,169,174385,1,2,0:0:0:0:
175,277,174558,1,8,0:0:0:0:
95,66,174732,5,2,0:0:0:0:
95,66,174818,1,2,0:0:0:0:
95,66,174905,2,0,L|106:169,1,92.9999971618653,8|0,0:0|0:0,0:0:0:0:
132,353,175078,1,2,0:0:0:0:
62,254,175252,1,8,0:0:0:0:
241,179,175425,5,2,0:1:0:0:
217,368,175599,1,8,0:0:0:0:
241,179,175772,1,2,0:0:0:0:
217,368,175945,1,8,0:0:0:0:
417,305,176119,5,2,0:0:0:0:
417,305,176206,1,2,0:0:0:0:
417,305,176292,2,0,L|414:196,1,92.9999971618653,8|0,0:0|0:0,0:0:0:0:
503,356,176466,1,2,0:0:0:0:
317,307,176639,1,8,0:0:0:0:
457,143,176813,5,2,0:1:0:0:
370,378,176986,1,8,0:0:0:0:
457,143,177159,1,2,0:0:0:0:
370,378,177332,1,8,0:0:0:0:
172,151,177506,5,2,0:0:0:0:
172,151,177593,1,2,0:0:0:0:
172,151,177680,1,10,0:0:0:0:
325,260,177853,1,2,0:0:0:0:
150,339,178026,1,8,0:0:0:0:
227,254,178200,5,2,0:0:0:0:
403,373,178547,5,2,0:0:0:0:
227,254,178893,5,2,0:0:0:0:
398,276,179067,5,8,0:0:0:0:
398,276,179154,1,8,0:0:0:0:
398,276,179240,5,8,0:0:0:0:
415,270,179326,1,8,0:0:0:0:
433,264,179413,1,8,0:0:0:0:
450,258,179500,1,8,0:0:0:0:
468,252,179587,6,0,L|482:168,1,77.5,6|0,0:0|0:0,0:0:0:0:
378,178,179934,2,0,L|327:108,1,77.5,2|0,0:0|0:0,0:0:0:0:
279,219,180281,2,0,L|194:205,1,77.5,2|0,0:0|0:0,0:0:0:0:
87,329,180628,1,10,0:0:0:0:
200,304,180801,1,0,0:0:0:0:
101,243,180974,6,0,P|59:246|17:278,1,77.5,2|0,0:0|0:0,0:0:0:0:
176,196,181321,2,0,P|144:168|91:161,1,77.5,10|0,0:0|0:0,0:0:0:0:
258,213,181668,2,0,P|255:171|223:129,1,77.5,2|0,0:0|0:0,0:0:0:0:
200,304,182015,1,10,0:0:0:0:
305,352,182188,1,2,0:0:0:0:
305,352,182275,1,2,0:0:0:0:
305,352,182362,6,0,B|345:356|345:356|400:342,1,77.5,2|0,0:0|0:0,0:0:0:0:
512,265,182708,2,0,B|472:269|472:269|417:255,1,77.5,10|0,0:0|0:0,0:0:0:0:
292,168,183055,2,0,B|332:172|332:172|387:158,1,77.5,2|0,0:0|0:0,0:0:0:0:
424,8,183402,1,10,0:0:0:0:
464,117,183576,1,0,0:0:0:0:
354,78,183749,6,0,L|253:64,1,77.5,2|0,0:0|0:0,0:0:0:0:
92,138,184096,2,0,L|168:127,1,77.5,10|0,0:0|0:0,0:0:0:0:
292,168,184443,1,2,0:0:0:0:
292,168,184616,1,0,0:0:0:0:
204,243,184789,1,10,0:0:0:0:
272,333,184963,1,2,0:0:0:0:
272,333,185050,1,2,0:0:0:0:
272,333,185136,6,0,L|280:248,1,77.5,2|0,0:0|0:0,0:0:0:0:
415,193,185483,2,0,L|407:270,1,77.5,10|0,0:0|0:0,0:0:0:0:
292,168,185830,1,2,0:0:0:0:
292,168,186003,1,0,0:0:0:0:
503,242,186177,1,10,0:0:0:0:
503,242,186350,1,0,0:0:0:0:
420,355,186524,6,0,P|384:360|327:373,1,77.5,2|0,0:0|0:0,0:0:0:0:
204,243,186870,2,0,P|240:248|297:261,1,77.5,10|0,0:0|0:0,0:0:0:0:
354,121,187217,2,0,L|348:30,2,77.5,2|0|10,0:0|0:0|0:0,0:0:0:0:
434,235,187737,1,2,0:0:0:0:
434,235,187824,1,2,0:0:0:0:
434,235,187911,6,0,P|444:195|438:141,1,77.5,2|0,0:0|0:0,0:0:0:0:
388,310,188258,2,0,P|428:320|482:314,1,77.5,10|0,0:0|0:0,0:0:0:0:
313,261,188604,2,0,P|303:301|309:355,1,77.5,2|0,0:0|0:0,0:0:0:0:
361,187,188951,2,0,P|321:177|267:183,1,77.5,10|0,0:0|0:0,0:0:0:0:
168,322,189298,5,2,0:0:0:0:
96,203,189471,1,0,0:0:0:0:
89,288,189645,1,10,0:0:0:0:
180,184,189818,1,0,0:0:0:0:
223,257,189991,1,2,0:0:0:0:
14,242,190165,1,0,0:0:0:0:
14,242,190252,1,0,0:0:0:0:
14,242,190339,5,8,0:0:0:0:
17,216,190425,1,0,0:0:0:0:
21,190,190512,1,0,0:0:0:0:
25,165,190599,1,0,0:0:0:0:
29,138,190685,6,0,L|54:269,1,116.25,2|0,0:0|0:0,0:0:0:0:
77,359,191032,6,0,B|161:381|204:308|204:308|183:322|143:319,1,186,2|0,0:3|0:0,0:0:0:0:
155,212,191379,5,2,0:0:0:0:
155,212,191552,1,2,0:0:0:0:
238,103,191726,6,0,B|264:126|300:131|300:131|298:197|288:257,1,186,2|0,0:3|0:0,0:0:0:0:
352,352,192073,6,0,P|416:361|469:312,1,116.25,2|0,0:0|0:0,0:0:0:0:
391,216,192419,6,0,B|347:200|310:211|310:211|300:236|278:257,1,124,2|2,0:0|0:0,0:0:0:0:
245,351,192766,5,2,0:0:0:0:
245,351,192940,1,2,0:0:0:0:
131,364,193113,6,0,B|115:341|87:324|87:324|73:260|93:188,1,186,2|0,0:3|0:0,0:0:0:0:
16,103,193460,6,0,B|77:115|77:115|158:83,1,116.25,2|0,0:0|0:0,0:0:0:0:
189,22,193807,6,0,P|261:27|289:154,1,186,2|0,0:3|0:0,0:0:0:0:
254,228,194154,5,2,0:0:0:0:
254,228,194327,1,2,0:0:0:0:
368,326,194500,6,0,P|441:320|470:219,1,186,2|0,0:3|0:0,0:0:0:0:
448,140,194847,5,2,0:0:0:0:
216,19,195194,5,2,0:0:0:0:
227,216,195541,5,8,0:0:0:0:
230,234,195627,1,8,0:0:0:0:
233,252,195714,1,8,0:0:0:0:
236,271,195801,1,8,0:0:0:0:
239,289,195887,1,8,0:0:0:0:
242,307,195974,1,8,0:0:0:0:
245,326,196061,1,8,0:0:0:0:
329,250,196235,6,0,L|337:194,1,46.4999985809327,2|0,0:0|0:0,0:0:0:0:
280,119,196408,1,8,0:0:0:0:
280,119,196495,1,0,0:0:0:0:
280,119,196582,5,2,0:0:0:0:
235,105,196668,1,0,0:0:0:0:
190,114,196755,1,8,0:0:0:0:
154,142,196842,1,0,0:0:0:0:
119,173,196929,5,2,0:0:0:0:
75,188,197015,1,0,0:0:0:0:
31,176,197102,1,8,0:0:0:0:
3,140,197189,1,0,0:0:0:0:
0,94,197275,5,2,0:0:0:0:
23,55,197362,1,2,0:0:0:0:
66,38,197449,1,10,0:0:0:0:
110,47,197535,1,0,0:0:0:0:
143,81,197622,5,2,0:0:0:0:
131,126,197708,1,0,0:0:0:0:
120,171,197795,1,8,0:0:0:0:
108,216,197882,1,0,0:0:0:0:
98,258,197969,6,0,P|172:214|285:243,1,185.999994323731,8|8,0:0|0:0,0:0:0:0:
303,327,198229,1,0,0:0:0:0:
303,327,198316,5,2,0:0:0:0:
342,302,198402,1,0,0:0:0:0:
386,288,198489,1,8,0:0:0:0:
432,284,198576,1,0,0:0:0:0:
478,277,198663,5,2,0:0:0:0:
439,252,198749,1,0,0:0:0:0:
395,238,198836,1,8,0:0:0:0:
349,234,198923,1,0,0:0:0:0:
303,239,199009,5,2,0:0:0:0:
257,237,199095,1,0,0:0:0:0:
218,212,199182,1,8,0:0:0:0:
198,171,199269,1,0,0:0:0:0:
201,125,199355,5,0,0:0:0:0:
226,87,199442,1,0,0:0:0:0:
268,67,199529,1,8,0:0:0:0:
313,71,199615,1,0,0:0:0:0:
350,99,199703,5,2,0:0:0:0:
307,116,199789,1,0,0:0:0:0:
261,124,199876,1,8,0:0:0:0:
215,121,199963,1,0,0:0:0:0:
175,95,200050,5,2,0:0:0:0:
132,78,200136,1,2,0:0:0:0:
86,70,200223,1,10,0:0:0:0:
40,73,200310,1,0,0:0:0:0:
1,95,200397,5,2,0:0:0:0:
6,141,200483,1,0,0:0:0:0:
13,187,200570,1,8,0:0:0:0:
19,233,200657,1,0,0:0:0:0:
26,278,200744,6,0,B|149:257|78:318|213:297,1,185.999994323731,8|8,0:0|0:0,0:0:0:0:
302,177,201004,1,0,0:0:0:0:
302,177,201090,5,2,0:0:0:0:
312,131,201176,1,0,0:0:0:0:
333,90,201263,1,8,0:0:0:0:
364,55,201350,1,0,0:0:0:0:
406,35,201437,5,2,0:0:0:0:
423,76,201524,1,0,0:0:0:0:
432,123,201611,1,8,0:0:0:0:
428,168,201697,1,0,0:0:0:0:
410,211,201784,5,2,0:0:0:0:
373,182,201870,1,0,0:0:0:0:
328,171,201957,1,8,0:0:0:0:
282,180,202044,1,0,0:0:0:0:
240,199,202131,5,2,0:0:0:0:
194,192,202217,1,0,0:0:0:0:
155,166,202304,1,8,0:0:0:0:
130,128,202391,1,0,0:0:0:0:
128,86,202478,5,2,0:0:0:0:
92,57,202564,1,0,0:0:0:0:
46,57,202651,1,8,0:0:0:0:
10,86,202738,1,0,0:0:0:0:
0,130,202824,5,2,0:0:0:0:
37,176,202911,1,0,0:0:0:0:
96,182,202998,1,8,0:0:0:0:
142,146,203085,1,0,0:0:0:0:
152,87,203172,5,2,0:0:0:0:
189,41,203259,1,0,0:0:0:0:
248,35,203344,1,8,0:0:0:0:
294,71,203431,1,0,0:0:0:0:
313,128,203518,5,2,0:0:0:0:
291,183,203604,1,0,0:0:0:0:
309,240,203691,1,8,0:0:0:0:
359,271,203778,1,0,0:0:0:0:
418,284,203865,5,2,0:0:0:0:
368,252,203951,1,0,0:0:0:0:
309,240,204038,1,8,0:0:0:0:
249,249,204125,1,0,0:0:0:0:
205,291,204212,5,2,0:0:0:0:
146,304,204298,1,0,0:0:0:0:
91,281,204385,1,8,0:0:0:0:
59,232,204472,1,0,0:0:0:0:
60,171,204559,6,0,L|70:98,1,46.4999985809327,2|0,0:0|0:0,0:0:0:0:
233,156,204732,2,0,L|223:83,1,46.4999985809327,8|0,0:0|0:0,0:0:0:0:
137,111,204906,2,0,L|147:38,1,46.4999985809327,2|0,0:0|0:0,0:0:0:0:
310,96,205079,2,0,L|300:23,1,46.4999985809327,8|0,0:0|0:0,0:0:0:0:
164,186,205253,6,0,P|160:214|163:255,1,46.4999985809327,2|0,0:0|0:0,0:0:0:0:
44,277,205426,2,0,P|72:281|113:278,1,46.4999985809327,8|0,0:0|0:0,0:0:0:0:
154,381,205599,2,0,P|158:353|155:312,1,46.4999985809327,2|0,0:0|0:0,0:0:0:0:
280,288,205773,2,0,P|252:284|211:287,1,46.4999985809327,8|0,0:0|0:0,0:0:0:0:
408,332,205946,5,6,0:0:0:0:
424,119,206293,5,2,0:0:0:0:
408,332,206639,5,2,0:0:0:0:
472,218,206813,5,2,0:0:0:0:
472,218,206900,1,2,0:0:0:0:
472,218,206987,1,2,0:0:0:0:
275,145,207160,1,8,0:0:0:0:
275,145,207247,1,0,0:0:0:0:
275,145,207334,6,0,P|269:186|248:232,1,77.5,6|0,0:0|0:0,0:0:0:0:
181,162,207680,2,0,P|147:186|100:204,1,77.5,0|0,0:0|0:0,0:0:0:0:
107,106,208027,2,0,P|65:100|19:78,1,77.5,0|0,0:0|0:0,0:0:0:0:
187,47,208373,1,8,0:0:0:0:
187,47,208547,1,0,0:0:0:0:
241,137,208721,6,0,P|250:178|254:230,1,77.5,2|0,0:0|0:0,0:0:0:0:
134,204,209068,2,0,P|125:245|121:297,1,77.5,0|0,0:0|0:0,0:0:0:0:
283,308,209414,2,0,P|292:349|296:401,1,77.5,0|0,0:0|0:0,0:0:0:0:
207,280,209761,1,8,0:0:0:0:
362,281,210108,6,0,P|405:284|445:276,1,77.5,2|0,0:0|0:0,0:0:0:0:
402,199,210455,2,0,P|434:170|457:136,1,77.5,0|0,0:0|0:0,0:0:0:0:
363,113,210802,2,0,P|365:70|358:30,1,77.5,0|0,0:0|0:0,0:0:0:0:
262,8,211149,1,8,0:0:0:0:
262,8,211322,1,0,0:0:0:0:
178,84,211495,6,0,P|139:92|77:89,1,77.5,2|0,0:0|0:0,0:0:0:0:
111,250,211842,2,0,P|150:242|212:245,1,77.5,0|0,0:0|0:0,0:0:0:0:
190,103,212189,2,0,P|151:111|89:108,1,77.5,0|0,0:0|0:0,0:0:0:0:
123,269,212535,2,0,P|162:261|224:264,1,77.5,8|0,0:0|0:0,0:0:0:0:
342,330,212883,6,0,L|423:345,2,77.5,2|0|0,0:0|0:0|0:0,0:0:0:0:
324,228,213576,2,0,L|482:258,1,155,0|8,0:0|0:0,0:0:0:0:
170,330,214269,6,0,L|89:345,2,77.5,2|0|0,0:0|0:0|0:0,0:0:0:0:
188,228,214963,2,0,L|30:258,1,155,0|8,0:0|0:0,0:0:0:0:
255,96,215657,6,0,L|255:12,2,77.5,2|0|0,0:0|0:0|0:0,0:0:0:0:
191,143,216350,2,0,P|253:176|328:129,1,155,0|8,0:0|0:0,0:0:0:0:
406,59,217044,6,0,L|512:52,1,77.5,2|0,0:0|0:0,0:0:0:0:
502,165,217391,2,0,L|424:170,1,77.5,0|0,0:0|0:0,0:0:0:0:
345,245,217738,2,0,P|341:285|353:341,2,77.5,0|0|8,0:0|0:0|0:0,0:0:0:0:
443,307,218431,6,0,L|438:390,1,77.5,6|0,0:0|0:0,0:0:0:0:
264,230,218779,2,0,L|268:152,1,77.5,0|0,0:0|0:0,0:0:0:0:
268,152,219039,1,0,0:0:0:0:
268,152,219125,1,0,0:0:0:0:
433,86,219299,1,0,0:0:0:0:
433,86,219386,1,0,0:0:0:0:
433,86,219472,1,0,0:0:0:0:
240,18,219646,1,0,0:0:0:0:
240,18,219732,1,0,0:0:0:0:
240,18,219819,6,0,P|198:30|138:36,1,77.5,2|0,0:0|0:0,0:0:0:0:
0,109,220166,2,0,P|42:121|102:127,1,77.5,0|0,0:0|0:0,0:0:0:0:
75,125,220426,1,0,0:0:0:0:
75,125,220513,1,0,0:0:0:0:
200,181,220686,1,0,0:0:0:0:
200,181,220773,1,0,0:0:0:0:
200,181,220860,1,0,0:0:0:0:
93,254,221033,1,0,0:0:0:0:
93,254,221120,1,0,0:0:0:0:
93,254,221206,6,0,P|88:297|103:356,1,77.5,2|0,0:0|0:0,0:0:0:0:
188,295,221553,2,0,P|214:328|267:360,1,77.5,2|0,0:0|0:0,0:0:0:0:
277,255,221900,2,0,P|320:260|379:245,1,77.5,2|0,0:0|0:0,0:0:0:0:
319,159,222247,2,0,P|352:132|384:79,1,77.5,2|0,0:0|0:0,0:0:0:0:
308,14,222594,5,10,0:0:0:0:
269,18,222680,1,8,0:0:0:0:
231,23,222767,1,8,0:0:0:0:
192,28,222854,1,8,0:0:0:0:
155,39,222940,5,10,0:0:0:0:
200,47,223026,1,8,0:0:0:0:
245,53,223113,1,8,0:0:0:0:
292,59,223200,1,8,0:0:0:0:
337,68,223287,5,10,0:0:0:0:
283,78,223373,1,8,0:0:0:0:
230,89,223460,1,8,0:0:0:0:
177,99,223547,1,8,0:0:0:0:
78,125,223634,5,0,0:0:0:0:
78,125,223981,6,0,P|88:209|78:249,1,116.25,6|0,0:0|0:0,0:0:0:0:
21,334,224328,6,0,B|93:356|157:327|157:327|132:272,1,186,2|0,0:3|0:0,0:0:0:0:
6,242,224675,5,2,0:0:0:0:
6,242,224848,1,2,0:0:0:0:
148,92,225021,6,0,B|200:64|200:64|210:121|186:212,1,186,2|0,0:3|0:0,0:0:0:0:
214,302,225368,6,0,P|275:314|338:294,1,116.25,2|0,0:0|0:0,0:0:0:0:
344,218,225714,6,0,P|325:165|340:101,1,124,2|2,0:0|0:0,0:0:0:0:
432,244,226061,5,2,0:0:0:0:
432,244,226234,1,2,0:0:0:0:
471,336,226409,6,0,B|410:373|345:353|345:353|324:294,1,186,2|0,0:3|0:0,0:0:0:0:
186,215,226755,6,0,P|132:225|102:288,1,116.25,2|0,0:0|0:0,0:0:0:0:
253,273,227102,6,0,P|280:197|239:82,1,186,2|0,0:3|0:0,0:0:0:0:
144,65,227449,5,2,0:0:0:0:
144,65,227623,1,2,0:0:0:0:
254,118,227796,6,0,P|312:130|436:82,1,186,2|0,0:3|0:0,0:0:0:0:
481,16,228143,5,2,0:0:0:0:
426,292,228490,5,2,0:0:0:0:
505,145,228836,6,0,L|490:230,1,62,4|0,0:0|0:0,0:0:0:0:
489,351,229009,1,8,0:0:0:0:
462,317,229095,1,8,0:0:0:0:
426,292,229182,1,8,0:0:0:0:
385,280,229269,1,8,0:0:0:0:
341,280,229355,1,8,0:0:0:0:
231,166,229530,6,0,P|220:131|226:64,1,92.9999971618653,2|0,0:0|0:0,0:0:0:0:
51,89,229703,2,0,P|60:53|102:0,1,92.9999971618653,8|0,0:0|0:0,0:0:0:0:
129,178,229876,2,0,P|140:213|134:280,1,92.9999971618653,2|0,0:0|0:0,0:0:0:0:
309,255,230050,2,0,P|299:290|257:343,1,92.9999971618653,8|0,0:0|0:0,0:0:0:0:
50,233,230223,5,2,0:0:0:0:
50,233,230310,1,2,0:0:0:0:
50,233,230396,2,0,L|174:219,1,92.9999971618653,8|0,0:0|0:0,0:0:0:0:
397,155,230570,2,0,L|273:141,1,92.9999971618653,2|0,0:0|0:0,0:0:0:0:
8,65,230743,2,0,L|132:51,1,92.9999971618653,8|0,0:0|0:0,0:0:0:0:
222,75,230917,6,0,B|201:122|213:166|213:166|252:216|213:285,1,185.999994323731,2|8,0:1|0:0,0:0:0:0:
132,352,231177,1,0,0:0:0:0:
132,352,231263,2,0,B|217:340|217:340|240:347|240:347|329:335,1,185.999994323731,2|8,0:0|0:0,0:0:0:0:
429,253,231524,1,0,0:0:0:0:
429,253,231610,6,0,P|449:213|452:153,2,92.9999971618653,2|0|8,0:0|0:0|0:0,0:0:0:0:
308,183,231870,1,0,0:0:0:0:
308,183,231957,2,0,B|296:103|296:103|300:83|300:83|289:-1,1,185.999994323731,2|8,0:0|0:0,0:0:0:0:
207,178,232217,1,0,0:0:0:0:
207,178,232304,6,0,P|216:228|255:275,1,92.9999971618653,2|0,0:1|0:0,0:0:0:0:
411,190,232477,2,0,P|402:140|363:93,1,92.9999971618653,8|0,0:0|0:0,0:0:0:0:
214,92,232651,2,0,L|110:82,1,92.9999971618653,2|0,0:0|0:0,0:0:0:0:
379,278,232824,2,0,L|475:258,1,92.9999971618653,8|0,0:0|0:0,0:0:0:0:
239,262,232997,5,2,0:0:0:0:
239,262,233084,1,2,0:0:0:0:
239,262,233171,2,0,P|222:303|237:370,1,92.9999971618653,8|0,0:0|0:0,0:0:0:0:
437,206,233344,2,0,L|437:111,1,92.9999971618653,2|0,0:0|0:0,0:0:0:0:
273,7,233518,2,0,L|287:98,1,92.9999971618653,8|0,0:0|0:0,0:0:0:0:
239,262,233691,6,0,P|285:258|335:238,1,92.9999971618653,2|0,0:1|0:0,0:0:0:0:
113,120,233865,2,0,P|69:105|15:104,1,92.9999971618653,8|0,0:0|0:0,0:0:0:0:
287,98,234038,2,0,L|273:7,1,92.9999971618653,2|0,0:0|0:0,0:0:0:0:
91,251,234211,2,0,L|109:343,1,92.9999971618653,8|0,0:0|0:0,0:0:0:0:
321,262,234385,6,0,B|338:220|338:220|322:155,1,92.9999971618653,6|0,0:0|0:0,0:0:0:0:
164,71,234558,2,0,B|147:113|147:113|163:178,1,92.9999971618653,8|0,0:0|0:0,0:0:0:0:
233,312,234732,5,8,0:0:0:0:
226,221,234818,1,8,0:0:0:0:
159,160,234905,1,8,0:0:0:0:
68,164,234992,1,8,0:0:0:0:
7,233,235079,6,0,L|22:345,1,92.9999971618653,6|0,0:0|0:0,0:0:0:0:
159,160,235252,2,0,L|172:68,1,92.9999971618653,8|0,0:0|0:0,0:0:0:0:
233,312,235425,2,0,P|285:318|333:292,1,92.9999971618653,2|0,0:0|0:0,0:0:0:0:
415,94,235599,2,0,P|363:88|315:114,1,92.9999971618653,8|0,0:0|0:0,0:0:0:0:
450,352,235772,5,2,0:0:0:0:
450,352,235859,1,2,0:0:0:0:
450,352,235946,2,0,L|463:253,1,92.9999971618653,8|0,0:0|0:0,0:0:0:0:
289,273,236119,2,0,L|276:180,1,92.9999971618653,2|0,0:0|0:0,0:0:0:0:
475,150,236292,2,0,L|487:57,1,92.9999971618653,8|0,0:0|0:0,0:0:0:0:
333,30,236466,6,0,P|227:12|157:66,1,185.999994323731,2|8,0:1|0:0,0:0:0:0:
259,123,236726,1,0,0:0:0:0:
259,123,236813,2,0,L|360:111,1,92.9999971618653,2|0,0:0|0:0,0:0:0:0:
512,245,236986,2,0,L|419:255,1,92.9999971618653,8|0,0:0|0:0,0:0:0:0:
180,292,237159,5,2,0:0:0:0:
180,292,237246,1,2,0:0:0:0:
180,292,237333,2,0,P|162:245|169:187,1,92.9999971618653,8|0,0:0|0:0,0:0:0:0:
354,223,237506,2,0,L|261:233,1,92.9999971618653,2|0,0:0|0:0,0:0:0:0:
64,308,237680,2,0,P|52:263|52:206,1,92.9999971618653,8|0,0:0|0:0,0:0:0:0:
5,92,237853,6,0,L|97:124,1,92.9999971618653,2|0,0:1|0:0,0:0:0:0:
266,39,238027,2,0,L|192:102,1,92.9999971618653,8|0,0:0|0:0,0:0:0:0:
180,292,238200,2,0,L|161:196,1,92.9999971618653,2|0,0:0|0:0,0:0:0:0:
125,8,238373,2,0,L|142:99,1,92.9999971618653,8|0,0:0|0:0,0:0:0:0:
289,218,238547,5,2,0:0:0:0:
289,218,238633,1,2,0:0:0:0:
289,218,238720,2,0,P|332:235|386:224,1,92.9999971618653,8|0,0:0|0:0,0:0:0:0:
457,64,238894,2,0,P|420:92|403:145,1,92.9999971618653,2|0,0:0|0:0,0:0:0:0:
507,283,239067,2,0,P|500:237|463:195,1,92.9999971618653,8|0,0:0|0:0,0:0:0:0:
309,128,239240,6,0,B|243:131|243:131|195:166|195:166|125:170,1,185.999994323731,2|8,0:1|0:0,0:0:0:0:
55,103,239500,1,0,0:0:0:0:
55,103,239587,2,8,P|104:201|59:277,1,185.999994323731,2|8,0:0|0:0,0:0:0:0:
5,358,239847,1,0,0:0:0:0:
5,358,239934,6,0,L|112:345,1,92.9999971618653,6|0,0:0|0:0,0:0:0:0:
219,359,240107,2,0,L|326:346,1,92.9999971618653,8|0,0:0|0:0,0:0:0:0:
424,256,240281,5,10,0:0:0:0:
408,166,240367,1,8,0:0:0:0:
337,110,240454,1,8,0:0:0:0:
246,116,240541,1,8,0:0:0:0:
183,182,240628,6,0,L|289:196,1,92.9999971618653,6|0,0:0|0:0,0:0:0:0:
512,98,240801,2,0,L|419:85,1,92.9999971618653,8|0,0:0|0:0,0:0:0:0:
142,257,240974,2,0,L|248:271,1,92.9999971618653,2|0,0:0|0:0,0:0:0:0:
482,13,241148,2,0,L|389:0,1,92.9999971618653,8|0,0:0|0:0,0:0:0:0:
315,276,241321,5,2,0:0:0:0:
315,276,241408,1,2,0:0:0:0:
315,276,241495,2,0,P|348:248|364:188,1,92.9999971618653,8|0,0:0|0:0,0:0:0:0:
309,0,241668,2,0,L|294:111,1,92.9999971618653,2|0,0:0|0:0,0:0:0:0:
150,179,241842,2,0,L|137:86,1,92.9999971618653,8|0,0:0|0:0,0:0:0:0:
0,206,242015,6,0,P|42:282|157:254,1,185.999994323731,2|8,0:1|0:0,0:0:0:0:
256,192,242275,1,0,0:0:0:0:
256,192,242362,2,8,L|235:389,1,185.999994323731,2|8,0:0|0:0,0:0:0:0:
369,241,242622,1,0,0:0:0:0:
369,241,242708,6,0,P|414:228|475:202,2,92.9999971618653,2|0|8,0:0|0:0|0:0,0:0:0:0:
256,192,242969,1,0,0:0:0:0:
256,192,243055,2,0,B|228:125|267:56|267:56|293:107,1,185.999994323731,2|8,0:0|0:0,0:0:0:0:
170,184,243315,1,0,0:0:0:0:
170,184,243402,6,0,P|130:157|92:114,1,92.9999971618653,2|0,0:1|0:0,0:0:0:0:
135,305,243576,2,0,P|92:327|36:341,1,92.9999971618653,8|0,0:0|0:0,0:0:0:0:
342,184,243749,2,0,P|382:157|420:114,1,92.9999971618653,2|0,0:0|0:0,0:0:0:0:
377,305,243923,2,0,P|419:327|475:341,1,92.9999971618653,8|0,0:0|0:0,0:0:0:0:
256,192,244096,5,2,0:0:0:0:
256,192,244182,1,2,0:0:0:0:
256,192,244269,2,0,B|249:241|249:241|256:298,1,92.9999971618653,8|0,0:0|0:0,0:0:0:0:
512,178,244443,2,0,B|517:134|517:134|510:85,1,92.9999971618653,2|0,0:0|0:0,0:0:0:0:
259,0,244616,2,0,B|252:49|252:49|259:106,1,92.9999971618653,8|0,0:0|0:0,0:0:0:0:
434,225,244789,5,2,0:0:0:0:
364,81,244963,1,8,0:0:0:0:
254,284,245136,2,0,P|346:287|305:208,1,185.999994323731,2|8,0:0|0:0,0:0:0:0:
215,187,245483,5,8,0:0:0:0:
215,187,245569,1,8,0:0:0:0:
215,187,245656,1,8,0:0:0:0:
215,187,245743,1,8,0:0:0:0:
215,187,245830,5,8,0:0:0:0:
125,203,245916,1,8,0:0:0:0:
49,153,246003,1,8,0:0:0:0:
29,65,246090,1,8,0:0:0:0:
99,3,246177,6,0,L|110:115,1,92.9999971618653,6|0,0:0|0:0,0:0:0:0:
224,94,246350,2,0,L|213:206,1,92.9999971618653,8|0,0:0|0:0,0:0:0:0:
56,201,246524,2,0,L|67:313,1,92.9999971618653,2|0,0:0|0:0,0:0:0:0:
181,292,246697,2,0,L|170:404,1,92.9999971618653,8|0,0:0|0:0,0:0:0:0:
56,201,246871,5,2,0:0:0:0:
56,201,246957,1,0,0:0:0:0:
56,201,247044,2,0,P|24:170|14:104,1,92.9999971618653,8|0,0:0|0:0,0:0:0:0:
151,46,247217,2,0,B|116:30|116:30|46:40,1,92.9999971618653,2|0,0:0|0:0,0:0:0:0:
137,193,247391,2,0,B|172:209|172:209|242:199,1,92.9999971618653,8|0,0:0|0:0,0:0:0:0:
413,3,247564,6,0,L|402:115,1,92.9999971618653,2|0,0:1|0:0,0:0:0:0:
288,94,247737,2,0,L|299:206,1,92.9999971618653,8|0,0:0|0:0,0:0:0:0:
456,201,247911,2,0,L|445:313,1,92.9999971618653,2|0,0:0|0:0,0:0:0:0:
331,292,248084,2,0,L|342:404,1,92.9999971618653,8|0,0:0|0:0,0:0:0:0:
456,201,248258,5,2,0:0:0:0:
456,201,248345,1,0,0:0:0:0:
456,201,248431,2,0,P|488:170|498:104,1,92.9999971618653,8|0,0:0|0:0,0:0:0:0:
361,46,248605,2,0,B|396:30|396:30|466:40,1,92.9999971618653,2|0,0:0|0:0,0:0:0:0:
375,193,248778,2,0,B|340:209|340:209|270:199,1,92.9999971618653,8|0,0:0|0:0,0:0:0:0:
200,91,248951,6,0,B|105:66|105:66|143:157,1,185.999994323731,10|0,0:1|0:0,0:0:0:0:
312,91,249211,1,0,0:0:0:0:
312,91,249298,2,0,B|407:66|407:66|369:157,1,185.999994323731,10|0,0:0|0:0,0:0:0:0:
206,248,249558,1,0,0:0:0:0:
206,248,249645,6,0,B|146:274|80:250|80:250|37:187,1,185.999994323731,10|0,0:0|0:0,0:0:0:0:
304,294,249905,1,0,0:0:0:0:
304,294,249992,2,0,B|364:268|430:292|430:292|473:355,1,185.999994323731,10|0,0:0|0:0,0:0:0:0:
363,376,250252,1,0,0:0:0:0:
363,376,250339,5,4,0:0:0:0:
396,155,250512,1,2,0:0:0:0:
396,155,250599,1,2,0:0:0:0:
396,155,250685,5,2,0:0:0:0:
372,170,250771,1,2,0:0:0:0:
349,185,250858,1,2,0:0:0:0:
326,201,250945,1,2,0:0:0:0:
305,219,251032,5,12,0:0:0:0:
261,181,251118,1,8,0:0:0:0:
245,126,251205,1,8,0:0:0:0:
263,71,251292,1,8,0:0:0:0:
300,26,251379,5,8,0:0:0:0:
223,26,251465,1,8,0:0:0:0:
163,76,251552,1,8,0:0:0:0:
85,74,251639,1,8,0:0:0:0:
33,19,251726,6,0,B|64:87|64:87|47:202,1,185.999994323731,6|8,0:0|0:0,0:0:0:0:
7,306,251986,1,0,0:0:0:0:
7,306,252073,5,2,0:0:0:0:
229,307,252246,1,8,0:0:0:0:
128,198,252419,5,2,0:0:0:0:
128,198,252506,1,2,0:0:0:0:
128,198,252593,1,10,0:0:0:0:
344,123,252766,5,2,0:0:0:0:
128,198,252940,1,8,0:0:0:0:
339,291,253113,5,2,0:0:0:0:
285,71,253287,1,8,0:0:0:0:
232,308,253460,5,2,0:0:0:0:
360,39,253633,1,8,0:0:0:0:
466,282,253807,5,2,0:0:0:0:
466,282,253893,1,2,0:0:0:0:
466,282,253980,1,10,0:0:0:0:
186,163,254154,5,2,0:0:0:0:
453,78,254327,1,8,0:0:0:0:
329,254,254500,5,2,0:0:0:0:
101,166,254674,1,8,0:0:0:0:
250,373,254847,5,2,0:0:0:0:
302,106,255021,1,8,0:0:0:0:
101,166,255194,5,2,0:0:0:0:
101,166,255281,1,2,0:0:0:0:
101,166,255367,1,10,0:0:0:0:
154,331,255541,5,2,0:0:0:0:
209,97,255714,1,8,0:0:0:0:
321,246,255888,6,0,P|275:248|216:236,1,92.9999971618653,2|0,0:0|0:0,0:0:0:0:
333,94,256061,2,0,P|302:59|274:6,1,92.9999971618653,8|0,0:0|0:0,0:0:0:0:
420,10,256234,5,2,0:0:0:0:
483,250,256408,1,8,0:0:0:0:
333,94,256581,5,8,0:0:0:0:
345,20,256668,1,8,0:0:0:0:
420,10,256755,1,8,0:0:0:0:
452,77,256841,1,8,0:0:0:0:
398,128,256928,5,8,0:0:0:0:
309,138,257014,1,8,0:0:0:0:
260,214,257101,1,8,0:0:0:0:
290,299,257188,1,8,0:0:0:0:
375,325,257275,5,2,0:0:0:0:
193,100,257448,1,8,0:0:0:0:
197,295,257622,5,2,0:0:0:0:
264,22,257795,1,8,0:0:0:0:
73,129,257969,5,2,0:0:0:0:
73,129,258055,1,2,0:0:0:0:
73,129,258142,1,10,0:0:0:0:
313,170,258315,5,2,0:0:0:0:
101,11,258489,1,8,0:0:0:0:
86,251,258662,5,2,0:0:0:0:
201,17,258836,1,8,0:0:0:0:
249,275,259009,5,2,0:0:0:0:
0,181,259182,1,8,0:0:0:0:
243,88,259356,5,2,0:0:0:0:
243,88,259443,1,2,0:0:0:0:
243,88,259529,1,10,0:0:0:0:
82,330,259703,5,2,0:0:0:0:
56,106,259876,1,8,0:0:0:0:
178,304,260050,5,2,0:0:0:0:
243,88,260223,1,8,0:0:0:0:
274,327,260396,5,2,0:0:0:0:
409,190,260569,1,8,0:0:0:0:
463,366,260743,5,2,0:0:0:0:
463,366,260830,1,2,0:0:0:0:
463,366,260917,1,10,0:0:0:0:
269,217,261090,5,2,0:0:0:0:
473,109,261263,1,8,0:0:0:0:
370,289,261437,5,2,0:0:0:0:
300,76,261610,1,8,0:0:0:0:
300,76,261784,1,8,0:0:0:0:
420,211,261957,1,10,0:0:0:0:
420,211,262044,1,2,0:0:0:0:
420,211,262131,6,0,P|372:202|314:206,1,92.9999971618653,8|0,0:0|0:0,0:0:0:0:
300,76,262304,2,0,P|255:96|211:134,1,92.9999971618653,8|0,0:0|0:0,0:0:0:0:
24,312,262477,2,0,P|72:303|130:307,1,92.9999971618653,8|0,0:0|0:0,0:0:0:0:
144,177,262651,2,0,P|188:197|232:235,1,92.9999971618653,8|0,0:0|0:0,0:0:0:0:
233,349,262824,5,6,0:0:0:0:
293,166,262997,1,8,0:0:0:0:
365,319,263171,5,2,0:0:0:0:
293,140,263344,1,8,0:0:0:0:
480,179,263518,5,2,0:0:0:0:
480,179,263604,1,2,0:0:0:0:
480,179,263691,1,10,0:0:0:0:
282,256,263865,5,2,0:0:0:0:
395,50,264038,1,8,0:0:0:0:
463,282,264211,5,2,0:0:0:0:
289,54,264385,1,8,0:0:0:0:
480,179,264558,5,2,0:0:0:0:
205,270,264732,1,8,0:0:0:0:
357,153,264905,5,2,0:0:0:0:
357,153,264992,1,2,0:0:0:0:
357,153,265078,1,10,0:0:0:0:
296,355,265252,5,2,0:0:0:0:
209,100,265425,1,8,0:0:0:0:
65,320,265599,5,2,0:0:0:0:
314,221,265772,1,8,0:0:0:0:
94,84,265945,5,2,0:0:0:0:
158,384,266119,1,8,0:0:0:0:
278,124,266292,5,2,0:0:0:0:
278,124,266379,1,2,0:0:0:0:
278,124,266466,1,10,0:0:0:0:
41,207,266639,5,2,0:0:0:0:
296,303,266813,1,8,0:0:0:0:
136,42,266986,6,0,P|48:68|93:127,1,185.999994323731,2|8,0:0|0:0,0:0:0:0:
221,162,267246,1,0,0:0:0:0:
221,162,267333,2,0,B|169:154|133:186|133:186|90:216|36:194,1,185.999994323731,2|8,0:0|0:0,0:0:0:0:
295,211,267680,5,12,0:0:0:0:
308,158,267766,1,8,0:0:0:0:
288,107,267853,1,8,0:0:0:0:
240,81,267940,1,8,0:0:0:0:
184,80,268026,5,8,0:0:0:0:
262,129,268114,1,8,0:0:0:0:
354,134,268199,1,8,0:0:0:0:
437,93,268286,1,8,0:0:0:0:
489,18,268373,5,6,0:0:0:0:
362,236,268547,1,8,0:0:0:0:
349,41,268720,5,2,0:0:0:0:
475,285,268893,1,8,0:0:0:0:
512,122,269067,5,2,0:0:0:0:
512,122,269154,1,2,0:0:0:0:
512,122,269240,1,10,0:0:0:0:
357,151,269414,5,2,0:0:0:0:
420,371,269587,1,8,0:0:0:0:
486,194,269761,6,0,L|382:229,1,92.9999971618653,2|0,0:1|0:0,0:0:0:0:
310,382,269934,2,0,L|331:274,1,92.9999971618653,10|0,0:1|0:0,0:0:0:0:
221,136,270107,2,0,L|303:208,1,92.9999971618653,2|0,0:1|0:0,0:0:0:0:
151,361,270281,1,8,0:0:0:0:
60,142,270454,5,2,0:0:0:0:
60,142,270541,1,2,0:0:0:0:
60,142,270628,1,10,0:0:0:0:
217,273,270801,1,2,0:0:0:0:
32,347,270974,1,8,0:0:0:0:
121,42,271148,6,0,P|148:137|151:237,1,185.999994323731,2|8,0:0|0:0,0:0:0:0:
32,347,271495,1,2,0:0:0:0:
217,273,271668,1,12,0:0:0:0:
217,273,272015,1,12,0:0:0:0:
57,191,272362,6,0,L|39:99,2,92.9999971618653,2|0|0,0:1|0:0|0:0,0:0:0:0:
164,353,272708,5,8,0:0:0:0:
355,235,272882,1,0,0:0:0:0:
167,133,273055,5,8,0:0:0:0:
310,373,273229,1,4,0:0:0:0:
448,123,273402,5,8,0:0:0:0:
411,129,273488,1,8,0:0:0:0:
374,135,273575,1,8,0:0:0:0:
337,141,273662,1,8,0:0:0:0:
301,147,273748,1,8,0:0:0:0:
45,322,273922,6,0,L|58:211,1,92.9999971618653,6|0,0:0|0:0,0:0:0:0:
271,335,274096,2,0,L|258:224,1,92.9999971618653,8|0,0:0|0:0,0:0:0:0:
220,61,274269,2,0,L|207:172,1,92.9999971618653,2|0,0:0|0:0,0:0:0:0:
89,58,274443,2,0,L|102:169,1,92.9999971618653,8|0,0:0|0:0,0:0:0:0:
187,340,274617,5,2,0:0:0:0:
187,340,274703,1,2,0:0:0:0:
187,340,274790,2,0,P|218:299|270:280,1,92.9999971618653,8|0,0:0|0:0,0:0:0:0:
331,177,274963,2,0,P|351:224|341:278,1,92.9999971618653,2|0,0:0|0:0,0:0:0:0:
405,384,275137,2,0,P|353:377|311:342,1,92.9999971618653,8|0,0:0|0:0,0:0:0:0:
413,156,275310,6,0,L|506:140,1,92.9999971618653,2|0,0:1|0:0,0:0:0:0:
255,235,275484,2,0,L|163:219,1,92.9999971618653,8|0,0:0|0:0,0:0:0:0:
420,250,275657,2,0,P|436:300|428:352,1,92.9999971618653,2|0,0:0|0:0,0:0:0:0:
239,126,275831,2,0,P|223:76|231:24,1,92.9999971618653,8|0,0:0|0:0,0:0:0:0:
348,10,276004,5,2,0:0:0:0:
348,10,276091,1,2,0:0:0:0:
348,10,276177,2,0,L|340:132,1,92.9999971618653,8|0,0:0|0:0,0:0:0:0:
332,384,276351,2,0,P|340:298|429:249,1,185.999994323731,2|8,0:0|0:0,0:0:0:0:
254,234,276610,1,0,0:0:0:0:
254,234,276698,6,0,P|207:232|137:205,1,92.9999971618653,2|0,0:1|0:0,0:0:0:0:
91,148,276871,2,0,P|63:109|41:37,1,92.9999971618653,8|0,0:0|0:0,0:0:0:0:
228,257,277044,2,0,P|191:227|150:164,1,92.9999971618653,2|0,0:0|0:0,0:0:0:0:
146,91,277217,2,0,P|146:43|170:-26,1,92.9999971618653,8|0,0:0|0:0,0:0:0:0:
282,78,277391,5,2,0:0:0:0:
282,78,277477,1,2,0:0:0:0:
282,78,277565,2,0,B|303:101|303:101|311:132|299:178,1,92.9999971618653,8|0,0:0|0:0,0:0:0:0:
139,339,277738,2,0,B|118:316|118:316|110:285|122:239,1,92.9999971618653,2|0,0:0|0:0,0:0:0:0:
314,291,277912,2,0,L|326:389,1,92.9999971618653,8|0,0:0|0:0,0:0:0:0:
484,199,278084,6,0,B|437:190|437:190|388:206,1,92.9999971618653,2|0,0:1|0:0,0:0:0:0:
400,347,278258,2,0,B|447:356|447:356|496:340,1,92.9999971618653,8|0,0:0|0:0,0:0:0:0:
282,230,278432,2,0,L|167:239,1,92.9999971618653,2|0,0:0|0:0,0:0:0:0:
205,375,278605,2,0,L|297:367,1,92.9999971618653,8|0,0:0|0:0,0:0:0:0:
360,148,278779,6,0,P|285:109|174:112,1,185.999994323731,6|8,0:0|0:0,0:0:0:0:
98,137,279039,1,0,0:0:0:0:
98,137,279125,2,0,P|88:92|80:17,1,92.9999971618653,2|0,0:0|0:0,0:0:0:0:
0,196,279299,2,0,P|10:241|18:316,1,92.9999971618653,8|0,0:0|0:0,0:0:0:0:
126,355,279472,6,0,P|177:354|225:363,1,92.9999971618653,6|0,0:0|0:0,0:0:0:0:
319,277,279646,2,0,P|317:232|326:168,1,92.9999971618653,8|0,0:0|0:0,0:0:0:0:
159,376,279819,2,0,P|209:366|258:365,1,92.9999971618653,2|0,0:0|0:0,0:0:0:0:
334,263,279993,2,0,P|323:219|320:155,1,92.9999971618653,8|0,0:0|0:0,0:0:0:0:
350,14,280166,6,0,B|400:8|400:8|456:40,1,92.9999971618653,2|0,0:0|0:0,0:0:0:0:
319,171,280339,2,0,B|288:130|288:130|288:66,1,92.9999971618653,8|0,0:0|0:0,0:0:0:0:
470,122,280513,2,0,B|450:168|450:168|394:200,1,92.9999971618653,2|0,0:0|0:0,0:0:0:0:
196,90,280686,2,0,L|71:74,1,92.9999971618653,8|0,0:0|0:0,0:0:0:0:
20,174,280860,6,0,P|16:220|5:265,1,92.9999971618653,2|0,0:1|0:0,0:0:0:0:
88,366,281032,2,0,P|134:367|179:377,1,92.9999971618653,8|0,0:0|0:0,0:0:0:0:
18,186,281207,2,0,P|23:232|21:278,1,92.9999971618653,2|0,0:0|0:0,0:0:0:0:
122,363,281379,2,0,P|167:355|214:356,1,92.9999971618653,8|0,0:0|0:0,0:0:0:0:
325,296,281553,6,0,B|330:241|330:241|314:186,1,92.9999971618653,2|0,0:0|0:0,0:0:0:0:
189,118,281727,2,0,B|184:63|184:63|200:8,1,92.9999971618653,8|0,0:0|0:0,0:0:0:0:
322,25,281900,2,0,B|332:61|332:61|327:116,1,92.9999971618653,2|0,0:0|0:0,0:0:0:0:
192,205,282074,2,0,B|181:241|181:241|186:296,1,92.9999971618653,8|0,0:0|0:0,0:0:0:0:
303,378,282247,5,2,0:1:0:0:
464,219,282420,1,8,0:0:0:0:
464,219,282593,1,2,0:1:0:0:
311,360,282767,5,0,0:0:0:0:
370,141,282940,1,10,0:0:0:0:
370,141,283114,1,2,0:1:0:0:
312,335,283287,5,2,0:0:0:0:
253,115,283460,1,8,0:0:0:0:
253,115,283634,1,2,0:1:0:0:
133,273,283807,6,0,P|37:252|6:166,1,185.999994323731,8|2,0:0|0:0,0:0:0:0:
253,115,284154,1,0,0:0:0:0:
102,178,284327,1,6,0:0:0:0:
163,20,284501,1,8,0:0:0:0:
163,20,284588,1,8,0:0:0:0:
163,20,284675,5,8,0:0:0:0:
170,84,284761,1,8,0:0:0:0:
177,149,284848,1,8,0:0:0:0:
185,214,284935,1,8,0:0:0:0:
194,278,285021,5,4,0:0:0:0:
313,190,285194,2,0,L|407:170,1,92.9999971618653
450,167,285454,1,0,0:0:0:0:
450,167,285541,1,0,0:0:0:0:
450,167,285628,1,0,0:0:0:0:
450,167,285715,5,0,0:0:0:0:
453,189,285801,1,0,0:0:0:0:
457,212,285888,1,0,0:0:0:0:
461,235,285975,1,0,0:0:0:0:
465,258,286062,5,0,0:0:0:0:
474,196,286148,1,0,0:0:0:0:
483,135,286235,1,0,0:0:0:0:
492,74,286322,1,0,0:0:0:0:
503,12,286409,6,0,P|446:36|379:39,1,124,2|0,0:0|0:0,0:0:0:0:
156,64,286669,2,0,P|213:88|280:91,1,124,2|0,0:0|0:0,0:0:0:0:
387,138,286929,2,0,L|368:216,1,62,2|0,0:0|0:0,0:0:0:0:
325,343,287102,5,8,0:0:0:0:
131,271,287276,1,8,0:0:0:0:
131,271,287362,1,8,0:0:0:0:
131,271,287449,1,10,0:0:0:0:
274,168,287623,1,2,0:0:0:0:
91,353,287796,6,0,P|60:325|40:259,1,92.9999971618653,6|0,0:0|0:0,0:0:0:0:
82,79,287969,2,0,P|113:107|133:173,1,92.9999971618653,8|0,0:0|0:0,0:0:0:0:
49,294,288143,2,0,P|28:257|29:188,1,92.9999971618653,2|0,0:0|0:0,0:0:0:0:
125,30,288316,2,0,P|146:66|144:135,1,92.9999971618653,8|0,0:0|0:0,0:0:0:0:
210,244,288490,6,0,L|315:264,1,92.9999971618653,2|0,0:0|0:0,0:0:0:0:
511,333,288663,2,0,L|419:315,1,92.9999971618653,8|0,0:0|0:0,0:0:0:0:
198,343,288836,2,0,L|303:363,1,92.9999971618653,2|0,0:0|0:0,0:0:0:0:
405,215,289010,1,8,0:0:0:0:
405,215,289097,1,0,0:0:0:0:
405,215,289183,6,0,P|388:172|383:104,1,92.9999971618653,2|0,0:1|0:0,0:0:0:0:
200,115,289357,2,0,P|218:72|262:20,1,92.9999971618653,8|0,0:0|0:0,0:0:0:0:
392,255,289530,2,0,P|388:209|402:142,1,92.9999971618653,0|0,0:0|0:0,0:0:0:0:
223,102,289704,2,0,P|252:66|309:29,1,92.9999971618653,8|0,0:0|0:0,0:0:0:0:
179,203,289876,5,2,0:0:0:0:
179,203,289964,1,2,0:0:0:0:
179,203,290050,2,0,L|51:184,1,92.9999971618653,8|0,0:0|0:0,0:0:0:0:
67,347,290224,2,0,L|158:360,1,92.9999971618653,2|0,0:0|0:0,0:0:0:0:
87,189,290397,2,0,P|59:153|3:121,1,92.9999971618653,8|0,0:0|0:0,0:0:0:0:
14,272,290571,6,0,P|61:272|118:262,1,92.9999971618653,2|0,0:1|0:0,0:0:0:0:
366,159,290744,2,0,P|319:159|262:169,1,92.9999971618653,8|0,0:0|0:0,0:0:0:0:
286,369,290917,2,0,B|307:327|307:327|309:253,1,92.9999971618653,2|0,0:0|0:0,0:0:0:0:
186,246,291091,1,8,0:0:0:0:
186,246,291177,1,0,0:0:0:0:
186,246,291263,6,0,L|179:361,1,92.9999971618653,2|0,0:0|0:0,0:0:0:0:
95,228,291438,2,0,P|89:193|69:125,1,92.9999971618653,8|0,0:0|0:0,0:0:0:0:
277,246,291611,2,0,P|287:211|315:146,1,92.9999971618653,2|0,0:0|0:0,0:0:0:0:
465,338,291784,2,0,B|422:361|422:361|347:352,1,92.9999971618653,8|0,0:0|0:0,0:0:0:0:
416,220,291958,6,0,P|465:226|516:235,1,92.9999971618653,2|0,0:1|0:0,0:0:0:0:
250,330,292131,1,8,0:0:0:0:
250,330,292218,1,0,0:0:0:0:
250,330,292305,2,0,P|201:324|150:315,1,92.9999971618653,2|0,0:0|0:0,0:0:0:0:
77,68,292477,2,0,P|175:99|179:199,1,185.999994323731,8|6,0:0|0:0,0:0:0:0:
126,239,292738,5,0,0:0:0:0:
34,222,292825,2,0,L|11:114,1,92.9999971618653,8|0,0:0|0:0,0:0:0:0:
290,0,292998,5,8,0:0:0:0:
279,92,293084,1,8,0:0:0:0:
269,184,293171,1,8,0:0:0:0:
258,277,293258,1,8,0:0:0:0:
245,369,293345,6,0,L|344:346,1,92.9999971618653,6|0,0:0|0:0,0:0:0:0:
489,257,293518,2,0,L|390:234,1,92.9999971618653,8|0,0:0|0:0,0:0:0:0:
278,367,293692,2,0,L|371:326,1,92.9999971618653,2|0,0:0|0:0,0:0:0:0:
497,211,293865,2,0,L|395:207,1,92.9999971618653,8|0,0:0|0:0,0:0:0:0:
258,277,294039,5,2,0:0:0:0:
258,277,294125,1,2,0:0:0:0:
258,277,294212,2,0,L|270:164,1,92.9999971618653,8|0,0:0|0:0,0:0:0:0:
366,33,294386,2,0,L|376:143,1,92.9999971618653,2|0,0:0|0:0,0:0:0:0:
178,95,294559,2,0,L|207:6,1,92.9999971618653,8|0,0:0|0:0,0:0:0:0:
279,102,294732,5,2,0:1:0:0:
279,102,294819,1,0,0:0:0:0:
279,102,294906,2,0,P|236:120|170:128,1,92.9999971618653,8|0,0:0|0:0,0:0:0:0:
15,71,295079,2,0,P|53:98|96:117,1,92.9999971618653,2|0,0:0|0:0,0:0:0:0:
131,212,295253,2,0,L|114:329,1,92.9999971618653,8|0,0:0|0:0,0:0:0:0:
273,368,295425,6,0,P|273:323|253:253,1,92.9999971618653,2|0,0:0|0:0,0:0:0:0:
437,254,295599,2,0,P|412:216|357:168,1,92.9999971618653,8|0,0:0|0:0,0:0:0:0:
258,143,295773,6,0,L|240:-12,2,139.499995742798,2|0|0,0:0|0:0|0:0,0:0:0:0:
131,212,296120,6,0,P|82:208|21:187,1,92.9999971618653,2|0,0:1|0:0,0:0:0:0:
190,300,296293,2,0,P|156:335|101:368,1,92.9999971618653,8|0,0:0|0:0,0:0:0:0:
321,300,296466,2,0,P|355:335|410:368,1,92.9999971618653,2|0,0:0|0:0,0:0:0:0:
381,212,296639,2,0,P|430:208|491:187,1,92.9999971618653,8|0,0:0|0:0,0:0:0:0:
256,192,296813,5,0,0:0:0:0:
256,192,296900,1,2,0:0:0:0:
256,192,296987,2,0,L|256:312,1,92.9999971618653,8|0,0:0|0:0,0:0:0:0:
331,132,297160,2,0,B|342:88|342:88|328:38,1,92.9999971618653,2|0,0:0|0:0,0:0:0:0:
182,42,297334,2,0,B|170:88|170:88|181:132,1,92.9999971618653,8|0,0:0|0:0,0:0:0:0:
357,281,297507,6,0,P|458:294|494:197,1,185.999994323731,2|8,0:1|0:0,0:0:0:0:
468,144,297767,1,0,0:0:0:0:
417,222,297854,2,0,L|435:335,1,92.9999971618653,2|0,0:0|0:0,0:0:0:0:
270,376,298027,2,0,L|255:284,1,92.9999971618653,8|0,0:0|0:0,0:0:0:0:
88,217,298201,6,0,P|39:225|-9:247,1,92.9999971618653,6|0,0:0|0:0,0:0:0:0:
117,111,298374,2,0,P|76:82|27:63,1,92.9999971618653,8|0,0:0|0:0,0:0:0:0:
180,184,298547,5,10,0:0:0:0:
272,170,298633,1,8,0:0:0:0:
321,91,298720,1,8,0:0:0:0:
413,77,298807,1,8,0:0:0:0:
506,74,298894,6,0,L|488:185,1,92.9999971618653,6|0,0:0|0:0,0:0:0:0:
456,312,299068,1,8,0:0:0:0:
456,312,299241,1,2,0:0:0:0:
272,170,299414,2,0,L|256:59,1,92.9999971618653,8|0,0:0|0:0,0:0:0:0:
154,27,299588,5,2,0:0:0:0:
154,27,299675,1,2,0:0:0:0:
154,27,299761,2,0,P|110:45|42:59,1,92.9999971618653,8|0,0:0|0:0,0:0:0:0:
200,108,299935,2,0,P|244:126|312:140,1,92.9999971618653,2|0,0:0|0:0,0:0:0:0:
89,166,300108,2,0,P|45:184|-23:198,1,92.9999971618653,8|0,0:0|0:0,0:0:0:0:
168,263,300281,5,2,0:1:0:0:
168,263,300368,1,0,0:0:0:0:
168,263,300455,2,0,L|161:367,1,92.9999971618653,8|0,0:0|0:0,0:0:0:0:
350,355,300628,2,0,L|344:263,1,92.9999971618653,2|0,0:0|0:0,0:0:0:0:
179,148,300802,2,0,P|130:154|74:171,1,92.9999971618653,8|0,0:0|0:0,0:0:0:0:
421,192,300975,5,2,0:0:0:0:
421,192,301062,1,2,0:0:0:0:
421,192,301149,2,0,P|430:145|428:94,1,92.9999971618653,8|0,0:0|0:0,0:0:0:0:
286,1,301322,2,0,L|296:121,1,92.9999971618653,2|0,0:0|0:0,0:0:0:0:
258,206,301495,2,0,L|268:326,1,92.9999971618653,8|0,0:0|0:0,0:0:0:0:
350,356,301669,6,0,L|453:375,1,92.9999971618653,2|0,0:1|0:0,0:0:0:0:
387,284,301842,2,0,L|490:303,1,92.9999971618653,8|0,0:0|0:0,0:0:0:0:
162,356,302016,2,0,L|59:375,1,92.9999971618653,2|0,0:0|0:0,0:0:0:0:
125,284,302189,2,0,L|22:303,1,92.9999971618653,8|0,0:0|0:0,0:0:0:0:
213,170,302362,5,2,0:0:0:0:
213,170,302449,1,2,0:0:0:0:
213,170,302536,2,0,P|230:219|225:287,1,92.9999971618653,8|0,0:0|0:0,0:0:0:0:
86,166,302709,2,0,P|35:156|-21:117,1,92.9999971618653,2|0,0:0|0:0,0:0:0:0:
151,60,302883,2,0,P|184:20|246:-8,1,92.9999971618653,8|0,0:0|0:0,0:0:0:0:
397,246,303056,6,0,B|441:267|441:267|505:264,1,92.9999971618653,2|0,0:1|0:0,0:0:0:0:
512,131,303229,2,0,B|468:110|468:110|404:113,1,92.9999971618653,8|0,0:0|0:0,0:0:0:0:
322,266,303403,2,0,P|325:315|340:363,1,92.9999971618653,2|0,0:0|0:0,0:0:0:0:
313,109,303576,2,0,P|310:60|295:12,1,92.9999971618653,8|0,0:0|0:0,0:0:0:0:
104,273,303750,6,0,B|148:293|148:293|225:280,1,92.9999971618653,6|0,0:0|0:0,0:0:0:0:
217,94,303923,2,0,B|173:74|173:74|96:87,1,92.9999971618653,8|0,0:0|0:0,0:0:0:0:
2,161,304097,5,10,0:0:0:0:
94,174,304183,1,8,0:0:0:0:
186,187,304270,1,8,0:0:0:0:
278,200,304357,1,8,0:0:0:0:
369,215,304443,6,0,P|385:173|382:110,1,92.9999971618653,6|0,0:0|0:0,0:0:0:0:
491,295,304616,2,0,P|475:337|478:400,1,92.9999971618653,8|0,0:0|0:0,0:0:0:0:
342,333,304790,2,0,L|236:345,1,92.9999971618653,2|0,0:0|0:0,0:0:0:0:
105,270,304964,2,0,L|-1:282,1,92.9999971618653,8|0,0:0|0:0,0:0:0:0:
136,351,305136,5,2,0:0:0:0:
136,351,305224,1,2,0:0:0:0:
136,351,305310,2,0,P|175:319|189:269,1,92.9999971618653,8|0,0:0|0:0,0:0:0:0:
310,240,305484,2,0,P|271:208|257:158,1,92.9999971618653,2|0,0:0|0:0,0:0:0:0:
124,44,305657,2,0,L|142:172,1,92.9999971618653,8|0,0:0|0:0,0:0:0:0:
310,240,305831,6,0,P|416:247|479:181,1,185.999994323731,2|8,0:1|0:0,0:0:0:0:
457,104,306091,1,0,0:0:0:0:
378,56,306177,2,0,L|366:168,1,92.9999971618653,2|0,0:0|0:0,0:0:0:0:
222,348,306351,2,0,L|231:255,1,92.9999971618653,8|0,0:0|0:0,0:0:0:0:
253,110,306524,5,2,0:0:0:0:
253,110,306611,1,2,0:0:0:0:
253,110,306698,2,0,P|211:136|139:138,1,92.9999971618653,8|0,0:0|0:0,0:0:0:0:
83,59,306871,2,0,P|38:37|-1:-22,1,92.9999971618653,2|0,0:0|0:0,0:0:0:0:
145,151,307044,2,0,L|150:267,1,92.9999971618653,8|0,0:0|0:0,0:0:0:0:
375,384,307217,6,0,P|436:312|390:209,1,185.999994323731,2|8,0:1|0:0,0:0:0:0:
332,185,307478,1,0,0:0:0:0:
264,249,307565,2,0,B|255:288|255:288|267:346,1,92.9999971618653,2|0,0:0|0:0,0:0:0:0:
286,109,307738,2,0,B|295:70|295:70|283:12,1,92.9999971618653,8|0,0:0|0:0,0:0:0:0:
145,151,307912,5,2,0:0:0:0:
145,151,307997,1,2,0:0:0:0:
145,151,308085,2,0,P|144:198|156:251,1,92.9999971618653,8|0,0:0|0:0,0:0:0:0:
250,376,308258,2,0,P|209:351|157:335,1,92.9999971618653,2|0,0:0|0:0,0:0:0:0:
8,354,308432,2,0,P|49:331|89:294,1,92.9999971618653,8|0,0:0|0:0,0:0:0:0:
59,112,308604,6,0,P|142:56|224:96,1,185.999994323731,2|8,0:1|0:0,0:0:0:0:
276,155,308865,1,0,0:0:0:0:
340,87,308952,2,0,L|442:75,1,92.9999971618653,2|0,0:0|0:0,0:0:0:0:
508,210,309125,1,8,0:0:0:0:
508,210,309212,1,0,0:0:0:0:
508,210,309299,5,6,0:0:0:0:
276,155,309471,1,2,0:0:0:0:
343,373,309646,2,0,B|159:387|268:310|64:338,1,278.999991485596,14|0,0:0|0:0,0:0:0:0:
38,353,309992,5,4,0:0:0:0:
148,302,321090,6,0,P|101:294|46:317,1,92.9999971618653,2|0,0:0|0:0,0:0:0:0:
106,203,321437,2,0,P|78:164|23:141,1,92.9999971618653,2|0,0:0|0:0,0:0:0:0:
163,126,321784,2,0,P|171:79|148:24,1,92.9999971618653,2|0,0:0|0:0,0:0:0:0:
257,143,322130,2,0,P|295:115|318:60,1,92.9999971618653,2|0,0:0|0:0,0:0:0:0:
193,226,322477,6,0,L|299:239,1,92.9999971618653,2|0,0:0|0:0,0:0:0:0:
499,290,322824,2,0,L|406:278,1,92.9999971618653,2|0,0:0|0:0,0:0:0:0:
187,319,323171,2,0,L|293:332,1,92.9999971618653,2|0,0:0|0:0,0:0:0:0:
493,383,323518,2,0,L|400:371,1,92.9999971618653,2|0,0:0|0:0,0:0:0:0:
360,213,323865,5,2,0:0:0:0:
360,213,324038,1,0,0:0:0:0:
462,163,324211,1,2,0:0:0:0:
462,163,324384,1,0,0:0:0:0:
344,93,324558,1,2,0:0:0:0:
344,93,324731,1,0,0:0:0:0:
446,43,324904,1,2,0:0:0:0:
446,43,325079,1,0,0:0:0:0:
303,165,325252,6,0,P|257:145|226:97,1,92.9999971618653,2|0,0:0|0:0,0:0:0:0:
89,211,325599,2,0,P|129:181|186:178,1,92.9999971618653,2|0,0:0|0:0,0:0:0:0:
151,0,325945,2,0,P|156:49|130:100,1,92.9999971618653,2|0,0:0|0:0,0:0:0:0:
2,181,326292,1,2,0:0:0:0:
6,213,326378,1,0,0:0:0:0:
10,245,326465,1,0,0:0:0:0:
14,277,326552,1,0,0:0:0:0:
19,310,326640,5,2,0:0:0:0:
109,284,326813,1,0,0:0:0:0:
58,127,326986,1,2,0:0:0:0:
37,218,327159,1,0,0:0:0:0:
201,255,327333,1,2,0:0:0:0:
134,191,327506,1,0,0:0:0:0:
109,284,327680,2,0,L|131:390,1,92.9999971618653,2|0,0:0|0:0,0:0:0:0:
316,136,328026,5,2,0:0:0:0:
226,162,328201,1,0,0:0:0:0:
277,319,328374,1,2,0:0:0:0:
298,228,328547,1,0,0:0:0:0:
134,191,328721,1,2,0:0:0:0:
201,255,328893,1,0,0:0:0:0:
277,319,329067,2,0,L|392:304,1,92.9999971618653,2|0,0:0|0:0,0:0:0:0:
434,161,329414,5,2,0:0:0:0:
387,384,329587,1,0,0:0:0:0:
347,126,329761,5,2,0:0:0:0:
295,371,329934,1,0,0:0:0:0:
258,88,330107,5,2,0:0:0:0:
200,357,330280,1,0,0:0:0:0:
164,51,330454,5,2,0:0:0:0:
100,346,330627,1,0,0:0:0:0:
15,166,330801,5,6,0:0:0:0:
284,231,330974,1,8,0:0:0:0:
284,231,331148,1,8,0:0:0:0:
31,295,331321,1,0,0:0:0:0:
31,295,331408,1,0,0:0:0:0:
31,295,331495,5,8,0:0:0:0:
52,254,331581,1,8,0:0:0:0:
89,227,331668,1,8,0:0:0:0:
135,219,331755,1,8,0:0:0:0:
178,233,331842,6,0,L|188:309,1,77.5,2|0,0:0|0:0,0:0:0:0:
52,254,332015,2,0,L|38:156,1,77.5,2|0,0:0|0:0,0:0:0:0:
122,78,332189,6,0,P|76:89|22:85,1,92.9999971618653,6|0,0:0|0:0,0:0:0:0:
240,145,332362,2,0,P|286:134|340:138,1,92.9999971618653,8|0,0:0|0:0,0:0:0:0:
101,110,332535,2,0,P|65:141|15:163,1,92.9999971618653,2|0,0:0|0:0,0:0:0:0:
236,113,332709,2,0,P|271:81|321:59,1,92.9999971618653,8|0,0:0|0:0,0:0:0:0:
149,246,332882,5,2,0:0:0:0:
149,246,332969,1,0,0:0:0:0:
149,246,333056,2,0,L|162:352,1,92.9999971618653,8|0,0:0|0:0,0:0:0:0:
344,376,333229,2,0,L|332:283,1,92.9999971618653,2|0,0:0|0:0,0:0:0:0:
313,124,333402,1,10,0:0:0:0:
265,203,333489,1,2,0:0:0:0:
358,208,333576,6,0,P|453:215|493:129,1,185.999994323731,2|8,0:1|0:0,0:0:0:0:
390,35,333836,1,0,0:0:0:0:
390,35,333923,2,0,L|200:50,1,185.999994323731,2|8,0:0|0:0,0:0:0:0:
11,141,334183,1,0,0:0:0:0:
11,141,334270,6,0,L|201:156,1,185.999994323731,2|8,0:0|0:0,0:0:0:0:
294,327,334530,1,0,0:0:0:0:
294,327,334616,2,0,P|200:344|142:282,1,185.999994323731,2|8,0:0|0:0,0:0:0:0:
233,253,334877,1,0,0:0:0:0:
323,234,334963,6,0,P|365:263|385:310,1,92.9999971618653,2|0,0:1|0:0,0:0:0:0:
469,374,335137,2,0,L|492:160,1,185.999994323731,8|2,0:0|0:0,0:0:0:0:
444,106,335397,1,0,0:0:0:0:
444,106,335483,2,0,P|403:124|341:120,1,92.9999971618653,8|0,0:0|0:0,0:0:0:0:
161,49,335656,5,2,0:0:0:0:
161,49,335744,1,2,0:0:0:0:
161,49,335830,2,0,L|172:145,1,92.9999971618653,8|0,0:0|0:0,0:0:0:0:
297,177,336003,2,0,L|286:273,1,92.9999971618653,2|0,0:0|0:0,0:0:0:0:
97,279,336177,2,0,L|108:375,1,92.9999971618653,8|0,0:0|0:0,0:0:0:0:
182,252,336350,6,0,P|116:191|22:232,1,185.999994323731,2|8,0:1|0:0,0:0:0:0:
97,279,336611,1,0,0:0:0:0:
130,173,336697,2,0,P|128:129|117:64,1,92.9999971618653,2|0,0:0|0:0,0:0:0:0:
258,34,336871,1,10,0:0:0:0:
258,34,336957,1,2,0:0:0:0:
258,34,337044,5,14,0:0:0:0:
267,90,337131,1,8,0:0:0:0:
322,81,337218,1,8,0:0:0:0:
313,26,337304,1,8,0:0:0:0:
244,26,337391,5,10,0:0:0:0:
254,106,337478,1,8,0:0:0:0:
336,91,337565,1,8,0:0:0:0:
324,11,337651,1,8,0:0:0:0:
244,26,337738,6,0,P|233:80|243:133,1,92.9999971618653,6|0,0:0|0:0,0:0:0:0:
189,246,337911,2,0,L|281:221,1,92.9999971618653,8|0,0:0|0:0,0:0:0:0:
404,152,338084,2,0,P|414:206|404:259,1,92.9999971618653,2|0,0:0|0:0,0:0:0:0:
452,363,338258,2,0,L|360:338,1,92.9999971618653,8|0,0:0|0:0,0:0:0:0:
104,367,338431,5,2,0:0:0:0:
104,367,338518,1,2,0:0:0:0:
104,367,338605,2,0,P|80:324|37:288,1,92.9999971618653,8|0,0:0|0:0,0:0:0:0:
17,197,338778,2,0,P|41:154|84:118,1,92.9999971618653,2|0,0:0|0:0,0:0:0:0:
157,73,338952,2,0,P|133:30|90:-6,1,92.9999971618653,8|0,0:0|0:0,0:0:0:0:
187,164,339125,6,0,B|252:180|252:180|307:157|307:157|374:170,1,185.999994323731,2|8,0:1|0:0,0:0:0:0:
381,289,339385,1,0,0:0:0:0:
381,289,339472,2,0,P|280:274|248:346,1,185.999994323731,2|8,0:0|0:0,0:0:0:0:
481,369,339732,1,0,0:0:0:0:
481,369,339819,6,0,L|489:271,2,92.9999971618653,2|0|8,0:0|0:0|0:0,0:0:0:0:
432,208,340079,1,0,0:0:0:0:
432,208,340166,2,0,B|412:152|428:113|428:113|443:74|427:16,1,185.999994323731,2|8,0:0|0:0,0:0:0:0:
301,82,340426,1,0,0:0:0:0:
301,82,340512,6,0,L|191:64,1,92.9999971618653,2|0,0:1|0:0,0:0:0:0:
21,153,340686,2,0,L|131:135,1,92.9999971618653,8|0,0:0|0:0,0:0:0:0:
301,180,340859,2,0,L|191:162,1,92.9999971618653,2|0,0:0|0:0,0:0:0:0:
21,251,341033,2,0,L|131:233,1,92.9999971618653,8|0,0:0|0:0,0:0:0:0:
222,292,341206,5,2,0:0:0:0:
222,292,341292,1,2,0:0:0:0:
222,292,341379,2,0,P|238:340|232:388,1,92.9999971618653,8|0,0:0|0:0,0:0:0:0:
301,180,341553,2,0,P|251:169|212:140,1,92.9999971618653,2|0,0:0|0:0,0:0:0:0:
348,307,341726,2,0,P|381:269|426:250,1,92.9999971618653,8|0,0:0|0:0,0:0:0:0:
495,363,341900,6,0,L|514:161,1,185.999994323731,2|8,0:1|0:0,0:0:0:0:
227,0,342160,1,0,0:0:0:0:
227,0,342246,2,0,L|209:185,1,185.999994323731,2|8,0:0|0:0,0:0:0:0:
322,280,342507,1,0,0:0:0:0:
322,280,342593,6,0,P|351:242|362:184,1,92.9999971618653,6|0,0:0|0:0,0:0:0:0:
351,112,342767,2,0,P|340:65|303:19,1,92.9999971618653,8|0,0:0|0:0,0:0:0:0:
136,22,342940,5,10,0:0:0:0:
120,113,343027,1,8,0:0:0:0:
185,179,343114,1,8,0:0:0:0:
169,270,343201,1,8,0:0:0:0:
148,359,343287,6,0,P|97:357|52:330,1,92.9999971618653,6|0,0:0|0:0,0:0:0:0:
10,186,343460,2,0,P|61:188|106:215,1,92.9999971618653,8|0,0:0|0:0,0:0:0:0:
247,316,343634,2,0,L|344:301,1,92.9999971618653,2|0,0:0|0:0,0:0:0:0:
503,169,343807,2,0,L|411:183,1,92.9999971618653,8|0,0:0|0:0,0:0:0:0:
448,355,343981,5,2,0:0:0:0:
448,355,344067,1,2,0:0:0:0:
448,355,344154,2,0,P|464:311|453:247,1,92.9999971618653,8|0,0:0|0:0,0:0:0:0:
269,144,344327,2,0,L|288:248,1,92.9999971618653,2|0,0:0|0:0,0:0:0:0:
427,91,344501,2,0,L|410:0,1,92.9999971618653,8|0,0:0|0:0,0:0:0:0:
377,157,344674,6,0,P|474:164|507:66,1,185.999994323731,2|8,0:1|0:0,0:0:0:0:
324,71,344934,1,0,0:0:0:0:
324,71,345021,2,0,B|219:27|240:108|115:67,1,185.999994323731,2|8,0:0|0:0,0:0:0:0:
45,218,345281,1,0,0:0:0:0:
45,218,345368,6,0,P|30:173|24:122,2,92.9999971618653,2|0|8,0:0|0:0|0:0,0:0:0:0:
130,366,345628,1,0,0:0:0:0:
130,366,345715,2,0,L|135:172,1,185.999994323731,2|8,0:0|0:0,0:0:0:0:
259,129,345975,1,0,0:0:0:0:
259,129,346061,6,0,P|281:176|293:232,1,92.9999971618653,2|0,0:1|0:0,0:0:0:0:
405,141,346235,2,0,P|383:188|371:244,1,92.9999971618653,8|0,0:0|0:0,0:0:0:0:
146,251,346408,2,0,P|194:268|242:299,1,92.9999971618653,2|0,0:0|0:0,0:0:0:0:
508,272,346582,2,0,P|459:289|411:320,1,92.9999971618653,8|0,0:0|0:0,0:0:0:0:
323,372,346755,5,2,0:0:0:0:
323,372,346842,1,2,0:0:0:0:
323,372,346929,2,0,L|326:269,1,92.9999971618653,8|0,0:0|0:0,0:0:0:0:
148,158,347102,2,0,L|145:250,1,92.9999971618653,2|0,0:0|0:0,0:0:0:0:
336,93,347275,2,0,L|338:0,1,92.9999971618653,8|0,0:0|0:0,0:0:0:0:
325,279,347449,5,2,0:0:0:0:
431,138,347622,1,0,0:0:0:0:
237,63,347796,2,0,P|150:68|28:99,1,185.999994323731,2|0,0:0|0:0,0:0:0:0:
53,294,348142,6,0,P|144:315|237:321,1,185.999994323731,6|0,0:0|0:0,0:0:0:0:
323,250,348403,1,0,0:0:0:0:
323,250,348489,5,8,0:0:0:0:
380,176,348576,1,8,0:0:0:0:
467,208,348663,1,8,0:0:0:0:
464,301,348749,1,8,0:0:0:0:
375,327,348836,6,0,P|364:284|358:221,1,92.9999971618653,6|0,0:0|0:0,0:0:0:0:
303,121,349009,2,0,P|313:77|337:19,1,92.9999971618653,8|0,0:0|0:0,0:0:0:0:
390,309,349183,2,0,P|388:264|397:201,1,92.9999971618653,2|0,0:0|0:0,0:0:0:0:
366,92,349356,2,0,P|385:52|422:0,1,92.9999971618653,8|0,0:0|0:0,0:0:0:0:
369,201,349530,5,2,0:0:0:0:
369,201,349616,1,0,0:0:0:0:
369,201,349703,2,0,L|278:220,1,92.9999971618653,8|0,0:0|0:0,0:0:0:0:
371,384,349877,2,0,P|355:342|355:284,1,92.9999971618653,2|0,0:0|0:0,0:0:0:0:
463,154,350050,2,0,P|479:196|479:254,1,92.9999971618653,8|0,0:0|0:0,0:0:0:0:
137,327,350223,6,0,P|148:284|154:221,1,92.9999971618653,2|0,0:0|0:0,0:0:0:0:
209,121,350396,2,0,P|199:77|175:19,1,92.9999971618653,8|0,0:0|0:0,0:0:0:0:
122,309,350570,2,0,P|124:264|115:201,1,92.9999971618653,2|0,0:0|0:0,0:0:0:0:
146,92,350743,2,0,P|127:52|90:0,1,92.9999971618653,8|0,0:0|0:0,0:0:0:0:
143,201,350917,5,2,0:0:0:0:
143,201,351003,1,0,0:0:0:0:
143,201,351090,2,0,L|234:220,1,92.9999971618653,8|0,0:0|0:0,0:0:0:0:
141,384,351264,2,0,P|157:342|157:284,1,92.9999971618653,2|0,0:0|0:0,0:0:0:0:
49,154,351437,2,0,P|33:196|33:254,1,92.9999971618653,8|0,0:0|0:0,0:0:0:0:
178,78,351610,6,0,B|144:48|88:44|88:44|48:60|-34:44,1,185.999994323731,10|0,0:0|0:0,0:0:0:0:
256,145,351871,1,0,0:0:0:0:
334,78,351957,2,0,B|368:48|424:44|424:44|464:60|546:44,1,185.999994323731,10|0,0:0|0:0,0:0:0:0:
256,145,352218,1,0,0:0:0:0:
157,180,352304,6,0,B|114:248|114:248|125:367,1,185.999994323731,10|0,0:0|0:0,0:0:0:0:
256,145,352564,1,0,0:0:0:0:
355,180,352651,2,0,B|398:248|398:248|387:367,1,185.999994323731,10|0,0:0|0:0,0:0:0:0:
257,335,352997,5,4,0:0:0:0:
256,145,353171,1,2,0:0:0:0:
256,145,353258,1,2,0:0:0:0:
256,145,353345,5,2,0:0:0:0:
256,117,353431,1,2,0:0:0:0:
256,89,353518,1,2,0:0:0:0:
256,61,353605,1,2,0:0:0:0:
257,26,353692,6,0,P|194:26|122:60,1,116.25,6|0,0:0|0:0,0:0:0:0:
83,121,354038,6,0,P|-10:69|84:63,1,232.5,0|0,0:0|0:0,0:0:0:0:
83,121,354385,6,0,L|66:310,1,185.999994323731,10|0,0:0|0:0,0:0:0:0:
153,140,355079,6,0,L|136:329,1,170.500005203247,10|0,0:0|0:0,0:0:0:0:
223,157,355772,6,0,L|206:346,1,155,10|0,0:0|0:0,0:0:0:0:
293,182,356466,6,0,L|276:371,1,139.499995742798,10|0,0:0|0:0,0:0:0:0:
365,199,357160,6,0,L|351:353,1,124,10|0,0:0|0:0,0:0:0:0:
435,218,357853,6,0,L|421:372,1,108.499996688843,10|0,0:0|0:0,0:0:0:0:
417,102,358547,5,2,0:0:0:0:
238,167,358720,1,0,0:0:0:0:
333,237,358893,2,0,L|348:106,1,108.499996688843,4|0,0:0|0:0,0:0:0:0:
203,296,359241,5,8,0:0:0:0:
231,340,359327,1,8,0:0:0:0:
278,363,359414,1,8,0:0:0:0:
331,355,359501,1,8,0:0:0:0:
371,320,359587,1,8,0:0:0:0:
424,312,359674,1,8,0:0:0:0:
469,341,359761,1,10,0:0:0:0:
368,230,359934,6,0,L|352:45,1,185.999994323731,10|0,0:0|0:0,0:0:0:0:
297,233,360628,6,0,L|282:64,1,170.500005203247,10|0,0:0|0:0,0:0:0:0:
225,235,361321,6,0,L|212:81,1,155,10|0,0:0|0:0,0:0:0:0:
154,244,361668,1,0,0:0:0:0:
154,244,362015,6,0,L|142:106,1,139.499995742798,10|0,0:0|0:0,0:0:0:0:
81,246,362362,1,0,0:0:0:0:
81,246,362709,6,0,L|70:123,1,124,10|0,0:0|0:0,0:0:0:0:
9,250,363055,1,0,0:0:0:0:
9,250,363402,6,0,L|0:142,1,108.499996688843,10|0,0:0|0:0,0:0:0:0:
40,37,363749,1,0,0:0:0:0:
40,37,364096,6,0,P|79:75|205:75,1,162.749995033264,0|0,0:0|0:0,0:0:0:0:
249,147,364443,2,0,P|232:202|225:265,1,108.499996688843,4|0,0:0|0:0,0:0:0:0:
182,365,364790,5,2,0:0:0:0:
138,335,364876,1,2,0:0:0:0:
134,283,364963,1,2,0:0:0:0:
172,247,365050,1,2,0:0:0:0:
226,253,365137,1,2,0:0:0:0:
278,263,365223,1,2,0:0:0:0:
329,245,365310,1,2,0:0:0:0:
389,120,365483,5,0,0:0:0:0:
389,120,365570,1,0,0:0:0:0:
389,120,365657,1,0,0:0:0:0:
389,120,365744,1,0,0:0:0:0:
389,120,365830,2,0,P|340:128|297:149,1,92.9999971618653,8|0,0:0|0:0,0:0:0:0:
127,112,366177,5,0,0:0:0:0:
127,112,366264,1,0,0:0:0:0:
127,112,366351,1,0,0:0:0:0:
127,112,366438,1,0,0:0:0:0:
127,112,366524,2,0,P|158:151|198:177,1,92.9999971618653,8|0,0:0|0:0,0:0:0:0:
251,343,366871,5,0,0:0:0:0:
251,343,366958,1,0,0:0:0:0:
251,343,367045,1,0,0:0:0:0:
251,343,367130,1,0,0:0:0:0:
251,343,367218,2,0,P|269:296|272:249,1,92.9999971618653,8|0,0:0|0:0,0:0:0:0:
389,120,367564,5,0,0:0:0:0:
389,120,367651,1,0,0:0:0:0:
389,120,367738,1,0,0:0:0:0:
389,120,367825,1,0,0:0:0:0:
389,120,367911,2,0,P|340:128|297:149,1,92.9999971618653,8|0,0:0|0:0,0:0:0:0:
409,363,368258,5,8,0:0:0:0:
450,200,368431,1,0,0:0:0:0:
409,363,368605,1,8,0:0:0:0:
450,200,368778,1,8,0:0:0:0:
247,286,368952,5,8,0:0:0:0:
212,297,369038,1,8,0:0:0:0:
175,294,369125,1,8,0:0:0:0:
143,275,369212,1,8,0:0:0:0:
119,246,369298,6,0,L|110:132,1,92.9999971618653,8|0,0:0|0:0,0:0:0:0:
105,11,369472,1,8,0:0:0:0:
105,11,369559,1,0,0:0:0:0:
105,11,369645,6,0,L|181:72,1,82.6666666666667,2|0,0:0|0:0,0:0:0:0:
266,81,369876,2,0,L|343:51,1,82.6666666666667,2|0,0:0|0:0,0:0:0:0:
204,153,370107,2,0,L|191:234,1,82.6666666666667,2|0,0:0|0:0,0:0:0:0:
241,311,370339,5,8,0:0:0:0:
314,364,370425,1,8,0:0:0:0:
403,348,370512,1,8,0:0:0:0:
452,272,370599,1,8,0:0:0:0:
426,182,370685,6,0,L|326:192,1,92.9999971618653,2|0,0:0|0:0,0:0:0:0:
59,231,370859,2,0,L|159:241,1,92.9999971618653,0|2,0:0|0:0,0:0:0:0:
241,311,371033,5,2,0:0:0:0:
213,148,371206,1,2,0:0:0:0:
241,311,371379,1,2,0:0:0:0:
213,148,371552,1,2,0:0:0:0:
318,265,371726,5,2,0:0:0:0:
351,69,371899,1,2,0:0:0:0:
318,265,372072,1,2,0:0:0:0:
351,69,372245,1,2,0:0:0:0:
504,246,372420,5,2,0:0:0:0:
464,10,372593,1,2,0:0:0:0:
504,246,372766,1,2,0:0:0:0:
464,10,372939,1,2,0:0:0:0:
301,262,373113,5,2,0:0:0:0:
260,226,373199,1,2,0:0:0:0:
258,172,373286,1,2,0:0:0:0:
296,134,373373,1,2,0:0:0:0:
352,140,373460,5,2,0:0:0:0:
355,159,373546,1,2,0:0:0:0:
358,177,373633,1,2,0:0:0:0:
361,196,373720,1,2,0:0:0:0:
364,214,373806,5,8,0:0:0:0:
364,214,374154,5,0,0:0:0:0:
285,0,374327,1,2,0:0:0:0:
180,166,374501,5,0,0:0:0:0:
475,116,374674,1,2,0:0:0:0:
333,384,375021,5,4,0:0:0:0:
333,384,375368,1,0,0:0:0:0:
333,384,375715,1,8,0:0:0:0:
333,384,375801,1,8,0:0:0:0:
333,384,375888,5,2,0:0:0:0:
335,356,375974,1,2,0:0:0:0:
337,328,376061,1,2,0:0:0:0:
339,300,376148,1,2,0:0:0:0:
342,272,376235,1,2,0:0:0:0:
344,244,376321,1,2,0:0:0:0:
346,217,376408,1,2,0:0:0:0:
366,45,376581,6,0,P|451:73|398:149,1,185.999994323731,6|8,0:0|0:0,0:0:0:0:
346,217,376841,1,0,0:0:0:0:
346,217,376928,2,0,P|389:237|444:243,1,92.9999971618653,2|0,0:0|0:0,0:0:0:0:
274,91,377102,2,0,P|231:71|176:65,1,92.9999971618653,8|0,0:0|0:0,0:0:0:0:
16,256,377275,5,2,0:0:0:0:
16,256,377362,1,2,0:0:0:0:
16,256,377448,2,0,L|121:238,1,92.9999971618653,8|0,0:0|0:0,0:0:0:0:
298,308,377622,2,0,L|193:290,1,92.9999971618653,2|0,0:0|0:0,0:0:0:0:
37,366,377795,2,0,L|142:348,1,92.9999971618653,8|0,0:0|0:0,0:0:0:0:
240,167,377969,6,0,B|203:142|149:156|149:156|98:183|40:135,1,185.999994323731,2|8,0:1|0:0,0:0:0:0:
134,0,378229,1,0,0:0:0:0:
134,0,378316,2,0,P|116:43|111:106,1,92.9999971618653,2|0,0:0|0:0,0:0:0:0:
214,338,378489,2,0,P|207:292|190:249,1,92.9999971618653,8|0,0:0|0:0,0:0:0:0:
42,334,378662,5,2,0:0:0:0:
42,334,378749,1,2,0:0:0:0:
42,334,378836,2,0,L|147:316,1,92.9999971618653,8|0,0:0|0:0,0:0:0:0:
278,217,379009,2,0,P|297:260|306:327,1,92.9999971618653,2|0,0:0|0:0,0:0:0:0:
21,224,379183,2,0,L|126:206,1,92.9999971618653,8|0,0:0|0:0,0:0:0:0:
228,18,379356,6,0,P|168:10|96:103,1,185.999994323731,2|8,0:1|0:0,0:0:0:0:
196,169,379616,1,0,0:0:0:0:
196,169,379703,2,0,L|211:306,1,92.9999971618653,2|0,0:0|0:0,0:0:0:0:
377,384,379876,2,0,L|387:291,1,92.9999971618653,8|0,0:0|0:0,0:0:0:0:
417,113,380050,5,2,0:0:0:0:
417,113,380136,1,2,0:0:0:0:
417,113,380223,2,0,P|464:117|523:103,1,92.9999971618653,8|0,0:0|0:0,0:0:0:0:
287,173,380396,2,0,P|240:177|181:163,1,92.9999971618653,2|0,0:0|0:0,0:0:0:0:
387,291,380570,2,0,P|434:295|493:281,1,92.9999971618653,8|0,0:0|0:0,0:0:0:0:
282,50,380743,6,0,L|298:274,1,185.999994323731,2|8,0:1|0:0,0:0:0:0:
387,291,381003,1,0,0:0:0:0:
289,253,381090,2,0,P|241:265|180:292,1,92.9999971618653,2|0,0:0|0:0,0:0:0:0:
99,372,381263,2,0,L|79:270,1,92.9999971618653,8|0,0:0|0:0,0:0:0:0:
0,176,381437,6,0,P|42:162|99:157,1,92.9999971618653,6|0,0:0|0:0,0:0:0:0:
198,233,381610,2,0,P|240:247|297:252,1,92.9999971618653,8|0,0:0|0:0,0:0:0:0:
437,217,381784,5,10,0:0:0:0:
417,130,381870,1,8,0:0:0:0:
328,100,381957,1,8,0:0:0:0:
262,165,382044,1,8,0:0:0:0:
288,252,382130,6,0,B|312:248|338:233|338:233|370:249|399:254|399:254|434:234|486:244,1,185.999994323731,6|8,0:0|0:0,0:0:0:0:
311,337,382391,1,0,0:0:0:0:
311,337,382477,2,0,P|233:323|210:215,1,185.999994323731,2|8,0:0|0:0,0:0:0:0:
338,86,382824,5,2,0:0:0:0:
338,86,382911,1,2,0:0:0:0:
338,86,382998,2,0,B|360:130|360:130|354:194,1,92.9999971618653,8|0,0:0|0:0,0:0:0:0:
171,301,383171,2,0,L|141:104,1,185.999994323731,2|8,0:0|0:0,0:0:0:0:
4,27,383431,1,0,0:0:0:0:
4,27,383518,6,0,P|46:41|116:41,1,92.9999971618653,2|0,0:1|0:0,0:0:0:0:
173,126,383691,2,0,P|212:106|262:56,1,92.9999971618653,8|0,0:0|0:0,0:0:0:0:
6,122,383865,2,0,P|50:126|118:110,1,92.9999971618653,2|0,0:0|0:0,0:0:0:0:
194,166,384038,2,0,P|228:137|265:78,1,92.9999971618653,8|0,0:0|0:0,0:0:0:0:
274,336,384211,6,0,P|232:322|162:322,1,92.9999971618653,2|0,0:0|0:0,0:0:0:0:
105,237,384385,2,0,P|65:256|15:306,1,92.9999971618653,8|0,0:0|0:0,0:0:0:0:
268,243,384558,2,0,P|223:238|155:254,1,92.9999971618653,2|0,0:0|0:0,0:0:0:0:
84,197,384732,2,0,P|49:225|12:284,1,92.9999971618653,8|0,0:0|0:0,0:0:0:0:
93,370,384905,5,2,0:1:0:0:
185,106,385078,1,8,0:0:0:0:
270,254,385252,5,2,0:0:0:0:
46,95,385425,1,8,0:0:0:0:
318,76,385599,5,2,0:0:0:0:
318,76,385685,1,2,0:0:0:0:
318,76,385772,1,10,0:0:0:0:
161,261,385945,5,0,0:0:0:0:
198,0,386119,1,8,0:0:0:0:
393,206,386292,6,0,P|470:184|412:133,1,185.999994323731,2|8,0:1|0:0,0:0:0:0:
327,284,386552,1,0,0:0:0:0:
327,284,386639,2,0,P|250:306|308:357,1,185.999994323731,2|8,0:0|0:0,0:0:0:0:
494,354,386899,1,0,0:0:0:0:
494,354,386986,6,0,P|458:316|413:285,1,92.9999971618653,6|0,0:0|0:0,0:0:0:0:
512,167,387159,2,0,P|459:169|406:182,1,92.9999971618653,8|0,0:0|0:0,0:0:0:0:
249,190,387333,5,10,0:0:0:0:
161,173,387419,1,8,0:0:0:0:
132,89,387506,1,8,0:0:0:0:
190,22,387593,1,8,0:0:0:0:
277,38,387680,6,0,L|217:111,1,92.9999971618653,6|0,0:0|0:0,0:0:0:0:
374,252,387853,2,0,L|341:163,1,92.9999971618653,8|0,0:0|0:0,0:0:0:0:
135,251,388027,2,0,L|227:267,1,92.9999971618653,2|0,0:0|0:0,0:0:0:0:
82,150,388200,2,0,P|31:165|-7:197,1,92.9999971618653,8|0,0:0|0:0,0:0:0:0:
39,347,388373,5,2,0:0:0:0:
39,347,388460,1,2,0:0:0:0:
39,347,388547,2,0,B|81:366|81:366|154:358,1,92.9999971618653,8|0,0:0|0:0,0:0:0:0:
289,211,388720,2,0,B|247:192|247:192|174:200,1,92.9999971618653,2|0,0:0|0:0,0:0:0:0:
225,378,388894,2,0,L|236:262,1,92.9999971618653,8|0,0:0|0:0,0:0:0:0:
254,86,389067,6,0,P|293:109|357:121,1,92.9999971618653,2|0,0:1|0:0,0:0:0:0:
386,243,389240,2,0,P|429:231|483:194,1,92.9999971618653,8|0,0:0|0:0,0:0:0:0:
240,0,389414,2,0,P|201:23|137:35,1,92.9999971618653,2|0,0:0|0:0,0:0:0:0:
108,157,389587,2,0,P|64:145|10:108,1,92.9999971618653,8|0,0:0|0:0,0:0:0:0:
216,166,389761,5,2,0:0:0:0:
216,166,389847,1,2,0:0:0:0:
216,166,389934,2,0,L|233:261,1,92.9999971618653,8|0,0:0|0:0,0:0:0:0:
322,346,390107,2,0,P|369:326|427:327,1,92.9999971618653,2|0,0:0|0:0,0:0:0:0:
512,143,390281,2,0,P|465:163|407:162,1,92.9999971618653,8|0,0:0|0:0,0:0:0:0:
263,69,390454,6,0,B|347:38|347:38|445:64,1,185.999994323731,2|8,0:1|0:0,0:0:0:0:
216,166,390714,1,0,0:0:0:0:
216,166,390801,2,0,P|180:132|159:76,1,92.9999971618653,2|0,0:0|0:0,0:0:0:0:
335,183,390974,2,0,P|323:231|285:277,1,92.9999971618653,8|0,0:0|0:0,0:0:0:0:
222,341,391148,5,2,0:0:0:0:
222,341,391234,1,2,0:0:0:0:
222,341,391321,2,0,L|202:222,1,92.9999971618653,8|0,0:0|0:0,0:0:0:0:
174,45,391495,2,0,P|218:65|295:61,1,92.9999971618653,2|0,0:0|0:0,0:0:0:0:
427,29,391668,2,0,B|415:79|415:79|426:147,1,92.9999971618653,8|0,0:0|0:0,0:0:0:0:
493,221,391842,6,0,P|451:201|375:203,1,92.9999971618653,2|0,0:1|0:0,0:0:0:0:
222,308,392015,2,0,P|265:329|340:326,1,92.9999971618653,8|0,0:0|0:0,0:0:0:0:
301,146,392188,2,0,L|287:238,1,92.9999971618653,2|0,0:0|0:0,0:0:0:0:
416,382,392362,2,0,L|431:276,1,92.9999971618653,8|0,0:0|0:0,0:0:0:0:
372,78,392535,6,0,P|332:55|263:52,1,92.9999971618653,6|0,0:0|0:0,0:0:0:0:
100,164,392709,2,0,P|60:187|-9:190,1,92.9999971618653,8|0,0:0|0:0,0:0:0:0:
162,21,392882,5,10,0:0:0:0:
181,112,392969,1,8,0:0:0:0:
252,169,393055,1,8,0:0:0:0:
271,260,393142,1,8,0:0:0:0:
288,351,393229,6,0,P|328:320|393:322,1,92.9999971618653,6|0,0:0|0:0,0:0:0:0:
368,128,393402,2,0,P|374:178|340:233,1,92.9999971618653,8|0,0:0|0:0,0:0:0:0:
512,312,393576,2,0,P|465:292|434:235,1,92.9999971618653,2|0,0:0|0:0,0:0:0:0:
474,30,393749,2,0,L|485:146,1,92.9999971618653,8|0,0:0|0:0,0:0:0:0:
252,169,393922,5,2,0:0:0:0:
252,169,394009,1,2,0:0:0:0:
252,169,394096,2,0,L|244:47,1,92.9999971618653,8|0,0:0|0:0,0:0:0:0:
351,188,394269,2,0,P|397:204|457:206,1,92.9999971618653,2|0,0:0|0:0,0:0:0:0:
179,263,394443,2,0,P|133:279|73:281,1,92.9999971618653,8|0,0:0|0:0,0:0:0:0:
95,44,394616,6,0,P|168:61|98:109,1,185.999994323731,2|8,0:1|0:0,0:0:0:0:
17,102,394876,1,0,0:0:0:0:
17,102,394963,2,0,B|11:157|45:190|45:190|59:232|47:284,1,185.999994323731,2|8,0:0|0:0,0:0:0:0:
224,384,395310,5,2,0:0:0:0:
224,384,395396,1,0,0:0:0:0:
224,384,395483,2,0,L|232:285,1,92.9999971618653,8|0,0:0|0:0,0:0:0:0:
339,161,395657,2,0,L|331:253,1,92.9999971618653,2|0,0:0|0:0,0:0:0:0:
166,116,395830,2,0,L|173:23,1,92.9999971618653,8|0,0:0|0:0,0:0:0:0:
351,56,396003,6,0,L|457:90,1,92.9999971618653,2|0,0:1|0:0,0:0:0:0:
512,93,396177,2,0,L|406:127,1,92.9999971618653,8|0,0:0|0:0,0:0:0:0:
311,176,396350,2,0,L|205:210,1,92.9999971618653,2|0,0:0|0:0,0:0:0:0:
150,213,396524,2,0,L|256:247,1,92.9999971618653,8|0,0:0|0:0,0:0:0:0:
351,272,396697,5,2,0:0:0:0:
351,272,396784,1,0,0:0:0:0:
351,272,396870,2,0,L|457:306,1,92.9999971618653,8|0,0:0|0:0,0:0:0:0:
512,198,397044,1,2,0:0:0:0:
304,362,397217,1,8,0:0:0:0:
274,117,397391,6,0,P|224:117|178:136,1,92.9999971618653,2|0,0:1|0:0,0:0:0:0:
132,39,397564,2,0,P|96:74|77:120,1,92.9999971618653,8|0,0:0|0:0,0:0:0:0:
0,260,397737,2,0,P|50:260|96:241,1,92.9999971618653,2|0,0:0|0:0,0:0:0:0:
142,338,397911,2,0,P|177:302|196:256,1,92.9999971618653,8|0,0:0|0:0,0:0:0:0:
8,83,398084,6,0,L|24:189,1,92.9999971618653,6|0,0:0|0:0,0:0:0:0:
274,117,398258,2,0,L|260:25,1,92.9999971618653,8|0,0:0|0:0,0:0:0:0:
233,201,398431,5,8,0:0:0:0:
298,267,398518,1,8,0:0:0:0:
380,224,398604,1,8,0:0:0:0:
366,133,398691,1,8,0:0:0:0:
274,117,398778,5,6,0:0:0:0:
194,341,398951,1,8,0:0:0:0:
47,271,399125,2,0,P|45:224|34:178,1,92.9999971618653,2|0,0:0|0:0,0:0:0:0:
50,8,399298,2,0,P|52:55|62:100,1,92.9999971618653,8|0,0:0|0:0,0:0:0:0:
153,247,399471,5,2,0:0:0:0:
153,247,399558,1,2,0:0:0:0:
153,247,399645,1,10,0:0:0:0:
315,188,399818,1,2,0:0:0:0:
110,165,399992,1,8,0:0:0:0:
200,343,400165,5,2,0:1:0:0:
255,122,400339,1,8,0:0:0:0:
409,296,400512,2,0,L|517:284,1,92.9999971618653,2|0,0:0|0:0,0:0:0:0:
512,185,400685,2,0,L|419:195,1,92.9999971618653,8|0,0:0|0:0,0:0:0:0:
297,352,400859,5,2,0:0:0:0:
297,352,400945,1,2,0:0:0:0:
297,352,401032,1,10,0:0:0:0:
255,122,401206,1,2,0:0:0:0:
331,254,401379,1,8,0:0:0:0:
127,326,401553,6,0,P|88:348|33:351,1,92.9999971618653,2|0,0:1|0:0,0:0:0:0:
79,198,401726,2,0,P|35:185|-5:149,1,92.9999971618653,8|0,0:0|0:0,0:0:0:0:
180,244,401899,1,2,0:0:0:0:
180,244,401986,1,2,0:0:0:0:
180,244,402073,1,10,0:0:0:0:
233,162,402246,6,0,P|272:140|327:137,1,92.9999971618653,2|0,0:0|0:0,0:0:0:0:
281,290,402420,2,0,P|324:302|365:338,1,92.9999971618653,8|0,0:0|0:0,0:0:0:0:
180,244,402593,1,2,0:0:0:0:
180,244,402680,1,2,0:0:0:0:
180,244,402767,1,10,0:0:0:0:
96,138,402940,6,0,L|89:32,1,92.9999971618653,2|0,0:1|0:0,0:0:0:0:
281,290,403113,2,0,L|287:382,1,92.9999971618653,8|0,0:0|0:0,0:0:0:0:
180,244,403287,1,2,0:0:0:0:
227,164,403373,1,0,0:0:0:0:
311,202,403460,2,0,B|362:205|362:205|425:179,1,92.9999971618653,8|0,0:0|0:0,0:0:0:0:
448,10,403633,6,0,L|461:110,1,92.9999971618653,4|0,0:0|0:0,0:0:0:0:
512,242,403807,1,8,0:0:0:0:
512,242,403893,1,8,0:0:0:0:
512,242,403980,5,8,0:1:0:0:
456,240,404066,1,8,0:0:0:0:
409,268,404153,1,8,0:0:0:0:
382,316,404240,1,8,0:0:0:0:
378,371,404327,5,6,0:0:0:0:
407,159,404500,1,8,0:0:0:0:
248,244,404674,2,0,B|226:210|226:210|220:150,1,92.9999971618653,2|0,0:0|0:0,0:0:0:0:
87,3,404847,2,0,B|109:37|109:37|115:97,1,92.9999971618653,8|0,0:0|0:0,0:0:0:0:
108,235,405021,5,2,0:0:0:0:
108,235,405107,1,0,0:0:0:0:
108,235,405194,1,8,0:0:0:0:
275,348,405367,1,2,0:0:0:0:
329,120,405541,1,8,0:0:0:0:
389,240,405714,5,2,0:1:0:0:
242,97,405888,1,8,0:0:0:0:
174,291,406061,2,0,B|223:298|223:298|270:287,1,92.9999971618653,2|0,0:0|0:0,0:0:0:0:
389,240,406235,2,0,P|434:222|504:230,1,92.9999971618653,8|0,0:0|0:0,0:0:0:0:
354,358,406408,5,2,0:0:0:0:
354,358,406495,1,2,0:0:0:0:
354,358,406581,1,8,0:0:0:0:
254,216,406755,1,2,0:0:0:0:
357,105,406929,1,8,0:0:0:0:
146,4,407102,6,0,L|168:107,1,92.9999971618653,2|0,0:1|0:0,0:0:0:0:
11,262,407275,2,0,L|30:171,1,92.9999971618653,8|0,0:0|0:0,0:0:0:0:
57,56,407448,1,2,0:0:0:0:
57,56,407535,1,2,0:0:0:0:
57,56,407622,1,10,0:0:0:0:
159,0,407795,6,0,L|174:101,1,92.9999971618653,2|0,0:0|0:0,0:0:0:0:
6,244,407969,2,0,L|32:155,1,92.9999971618653,8|0,0:0|0:0,0:0:0:0:
66,42,408141,1,2,0:0:0:0:
66,42,408228,1,2,0:0:0:0:
66,42,408315,1,10,0:0:0:0:
110,187,408489,6,0,P|157:200|202:198,1,92.9999971618653,2|0,0:1|0:0,0:0:0:0:
423,348,408662,2,0,P|376:335|331:337,1,92.9999971618653,8|0,0:0|0:0,0:0:0:0:
188,372,408836,1,2,0:0:0:0:
237,294,408922,1,0,0:0:0:0:
314,240,409009,2,0,P|358:225|426:226,1,92.9999971618653,8|0,0:0|0:0,0:0:0:0:
486,298,409183,6,0,L|502:202,1,92.9999971618653,6|0,0:0|0:0,0:0:0:0:
349,0,409356,2,0,L|333:91,1,92.9999971618653,8|0,0:0|0:0,0:0:0:0:
512,125,409529,5,10,0:0:0:0:
420,105,409616,1,8,0:0:0:0:
356,173,409703,1,8,0:0:0:0:
264,153,409790,1,8,0:0:0:0:
164,131,409876,6,0,B|118:124|118:124|56:142,1,92.9999971618653,6|0,0:0|0:0,0:0:0:0:
0,25,410050,2,0,B|46:32|46:32|108:14,1,92.9999971618653,8|0,0:0|0:0,0:0:0:0:
243,65,410223,2,0,P|263:106|255:177,1,92.9999971618653,2|0,0:0|0:0,0:0:0:0:
143,301,410396,2,0,P|123:260|131:189,1,92.9999971618653,8|0,0:0|0:0,0:0:0:0:
260,329,410570,5,2,0:0:0:0:
260,329,410656,1,2,0:0:0:0:
260,329,410743,2,0,L|357:313,1,92.9999971618653,8|0,0:0|0:0,0:0:0:0:
512,160,410917,2,0,P|464:153|404:171,1,92.9999971618653,2|0,0:0|0:0,0:0:0:0:
426,328,411090,2,0,P|456:289|470:228,1,92.9999971618653,8|0,0:0|0:0,0:0:0:0:
327,49,411263,6,0,P|331:96|343:149,1,92.9999971618653,2|0,0:1|0:0,0:0:0:0:
185,335,411437,2,0,P|181:288|169:235,1,92.9999971618653,8|0,0:0|0:0,0:0:0:0:
94,79,411610,2,0,L|-22:96,1,92.9999971618653,2|0,0:0|0:0,0:0:0:0:
8,217,411784,2,0,L|100:203,1,92.9999971618653,8|0,0:0|0:0,0:0:0:0:
225,100,411957,5,2,0:0:0:0:
225,100,412044,1,2,0:0:0:0:
225,100,412131,2,0,P|231:59|226:3,1,92.9999971618653,8|0,0:0|0:0,0:0:0:0:
351,211,412304,2,0,P|383:236|431:261,1,92.9999971618653,2|0,0:0|0:0,0:0:0:0:
191,264,412477,2,0,P|153:280|108:309,1,92.9999971618653,8|0,0:0|0:0,0:0:0:0:
28,151,412651,6,0,P|76:158|130:188,1,92.9999971618653,2|0,0:1|0:0,0:0:0:0:
101,2,412824,2,0,P|129:40|146:100,1,92.9999971618653,8|0,0:0|0:0,0:0:0:0:
46,248,412997,1,2,0:0:0:0:
46,248,413084,1,2,0:0:0:0:
46,248,413171,1,10,0:0:0:0:
56,150,413344,6,0,P|100:169|143:213,1,92.9999971618653,2|0,0:0|0:0,0:0:0:0:
167,26,413518,2,0,P|184:71|184:133,1,92.9999971618653,8|0,0:0|0:0,0:0:0:0:
46,248,413692,1,2,0:0:0:0:
46,248,413778,1,2,0:0:0:0:
46,248,413865,1,10,0:0:0:0:
236,165,414038,6,0,B|249:214|249:214|247:259,1,92.9999971618653,2|0,0:1|0:0,0:0:0:0:
396,384,414211,2,0,B|382:335|382:335|384:292,1,92.9999971618653,8|0,0:1|0:0,0:0:0:0:
413,129,414385,1,2,0:0:0:0:
512,109,414471,1,0,0:0:0:0:
461,198,414558,2,0,P|412:215|354:190,1,92.9999971618653,8|0,0:0|0:0,0:0:0:0:
326,92,414732,6,0,L|313:-3,1,92.9999971618653,6|0,0:0|0:0,0:0:0:0:
154,44,414905,2,0,L|141:136,1,92.9999971618653,8|0,0:0|0:0,0:0:0:0:
214,256,415078,5,10,0:1:0:0:
136,216,415166,1,8,0:0:0:0:
73,277,415251,1,8,0:0:0:0:
111,355,415338,1,8,0:0:0:0:
197,345,415425,6,0,L|308:328,1,92.9999971618653,6|0,0:0|0:0,0:0:0:0:
390,255,415599,2,0,B|415:297|415:297|412:366,1,92.9999971618653,8|0,0:0|0:0,0:0:0:0:
288,330,415772,2,0,L|177:313,1,92.9999971618653,2|0,0:0|0:0,0:0:0:0:
95,240,415946,2,0,B|70:282|70:282|73:351,1,92.9999971618653,8|0,0:0|0:0,0:0:0:0:
198,119,416119,5,2,0:0:0:0:
198,119,416206,1,2,0:0:0:0:
198,119,416292,2,0,P|180:73|130:35,1,92.9999971618653,8|0,0:0|0:0,0:0:0:0:
281,62,416466,2,0,P|329:69|387:45,1,92.9999971618653,2|0,0:0|0:0,0:0:0:0:
295,163,416639,2,0,P|264:201|256:263,1,92.9999971618653,8|0,0:0|0:0,0:0:0:0:
354,354,416813,6,0,L|457:330,1,92.9999971618653,2|0,0:1|0:0,0:0:0:0:
455,231,416986,2,0,L|364:252,1,92.9999971618653,8|0,0:0|0:0,0:0:0:0:
158,354,417159,2,0,L|55:330,1,92.9999971618653,2|0,0:0|0:0,0:0:0:0:
57,231,417333,2,0,L|147:252,1,92.9999971618653,8|0,0:0|0:0,0:0:0:0:
254,243,417506,5,2,0:0:0:0:
254,243,417593,1,2,0:0:0:0:
254,243,417680,2,0,P|265:198|295:163,1,92.9999971618653,8|0,0:0|0:0,0:0:0:0:
370,56,417853,2,0,P|326:69|281:62,1,92.9999971618653,2|0,0:0|0:0,0:0:0:0:
148,43,418027,2,0,P|181:75|198:119,1,92.9999971618653,8|0,0:0|0:0,0:0:0:0:
57,231,418200,6,0,P|36:188|35:115,1,92.9999971618653,2|0,0:1|0:0,0:0:0:0:
176,268,418373,2,0,P|197:311|198:384,1,92.9999971618653,8|0,0:0|0:0,0:0:0:0:
92,344,418547,1,2,0:0:0:0:
92,344,418633,1,2,0:0:0:0:
92,344,418720,1,10,0:0:0:0:
54,209,418894,6,0,P|37:165|44:92,1,92.9999971618653,2|0,0:0|0:0,0:0:0:0:
168,259,419067,2,0,P|184:304|178:376,1,92.9999971618653,8|0,0:0|0:0,0:0:0:0:
77,326,419240,1,2,0:0:0:0:
77,326,419326,1,2,0:0:0:0:
77,326,419413,1,10,0:0:0:0:
187,171,419587,6,0,P|230:154|291:150,1,92.9999971618653,2|0,0:1|0:0,0:0:0:0:
423,283,419761,2,0,P|466:300|527:304,1,92.9999971618653,8|0,0:0|0:0,0:0:0:0:
363,116,419934,1,2,0:0:0:0:
352,208,420020,1,2,0:0:0:0:
342,300,420107,1,10,0:0:0:0:
439,83,420281,6,0,P|408:47|345:35,1,92.9999971618653,6|0,0:0|0:0,0:0:0:0:
276,149,420454,2,0,L|167:132,1,92.9999971618653,8|0,0:0|0:0,0:0:0:0:
68,20,420628,5,10,0:0:0:0:
68,20,420714,1,8,0:0:0:0:
68,20,420801,1,8,0:0:0:0:
68,20,420888,1,8,0:0:0:0:
68,20,420974,5,0,0:0:0:0:
53,112,421148,1,0,0:0:0:0:
73,204,421321,1,0,0:0:0:0:
126,283,421495,1,0,0:0:0:0:
204,335,421668,1,0,0:0:0:0:
296,356,421842,1,0,0:0:0:0:
389,341,422015,1,0,0:0:0:0:
470,292,422188,1,2,0:0:0:0:
470,292,422535,5,0,0:0:0:0:
451,200,422709,1,0,0:0:0:0:
381,259,422882,1,0,0:0:0:0:
293,226,423056,1,0,0:0:0:0:
272,135,423229,1,0,0:0:0:0:
341,73,423403,1,0,0:0:0:0:
427,105,423576,1,0,0:0:0:0:
427,105,423749,5,2,0:0:0:0:
180,166,424096,1,0,0:0:0:0:
402,236,424443,1,0,0:0:0:0:
402,236,424616,1,0,0:0:0:0:
286,279,424790,1,0,0:0:0:0:
286,279,424963,1,0,0:0:0:0:
477,357,425137,5,0,0:0:0:0:
493,265,425310,1,0,0:0:0:0:
473,173,425483,1,0,0:0:0:0:
420,94,425657,1,0,0:0:0:0:
342,42,425830,1,0,0:0:0:0:
250,21,426004,1,0,0:0:0:0:
157,36,426177,1,0,0:0:0:0:
76,85,426350,1,0,0:0:0:0:
48,270,426523,5,2,0:0:0:0:
171,344,427594,5,0,0:0:0:0:
231,244,427951,1,0,0:0:0:0:
194,133,428308,1,2,0:0:0:0:
193,340,428665,5,0,0:0:0:0:
274,284,429047,1,0,0:0:0:0:
285,186,429429,1,2,0:0:0:0:
194,220,429811,6,0,P|138:208|80:209,1,108.499996688843,0|2,0:0|0:0,0:0:0:0:
285,186,430600,6,0,P|329:197|388:197,1,92.9999971618653,0|2,0:0|0:0,0:0:0:0:
170,140,431389,6,0,L|156:58,1,77.5,0|2,0:0|0:0,0:0:0:0:
309,68,432228,6,0,L|316:17,1,46.5
315,21,432647,5,2,0:0:0:0:
