osu file format v14

[General]
AudioFilename: audio.mp3
AudioLeadIn: 0
PreviewTime: 113963
Countdown: 0
SampleSet: Soft
StackLeniency: 0
Mode: 0
LetterboxInBreaks: 0
WidescreenStoryboard: 1

[Editor]
Bookmarks: 21545,30835,40125,42448,61028,70319,89286,114061,138834,150834,171447,197092,204447,224867,242092,243931,276060,286512,290673,298125,315060,340221
DistanceSpacing: 0.1
BeatDivisor: 4
GridSize: 8
TimelineZoom: 8

[Metadata]
Title:Chirei "Gensoukyou Engi Fuu Jirareshi Youkai Tachi no Peeji"
TitleUnicode:地霊 「幻想郷縁起 封ジラレシ妖怪達之頁」
Artist:Diao ye zong feat. Meramipop
ArtistUnicode:凋叶棕 feat. めらみぽっぷ
Creator:ScubDomino
Version:Kisume
Source:東方Project
Tags:toho chireiden 黒谷 ヤマメ kurodani yamame 暗闇の風穴 The Dark Blowhole Subterranean Animism 東方地霊殿 ~ Subterranean Animism ZUN jun'ya ota
BeatmapID:1876806
BeatmapSetID:898458

[Difficulty]
HPDrainRate:5
CircleSize:3
OverallDifficulty:8.5
ApproachRate:9.6
SliderMultiplier:2
SliderTickRate:1

[Events]
//Background and Video events
0,0,"yamomma.png",0,0
//Break Periods
//Storyboard Layer 0 (Background)
//Storyboard Layer 1 (Fail)
//Storyboard Layer 2 (Pass)
//Storyboard Layer 3 (Foreground)
//Storyboard Sound Samples
Sample,41950,0,"drum-hitnormal66.wav",35
Sample,42144,0,"drum-hitnormal66.wav",35
Sample,42337,0,"drum-hitnormal66.wav",35
Sample,42337,0,"normal-hitfinish99.wav",35
Sample,178981,0,"drum-hitnormal66.wav",35
Sample,179174,0,"drum-hitnormal66.wav",35
Sample,179368,0,"drum-hitnormal66.wav",35
Sample,179368,0,"normal-hitfinish99.wav",35

[TimingPoints]
255,387.096774193548,3,2,1,35,1,0
448,-250,3,2,1,35,0,0
1417,-100,3,2,1,35,0,0
1707,-500,3,2,1,35,0,0
2578,-100,3,2,1,35,0,0
2868,-500,3,2,1,35,0,0
3739,-100,3,2,1,35,0,0
4029,-500,3,2,1,35,0,0
4319,-500,3,2,1,40,0,0
4513,-500,3,2,1,20,0,0
4706,-500,3,2,1,40,0,0
4900,-100,3,2,1,40,0,0
5190,-500,3,2,1,40,0,0
5481,-66.6666666666667,3,2,1,40,0,0
6062,-100,3,2,1,40,0,0
6352,-500,3,2,1,40,0,0
7223,-100,3,2,1,40,0,0
7513,-500,3,2,1,40,0,0
8384,-100,3,2,1,40,0,0
8674,-500,3,2,1,40,0,0
8964,-500,3,2,1,40,0,0
9158,-250,3,2,1,20,0,0
9351,-250,3,2,1,40,0,0
9545,-250,3,2,1,40,0,0
9546,-100,3,2,1,40,0,0
9836,-500,3,2,1,40,0,0
10126,-66.6666666666667,3,2,1,40,0,0
10707,-100,3,2,1,40,0,0
10997,-500,3,2,1,40,0,0
11868,-100,3,2,1,40,0,0
12158,-500,3,2,1,40,0,0
13029,-100,3,2,1,40,0,0
13222,-100,3,2,1,40,0,0
13319,-500,3,2,1,40,0,0
13609,-500,3,2,1,40,0,0
13707,-250,3,2,1,40,0,0
13803,-250,3,2,1,20,0,0
13996,-250,3,2,1,40,0,0
14190,-250,3,2,1,40,0,0
15352,-100,3,2,1,40,0,0
15642,-500,3,2,1,40,0,0
16513,-100,3,2,1,40,0,0
16803,-500,3,2,1,40,0,0
17675,-100,3,2,1,40,0,0
17867,-100,3,2,1,40,0,0
17965,-500,3,2,1,40,0,0
18254,-500,3,2,1,40,0,0
18448,-500,3,2,1,50,0,0
18449,-250,3,2,1,50,0,0
18545,-250,3,2,1,15,0,0
18641,-250,3,2,1,30,0,0
18835,-250,3,2,1,60,0,0
18836,-100,3,2,1,60,0,0
19126,-500,3,2,1,60,0,0
19804,-200,3,2,1,60,0,0
19997,387.096774193548,4,2,1,60,1,0
20383,-100,4,2,1,50,1,0
21350,-100,4,2,1,30,1,0
21351,-250,3,2,1,30,0,0
21544,-250,3,2,1,50,0,0
21545,387.096774193548,3,2,1,50,1,0
21545,-500,3,2,1,50,0,0
22125,-50,3,2,1,50,0,0
22512,-50,3,2,1,30,0,0
22705,-50,3,2,1,50,0,0
22706,-500,3,2,1,50,0,0
23286,-50,3,2,1,50,0,0
23673,-50,3,2,1,30,0,0
23866,-50,3,2,1,50,0,0
23867,-500,3,2,1,50,0,0
24447,-50,3,2,1,50,0,0
24641,-50,3,2,1,50,0,0
24834,-50,3,2,1,50,0,0
25028,-500,3,2,1,50,0,0
25608,-66.6666666666667,3,2,1,50,0,0
25995,-66.6666666666667,3,2,1,30,0,0
26189,-66.6666666666667,3,2,1,50,0,0
26190,-500,3,2,1,50,0,0
26770,-50,3,2,1,50,0,0
27157,-50,3,2,1,30,0,0
27350,-50,3,2,1,50,0,0
27351,-500,3,2,1,50,0,0
27931,-50,3,2,1,50,0,0
28318,-50,3,2,1,30,0,0
28415,-50,3,2,1,30,0,0
28511,-50,3,2,1,50,0,0
28512,-500,3,2,1,50,0,0
29092,-50,3,2,1,50,0,0
29286,-50,3,2,1,50,0,0
29479,-50,3,2,1,50,0,0
29673,-50,3,2,1,60,0,0
29674,-500,3,2,1,60,0,0
30254,-66.6666666666667,3,2,1,60,0,0
30835,-66.6666666666667,3,2,1,60,0,0
31222,-250,3,2,1,60,0,0
31415,-66.6666666666667,3,2,1,60,0,0
31996,-66.6666666666667,3,2,1,60,0,0
32383,-250,3,2,1,60,0,0
32576,-66.6666666666667,3,2,1,60,0,0
33157,-66.6666666666667,3,2,1,60,0,0
33544,-250,3,2,1,60,0,0
33737,-66.6666666666667,3,2,1,60,0,0
34028,-66.6666666666667,3,2,1,60,0,0
34124,-66.6666666666667,3,2,1,60,0,0
34221,-66.6666666666667,3,2,1,60,0,0
34318,-66.6666666666667,3,2,1,60,0,0
34319,-66.6666666666667,3,2,1,60,0,0
34706,-250,3,2,1,60,0,0
34899,-66.6666666666667,3,2,1,60,0,0
35480,-66.6666666666667,3,2,1,60,0,0
35867,-250,3,2,1,60,0,0
36060,-66.6666666666667,3,2,1,60,0,0
36641,-66.6666666666667,3,2,1,60,0,0
37028,-250,3,2,1,60,0,0
37221,-66.6666666666667,3,2,1,60,0,0
37803,-66.6666666666667,3,2,1,60,0,0
38190,-250,3,2,1,60,0,0
38383,-66.6666666666667,3,2,1,60,0,0
38673,-66.6666666666667,3,2,1,60,0,0
38769,-66.6666666666667,3,2,1,60,0,0
38866,-66.6666666666667,3,2,1,60,0,0
38963,-66.6666666666667,3,2,1,40,0,0
38964,-66.6666666666667,3,2,1,40,0,0
39351,-250,3,2,1,40,0,0
39544,-66.6666666666667,3,2,1,40,0,0
40125,-133.333333333333,3,2,1,40,0,0
41286,-133.333333333333,3,2,1,30,0,0
42448,-200,3,2,1,30,0,0
43609,-133.333333333333,3,2,1,30,0,0
43996,-200,3,2,1,30,0,0
44770,-200,3,2,1,30,0,0
45544,-200,3,2,1,20,0,0
45737,-200,3,2,1,30,0,0
45931,-133.333333333333,3,2,1,30,0,0
46318,-66.6666666666667,3,2,1,30,0,0
47093,-200,3,2,1,30,0,0
48641,-133.333333333333,3,2,1,30,0,0
49995,-133.333333333333,3,2,1,30,0,0
50189,-133.333333333333,3,2,1,20,0,0
50190,-500,3,2,1,20,0,0
50382,-500,3,2,1,30,0,0
50576,-500,3,2,1,30,0,0
51157,-100,3,2,1,30,0,0
52028,-500,3,2,1,30,0,0
52899,-100,3,2,1,30,0,0
53190,-500,3,2,1,30,0,0
54061,-100,3,2,1,30,0,0
54253,-100,3,2,1,40,0,0
54351,-500,3,2,1,40,0,0
54834,-500,3,2,1,25,0,0
55221,-500,3,2,1,30,0,0
55222,-66.6666666666667,3,2,1,30,0,0
55512,-500,3,2,1,30,0,0
55706,-250,3,2,1,30,0,0
56383,-100,3,2,1,30,0,0
56674,-500,3,2,1,30,0,0
57544,-100,3,2,1,30,0,0
57835,-500,3,2,1,30,0,0
58706,-100,3,2,1,30,0,0
58899,-100,3,2,1,40,0,0
58997,-500,3,2,1,40,0,0
59382,-500,3,2,1,60,0,0
59431,-500,3,2,1,55,0,0
59479,-500,3,2,1,50,0,0
59528,-500,3,2,1,45,0,0
59576,-500,3,2,1,40,0,0
59624,-500,3,2,1,35,0,0
59673,-500,3,2,1,30,0,0
59721,-500,3,2,1,25,0,0
59770,-500,3,2,1,20,0,0
59866,-500,3,2,1,50,0,0
59867,-100,3,2,1,50,0,0
60641,-250,3,2,1,50,0,0
60834,-250,3,2,1,30,0,0
61028,-500,3,2,1,50,0,0
61608,-50,3,2,1,50,0,0
61995,-50,3,2,1,30,0,0
62189,-50,3,2,1,50,0,0
62190,-500,3,2,1,50,0,0
62770,-50,3,2,1,50,0,0
63157,-50,3,2,1,30,0,0
63350,-50,3,2,1,50,0,0
63351,-500,3,2,1,50,0,0
63931,-50,3,2,1,50,0,0
64124,-50,3,2,1,50,0,0
64318,-50,3,2,1,50,0,0
64512,-500,3,2,1,60,0,0
65092,-66.6666666666667,3,2,1,60,0,0
65674,-66.6666666666667,3,2,1,60,0,0
66061,-250,3,2,1,60,0,0
66254,-66.6666666666667,3,2,1,60,0,0
66835,-66.6666666666667,3,2,1,60,0,0
67222,-250,3,2,1,60,0,0
67415,-66.6666666666667,3,2,1,60,0,0
67996,-66.6666666666667,3,2,1,60,0,0
68189,-66.6666666666667,3,2,1,60,0,0
68383,-250,3,2,1,60,0,0
68576,-66.6666666666667,3,2,1,60,0,0
69157,-66.6666666666667,3,2,1,60,0,0
70319,-66.6666666666667,3,2,1,60,0,0
70706,-250,3,2,1,60,0,0
71093,-66.6666666666667,3,2,1,60,0,0
71867,-100,3,2,1,60,0,0
72641,-250,3,2,1,60,0,0
72835,-50,3,2,1,60,0,0
73319,-66.6666666666667,3,2,1,60,0,0
73512,-66.6666666666667,3,2,1,60,0,0
73608,-66.6666666666667,3,2,1,60,0,0
73705,-66.6666666666667,3,2,1,60,0,0
73802,-66.6666666666667,3,2,1,60,0,0
73803,-133.333333333333,3,2,1,60,0,0
74964,-66.6666666666667,3,2,1,60,0,0
75351,-250,3,2,1,60,0,0
75738,-66.6666666666667,3,2,1,60,0,0
76512,-100,3,2,1,60,0,0
77286,-250,3,2,1,60,0,0
77479,-250,3,2,1,60,0,0
77480,-50,3,2,1,60,0,0
77964,-66.6666666666667,3,2,1,60,0,0
78447,-66.6666666666667,3,2,1,60,0,0
78448,-133.333333333333,3,2,1,60,0,0
79222,-100,3,2,1,60,0,0
79319,-100,3,2,1,60,0,0
79367,-250,3,2,1,60,0,0
79415,-100,3,2,1,60,0,0
79464,-250,3,2,1,60,0,0
79512,-100,3,2,1,60,0,0
79561,-250,3,2,1,60,0,0
79609,-66.6666666666667,3,2,1,60,0,0
80093,-133.333333333333,3,2,1,60,0,0
80383,-66.6666666666667,3,2,1,60,0,0
81157,-100,3,2,1,60,0,0
81641,-250,3,2,1,60,0,0
82028,-50,3,2,1,60,0,0
82609,-66.6666666666667,3,2,1,60,0,0
82802,-66.6666666666667,3,2,1,60,0,0
82898,-66.6666666666667,3,2,1,60,0,0
82995,-66.6666666666667,3,2,1,60,0,0
83092,-66.6666666666667,3,2,1,60,0,0
83093,-133.333333333333,3,2,1,60,0,0
84254,-66.6666666666667,3,2,1,60,0,0
84641,-250,3,2,1,60,0,0
85028,-66.6666666666667,3,2,1,60,0,0
85802,-100,3,2,1,60,0,0
86576,-100,3,2,1,60,0,0
86577,-250,3,2,1,60,0,0
86672,-250,3,2,1,30,0,0
86770,-50,3,2,1,30,0,0
86963,-50,3,2,1,60,0,0
87059,-50,3,2,1,30,0,0
87254,-250,3,2,1,30,0,0
87350,-250,3,2,1,60,0,0
87446,-250,3,2,1,60,0,0
87737,-250,3,2,1,60,0,0
87738,387.096774193548,4,2,1,60,1,0
87738,-66.6666666666667,3,2,1,60,0,0
87833,-100,4,2,1,60,0,0
88124,-100,4,2,1,40,0,0
88512,-133.333333333333,3,2,1,40,0,0
89286,-133.333333333333,3,2,1,40,0,0
90060,-166.666666666667,3,2,1,40,0,0
90447,-133.333333333333,3,2,1,40,0,0
90834,-133.333333333333,3,2,1,40,0,0
91608,-166.666666666667,3,2,1,40,0,0
91995,-133.333333333333,3,2,1,40,0,0
92383,-133.333333333333,3,2,1,40,0,0
93157,-166.666666666667,3,2,1,40,0,0
93544,-133.333333333333,3,2,1,40,0,0
93931,-133.333333333333,3,2,1,40,0,0
94705,-166.666666666667,3,2,1,40,0,0
95092,-66.6666666666667,3,2,1,40,0,0
95479,-133.333333333333,3,2,1,40,0,0
96253,-166.666666666667,3,2,1,40,0,0
96640,-133.333333333333,3,2,1,40,0,0
97028,-133.333333333333,3,2,1,40,0,0
97802,-166.666666666667,3,2,1,40,0,0
98189,-133.333333333333,3,2,1,40,0,0
98576,-133.333333333333,3,2,1,40,0,0
99350,-166.666666666667,3,2,1,40,0,0
99737,-133.333333333333,3,2,1,40,0,0
100125,-133.333333333333,3,2,1,40,0,0
100221,-133.333333333333,3,2,1,40,0,0
100511,-133.333333333333,3,2,1,40,0,0
100899,-66.6666666666667,3,2,1,40,0,0
101092,-100,3,2,1,40,0,0
101673,-100,3,2,1,40,0,0
102254,-66.6666666666667,3,2,1,40,0,0
102447,-250,3,2,1,40,0,0
103221,-100,3,2,1,40,0,0
103802,-66.6666666666667,3,2,1,40,0,0
103996,-250,3,2,1,40,0,0
104770,-100,3,2,1,40,0,0
105350,-66.6666666666667,3,2,1,40,0,0
105544,-250,3,2,1,40,0,0
106318,-100,3,2,1,40,0,0
106705,-100,3,2,1,50,0,0
106898,-66.6666666666667,3,2,1,50,0,0
107092,-250,3,2,1,50,0,0
107382,-166.666666666667,3,2,1,50,0,0
107673,-100,3,2,1,50,0,0
107867,-100,3,2,1,50,0,0
108447,-66.6666666666667,3,2,1,50,0,0
108931,-250,3,2,1,50,0,0
109415,-100,3,2,1,50,0,0
109801,-100,3,2,1,50,0,0
109995,-66.6666666666667,3,2,1,50,0,0
110479,-250,3,2,1,50,0,0
110963,-100,3,2,1,50,0,0
111350,-100,3,2,1,50,0,0
111641,-133.333333333333,3,2,1,50,0,0
112124,-133.333333333333,3,2,1,50,0,0
112318,-117.647058823529,3,2,1,50,0,0
112898,-117.647058823529,3,2,1,80,0,0
113963,-117.647058823529,3,2,1,80,0,0
114059,-117.647058823529,3,2,1,80,0,0
114060,-66.6666666666667,3,2,1,80,0,0
114156,-66.6666666666667,3,2,1,80,0,0
114253,-66.6666666666667,3,2,1,80,0,0
114834,-250,3,2,1,80,0,0
115415,-100,3,2,1,80,0,0
115511,-100,3,2,1,80,0,0
115607,-100,3,2,1,80,0,0
115608,-66.6666666666667,3,2,1,80,0,0
115704,-66.6666666666667,3,2,1,80,0,0
115801,-66.6666666666667,3,2,1,80,0,0
116189,-50,3,2,1,80,0,0
116576,-250,3,2,1,80,0,0
117059,-250,3,2,1,80,0,0
117155,-250,3,2,1,80,0,0
117157,-66.6666666666667,3,2,1,80,0,0
117252,-66.6666666666667,3,2,1,80,0,0
117349,-66.6666666666667,3,2,1,80,0,0
117931,-250,3,2,1,80,0,0
118414,-250,3,2,1,80,0,0
118510,-250,3,2,1,80,0,0
118512,-100,3,2,1,80,0,0
118607,-100,3,2,1,80,0,0
118704,-100,3,2,1,80,0,0
118705,-66.6666666666667,3,2,1,80,0,0
119479,-500,3,2,1,80,0,0
120060,-250,3,2,1,80,0,0
120156,-250,3,2,1,80,0,0
120252,-250,3,2,1,80,0,0
120254,-66.6666666666667,3,2,1,80,0,0
120349,-66.6666666666667,3,2,1,80,0,0
120446,-66.6666666666667,3,2,1,80,0,0
120835,-100,3,2,1,80,0,0
121028,-250,3,2,1,80,0,0
121608,-100,3,2,1,80,0,0
121705,-100,3,2,1,80,0,0
121801,-100,3,2,1,80,0,0
121802,-66.6666666666667,3,2,1,80,0,0
121898,-66.6666666666667,3,2,1,80,0,0
121995,-66.6666666666667,3,2,1,80,0,0
122576,-250,3,2,1,80,0,0
123059,-250,3,2,1,80,0,0
123158,-100,3,2,1,80,0,0
123349,-100,3,2,1,80,0,0
123350,-66.6666666666667,3,2,1,80,0,0
123446,-66.6666666666667,3,2,1,80,0,0
123543,-66.6666666666667,3,2,1,80,0,0
123737,-66.6666666666667,3,2,1,60,0,0
124125,-250,3,2,1,60,0,0
124705,-100,3,2,1,60,0,0
125285,-100,3,2,1,80,0,0
125286,-125,3,2,1,80,0,0
125576,-166.666666666667,3,2,1,80,0,0
125867,-111.111111111111,3,2,1,80,0,0
126060,-250,3,2,1,80,0,0
126350,-250,3,2,1,80,0,0
126446,-250,3,2,1,80,0,0
126447,-66.6666666666667,3,2,1,80,0,0
126543,-66.6666666666667,3,2,1,80,0,0
126640,-66.6666666666667,3,2,1,80,0,0
127221,-250,3,2,1,80,0,0
127802,-100,3,2,1,80,0,0
127898,-100,3,2,1,80,0,0
127994,-100,3,2,1,80,0,0
128091,-100,3,2,1,80,0,0
128188,-100,3,2,1,80,0,0
128770,-250,3,2,1,80,0,0
129446,-250,3,2,1,80,0,0
129542,-250,3,2,1,80,0,0
129544,-66.6666666666667,3,2,1,80,0,0
129639,-66.6666666666667,3,2,1,80,0,0
129736,-66.6666666666667,3,2,1,80,0,0
130221,-66.6666666666667,3,2,1,80,0,0
130318,-250,3,2,1,80,0,0
130705,-250,3,2,1,80,0,0
130899,-100,3,2,1,80,0,0
131867,-250,3,2,1,80,0,0
132543,-250,3,2,1,80,0,0
132639,-250,3,2,1,80,0,0
132641,-66.6666666666667,3,2,1,80,0,0
132736,-66.6666666666667,3,2,1,80,0,0
132833,-66.6666666666667,3,2,1,80,0,0
134092,-66.6666666666667,3,2,1,80,0,0
134329,-250,3,2,1,80,0,0
134575,-250,3,2,1,80,0,0
135298,-100,3,2,1,80,0,0
135588,-500,3,2,1,80,0,0
135640,-500,3,2,1,80,0,0
135736,-500,3,2,1,80,0,0
135833,-500,3,2,1,80,0,0
135930,-500,3,2,1,80,0,0
136459,-100,3,2,1,80,0,0
136749,-500,3,2,1,80,0,0
137285,-500,3,2,1,50,0,0
137620,-100,3,2,1,50,0,0
137672,-100,3,2,1,50,0,0
137910,-500,3,2,1,50,0,0
138781,-100,3,2,1,50,0,0
139071,-500,3,2,1,50,0,0
139362,-66.6666666666667,3,2,1,50,0,0
139943,-100,3,2,1,50,0,0
140233,-500,3,2,1,50,0,0
141104,-100,3,2,1,50,0,0
141394,-500,3,2,1,50,0,0
142265,-100,3,2,1,50,0,0
142555,-500,3,2,1,50,0,0
143039,-250,3,2,1,50,0,0
143427,-100,3,2,1,50,0,0
143717,-500,3,2,1,50,0,0
144007,-66.6666666666667,3,2,1,50,0,0
144588,-100,3,2,1,50,0,0
144878,-500,3,2,1,50,0,0
145749,-100,3,2,1,50,0,0
146039,-500,3,2,1,50,0,0
146910,-100,3,2,1,50,0,0
147200,-500,3,2,1,50,0,0
147588,-250,3,2,1,50,0,0
149233,-100,3,2,1,50,0,0
149523,-500,3,2,1,50,0,0
150059,-500,3,2,1,40,0,0
150394,-100,3,2,1,40,0,0
150684,-500,3,2,1,40,0,0
151556,-100,3,2,1,40,0,0
151846,-500,3,2,1,40,0,0
152330,-250,3,2,1,40,0,0
152717,-100,3,2,1,40,0,0
153007,-500,3,2,1,40,0,0
153685,-200,3,2,1,40,0,0
155232,-250,3,2,1,40,0,0
155426,-500,3,2,1,40,0,0
156006,-50,3,2,1,40,0,0
156587,-500,3,2,1,40,0,0
156640,-500,3,2,1,50,0,0
157167,-50,3,2,1,50,0,0
157608,-50,3,2,1,30,0,0
157748,-500,3,2,1,30,0,0
157801,-500,3,2,1,50,0,0
158328,-50,3,2,1,50,0,0
158769,-50,3,2,1,30,0,0
158909,-500,3,2,1,30,0,0
158962,-500,3,2,1,50,0,0
159489,-66.6666666666667,3,2,1,50,0,0
159930,-66.6666666666667,3,2,1,30,0,0
160071,-500,3,2,1,30,0,0
160124,-500,3,2,1,50,0,0
160651,-50,3,2,1,50,0,0
160704,-50,3,2,1,50,0,0
160898,-50,3,2,1,50,0,0
161091,-50,3,2,1,50,0,0
161232,-500,3,2,1,50,0,0
161285,-500,3,2,1,50,0,0
161812,-50,3,2,1,50,0,0
162253,-50,3,2,1,30,0,0
162393,-500,3,2,1,30,0,0
162446,-500,3,2,1,50,0,0
162973,-50,3,2,1,50,0,0
163414,-50,3,2,1,30,0,0
163555,-500,3,2,1,30,0,0
163608,-500,3,2,1,50,0,0
164135,-66.6666666666667,3,2,1,50,0,0
164716,-66.6666666666667,3,2,1,50,0,0
165103,-250,3,2,1,50,0,0
165296,-66.6666666666667,3,2,1,50,0,0
165349,-66.6666666666667,3,2,1,50,0,0
165543,-66.6666666666667,3,2,1,50,0,0
165736,-66.6666666666667,3,2,1,50,0,0
165877,-66.6666666666667,3,2,1,50,0,0
165930,-66.6666666666667,3,2,1,60,0,0
166264,-250,3,2,1,60,0,0
166457,-66.6666666666667,3,2,1,60,0,0
167038,-66.6666666666667,3,2,1,60,0,0
167425,-250,3,2,1,60,0,0
167618,-66.6666666666667,3,2,1,60,0,0
168200,-66.6666666666667,3,2,1,60,0,0
168587,-250,3,2,1,60,0,0
168780,-66.6666666666667,3,2,1,60,0,0
169361,-66.6666666666667,3,2,1,60,0,0
169748,-250,3,2,1,60,0,0
169941,-66.6666666666667,3,2,1,60,0,0
170285,-66.6666666666667,3,2,1,60,0,0
170381,-66.6666666666667,3,2,1,60,0,0
170478,-66.6666666666667,3,2,1,60,0,0
170522,-66.6666666666667,3,2,1,60,0,0
170575,-66.6666666666667,3,2,1,60,0,0
170909,-250,3,2,1,60,0,0
171102,-66.6666666666667,3,2,1,60,0,0
171684,-66.6666666666667,3,2,1,60,0,0
172071,-250,3,2,1,60,0,0
172264,-66.6666666666667,3,2,1,60,0,0
172845,-66.6666666666667,3,2,1,60,0,0
173232,-250,3,2,1,60,0,0
173425,-66.6666666666667,3,2,1,60,0,0
174006,-133.333333333333,3,2,1,60,0,0
174930,-133.333333333333,3,2,1,60,0,0
175026,-133.333333333333,3,2,1,60,0,0
175123,-133.333333333333,3,2,1,60,0,0
175220,-133.333333333333,3,2,1,40,0,0
176329,-200,3,2,1,40,0,0
177490,-133.333333333333,3,2,1,40,0,0
177877,-200,3,2,1,40,0,0
178316,-200,3,2,1,30,0,0
178651,-200,3,2,1,30,0,0
179812,-133.333333333333,3,2,1,30,0,0
180199,-66.6666666666667,3,2,1,30,0,0
180974,-200,3,2,1,30,0,0
181993,-200,3,2,1,30,0,0
182186,-200,3,2,1,30,0,0
182380,-200,3,2,1,30,0,0
182522,-133.333333333333,3,2,1,30,0,0
182574,-133.333333333333,3,2,1,20,0,0
182767,-133.333333333333,3,2,1,30,0,0
182961,-133.333333333333,3,2,1,30,0,0
184071,-500,3,2,1,30,0,0
185038,-100,3,2,1,30,0,0
185909,-500,3,2,1,30,0,0
186638,-500,3,2,1,30,0,0
186780,-100,3,2,1,30,0,0
187071,-500,3,2,1,30,0,0
187219,-500,3,2,1,20,0,0
187412,-500,3,2,1,30,0,0
187606,-500,3,2,1,30,0,0
187942,-100,3,2,1,30,0,0
188232,-500,3,2,1,30,0,0
189103,-66.6666666666667,3,2,1,30,0,0
189393,-500,3,2,1,30,0,0
189587,-250,3,2,1,30,0,0
190264,-100,3,2,1,30,0,0
190555,-500,3,2,1,30,0,0
191283,-500,3,2,1,40,0,0
191425,-100,3,2,1,40,0,0
191716,-500,3,2,1,40,0,0
191864,-500,3,2,1,25,0,0
192251,-500,3,2,1,30,0,0
192587,-100,3,2,1,30,0,0
192878,-500,3,2,1,30,0,0
193748,-100,3,2,1,30,0,0
194522,-250,3,2,1,30,0,0
194909,-500,3,2,1,30,0,0
195489,-50,3,2,1,30,0,0
195928,-50,3,2,1,40,0,0
196071,-500,3,2,1,40,0,0
196411,-500,3,2,1,60,0,0
196460,-500,3,2,1,55,0,0
196508,-500,3,2,1,50,0,0
196557,-500,3,2,1,45,0,0
196605,-500,3,2,1,40,0,0
196651,-50,3,2,1,40,0,0
196653,-50,3,2,1,35,0,0
196702,-50,3,2,1,40,0,0
196896,-50,3,2,1,50,0,0
197232,-500,3,2,1,50,0,0
197812,-50,3,2,1,50,0,0
198393,-500,3,2,1,50,0,0
198973,-66.6666666666667,3,2,1,50,0,0
199555,-66.6666666666667,3,2,1,50,0,0
199942,-250,3,2,1,50,0,0
200135,-66.6666666666667,3,2,1,50,0,0
200716,-66.6666666666667,3,2,1,50,0,0
200961,-66.6666666666667,3,2,1,50,0,0
201103,-250,3,2,1,50,0,0
201154,-250,3,2,1,50,0,0
201296,-66.6666666666667,3,2,1,50,0,0
201348,-66.6666666666667,3,2,1,50,0,0
201541,-66.6666666666667,3,2,1,60,0,0
201877,-66.6666666666667,3,2,1,60,0,0
202264,-250,3,2,1,60,0,0
202457,-66.6666666666667,3,2,1,60,0,0
204200,-66.6666666666667,3,2,1,60,0,0
204587,-250,3,2,1,60,0,0
204974,-66.6666666666667,3,2,1,60,0,0
205219,-66.6666666666667,3,2,1,60,0,0
205748,-100,3,2,1,60,0,0
206186,-100,3,2,1,60,0,0
206522,-250,3,2,1,60,0,0
206716,-50,3,2,1,60,0,0
207200,-66.6666666666667,3,2,1,60,0,0
207684,-133.333333333333,3,2,1,60,0,0
208845,-66.6666666666667,3,2,1,60,0,0
209232,-250,3,2,1,60,0,0
209619,-66.6666666666667,3,2,1,60,0,0
210393,-100,3,2,1,60,0,0
210541,-100,3,2,1,60,0,0
210637,-100,3,2,1,60,0,0
210734,-100,3,2,1,60,0,0
210831,-100,3,2,1,60,0,0
211167,-250,3,2,1,60,0,0
211361,-50,3,2,1,60,0,0
211845,-66.6666666666667,3,2,1,60,0,0
212329,-133.333333333333,3,2,1,60,0,0
213103,-100,3,2,1,60,0,0
213200,-100,3,2,1,60,0,0
213248,-250,3,2,1,60,0,0
213296,-100,3,2,1,60,0,0
213345,-250,3,2,1,60,0,0
213393,-100,3,2,1,60,0,0
213442,-250,3,2,1,60,0,0
213490,-66.6666666666667,3,2,1,60,0,0
213974,-133.333333333333,3,2,1,60,0,0
214264,-66.6666666666667,3,2,1,60,0,0
214509,-66.6666666666667,3,2,1,60,0,0
215038,-100,3,2,1,60,0,0
215477,-100,3,2,1,60,0,0
215522,-250,3,2,1,60,0,0
215909,-50,3,2,1,60,0,0
216490,-66.6666666666667,3,2,1,60,0,0
216974,-133.333333333333,3,2,1,60,0,0
218135,-66.6666666666667,3,2,1,60,0,0
218522,-250,3,2,1,60,0,0
218909,-66.6666666666667,3,2,1,60,0,0
219683,-100,3,2,1,60,0,0
219832,-100,3,2,1,60,0,0
219928,-100,3,2,1,60,0,0
220025,-100,3,2,1,60,0,0
220122,-100,3,2,1,60,0,0
220458,-250,3,2,1,60,0,0
220651,-50,3,2,1,60,0,0
221135,-250,3,2,1,60,0,0
221619,-66.6666666666667,3,2,1,60,0,0
222393,-133.333333333333,3,2,1,60,0,0
223167,-133.333333333333,3,2,1,60,0,0
223270,-250,3,2,1,60,0,0
223799,-250,3,2,1,60,0,0
223941,-166.666666666667,3,2,1,60,0,0
224239,-100,3,2,1,60,0,0
224328,-133.333333333333,3,2,1,60,0,0
224529,-500,3,2,1,60,0,0
224715,-133.333333333333,3,2,1,60,0,0
224767,-133.333333333333,3,2,1,60,0,0
225400,-100,3,2,1,60,0,0
225489,-166.666666666667,3,2,1,60,0,0
225690,-500,3,2,1,60,0,0
225876,-133.333333333333,3,2,1,60,0,0
226264,-133.333333333333,3,2,1,60,0,0
226561,-100,3,2,1,60,0,0
226851,-500,3,2,1,60,0,0
227038,-166.666666666667,3,2,1,60,0,0
227425,-133.333333333333,3,2,1,60,0,0
227722,-100,3,2,1,60,0,0
227812,-133.333333333333,3,2,1,60,0,0
228012,-500,3,2,1,60,0,0
228303,-66.6666666666667,3,2,1,60,0,0
228586,-166.666666666667,3,2,1,60,0,0
228884,-100,3,2,1,60,0,0
228973,-66.6666666666667,3,2,1,60,0,0
229122,-66.6666666666667,3,2,1,60,0,0
229174,-500,3,2,1,60,0,0
229218,-500,3,2,1,60,0,0
229315,-500,3,2,1,60,0,0
229360,-133.333333333333,3,2,1,60,0,0
229412,-133.333333333333,3,2,1,60,0,0
230045,-100,3,2,1,60,0,0
230134,-166.666666666667,3,2,1,60,0,0
230335,-500,3,2,1,60,0,0
230521,-133.333333333333,3,2,1,60,0,0
230909,-133.333333333333,3,2,1,60,0,0
231206,-100,3,2,1,60,0,0
231496,-500,3,2,1,60,0,0
231683,-166.666666666667,3,2,1,60,0,0
231980,-250,3,2,1,60,0,0
232070,-133.333333333333,3,2,1,60,0,0
232368,-100,3,2,1,60,0,0
232457,-133.333333333333,3,2,1,60,0,0
232658,-500,3,2,1,60,0,0
232703,-500,3,2,1,50,0,0
232896,-500,3,2,1,70,0,0
232948,-66.6666666666667,3,2,1,70,0,0
233231,-166.666666666667,3,2,1,70,0,0
233283,-166.666666666667,3,2,1,65,0,0
233529,-100,3,2,1,65,0,0
233618,-133.333333333333,3,2,1,65,0,0
233670,-133.333333333333,3,2,1,60,0,0
233819,-500,3,2,1,60,0,0
234006,-133.333333333333,3,2,1,60,0,0
234057,-133.333333333333,3,2,1,55,0,0
234444,-133.333333333333,3,2,1,60,0,0
234637,-133.333333333333,3,2,1,70,0,0
234690,-100,3,2,1,70,0,0
234780,-66.6666666666667,3,2,1,70,0,0
234832,-66.6666666666667,3,2,1,60,0,0
234973,-100,3,2,1,60,0,0
234980,-500,3,2,1,60,0,0
235554,-100,3,2,1,60,0,0
235851,-100,3,2,1,60,0,0
236135,-66.6666666666667,3,2,1,60,0,0
236141,-500,3,2,1,60,0,0
236328,-250,3,2,1,60,0,0
236529,-250,3,2,1,60,0,0
237102,-100,3,2,1,60,0,0
237683,-66.6666666666667,3,2,1,60,0,0
237877,-250,3,2,1,60,0,0
238174,-100,3,2,1,60,0,0
238464,-500,3,2,1,60,0,0
238651,-100,3,2,1,60,0,0
239186,-100,3,2,1,60,0,0
239231,-66.6666666666667,3,2,1,60,0,0
239282,-66.6666666666667,3,2,1,60,0,0
239335,-100,3,2,1,60,0,0
239379,-100,3,2,1,60,0,0
239425,-250,3,2,1,60,0,0
239476,-250,3,2,1,60,0,0
239625,-500,3,2,1,60,0,0
240199,-100,3,2,1,60,0,0
240497,-100,3,2,1,60,0,0
240779,-66.6666666666667,3,2,1,60,0,0
240787,-500,3,2,1,60,0,0
240973,-250,3,2,1,60,0,0
241263,-166.666666666667,3,2,1,60,0,0
241271,-250,3,2,1,60,0,0
241554,-100,3,2,1,60,0,0
241658,-100,3,2,1,60,0,0
241748,-100,3,2,1,60,0,0
241948,-500,3,2,1,60,0,0
242328,-66.6666666666667,3,2,1,60,0,0
242626,-200,3,2,1,60,0,0
242812,-250,3,2,1,60,0,0
243154,-250,3,2,1,60,0,0
243296,-100,3,2,1,60,0,0
243876,-66.6666666666667,3,2,1,60,0,0
244122,-66.6666666666667,3,2,1,60,0,0
244173,-250,3,2,1,60,0,0
244360,-250,3,2,1,60,0,0
244367,-500,3,2,1,60,0,0
244844,-100,3,2,1,60,0,0
244947,-50,3,2,1,60,0,0
245522,-133.333333333333,3,2,1,60,0,0
245528,-500,3,2,1,60,0,0
246108,-50,3,2,1,60,0,0
246199,-117.647058823529,3,2,1,60,0,0
246689,-500,3,2,1,60,0,0
247269,-50,3,2,1,60,0,0
247850,-500,3,2,1,60,0,0
247941,-66.6666666666667,3,2,1,60,0,0
248430,-66.6666666666667,3,2,1,60,0,0
248477,-66.6666666666667,3,2,1,60,0,0
248573,-66.6666666666667,3,2,1,60,0,0
248670,-66.6666666666667,3,2,1,60,0,0
248715,-250,3,2,1,60,0,0
248767,-250,3,2,1,60,0,0
249012,-500,3,2,1,60,0,0
249296,-100,3,2,1,60,0,0
249489,-66.6666666666667,3,2,1,60,0,0
249592,-50,3,2,1,60,0,0
250070,-50,3,2,1,60,0,0
250173,-500,3,2,1,60,0,0
250457,-250,3,2,1,60,0,0
250753,-50,3,2,1,60,0,0
251038,-66.6666666666667,3,2,1,60,0,0
251334,-500,3,2,1,60,0,0
251812,-250,3,2,1,60,0,0
251914,-50,3,2,1,60,0,0
252251,-50,3,2,1,60,0,0
252347,-50,3,2,1,30,0,0
252393,-100,3,2,1,30,0,0
252496,-500,3,2,1,30,0,0
252586,-66.6666666666667,3,2,1,30,0,0
252638,-66.6666666666667,3,2,1,60,0,0
252734,-66.6666666666667,3,2,1,30,0,0
253025,-66.6666666666667,3,2,1,60,0,0
253076,-66.6666666666667,3,2,1,60,0,0
253121,-66.6666666666667,3,2,1,60,0,0
253360,-500,3,2,1,60,0,0
253412,-500,3,2,1,60,0,0
253508,-500,3,2,1,60,0,0
253657,-66.6666666666667,3,2,1,60,0,0
253799,-66.6666666666667,3,2,1,40,0,0
253941,-250,3,2,1,40,0,0
254044,-250,3,2,1,40,0,0
254135,-66.6666666666667,3,2,1,40,0,0
254237,-66.6666666666667,3,2,1,40,0,0
254716,-100,3,2,1,40,0,0
254818,-66.6666666666667,3,2,1,40,0,0
254909,-250,3,2,1,40,0,0
255205,-250,3,2,1,40,0,0
255398,-66.6666666666667,3,2,1,40,0,0
255489,-100,3,2,1,40,0,0
255683,-66.6666666666667,3,2,1,40,0,0
255979,-66.6666666666667,3,2,1,40,0,0
256366,-250,3,2,1,40,0,0
256457,-250,3,2,1,40,0,0
256559,-66.6666666666667,3,2,1,40,0,0
257039,-100,3,2,1,40,0,0
257141,-66.6666666666667,3,2,1,40,0,0
257231,-66.6666666666667,3,2,1,40,0,0
257528,-250,3,2,1,40,0,0
257721,-66.6666666666667,3,2,1,40,0,0
258006,-250,3,2,1,40,0,0
258302,-66.6666666666667,3,2,1,40,0,0
258586,-100,3,2,1,40,0,0
258689,-250,3,2,1,40,0,0
258882,-66.6666666666667,3,2,1,40,0,0
259167,-125,3,2,1,40,0,0
259457,-166.666666666667,3,2,1,40,0,0
259463,-66.6666666666667,3,2,1,40,0,0
259605,-66.6666666666667,3,2,1,40,0,0
259748,-111.111111111111,3,2,1,40,0,0
259850,-250,3,2,1,40,0,0
259941,-250,3,2,1,40,0,0
259992,-250,3,2,1,40,0,0
260043,-66.6666666666667,3,2,1,40,0,0
260328,-66.6666666666667,3,2,1,40,0,0
260625,-66.6666666666667,3,2,1,40,0,0
261012,-250,3,2,1,40,0,0
261102,-250,3,2,1,40,0,0
261205,-66.6666666666667,3,2,1,40,0,0
261683,-100,3,2,1,40,0,0
261786,-66.6666666666667,3,2,1,40,0,0
262173,-250,3,2,1,40,0,0
262366,-66.6666666666667,3,2,1,40,0,0
262651,-250,3,2,1,40,0,0
262947,-133.333333333333,3,2,1,40,0,0
263425,-66.6666666666667,3,2,1,40,0,0
264199,-250,3,2,1,40,0,0
264780,-100,3,2,1,40,0,0
265270,-200,3,2,1,40,0,0
265605,-200,3,2,1,40,0,0
265748,-250,3,2,1,40,0,0
265799,-250,3,2,1,40,0,0
265896,-250,3,2,1,40,0,0
266186,-250,3,2,1,40,0,0
266431,-133.333333333333,3,2,1,40,0,0
266522,-66.6666666666667,3,2,1,40,0,0
266818,-200,3,2,1,40,0,0
267592,-200,3,2,1,40,0,0
268753,-133.333333333333,3,2,1,40,0,0
269140,-66.6666666666667,3,2,1,40,0,0
269915,-200,3,2,1,40,0,0
271463,-133.333333333333,3,2,1,40,0,0
272380,-133.333333333333,3,2,1,50,0,0
273012,-500,3,2,1,50,0,0
273979,-100,3,2,1,50,0,0
274850,-500,3,2,1,50,0,0
275476,-500,3,2,1,50,0,0
275721,-100,3,2,1,50,0,0
276012,-500,3,2,1,50,0,0
276883,-100,3,2,1,50,0,0
277025,-100,3,2,1,50,0,0
277173,-500,3,2,1,50,0,0
277799,-500,3,2,1,50,0,0
278044,-66.6666666666667,3,2,1,50,0,0
278334,-500,3,2,1,50,0,0
278528,-250,3,2,1,50,0,0
278573,-250,3,2,1,80,0,0
279205,-100,3,2,1,80,0,0
279496,-500,3,2,1,80,0,0
279638,-500,3,2,1,80,0,0
279734,-500,3,2,1,80,0,0
279831,-500,3,2,1,80,0,0
279928,-500,3,2,1,80,0,0
280366,-100,3,2,1,80,0,0
280657,-500,3,2,1,80,0,0
281186,-500,3,2,1,80,0,0
281282,-500,3,2,1,80,0,0
281379,-500,3,2,1,80,0,0
281476,-500,3,2,1,80,0,0
281528,-100,3,2,1,80,0,0
281819,-500,3,2,1,80,0,0
282689,-100,3,2,1,80,0,0
282734,-100,3,2,1,80,0,0
282830,-100,3,2,1,80,0,0
282927,-100,3,2,1,80,0,0
283024,-100,3,2,1,80,0,0
283463,-250,3,2,1,80,0,0
283850,-500,3,2,1,80,0,0
284089,-500,3,2,1,80,0,0
284185,-500,3,2,1,80,0,0
284282,-500,3,2,1,80,0,0
284379,-500,3,2,1,80,0,0
284430,-50,3,2,1,80,0,0
285012,-500,3,2,1,80,0,0
285592,-50,3,2,1,80,0,0
285831,-50,3,2,1,80,0,0
285927,-50,3,2,1,80,0,0
286024,-50,3,2,1,80,0,0
286121,-50,3,2,1,80,0,0
286173,-500,3,2,1,80,0,0
286753,-50,3,2,1,80,0,0
287334,-500,3,2,1,80,0,0
287380,-500,3,2,1,80,0,0
287476,-500,3,2,1,80,0,0
287573,-500,3,2,1,80,0,0
287670,-500,3,2,1,80,0,0
287914,-66.6666666666667,3,2,1,80,0,0
288496,-66.6666666666667,3,2,1,80,0,0
288734,-66.6666666666667,3,2,1,80,0,0
288883,-250,3,2,1,80,0,0
289024,-250,3,2,1,80,0,0
289076,-66.6666666666667,3,2,1,80,0,0
289121,-66.6666666666667,3,2,1,80,0,0
289218,-66.6666666666667,3,2,1,80,0,0
289412,-66.6666666666667,3,2,1,60,0,0
289657,-66.6666666666667,3,2,1,60,0,0
290044,-250,3,2,1,60,0,0
290237,-66.6666666666667,3,2,1,60,0,0
290818,-66.6666666666667,3,2,1,60,0,0
290960,-66.6666666666667,3,2,1,80,0,0
291205,-250,3,2,1,80,0,0
291398,-66.6666666666667,3,2,1,80,0,0
292025,-66.6666666666667,3,2,1,80,0,0
292121,-66.6666666666667,3,2,1,80,0,0
292218,-66.6666666666667,3,2,1,80,0,0
292315,-66.6666666666667,3,2,1,80,0,0
293141,-66.6666666666667,3,2,1,80,0,0
293528,-250,3,2,1,80,0,0
293573,-250,3,2,1,80,0,0
293669,-250,3,2,1,80,0,0
293766,-250,3,2,1,80,0,0
293863,-250,3,2,1,80,0,0
293915,-66.6666666666667,3,2,1,80,0,0
294689,-100,3,2,1,80,0,0
295121,-100,3,2,1,80,0,0
295217,-100,3,2,1,80,0,0
295314,-100,3,2,1,80,0,0
295411,-100,3,2,1,80,0,0
295463,-250,3,2,1,80,0,0
295657,-50,3,2,1,80,0,0
295896,-50,3,2,1,80,0,0
296141,-66.6666666666667,3,2,1,80,0,0
296380,-66.6666666666667,3,2,1,80,0,0
296625,-133.333333333333,3,2,1,80,0,0
297786,-66.6666666666667,3,2,1,80,0,0
298173,-250,3,2,1,80,0,0
298218,-250,3,2,1,80,0,0
298314,-250,3,2,1,80,0,0
298411,-250,3,2,1,80,0,0
298508,-250,3,2,1,80,0,0
298560,-66.6666666666667,3,2,1,80,0,0
299334,-100,3,2,1,80,0,0
299767,-100,3,2,1,80,0,0
299863,-100,3,2,1,80,0,0
299960,-100,3,2,1,80,0,0
300108,-250,3,2,1,80,0,0
300250,-250,3,2,1,80,0,0
300302,-50,3,2,1,80,0,0
300786,-66.6666666666667,3,2,1,80,0,0
301270,-133.333333333333,3,2,1,80,0,0
301315,-133.333333333333,3,2,1,80,0,0
301411,-133.333333333333,3,2,1,80,0,0
301508,-133.333333333333,3,2,1,80,0,0
301605,-133.333333333333,3,2,1,80,0,0
301799,-133.333333333333,3,2,1,60,0,0
302044,-100,3,2,1,60,0,0
302141,-100,3,2,1,60,0,0
302189,-250,3,2,1,60,0,0
302237,-100,3,2,1,60,0,0
302286,-250,3,2,1,60,0,0
302334,-100,3,2,1,60,0,0
302383,-250,3,2,1,60,0,0
302431,-66.6666666666667,3,2,1,60,0,0
302915,-133.333333333333,3,2,1,60,0,0
302960,-133.333333333333,3,2,1,70,0,0
303205,-66.6666666666667,3,2,1,70,0,0
303347,-66.6666666666667,3,2,1,85,0,0
303979,-100,3,2,1,85,0,0
304412,-100,3,2,1,85,0,0
304463,-250,3,2,1,85,0,0
304508,-250,3,2,1,85,0,0
304605,-250,3,2,1,85,0,0
304702,-250,3,2,1,85,0,0
304850,-50,3,2,1,85,0,0
305431,-66.6666666666667,3,2,1,85,0,0
305915,-133.333333333333,3,2,1,85,0,0
305960,-133.333333333333,3,2,1,85,0,0
306056,-133.333333333333,3,2,1,85,0,0
306153,-133.333333333333,3,2,1,85,0,0
306250,-133.333333333333,3,2,1,85,0,0
307076,-66.6666666666667,3,2,1,85,0,0
307463,-250,3,2,1,85,0,0
307509,-250,3,2,1,85,0,0
307605,-250,3,2,1,85,0,0
307702,-250,3,2,1,85,0,0
307799,-250,3,2,1,85,0,0
307850,-66.6666666666667,3,2,1,85,0,0
307992,-66.6666666666667,3,2,1,60,0,0
308624,-100,3,2,1,60,0,0
309399,-250,3,2,1,60,0,0
309541,-250,3,2,1,85,0,0
309592,-50,3,2,1,85,0,0
310076,-250,3,2,1,85,0,0
310560,-66.6666666666667,3,2,1,85,0,0
310605,-66.6666666666667,3,2,1,85,0,0
310701,-66.6666666666667,3,2,1,85,0,0
310798,-66.6666666666667,3,2,1,85,0,0
310895,-66.6666666666667,3,2,1,85,0,0
311334,-133.333333333333,3,2,1,85,0,0
312108,-133.333333333333,3,2,1,85,0,0
312154,-133.333333333333,3,2,1,85,0,0
312250,-133.333333333333,3,2,1,85,0,0
312347,-133.333333333333,3,2,1,85,0,0
312444,-133.333333333333,3,2,1,85,0,0
312882,-166.666666666667,3,2,1,85,0,0
313269,-133.333333333333,3,2,1,85,0,0
313509,-133.333333333333,3,2,1,85,0,0
313656,-133.333333333333,3,2,1,85,0,0
313799,-133.333333333333,3,2,1,85,0,0
313896,-133.333333333333,3,2,1,85,0,0
313992,-133.333333333333,3,2,1,85,0,0
314186,-133.333333333333,3,2,1,60,0,0
314430,-166.666666666667,3,2,1,60,0,0
314817,-133.333333333333,3,2,1,60,0,0
315205,-133.333333333333,3,2,1,60,0,0
315734,-133.333333333333,3,2,1,85,0,0
315979,-166.666666666667,3,2,1,85,0,0
316366,-133.333333333333,3,2,1,85,0,0
316753,-133.333333333333,3,2,1,85,0,0
316799,-133.333333333333,3,2,1,85,0,0
316895,-133.333333333333,3,2,1,85,0,0
316992,-133.333333333333,3,2,1,85,0,0
317089,-133.333333333333,3,2,1,85,0,0
317527,-166.666666666667,3,2,1,85,0,0
317914,-66.6666666666667,3,2,1,85,0,0
318301,-133.333333333333,3,2,1,85,0,0
318347,-133.333333333333,3,2,1,85,0,0
318443,-133.333333333333,3,2,1,85,0,0
318540,-133.333333333333,3,2,1,85,0,0
318637,-133.333333333333,3,2,1,85,0,0
319075,-166.666666666667,3,2,1,85,0,0
319462,-133.333333333333,3,2,1,85,0,0
319850,-133.333333333333,3,2,1,85,0,0
319896,-133.333333333333,3,2,1,85,0,0
319992,-133.333333333333,3,2,1,85,0,0
320089,-133.333333333333,3,2,1,85,0,0
320186,-133.333333333333,3,2,1,85,0,0
320380,-133.333333333333,3,2,1,60,0,0
320624,-166.666666666667,3,2,1,60,0,0
321011,-133.333333333333,3,2,1,60,0,0
321398,-133.333333333333,3,2,1,60,0,0
321928,-133.333333333333,3,2,1,85,0,0
322172,-166.666666666667,3,2,1,85,0,0
322559,-133.333333333333,3,2,1,85,0,0
322947,-133.333333333333,3,2,1,85,0,0
322992,-133.333333333333,3,2,1,85,0,0
323088,-133.333333333333,3,2,1,85,0,0
323185,-133.333333333333,3,2,1,85,0,0
323282,-133.333333333333,3,2,1,85,0,0
323721,-66.6666666666667,3,2,1,85,0,0
323914,-100,3,2,1,85,0,0
324495,-100,3,2,1,85,0,0
324541,-100,3,2,1,85,0,0
324638,-100,3,2,1,85,0,0
324734,-100,3,2,1,85,0,0
325076,-66.6666666666667,3,2,1,85,0,0
325269,-250,3,2,1,85,0,0
326043,-100,3,2,1,85,0,0
326185,-100,3,2,1,85,0,0
326282,-100,3,2,1,85,0,0
326379,-100,3,2,1,85,0,0
326624,-66.6666666666667,3,2,1,85,0,0
326670,-66.6666666666667,3,2,1,85,0,0
326818,-250,3,2,1,85,0,0
326960,-250,3,2,1,85,0,0
327057,-250,3,2,1,85,0,0
327347,-250,3,2,1,85,0,0
327592,-100,3,2,1,85,0,0
328121,-100,3,2,1,50,0,0
328172,-66.6666666666667,3,2,1,50,0,0
328366,-250,3,2,1,50,0,0
329140,-100,3,2,1,50,0,0
329720,-66.6666666666667,3,2,1,50,0,0
329914,-250,3,2,1,50,0,0
330204,-166.666666666667,3,2,1,50,0,0
330495,-100,3,2,1,50,0,0
330689,-100,3,2,1,50,0,0
331269,-66.6666666666667,3,2,1,50,0,0
331753,-250,3,2,1,50,0,0
332185,-250,3,2,1,50,0,0
332237,-100,3,2,1,50,0,0
332379,-100,3,2,1,50,0,0
332572,-100,3,2,1,50,0,0
332766,-100,3,2,1,50,0,0
332817,-66.6666666666667,3,2,1,50,0,0
333301,-250,3,2,1,50,0,0
333733,-250,3,2,1,30,0,0
333785,-100,3,2,1,30,0,0
333927,-100,3,2,1,50,0,0
334463,-133.333333333333,3,2,1,50,0,0
334895,-133.333333333333,3,2,1,30,0,0
335088,-133.333333333333,3,2,1,50,0,0
335140,-117.647058823529,3,2,1,50,0,0
336056,-117.647058823529,3,2,1,30,0,0
336250,-117.647058823529,3,2,1,50,0,0
336830,-117.647058823529,3,2,1,50,0,0
336882,-66.6666666666667,3,2,1,50,0,0
337024,-66.6666666666667,3,2,1,50,0,0
337217,-66.6666666666667,3,2,1,50,0,0
337411,-66.6666666666667,3,2,1,60,0,0
337656,-250,3,2,1,60,0,0
338237,-100,3,2,1,60,0,0
338430,-66.6666666666667,3,2,1,60,0,0
339011,-50,3,2,1,60,0,0
339398,-250,3,2,1,60,0,0
339979,-66.6666666666667,3,2,1,60,0,0
340753,-250,3,2,1,60,0,0
341334,-100,3,2,1,60,0,0
341527,-66.6666666666667,3,2,1,60,0,0
341766,-66.6666666666667,3,2,1,60,0,0
341862,-66.6666666666667,3,2,1,60,0,0
341959,-66.6666666666667,3,2,1,60,0,0
342056,-66.6666666666667,3,2,1,60,0,0
342301,-500,3,2,1,60,0,0
342882,-250,3,2,1,60,0,0
343076,-66.6666666666667,3,2,1,60,0,0
343657,-100,3,2,1,60,0,0
343850,-250,3,2,1,60,0,0
344430,-100,3,2,1,60,0,0
344624,-66.6666666666667,3,2,1,60,0,0
344766,-66.6666666666667,3,2,1,60,0,0
345398,-250,3,2,1,60,0,0
345540,-250,3,2,1,50,0,0
345980,-100,3,2,1,50,0,0
346172,-66.6666666666667,3,2,1,50,0,0
346701,-66.6666666666667,3,2,1,40,0,0
346947,-250,3,2,1,40,0,0
347527,-100,3,2,1,40,0,0
348108,-125,3,2,1,40,0,0
348398,-166.666666666667,3,2,1,40,0,0
348689,-111.111111111111,3,2,1,40,0,0
348882,-250,3,2,1,40,0,0
349269,-66.6666666666667,3,2,1,40,0,0
350043,-250,3,2,1,40,0,0
350571,-250,3,2,1,60,0,0
350624,-100,3,2,1,60,0,0
351592,-250,3,2,1,60,0,0
352366,-66.6666666666667,3,2,1,60,0,0
353140,-250,3,2,1,60,0,0
353721,-100,3,2,1,60,0,0
354442,-100,3,2,1,60,0,0
354689,-250,3,2,1,60,0,0
355463,-66.6666666666667,3,2,1,60,0,0
363560,-10,3,2,1,60,0,0
363660,-1000,3,2,1,60,0,0
497441,-10,3,2,1,60,0,0
497541,-1000,3,2,1,60,0,0
586382,-10,3,2,1,60,0,0
586482,-1000,3,2,1,60,0,0

[Colours]
Combo1 : 126,184,171
Combo2 : 193,172,153
Combo3 : 210,117,106
Combo4 : 173,150,164

[HitObjects]
413,173,835,5,2,3:2:0:0:
308,20,1029,2,0,L|306:-3,1,20,0|0,0:0|3:0,0:0:0:0:
226,187,1222,2,0,L|208:200,1,20,8|0,0:0|3:0,0:0:0:0:
360,94,1417,6,0,P|327:130|318:178,1,100,4|0,0:0|3:0,0:0:0:0:
391,229,1707,2,0,L|411:227,1,20,0|0,0:0|3:0,0:0:0:0:
493,218,1997,2,0,L|511:216,2,20,0|0|0,3:0|0:0|0:0,0:0:0:0:
348,146,2481,5,0,3:0:0:0:
348,146,2578,2,0,P|381:182|390:232,1,100,8|0,0:0|3:0,0:0:0:0:
319,281,2868,2,0,L|299:279,1,20,4|4,0:0|3:0,0:0:0:0:
217,269,3158,2,0,L|198:267,2,20,2|2|2,3:2|3:0|3:0,0:0:0:0:
362,200,3642,5,2,3:0:0:0:
362,200,3739,2,0,P|329:235|320:285,1,100,0|0,0:0|0:0,0:0:0:0:
391,334,4029,2,0,L|411:332,1,20,0|0,3:0|3:0,0:0:0:0:
493,322,4320,2,0,L|512:320,2,20,2|4|0,3:2|3:1|0:0,0:0:0:0:
349,249,4804,5,0,3:0:0:0:
349,249,4900,2,0,P|382:284|391:334,1,100,8|0,1:0|1:0,0:0:0:0:
319,383,5190,2,0,L|299:382,1,20,0|0,1:0|1:0,0:0:0:0:
216,375,5481,6,0,L|129:367,1,75.0000028610231,2|0,1:2|0:0,0:0:0:0:
66,300,5675,5,0,0:0:0:0:
65,277,5771,1,0,1:0:0:0:
63,255,5868,1,0,0:0:0:0:
61,232,5965,1,8,0:0:0:0:
31,139,6062,6,0,P|106:147|153:196,1,100,0|0,1:0|1:0,0:0:0:0:
208,216,6352,2,0,L|211:192,1,20,10|10,0:0|3:0,0:0:0:0:
194,107,6642,1,0,1:0:0:0:
194,107,6836,2,0,L|192:88,1,20,0|0,0:0|0:0,0:0:0:0:
384,160,7126,5,0,0:0:0:0:
384,160,7223,2,0,P|312:170|265:219,1,100,8|0,1:0|1:0,0:0:0:0:
209,239,7513,2,0,L|207:215,1,20,0|0,0:0|3:0,0:0:0:0:
224,130,7804,1,2,1:2:0:0:
224,130,7997,2,0,L|226:110,1,20,0|0,3:0|3:0,0:0:0:0:
33,179,8287,5,0,3:0:0:0:
33,179,8384,2,0,P|106:189|153:238,1,100,0|0,1:0|1:0,0:0:0:0:
208,258,8674,2,0,L|211:234,1,20,0|0,3:0|3:0,0:0:0:0:
199,142,8965,6,0,L|198:128,1,10,2|0,1:2|0:0,0:0:0:0:
193,149,9158,2,0,L|192:129,1,20,4|0,3:1|1:0,0:0:0:0:
385,198,9449,5,0,0:0:0:0:
385,198,9546,2,0,P|313:208|266:257,1,100,4|0,1:0|1:0,0:0:0:0:
210,277,9836,2,0,L|208:253,1,20,4|4,1:0|1:0,0:0:0:0:
225,168,10126,6,0,L|235:72,1,75.0000028610231,2|0,1:2|0:0,0:0:0:0:
312,19,10320,5,0,0:0:0:0:
335,20,10416,1,0,1:0:0:0:
357,22,10513,1,0,0:0:0:0:
380,24,10610,1,0,0:0:0:0:
470,0,10707,6,0,P|465:65|417:105,1,100,0|8,1:0|0:0,0:0:0:0:
360,131,10997,2,0,L|358:107,1,20,8|8,0:0|3:0,0:0:0:0:
367,210,11287,1,0,1:0:0:0:
353,31,11481,2,0,L|351:7,1,20,0|0,0:0|0:0,0:0:0:0:
241,80,11771,5,0,0:0:0:0:
241,80,11868,2,0,P|246:145|294:185,1,100,0|8,1:0|0:0,0:0:0:0:
351,211,12158,2,0,L|354:187,1,20,12|12,0:0|3:0,0:0:0:0:
344,290,12448,1,2,1:2:0:0:
359,111,12642,2,0,L|361:87,1,20,0|0,3:0|3:0,0:0:0:0:
471,160,12933,5,0,3:0:0:0:
471,160,13029,2,0,P|466:225|418:265,1,100,2|8,1:0|0:0,0:0:0:0:
361,291,13319,2,0,L|359:267,1,20,0|0,0:0|3:0,0:0:0:0:
368,379,13610,2,0,L|366:361,1,10,2|0,1:2|0:0,0:0:0:0:
353,191,13804,2,0,L|351:159,2,20,4|0|0,1:0|0:0|1:0,0:0:0:0:
241,240,14094,5,0,1:0:0:0:
241,240,14191,1,4,0:0:0:0:
91,196,14384,5,0,1:0:0:0:
147,179,14481,1,0,1:0:0:0:
203,196,14578,1,0,1:0:0:0:
241,240,14674,1,0,1:0:0:0:
168,379,14868,5,0,0:0:0:0:
95,368,14964,1,0,0:0:0:0:
44,314,15061,1,0,1:0:0:0:
36,240,15158,1,0,0:0:0:0:
77,178,15255,1,0,0:0:0:0:
147,155,15352,6,0,P|223:121|236:68,1,100,0|8,1:0|0:0,0:0:0:0:
152,60,15642,2,0,L|155:83,1,20,0|0,0:0|3:0,0:0:0:0:
72,118,15933,1,0,1:2:0:0:
236,35,16126,2,0,L|238:11,1,20,0|0,0:0|0:0,0:0:0:0:
323,183,16416,5,0,0:0:0:0:
323,183,16513,2,0,P|247:149|234:96,1,100,0|8,1:2|0:0,0:0:0:0:
321,79,16803,2,0,L|319:102,1,20,0|0,0:0|3:0,0:0:0:0:
401,137,17094,1,2,1:2:0:0:
237,54,17287,2,0,L|235:30,1,20,0|0,3:0|3:0,0:0:0:0:
147,203,17578,5,0,3:0:0:0:
147,203,17675,2,0,P|223:169|236:116,1,100,0|8,1:0|0:0,0:0:0:0:
149,99,17965,2,0,L|152:122,1,20,0|0,0:0|3:0,0:0:0:0:
69,157,18255,2,0,L|68:144,1,10,2|0,0:0|0:0,0:0:0:0:
234,73,18449,2,0,L|236:54,2,20,4|0|0,1:0|0:0|1:0,0:0:0:0:
323,222,18739,5,0,1:0:0:0:
323,222,18836,1,0,0:0:0:0:
430,280,19029,5,2,1:2:0:0:
404,243,19125,1,0,0:0:0:0:
364,225,19222,1,0,0:0:0:0:
323,227,19319,1,0,0:0:0:0:
63,350,19513,5,2,0:0:0:0:
136,333,19609,1,2,1:2:0:0:
190,285,19706,1,2,1:2:0:0:
212,216,19804,2,0,L|207:168,1,25,0|0,0:0|0:0,0:0:0:0:
88,40,19997,5,2,1:2:0:0:
108,159,20093,1,2,0:0:0:0:
212,216,20190,1,2,1:2:0:0:
322,170,20286,1,6,0:0:0:0:
221,222,20577,5,2,1:2:0:0:
317,179,20673,1,2,1:2:0:0:
401,241,20771,1,2,1:2:0:0:
390,346,20867,1,2,0:2:0:0:
381,339,21158,5,0,0:0:0:0:
390,246,21255,1,0,1:0:0:0:
398,153,21351,2,0,L|401:122,1,20,0|0,0:0|0:0,0:0:0:0:
89,191,21545,6,0,L|91:212,1,20,8|8,0:0|0:0,0:0:0:0:
210,110,21835,2,0,L|228:119,1,20,0|0,0:0|0:0,0:0:0:0:
231,384,22125,2,0,P|225:285|179:197,2,200,2|0|0,1:2|0:0|0:0,0:0:0:0:
311,194,22706,6,0,L|313:172,1,20,10|8,0:0|0:0,0:0:0:0:
427,354,22996,2,0,L|454:355,1,20,0|0,0:0|0:0,0:0:0:0:
484,87,23286,2,0,P|420:162|395:258,2,200,2|0|0,1:2|0:0|0:0,0:0:0:0:
185,123,23867,6,0,L|187:142,1,20,8|8,0:0|0:0,0:0:0:0:
393,278,24157,2,0,L|395:258,1,20,0|0,0:0|0:0,0:0:0:0:
124,223,24448,2,0,P|181:242|316:203,2,200,0|0|0,1:0|1:0|0:0,0:0:0:0:
186,103,25028,6,0,L|184:123,1,20,0|0,1:0|1:0,0:0:0:0:
254,346,25319,2,0,L|256:370,1,20,0|0,1:0|1:0,0:0:0:0:
500,163,25609,6,0,P|464:172|427:170,1,75.0000028610231,6|0,1:2|0:0,0:0:0:0:
331,42,25803,5,0,0:0:0:0:
287,31,25900,1,0,1:0:0:0:
251,35,25997,1,0,0:0:0:0:
230,51,26093,1,0,0:0:0:0:
187,142,26190,6,0,L|185:162,1,20,8|8,0:0|0:0,0:0:0:0:
96,350,26480,2,0,L|94:331,1,20,0|0,0:0|0:0,0:0:0:0:
344,293,26770,2,0,P|256:246|133:275,2,200,2|0|0,1:2|0:0|0:0,0:0:0:0:
223,55,27351,6,0,L|247:53,1,20,10|8,0:0|0:0,0:0:0:0:
424,46,27641,2,0,L|400:44,1,20,0|0,0:0|0:0,0:0:0:0:
344,293,27932,2,0,P|357:165|305:80,2,200,2|0|0,1:2|0:0|0:0,0:0:0:0:
226,28,28512,6,0,L|228:5,1,20,8|8,0:0|0:0,0:0:0:0:
107,232,28803,2,0,L|104:212,1,20,0|2,0:0|1:2,0:0:0:0:
0,65,29093,2,0,P|99:122|240:66,2,200,2|2|0,1:2|1:2|0:0,0:0:0:0:
157,0,29674,6,0,L|156:19,1,20,2|2,1:2|1:2,0:0:0:0:
212,300,29964,2,0,L|213:280,1,20,2|2,1:2|1:2,0:0:0:0:
401,157,30254,6,0,P|354:163|304:136,1,75.0000028610231,6|0,1:2|0:0,0:0:0:0:
192,72,30448,5,8,0:0:0:0:
215,61,30545,1,0,0:0:0:0:
254,56,30642,1,0,1:0:0:0:
297,71,30739,1,0,0:0:0:0:
329,155,30835,6,0,L|316:286,1,75.0000028610231,10|0,0:0|0:0,0:0:0:0:
121,289,31028,1,0,1:0:0:0:
121,289,31125,1,2,0:0:0:0:
121,289,31222,2,0,L|120:270,1,20,8|0,0:0|1:0,0:0:0:0:
223,223,31415,6,0,P|204:192|174:170,1,75.0000028610231,2|0,1:2|0:0,0:0:0:0:
27,202,31609,2,0,P|10:234|6:271,1,75.0000028610231,10|2,0:0|0:0,0:0:0:0:
106,382,31803,2,0,P|143:380|177:365,1,75.0000028610231,0|0,1:0|0:0,0:0:0:0:
297,216,31996,6,0,L|177:227,1,75.0000028610231,10|0,0:0|0:0,0:0:0:0:
96,88,32190,1,0,1:0:0:0:
96,88,32287,1,2,0:0:0:0:
96,88,32384,2,0,L|127:90,1,20,8|0,0:0|0:0,0:0:0:0:
136,280,32577,6,0,P|120:232|128:184,1,75.0000028610231,2|0,1:2|0:0,0:0:0:0:
297,216,32770,2,0,P|253:189|229:147,1,75.0000028610231,8|0,0:0|0:0,0:0:0:0:
379,63,32964,2,0,P|328:70|283:54,1,75.0000028610231,0|0,1:0|0:0,0:0:0:0:
400,288,33157,6,0,L|408:192,1,75.0000028610231,10|0,0:0|0:0,0:0:0:0:
237,150,33351,1,0,1:0:0:0:
237,150,33448,1,2,0:0:0:0:
237,150,33545,2,0,L|239:170,1,20,8|0,0:0|1:0,0:0:0:0:
160,280,33738,6,0,P|152:232|168:192,1,75.0000028610231,2|0,1:2|0:0,0:0:0:0:
390,171,33932,2,0,P|352:201|309:208,1,75.0000028610231,10|2,0:0|0:0,0:0:0:0:
181,26,34125,2,0,P|226:43|253:76,1,75.0000028610231,2|0,1:2|0:0,0:0:0:0:
326,207,34319,6,0,L|230:215,1,75.0000028610231,8|0,0:0|0:0,0:0:0:0:
123,384,34512,1,0,1:0:0:0:
123,384,34609,1,2,1:2:0:0:
123,384,34706,2,0,L|140:358,1,20,10|2,0:2|1:2,0:0:0:0:
154,187,34899,6,0,P|149:223|160:259,1,75.0000028610231,6|0,1:2|0:0,0:0:0:0:
244,96,35093,5,10,0:0:0:0:
228,82,35190,1,0,0:0:0:0:
204,69,35286,1,0,1:0:0:0:
170,63,35383,1,0,0:0:0:0:
80,112,35480,6,0,L|0:105,1,75.0000028610231,10|0,0:0|0:0,0:0:0:0:
251,213,35674,1,0,1:0:0:0:
251,213,35771,1,0,0:0:0:0:
251,213,35868,2,0,L|282:211,1,20,10|0,0:0|1:0,0:0:0:0:
176,272,36061,6,0,P|200:336|248:352,1,75.0000028610231,2|0,1:2|0:0,0:0:0:0:
237,118,36254,2,0,P|169:106|131:140,1,75.0000028610231,8|0,0:0|0:0,0:0:0:0:
339,247,36448,2,0,P|382:194|372:144,1,75.0000028610231,2|0,1:2|0:0,0:0:0:0:
328,8,36641,6,0,L|337:119,1,75.0000028610231,10|2,0:0|0:0,0:0:0:0:
488,208,36835,1,2,1:2:0:0:
488,208,36932,1,0,0:0:0:0:
488,208,37028,2,0,L|490:176,1,20,10|0,0:0|0:0,0:0:0:0:
394,260,37222,6,0,P|380:226|382:189,1,75.0000028610231,2|0,1:2|0:0,0:0:0:0:
286,297,37415,2,0,P|256:275|239:243,1,75.0000028610231,8|0,0:0|0:0,0:0:0:0:
209,384,37609,2,0,P|172:379|141:360,1,75.0000028610231,0|0,1:0|0:0,0:0:0:0:
63,256,37803,6,0,L|137:263,1,75.0000028610231,8|2,0:0|0:0,0:0:0:0:
282,157,37996,1,0,1:0:0:0:
282,157,38093,1,0,0:0:0:0:
282,157,38190,2,0,L|259:159,1,20,10|0,0:2|1:0,0:0:0:0:
230,314,38383,6,0,P|226:276|239:241,1,75.0000028610231,2|0,1:2|0:0,0:0:0:0:
172,33,38577,2,0,P|206:48|230:77,1,75.0000028610231,8|2,0:0|0:0,0:0:0:0:
444,123,38770,2,0,P|413:145|376:151,1,75.0000028610231,0|2,1:0|0:0,0:0:0:0:
139,198,38964,6,0,L|132:123,1,75.0000028610231,10|0,0:0|0:0,0:0:0:0:
328,48,39157,1,0,1:0:0:0:
328,48,39254,1,2,1:2:0:0:
328,48,39351,2,0,L|325:79,1,20,10|10,0:0|1:2,0:0:0:0:
99,31,39544,6,0,P|135:23|172:33,1,75.0000028610231,2|0,1:0|0:0,0:0:0:0:
315,165,39738,5,0,0:0:0:0:
299,163,39834,1,0,0:0:0:0:
275,161,39931,1,0,0:0:0:0:
244,158,40028,1,0,0:0:0:0:
139,198,40125,6,0,L|83:202,3,37.5000014305115,0|0|0|0,0:0|0:0|0:0|0:0,0:0:0:0:
224,256,40512,2,0,L|261:259,3,37.5000014305115,0|0|0|0,0:0|0:0|0:0|0:0,0:0:0:0:
152,320,40899,1,0,0:0:0:0:
152,320,40996,1,0,0:0:0:0:
336,320,41190,6,0,P|360:272|352:224,1,75.0000028610231,0|0,0:0|0:0,0:0:0:0:
304,168,41480,2,0,L|299:120,1,37.5000014305115,0|0,0:0|0:0,0:0:0:0:
368,64,41674,6,0,L|363:16,3,37.5000014305115,0|0|2|0,0:0|0:0|0:0|0:0,0:0:0:0:
446,118,42061,1,0,0:0:0:0:
446,118,42157,2,0,L|449:155,1,37.5000014305115,0|2,0:0|0:0,0:0:0:0:
272,40,42351,5,0,0:0:0:0:
272,40,42448,2,0,P|216:40|168:8,2,100,2|0|0,0:0|0:0|3:0,0:0:0:0:
93,72,43609,2,0,P|90:22|64:-19,1,75.0000028610231,0|0,0:0|0:0,0:0:0:0:
180,121,43996,2,0,P|139:148|111:241,1,150,0|2,0:0|0:0,0:0:0:0:
4,298,44770,6,0,P|68:323|86:387,2,100,2|0|0,0:0|0:0|3:0,0:0:0:0:
229,163,45932,2,0,P|181:219|110:240,1,150.000005722046,0|0,1:0|0:0,0:0:0:0:
168,384,46512,6,0,P|171:345|194:309,1,75,2|0,0:0|0:0,0:0:0:0:
310,256,46706,5,0,0:0:0:0:
321,256,46802,1,0,0:0:0:0:
332,257,46899,1,2,0:0:0:0:
343,258,46996,1,0,0:0:0:0:
353,259,47093,6,0,P|350:207|316:165,2,100,2|0|0,0:0|0:0|0:0,0:0:0:0:
364,84,48254,2,0,P|319:62|269:60,2,100,0|0|2,0:0|0:0|0:0,0:0:0:0:
200,0,49415,6,0,P|170:27|154:65,1,75.0000028610231,2|2,0:0|0:0,0:0:0:0:
192,226,49803,2,0,P|182:186|158:153,1,75.0000028610231,0|0,0:0|0:0,0:0:0:0:
73,110,50190,6,0,L|34:108,2,40,4|0|0,0:1|1:0|0:0,0:0:0:0:
155,57,51157,6,0,P|185:48|227:50,1,50,6|0,1:2|0:0,0:0:0:0:
279,109,51351,5,0,0:0:0:0:
280,118,51447,1,0,1:0:0:0:
281,128,51544,1,0,0:0:0:0:
282,138,51641,1,0,0:0:0:0:
283,148,51738,6,0,P|345:167|377:223,1,100,0|8,1:0|0:0,0:0:0:0:
457,215,52028,2,0,L|454:238,1,20,0|0,0:0|0:0,0:0:0:0:
378,283,52319,1,0,1:0:0:0:
354,65,52512,2,0,L|356:46,1,20,2|0,0:0|0:0,0:0:0:0:
366,192,52899,6,0,P|304:211|272:267,1,100,0|10,1:0|0:0,0:0:0:0:
192,259,53190,2,0,L|194:282,1,20,0|0,0:0|0:0,0:0:0:0:
271,327,53480,1,2,1:2:0:0:
294,110,53674,2,0,L|292:90,1,20,0|0,0:0|0:0,0:0:0:0:
282,236,54061,6,0,P|344:255|376:311,1,100,2|10,1:2|0:0,0:0:0:0:
456,303,54351,2,0,L|453:326,1,20,0|0,0:0|0:0,0:0:0:0:
377,371,54642,1,0,1:0:0:0:
353,153,54835,2,0,L|355:134,1,20,2|2,1:2|1:2,0:0:0:0:
365,280,55222,5,0,0:0:0:0:
209,247,55415,2,0,P|281:223|337:239,1,75.0000028610231,0|0,1:0|1:0,0:0:0:0:
365,280,55609,1,0,1:0:0:0:
365,280,55706,2,0,L|362:303,1,20,0|2,1:0|1:2,0:0:0:0:
432,360,55899,5,0,0:0:0:0:
475,336,55995,1,0,0:0:0:0:
503,296,56092,1,0,1:0:0:0:
510,246,56189,1,0,0:0:0:0:
492,200,56286,1,0,0:0:0:0:
456,167,56383,6,0,P|388:151|325:177,1,100,0|8,1:0|0:0,0:0:0:0:
268,96,56674,2,0,L|295:98,1,20,0|0,0:0|0:0,0:0:0:0:
372,64,56964,1,0,1:2:0:0:
269,193,57157,2,0,L|250:192,1,20,2|0,0:0|0:0,0:0:0:0:
81,262,57544,6,0,P|148:246|212:271,1,100,0|10,1:0|0:0,0:0:0:0:
269,190,57835,2,0,L|241:192,1,20,0|0,0:0|0:0,0:0:0:0:
165,158,58125,1,2,1:2:0:0:
267,288,58318,2,0,L|286:286,1,20,0|0,0:0|0:0,0:0:0:0:
456,355,58706,6,0,P|388:339|324:364,1,100,0|10,1:0|0:2,0:0:0:0:
268,283,58997,2,0,L|295:285,1,20,0|0,0:0|0:0,0:0:0:0:
372,251,59287,1,2,1:2:0:0:
270,381,59480,2,0,L|250:379,1,20,0|0,1:0|1:0,0:0:0:0:
81,262,59867,5,0,0:0:0:0:
92,358,60061,2,0,P|145:335|160:313,1,50,0|0,1:0|1:0,0:0:0:0:
179,259,60255,1,0,1:0:0:0:
179,259,60351,2,0,L|274:250,1,50,0|6,1:0|1:2,0:0:0:0:
97,189,60544,5,0,0:2:0:0:
76,284,60640,1,0,0:0:0:0:
141,358,60737,1,2,1:2:0:0:
241,349,60835,2,0,L|278:345,1,20,0|0,0:2|0:0,0:0:0:0:
349,189,61028,6,0,L|317:186,1,20,10|8,0:2|0:2,0:0:0:0:
490,304,61319,2,0,L|471:330,1,20,0|0,0:0|0:0,0:0:0:0:
450,66,61609,2,0,P|462:163|414:249,2,200,2|0|0,1:2|0:0|0:2,0:0:0:0:
332,295,62190,6,0,L|329:271,1,20,10|8,0:0|0:0,0:0:0:0:
216,106,62480,2,0,L|214:125,1,20,0|0,0:0|0:0,0:0:0:0:
240,352,62770,2,0,P|237:255|320:169,2,200,2|0|0,1:2|0:0|0:0,0:0:0:0:
132,198,63351,6,0,L|155:200,1,20,10|8,0:0|0:0,0:0:0:0:
323,83,63641,2,0,L|299:85,1,20,0|0,0:0|0:0,0:0:0:0:
38,82,63932,2,0,P|134:74|222:138,2,200,2|0|0,1:2|1:0|0:0,0:0:0:0:
319,180,64512,6,0,L|295:177,1,20,0|0,1:0|1:0,0:0:0:0:
129,365,64803,2,0,L|148:363,1,20,0|0,1:0|1:0,0:0:0:0:
289,276,65093,6,0,P|309:321|305:370,1,75.0000028610231,6|0,1:2|0:0,0:0:0:0:
145,177,65286,5,10,0:0:0:0:
143,157,65382,1,0,0:0:0:0:
152,127,65479,1,0,1:2:0:0:
183,98,65576,1,2,0:0:0:0:
288,80,65674,6,0,L|383:88,1,75.0000028610231,10|0,0:0|0:0,0:0:0:0:
145,177,65867,1,0,1:0:0:0:
145,177,65964,1,0,0:0:0:0:
145,177,66061,2,0,L|121:174,1,20,8|0,0:2|1:2,0:0:0:0:
109,85,66254,6,0,P|48:77|11:99,1,75.0000028610231,2|0,1:2|0:0,0:0:0:0:
209,204,66447,2,0,P|245:155|245:112,1,75.0000028610231,8|2,0:0|0:0,0:0:0:0:
56,232,66641,2,0,P|80:288|117:309,1,75.0000028610231,0|0,1:0|0:0,0:0:0:0:
190,376,66835,6,0,L|183:301,1,75.0000028610231,10|0,0:0|0:0,0:0:0:0:
340,150,67028,1,2,1:2:0:0:
340,150,67125,1,2,0:0:0:0:
340,150,67222,2,0,L|337:181,1,20,8|0,0:0|0:0,0:0:0:0:
172,204,67415,6,0,P|208:193|245:199,1,75.0000028610231,2|0,1:2|0:0,0:0:0:0:
283,336,67609,2,0,P|291:299|314:270,1,75.0000028610231,8|0,0:0|0:0,0:0:0:0:
451,306,67803,2,0,P|423:280|409:246,1,75.0000028610231,2|0,1:2|0:0,0:0:0:0:
512,145,67996,6,0,L|502:248,1,75.0000028610231,10|0,0:0|0:0,0:0:0:0:
255,103,68190,1,0,1:2:0:0:
255,103,68286,1,2,0:0:0:0:
255,103,68383,2,0,L|252:79,1,20,8|0,0:0|1:2,0:0:0:0:
138,18,68577,6,0,P|186:14|232:-25,1,75.0000028610231,6|0,1:2|0:0,0:0:0:0:
257,234,68770,2,0,P|229:194|172:174,1,75.0000028610231,0|0,1:0|1:0,0:0:0:0:
384,23,68964,2,0,P|363:66|374:125,1,75.0000028610231,6|0,1:2|1:0,0:0:0:0:
512,184,69157,6,0,L|392:173,1,75.0000028610231,0|0,1:0|1:0,0:0:0:0:
84,277,69351,5,6,1:2:0:0:
84,277,69448,1,0,1:0:0:0:
84,277,69544,2,0,L|203:266,1,75.0000028610231,0|0,1:0|1:0,0:0:0:0:
448,321,69738,5,4,0:1:0:0:
448,321,69835,1,0,0:0:0:0:
448,321,69931,2,0,L|328:310,1,75.0000028610231,10|0,0:0|0:0,0:0:0:0:
261,323,70125,2,0,P|265:283|283:254,2,50.0000019073487,2|0|0,1:2|0:0|0:0,0:0:0:0:
208,176,70319,6,0,L|200:88,1,75.0000028610231,8|0,0:0|0:0,0:0:0:0:
351,223,70512,2,0,L|358:135,1,75.0000028610231,0|2,1:2|0:0,0:0:0:0:
208,176,70706,1,8,0:0:0:0:
208,176,70803,1,2,1:2:0:0:
208,176,70899,2,0,L|205:152,1,20,2|0,1:2|0:0,0:0:0:0:
135,205,71093,5,10,0:0:0:0:
135,205,71190,2,0,P|159:253|203:272,1,75.0000028610231,0|0,0:0|1:0,0:0:0:0:
201,70,71383,1,0,0:0:0:0:
201,70,71480,2,0,P|147:66|108:95,1,75.0000028610231,10|0,0:0|0:0,0:0:0:0:
284,194,71674,2,0,P|313:149|308:101,1,75.0000028610231,2|0,1:2|0:0,0:0:0:0:
175,264,71867,6,0,L|185:359,1,50,8|0,0:0|0:0,0:0:0:0:
129,75,72061,2,0,L|41:35,1,50,2|0,1:2|0:0,0:0:0:0:
315,129,72254,2,0,L|392:72,1,50,10|2,0:0|0:0,0:0:0:0:
477,173,72448,5,0,0:0:0:0:
477,173,72641,6,0,L|445:170,1,20,10|0,0:0|0:0,0:0:0:0:
330,241,72835,2,0,P|404:193|512:199,2,200,0|10|2,1:0|0:0|1:2,0:0:0:0:
333,337,73319,5,0,0:0:0:0:
333,337,73415,2,0,L|452:347,1,75.0000028610231,8|0,0:0|0:0,0:0:0:0:
161,227,73609,2,0,L|41:237,1,75.0000028610231,2|0,1:2|0:0,0:0:0:0:
350,202,73803,5,10,0:0:0:0:
350,202,73899,1,0,0:0:0:0:
350,202,73996,2,0,L|346:241,1,37.5000014305115,2|0,1:2|1:0,0:0:0:0:
144,92,74190,5,8,0:0:0:0:
144,92,74286,1,0,1:0:0:0:
144,92,74383,2,0,L|147:131,1,37.5000014305115,0|0,1:2|0:0,0:0:0:0:
371,39,74577,5,10,0:0:0:0:
369,50,74673,1,0,0:0:0:0:
368,66,74770,1,2,1:2:0:0:
366,86,74867,1,0,0:0:0:0:
424,208,74964,6,0,L|328:199,1,75.0000028610231,8|0,0:0|0:0,0:0:0:0:
366,86,75157,2,0,L|270:94,1,75.0000028610231,0|2,1:2|0:0,0:0:0:0:
251,188,75351,1,8,0:0:0:0:
251,188,75448,1,2,1:2:0:0:
251,188,75544,2,0,L|219:185,1,20,2|0,1:2|0:0,0:0:0:0:
141,103,75738,5,10,0:0:0:0:
141,102,75835,2,0,P|132:139|138:175,1,75.0000028610231,0|0,0:0|1:0,0:0:0:0:
251,188,76028,1,0,0:0:0:0:
251,188,76125,2,0,P|279:213|313:227,1,75.0000028610231,10|0,0:0|0:0,0:0:0:0:
380,135,76319,2,0,P|416:123|445:100,1,75.0000028610231,2|0,1:2|0:0,0:0:0:0:
137,175,76512,6,0,L|69:207,1,50,8|0,0:0|0:0,0:0:0:0:
313,227,76706,2,0,L|307:301,1,50,2|0,1:2|0:0,0:0:0:0:
445,100,76899,2,0,L|507:141,1,50,10|0,0:0|0:0,0:0:0:0:
200,96,77093,5,0,1:0:0:0:
200,96,77286,6,0,L|223:93,1,20,10|0,0:0|0:0,0:0:0:0:
312,16,77480,2,0,P|216:73|99:53,2,200,0|10|6,1:0|0:0|1:2,0:0:0:0:
445,100,77964,5,0,0:0:0:0:
445,100,78061,2,0,L|325:89,1,75.0000028610231,0|0,1:0|1:0,0:0:0:0:
184,168,78254,2,0,L|303:157,1,75.0000028610231,6|0,1:2|1:0,0:0:0:0:
432,192,78448,6,0,L|436:247,3,37.5000014305115,2|0|6|0,1:2|1:0|1:2|1:0,0:0:0:0:
264,272,78835,5,0,1:0:0:0:
264,272,78932,1,0,1:0:0:0:
264,272,79028,2,0,L|259:327,1,37.5000014305115,4|0,0:1|0:0,0:0:0:0:
96,224,79222,5,10,0:0:0:0:
103,223,79319,2,0,L|106:260,1,25,0|0,0:0|0:0,0:0:0:0:
111,222,79415,2,0,L|114:259,1,25,0|0,1:0|0:0,0:0:0:0:
119,221,79512,2,0,L|122:258,1,25,0|0,0:0|0:0,0:0:0:0:
194,160,79609,6,0,P|169:133|132:118,1,75.0000028610231,10|0,0:0|0:0,0:0:0:0:
358,207,79803,2,0,P|380:179|416:162,1,75.0000028610231,0|2,1:2|0:0,0:0:0:0:
264,272,79996,1,8,0:0:0:0:
264,272,80093,1,2,1:2:0:0:
264,272,80190,2,0,L|260:232,1,37.5000014305115,2|0,1:2|0:0,0:0:0:0:
332,371,80383,5,10,0:2:0:0:
332,371,80480,2,0,P|356:325|353:284,1,75.0000028610231,0|0,0:0|1:0,0:0:0:0:
144,281,80673,1,0,0:0:0:0:
144,281,80770,2,0,P|171:324|208:342,1,75.0000028610231,10|0,0:0|0:0,0:0:0:0:
315,163,80964,2,0,P|263:164|229:188,1,75.0000028610231,0|2,1:0|0:0,0:0:0:0:
190,336,81157,6,0,L|139:408,1,50,8|0,0:0|0:0,0:0:0:0:
357,303,81351,2,0,L|444:310,1,50,2|0,1:2|0:0,0:0:0:0:
243,175,81544,2,0,L|205:95,1,50,10|0,0:0|0:0,0:0:0:0:
384,2,81738,5,0,1:0:0:0:
384,2,81932,6,0,L|352:-2,1,20,10|0,0:0|0:0,0:0:0:0:
442,90,82125,2,0,P|367:27|269:17,2,200,2|8|2,1:2|0:0|1:2,0:0:0:0:
456,200,82609,5,0,0:0:0:0:
456,200,82706,2,0,L|368:192,1,75.0000028610231,8|0,0:0|0:0,0:0:0:0:
146,136,82899,2,0,L|234:128,1,75.0000028610231,2|0,1:2|0:0,0:0:0:0:
340,283,83093,5,8,0:0:0:0:
340,283,83190,1,0,0:0:0:0:
340,283,83286,2,0,L|284:278,1,37.5000014305115,2|0,1:2|1:0,0:0:0:0:
65,336,83480,5,8,0:0:0:0:
65,336,83577,1,0,1:0:0:0:
65,336,83673,2,0,L|120:331,1,37.5000014305115,0|0,1:0|0:0,0:0:0:0:
328,384,83867,5,10,0:0:0:0:
317,382,83963,1,0,0:0:0:0:
301,381,84060,1,2,1:2:0:0:
281,379,84157,1,0,0:0:0:0:
208,288,84254,6,0,L|217:192,1,75.0000028610231,8|0,0:0|0:0,0:0:0:0:
64,176,84448,2,0,L|56:101,1,75.0000028610231,0|2,1:0|0:0,0:0:0:0:
257,62,84641,1,8,0:0:0:0:
257,62,84738,1,2,1:2:0:0:
257,62,84835,2,0,L|259:30,1,20,2|0,1:2|0:0,0:0:0:0:
371,169,85028,5,10,0:0:0:0:
371,169,85125,2,0,P|317:165|277:130,1,75.0000028610231,0|0,0:0|1:0,0:0:0:0:
215,213,85319,1,0,0:0:0:0:
215,213,85416,2,0,P|191:164|201:113,1,75.0000028610231,10|0,0:0|0:0,0:0:0:0:
100,101,85609,2,0,P|130:56|179:39,1,75.0000028610231,0|2,1:0|0:0,0:0:0:0:
371,169,85803,6,0,L|377:241,1,50,8|0,0:0|0:0,0:0:0:0:
215,213,85996,2,0,L|155:254,1,50,2|0,1:2|0:0,0:0:0:0:
100,101,86190,2,0,L|33:70,1,50,10|0,0:0|0:0,0:0:0:0:
258,42,86383,5,0,1:0:0:0:
258,42,86577,6,0,L|289:44,1,20,10|0,0:0|0:0,0:0:0:0:
396,55,86770,2,0,P|297:55|218:113,2,200,10|2|6,0:0|0:0|0:0,0:0:0:0:
464,136,87254,5,8,0:3:0:0:
464,136,87351,2,0,L|461:159,1,20,8|8,0:3|0:3,0:0:0:0:
504,248,87544,2,0,L|506:271,1,20,6|8,0:0|0:3,0:0:0:0:
407,235,87738,6,0,P|377:221|336:216,3,75.0000028610231,8|8|2|0,0:3|0:3|1:2|0:0,0:0:0:0:
240,328,88125,2,0,P|270:313|311:308,3,75.0000028610231,0|0|6|0,1:0|1:0|1:2|1:0,0:0:0:0:
242,220,88512,5,0,1:0:0:0:
243,184,88609,1,0,1:0:0:0:
246,151,88705,2,0,L|250:96,1,37.5000014305115,6|0,1:2|0:0,0:0:0:0:
123,306,88899,5,0,0:0:0:0:
119,254,88996,1,0,1:0:0:0:
113,203,89092,2,0,L|106:132,1,37.5000014305115,0|0,0:0|0:0,0:0:0:0:
176,24,89286,6,0,P|122:59|53:50,2,112.500004291535,0|0|2,1:0|0:0|1:2,0:0:0:0:
250,107,90060,2,0,P|285:132|329:134,1,89.9999972534181,0|0,0:0|0:0,0:0:0:0:
180,180,90447,2,0,P|151:199|107:201,1,75.0000028610231,0|0,0:0|0:0,0:0:0:0:
265,338,90834,6,0,P|254:282|272:220,2,112.500004291535,0|0|2,1:0|0:0|1:2,0:0:0:0:
393,180,91608,2,0,P|357:154|314:143,1,89.9999972534181,0|0,0:0|0:0,0:0:0:0:
388,326,91996,2,0,P|428:307|459:276,1,75.0000028610231,0|0,0:0|0:0,0:0:0:0:
164,298,92383,6,0,P|225:307|281:363,2,112.500004291535,0|0|2,1:0|0:0|1:2,0:0:0:0:
111,201,93157,2,0,P|157:170|213:166,1,89.9999972534181,0|0,0:0|0:0,0:0:0:0:
7,160,93544,2,0,P|18:116|45:80,1,75.0000028610231,0|0,0:0|0:0,0:0:0:0:
290,204,93931,6,0,P|245:171|190:163,2,112.500004291535,0|0|2,1:0|0:0|0:0,0:0:0:0:
375,44,94705,2,0,P|340:88|290:110,1,89.9999972534181,2|0,0:0|0:0,0:0:0:0:
405,244,95092,6,0,P|383:192|389:137,3,75.0000028610231,0|0|0|0,0:0|1:0|0:0|0:0,0:0:0:0:
240,364,95479,6,0,P|311:315|325:269,2,112.500004291535,0|0|2,1:0|0:0|1:2,0:0:0:0:
162,200,96254,2,0,P|207:232|229:283,1,89.9999972534181,0|0,0:0|0:0,0:0:0:0:
64,327,96641,2,0,P|107:314|135:277,1,75.0000028610231,0|0,0:0|0:0,0:0:0:0:
18,107,97028,6,0,P|60:183|60:239,2,112.500004291535,0|0|2,1:0|0:0|1:2,0:0:0:0:
190,49,97802,2,0,P|148:83|131:123,1,89.9999972534181,0|0,0:0|0:0,0:0:0:0:
12,3,98189,2,0,P|55:19|96:12,1,75.0000028610231,0|2,0:0|0:0,0:0:0:0:
333,125,98576,6,0,P|280:116|218:137,2,112.500004291535,0|0|2,1:0|0:0|1:2,0:0:0:0:
271,283,99350,2,0,P|234:240|183:219,1,89.9999972534181,0|0,0:0|0:0,0:0:0:0:
146,366,99737,2,0,P|147:321|132:279,1,75.0000028610231,0|2,0:0|0:0,0:0:0:0:
401,262,100125,6,0,P|359:311|348:388,2,112.500004291535,0|0|0,1:0|0:0|0:0,0:0:0:0:
326,199,100899,6,0,P|313:163|291:134,1,75.0000028610231,2|2,1:2|1:2,0:0:0:0:
400,121,101092,2,0,P|418:88|445:63,1,50,6|0,1:2|0:0,0:0:0:0:
327,37,101286,5,0,0:0:0:0:
306,35,101382,1,0,1:0:0:0:
285,33,101479,1,0,0:0:0:0:
264,31,101576,1,0,0:0:0:0:
171,21,101673,6,0,P|179:78|235:117,1,100,0|2,1:0|1:2,0:0:0:0:
33,165,101963,2,0,P|78:129|84:61,1,100,0|2,0:0|0:3,0:0:0:0:
227,213,102254,2,0,P|173:191|111:220,1,75.0000028610231,2|0,1:2|0:0,0:0:0:0:
79,241,102447,6,0,L|78:261,2,20,2|0|2,0:3|0:0|0:0,0:0:0:0:
318,231,102834,6,0,L|320:199,1,20,0|0,0:0|1:0,0:0:0:0:
169,307,103027,2,0,L|166:275,1,20,0|0,0:0|0:0,0:0:0:0:
355,320,103221,6,0,P|315:327|253:303,1,100,0|2,1:0|1:2,0:0:0:0:
376,153,103512,2,0,P|402:184|412:249,1,100,0|0,0:0|0:0,0:0:0:0:
222,218,103802,2,0,P|235:179|287:138,1,75.0000028610231,2|0,1:2|0:0,0:0:0:0:
322,72,103996,2,0,L|324:40,2,20,0|0|2,0:0|0:0|1:2,0:0:0:0:
117,180,104383,6,0,L|148:182,1,20,0|0,0:0|1:0,0:0:0:0:
203,65,104576,2,0,L|222:63,1,20,0|0,0:0|0:0,0:0:0:0:
91,0,104770,6,0,P|115:53|95:120,1,100,0|2,1:0|1:2,0:0:0:0:
45,243,105060,2,0,P|78:195|146:179,1,100,0|2,0:0|0:3,0:0:0:0:
279,162,105350,2,0,P|221:156|173:105,1,75.0000028610231,2|0,1:2|0:0,0:0:0:0:
208,54,105544,2,0,L|210:22,2,20,2|0|2,0:3|0:0|0:0,0:0:0:0:
335,255,105931,6,0,L|337:286,1,20,0|0,0:0|1:0,0:0:0:0:
412,113,106125,2,0,L|409:144,1,20,0|0,0:0|0:0,0:0:0:0:
490,275,106318,6,0,P|503:227|490:179,1,100,2|2,1:2|0:0,0:0:0:0:
407,327,106608,2,0,P|463:371|531:363,1,100,0|0,0:0|0:0,0:0:0:0:
403,229,106899,2,0,P|366:235|335:256,1,75.0000028610231,2|0,0:0|0:0,0:0:0:0:
318,346,107092,2,0,L|317:366,2,20,2|0|6,0:0|0:0|1:2,0:0:0:0:
290,138,107479,6,0,L|288:168,1,29.9999990844727,0|0,0:0|1:0,0:0:0:0:
200,216,107673,2,0,L|204:271,1,50,0|0,0:0|0:0,0:0:0:0:
390,114,107867,6,0,P|365:65|294:42,1,100,0|2,1:0|1:2,0:0:0:0:
326,43,108157,1,0,0:0:0:0:
326,43,108254,1,0,0:0:0:0:
123,125,108447,6,0,P|172:129|215:105,1,75.0000028610231,2|0,1:2|0:0,0:0:0:0:
153,37,108641,5,0,0:0:0:0:
162,45,108737,1,0,0:0:0:0:
162,45,108834,1,4,1:2:0:0:
97,217,109028,5,0,0:0:0:0:
97,217,109124,1,0,1:0:0:0:
97,217,109221,1,2,0:0:0:0:
288,168,109415,6,0,P|259:208|258:257,1,100,0|2,1:0|1:2,0:0:0:0:
258,257,109705,1,0,0:0:0:0:
258,257,109802,1,0,0:0:0:0:
463,252,109996,6,0,P|442:207|399:181,1,75.0000028610231,2|0,1:2|0:0,0:0:0:0:
302,361,110189,5,0,0:0:0:0:
302,361,110286,1,0,0:0:0:0:
302,361,110383,1,6,0:0:0:0:
171,218,110576,5,0,0:0:0:0:
171,218,110673,1,0,0:0:0:0:
171,218,110770,1,0,0:0:0:0:
450,86,110963,6,0,P|396:103|329:75,1,100,0|0,1:0|1:0,0:0:0:0:
268,264,111254,2,0,P|280:208|338:164,1,100,0|0,0:0|1:0,0:0:0:0:
224,30,111544,5,0,0:0:0:0:
224,30,111641,1,0,0:0:0:0:
224,30,111737,2,0,P|248:59|258:95,1,75.0000028610231,0|2,1:0|1:2,0:0:0:0:
110,135,112028,2,0,P|146:143|177:165,1,75.0000028610231,0|0,0:0|0:0,0:0:0:0:
117,274,112318,2,0,P|137:269|159:270,1,42.5000008106232,0|0,1:2|0:0,0:0:0:0:
256,352,112512,5,0,0:0:0:0:
256,352,112899,5,0,1:2:0:0:
272,24,113287,6,0,L|224:-9,1,42.5000008106232,0|0,1:2|0:0,0:0:0:0:
261,272,113480,5,6,1:2:0:0:
351,231,113577,2,0,L|403:206,1,42.5000008106232,0|8,0:0|0:0,0:0:0:0:
140,97,113770,5,0,0:0:0:0:
128,197,113867,2,0,L|122:255,1,42.5000008106232,2|0,1:2|0:0,0:0:0:0:
362,123,114060,6,0,P|279:118|213:159,2,150.000005722046,8|2|8,0:0|1:2|0:0,0:0:0:0:
389,212,114544,1,0,1:0:0:0:
389,212,114641,2,0,P|399:260|380:307,1,75.0000028610231,0|0,3:0|1:0,0:0:0:0:
259,28,114834,6,0,L|256:-3,1,20,8|0,0:0|0:0,0:0:0:0:
160,232,115028,2,0,L|133:249,1,20,2|0,1:2|0:0,0:0:0:0:
389,212,115221,2,0,L|418:225,1,20,8|0,0:0|0:0,0:0:0:0:
171,139,115415,2,0,L|121:142,1,50,2|0,1:2|0:0,0:0:0:0:
483,285,115608,6,0,P|453:308|418:319,1,75.0000028610231,10|0,0:0|0:0,0:0:0:0:
333,95,115802,2,0,P|367:108|395:133,1,75.0000028610231,0|0,1:0|0:0,0:0:0:0:
254,342,115996,1,10,0:0:0:0:
254,342,116092,1,0,1:0:0:0:
255,342,116189,2,0,P|238:295|246:246,3,100,0|0|10|0,3:0|1:0|0:0|0:0,0:0:0:0:
252,0,116576,6,0,L|272:3,1,20,2|0,1:2|0:0,0:0:0:0:
47,121,116770,2,0,L|16:128,1,20,8|0,0:0|0:0,0:0:0:0:
247,247,116963,2,0,L|278:250,1,20,2|0,1:2|0:0,0:0:0:0:
340,149,117157,6,0,P|264:144|203:88,2,150.000005722046,8|2|8,0:0|1:2|0:0,0:0:0:0:
406,72,117641,1,2,1:2:0:0:
406,72,117737,2,0,P|433:40|440:1,1,75.0000028610231,0|0,3:0|1:0,0:0:0:0:
401,246,117931,6,0,L|399:269,1,20,10|0,0:0|0:0,0:0:0:0:
293,48,118125,2,0,L|315:37,1,20,2|0,1:2|0:0,0:0:0:0:
176,240,118318,2,0,L|157:226,1,20,8|0,0:0|0:0,0:0:0:0:
193,28,118512,2,0,L|200:107,1,50,0|0,1:0|0:0,0:0:0:0:
66,262,118705,6,0,P|65:193|111:142,1,75.0000028610231,8|0,0:0|0:0,0:0:0:0:
303,185,118899,2,0,P|243:219|177:205,1,75.0000028610231,2|2,1:2|1:2,0:0:0:0:
119,18,119092,2,0,P|178:51|199:116,1,75.0000028610231,8|2,0:0|1:2,0:0:0:0:
168,304,119286,5,0,3:0:0:0:
168,304,119383,1,0,0:0:0:0:
168,304,119479,2,0,L|166:283,1,20,2|6,1:2|1:2,0:0:0:0:
328,264,119770,6,0,L|330:243,1,20,0|0,0:0|0:0,0:0:0:0:
472,344,120060,6,0,L|470:323,1,20,0|0,1:0|0:0,0:0:0:0:
426,101,120254,6,0,P|450:171|424:240,2,150.000005722046,10|2|8,0:0|1:2|0:0,0:0:0:0:
329,99,120737,1,2,1:2:0:0:
329,99,120834,2,0,P|249:91|217:115,1,75.0000028610231,0|0,3:0|1:0,0:0:0:0:
328,264,121028,6,0,L|329:283,1,20,10|0,0:0|0:0,0:0:0:0:
149,73,121221,2,0,L|165:61,1,20,2|0,1:2|0:0,0:0:0:0:
74,324,121415,2,0,L|55:315,1,20,8|0,0:0|0:0,0:0:0:0:
329,99,121608,2,0,L|324:148,1,50,2|0,1:2|0:0,0:0:0:0:
39,98,121802,6,0,P|45:33|78:-1,1,75.0000028610231,8|0,0:0|0:0,0:0:0:0:
172,205,121996,2,0,P|113:230|66:219,1,75.0000028610231,2|0,1:2|0:0,0:0:0:0:
197,36,122189,1,8,0:0:0:0:
197,36,122286,1,2,1:2:0:0:
197,36,122383,2,0,P|248:73|262:118,1,75.0000028610231,0|0,3:0|1:0,0:0:0:0:
322,168,122576,6,0,L|323:148,1,20,10|0,0:0|0:0,0:0:0:0:
147,217,122770,2,0,L|145:197,1,20,0|0,1:0|0:0,0:0:0:0:
394,268,122963,6,0,L|395:248,1,20,8|0,0:0|0:0,0:0:0:0:
85,317,123157,2,0,L|83:297,1,20,0|0,1:0|0:0,0:0:0:0:
381,378,123350,6,0,P|299:326|296:230,2,150.000005722046,8|0|8,0:0|1:0|0:0,0:0:0:0:
491,315,123834,1,0,1:0:0:0:
491,315,123930,2,0,P|504:274|498:236,1,75.0000028610231,0|0,3:0|1:0,0:0:0:0:
455,44,124125,6,0,L|456:24,1,20,8|8,0:0|0:0,0:0:0:0:
308,162,124318,2,0,L|290:170,1,20,8|8,0:3|0:3,0:0:0:0:
484,231,124512,2,0,L|499:242,1,20,0|0,0:0|0:0,0:0:0:0:
352,64,124705,2,0,L|300:59,1,50,4|0,0:3|0:0,0:0:0:0:
104,112,124899,5,4,0:3:0:0:
104,112,124996,2,0,L|223:101,1,100,8|0,0:3|0:0,0:0:0:0:
369,177,125286,2,0,L|269:168,1,80,4|2,0:3|1:2,0:0:0:0:
144,240,125576,2,0,L|243:231,1,59.9999981689454,0|0,1:0|1:0,0:0:0:0:
333,313,125867,2,0,L|273:307,1,44.999998626709,6|0,1:2|0:0,0:0:0:0:
191,356,126060,6,0,L|188:332,1,20,8|0,0:0|0:0,0:0:0:0:
289,170,126254,2,0,L|291:146,1,20,0|0,1:0|0:0,0:0:0:0:
118,0,126447,6,0,P|179:28|199:119,2,150.000005722046,8|2|8,0:0|1:2|0:0,0:0:0:0:
64,72,126931,1,2,1:2:0:0:
64,72,127028,2,0,P|24:88|0:128,1,75.0000028610231,0|0,3:0|1:0,0:0:0:0:
296,152,127221,6,0,L|327:154,1,20,10|0,0:0|0:0,0:0:0:0:
214,339,127415,2,0,L|195:365,1,20,2|0,1:2|0:0,0:0:0:0:
93,174,127608,2,0,L|79:144,1,20,8|0,0:0|0:0,0:0:0:0:
296,248,127802,2,0,L|359:253,1,50,2|0,1:2|0:0,0:0:0:0:
112,280,127996,5,8,0:0:0:0:
202,102,128189,2,0,P|257:106|280:124,1,50,2|0,1:2|0:0,0:0:0:0:
319,291,128383,2,0,P|295:240|299:211,1,50,8|2,0:0|1:2,0:0:0:0:
425,96,128576,5,0,3:0:0:0:
425,96,128673,1,0,1:0:0:0:
425,96,128770,2,0,L|421:131,1,20,10|0,0:0|0:0,0:0:0:0:
295,246,128963,2,0,L|298:227,1,20,2|0,1:2|0:0,0:0:0:0:
476,228,129157,6,0,L|439:223,1,20,8|0,0:0|0:0,0:0:0:0:
244,114,129351,2,0,L|280:118,1,20,2|0,1:2|0:0,0:0:0:0:
263,365,129544,6,0,P|380:332|405:277,2,150.000005722046,10|0|10,0:0|1:0|0:0,0:0:0:0:
163,373,130028,1,2,1:2:0:0:
163,373,130125,2,0,P|129:308|135:273,1,75.0000028610231,0|2,3:0|1:2,0:0:0:0:
224,104,130318,6,0,L|221:135,1,20,8|2,0:0|0:0,0:0:0:0:
265,268,130512,2,0,L|238:249,1,20,0|0,1:0|0:0,0:0:0:0:
102,221,130705,2,0,L|131:207,1,20,8|0,0:0|1:0,0:0:0:0:
370,172,130899,2,0,L|290:165,1,50,0|0,3:0|0:0,0:0:0:0:
87,78,131092,1,8,0:0:0:0:
87,78,131094,2,0,L|102:78,1,-1,0|8,0:0|0:0,0:0:0:0:
87,78,131099,2,0,L|102:78,1,-1,0|0,0:0|0:0,0:0:0:0:
87,78,131101,2,0,L|102:78,1,-1,0|0,0:0|0:0,0:0:0:0:
87,78,131104,2,0,L|102:78,1,-1,0|0,0:0|0:0,0:0:0:0:
87,78,131106,2,0,L|102:78,1,-1,0|0,0:0|0:0,0:0:0:0:
87,78,131108,2,0,L|102:78,1,-1,0|0,0:0|0:0,0:0:0:0:
87,78,131111,2,0,L|102:78,1,-1,0|0,0:0|0:0,0:0:0:0:
87,78,131113,2,0,L|102:78,1,-1,0|0,0:0|0:0,0:0:0:0:
87,78,131116,2,0,L|102:78,1,-1,0|0,0:0|0:0,0:0:0:0:
87,78,131118,2,0,L|102:78,1,-1,0|0,0:0|0:0,0:0:0:0:
87,78,131121,2,0,L|102:78,1,-1,0|0,0:0|0:0,0:0:0:0:
87,78,131123,2,0,L|102:78,1,-1,0|0,0:0|0:0,0:0:0:0:
87,78,131125,2,0,L|102:78,1,-1,0|0,0:0|0:0,0:0:0:0:
87,78,131130,2,0,L|102:78,1,-1,0|0,0:0|0:0,0:0:0:0:
87,78,131135,2,0,L|102:78,1,-1,0|0,0:0|0:0,0:0:0:0:
87,78,131140,2,0,L|102:78,1,-1,0|0,0:0|0:0,0:0:0:0:
87,78,131145,2,0,L|102:78,1,-1,0|0,0:0|0:0,0:0:0:0:
87,78,131150,2,0,L|102:78,1,-1,0|0,0:0|0:0,0:0:0:0:
87,78,131154,2,0,L|102:78,1,-1,0|0,0:0|0:0,0:0:0:0:
87,78,131159,2,0,L|102:78,1,-1,0|0,0:0|0:0,0:0:0:0:
87,78,131164,2,0,L|102:78,1,-1,0|0,0:0|0:0,0:0:0:0:
87,78,131169,2,0,L|102:78,1,-1,0|0,0:0|0:0,0:0:0:0:
87,78,131174,2,0,L|102:78,1,-1,0|0,0:0|0:0,0:0:0:0:
87,78,131179,2,0,L|102:78,1,-1,0|0,0:0|0:0,0:0:0:0:
