osu file format v14

[General]
AudioFilename: audio.mp3
AudioLeadIn: 0
PreviewTime: 248155
Countdown: 0
SampleSet: None
StackLeniency: 0.9
Mode: 0
LetterboxInBreaks: 0
WidescreenStoryboard: 0

[Editor]
Bookmarks: 25337,60246,71883,119883,143155,154610,154633,154655,154678,154701,154724,154746,154769,154792,154815,154837,154860,154883,154905,154928,154951,154974,189701,201337,249337,275519,323519,346792,375883
DistanceSpacing: 1.3
BeatDivisor: 8
GridSize: 32
TimelineZoom: 1.4

[Metadata]
Title:Ano hi no sanekazura
TitleUnicode:あの日のサネカズラ
Artist:Diao ye zong feat. Meramipop
ArtistUnicode:凋叶棕 feat. めらみぽっぷ
Creator:Chai the Tea
Version:plant (idk what I tried, but I like it)
Source:東方Project ~ Phantasmagoria of Flower View
Tags:Kazami Yuuka RD-Sounds 今昔幻想郷 ~ Flower Land / Gensokyo, Past and Present ~ Flower Land 娶 Marriage Comiket 95 C95
BeatmapID:2076587
BeatmapSetID:993013

[Difficulty]
HPDrainRate:5
CircleSize:6
OverallDifficulty:8
ApproachRate:8.5
SliderMultiplier:2.5
SliderTickRate:2

[Events]
//Background and Video events
0,0,"FYIoriginalpicwas7795x4606.png",0,0
//Break Periods
//Storyboard Layer 0 (Background)
//Storyboard Layer 1 (Fail)
//Storyboard Layer 2 (Pass)
//Storyboard Layer 3 (Foreground)
//Storyboard Sound Samples

[TimingPoints]
2065,363.636363636364,4,3,1,40,1,0
2065,-222.222222222221,4,3,1,40,0,0
25337,-285.714285714284,4,3,1,40,0,0
57337,-181.818181818181,4,3,1,40,0,0
58428,-117.647058823529,4,3,1,40,0,0
60246,-333.333333333333,4,3,1,40,0,0
71883,-285.714285714284,4,3,1,40,0,0
80610,-399.999999999997,4,3,1,40,0,0
83519,-285.714285714284,4,3,1,40,0,0
118792,-153.846153846153,4,3,1,40,0,0
143155,-285.714285714282,4,3,1,40,0,0
154792,-200,4,3,1,40,0,0
210065,-153.846153846154,4,3,1,40,0,0
212974,-200,4,3,1,40,0,0
244246,-100,4,3,1,40,0,0
249337,-83.3333333333333,4,3,1,40,0,0
256610,-166.666666666667,4,3,1,40,0,0
257883,-100,4,3,1,40,0,0
260974,-83.3333333333333,4,3,1,40,0,0
262428,-166.666666666667,4,3,1,40,0,0
263519,-83.3333333333334,4,3,1,40,0,0
275519,-71.4285714285714,4,3,1,40,0,1
276792,-142.857142857143,4,3,1,40,0,1
276974,-71.4285714285714,4,3,1,40,0,1
284246,-100,4,3,1,40,0,1
284610,-83.3333333333333,4,3,1,40,0,1
284974,-100,4,3,1,40,0,1
285337,-125,4,3,1,40,0,1
285701,-71.4285714285714,4,3,1,40,0,1
295883,-100,4,3,1,40,0,1
296246,-83.3333333333333,4,3,1,40,0,1
296610,-100,4,3,1,40,0,1
296974,-125,4,3,1,40,0,1
297337,-71.4285714285714,4,3,1,40,0,1
307519,-100,4,3,1,40,0,1
307882,-83.3333333333333,4,3,1,40,0,1
308246,-100,4,3,1,40,0,1
308610,-125,4,3,1,40,0,1
308973,-71.4285714285714,4,3,1,40,0,1
319155,-100,4,3,1,40,0,1
319518,-83.3333333333333,4,3,1,40,0,1
319882,-100,4,3,1,40,0,1
320246,-83.3333333333333,4,3,1,40,0,1
320609,-71.4285714285714,4,3,1,40,0,1
321337,-50,4,3,1,40,0,1
322428,-71.4285714285714,4,3,1,40,0,1

[Colours]
Combo1 : 39,143,141
Combo2 : 255,128,64
Combo3 : 243,109,75
Combo4 : 203,12,40
Combo5 : 251,251,0
Combo6 : 143,204,17

[HitObjects]
263,44,2065,6,0,B|287:84|299:80|331:79,7,56.2499982833863
385,101,3519,2,0,B|374:146|385:151|409:173,3,56.2499982833863
367,109,4246,2,0,P|360:145|365:180,1,56.2499982833863
351,115,4610,2,0,P|358:151|353:186,1,56.2499982833863
351,317,4974,2,0,B|305:308|300:320|279:344,7,56.2499982833863
385,101,6428,2,0,B|374:146|385:151|409:173,6,56.2499982833863
372,117,7701,1,0,0:0:0:0:
265,384,7883,6,0,B|278:374|271:354|254:339|281:311,7,56.2499982833863
362,339,9337,2,0,B|364:323|346:312|323:314|323:275,5,56.2499982833863
365,338,10428,1,0,0:0:0:0:
369,328,10610,1,0,0:0:0:0:
360,140,10792,2,0,B|344:136|333:154|334:177|294:175,7,56.2499982833863
362,339,12246,2,0,B|364:323|346:312|323:314|323:275,5,56.2499982833863
351,321,13337,1,0,0:0:0:0:
351,321,13519,1,0,0:0:0:0:
82,141,13701,6,0,B|58:101|46:105|14:106,7,56.2499982833863
186,107,15155,2,0,B|175:152|186:157|210:179,3,56.2499982833863
164,105,15883,2,0,P|164:133|159:161,1,56.2499982833863
176,109,16246,2,0,P|178:173|181:180,1,56.2499982833863
152,323,16610,2,0,B|106:314|101:325|80:350,7,56.2499982833863
186,107,18064,2,0,B|175:152|186:157|210:179,6,56.2499982833863
202,147,19337,1,0,0:0:0:0:
447,103,19519,2,0,B|415:107|418:133|401:136|382:122,7,56.2499982833863
331,0,20974,2,0,B|311:20|331:37|321:50|298:54,5,56.2499982833863
331,1,22065,1,0,0:0:0:0:
331,1,22246,1,0,0:0:0:0:
62,109,22428,2,0,B|86:130|103:111|117:121|119:145,7,56.2499982833863
331,0,23883,2,0,B|311:20|331:37|321:50|298:54,5,56.2499982833863
328,1,24974,1,0,0:0:0:0:
328,1,25155,1,0,0:0:0:0:
489,22,25337,6,0,B|437:17|432:99|484:93|484:93|520:117|511:122,1,153.124995326996
375,81,26065,2,0,P|407:68|380:127,1,153.124995326996
403,246,26792,2,0,B|414:255|322:277|265:194,1,153.124995326996
308,129,27519,2,0,B|334:142|327:256|407:249,1,153.124995326996
484,76,28246,2,0,P|451:50|397:38,1,87.499997329712
429,90,28974,1,0,0:0:0:0:
404,41,29337,2,0,P|390:131|392:138,1,87.499997329712
393,132,30065,2,0,P|423:165|467:168,1,87.499997329712
493,97,30792,1,0,0:0:0:0:
203,0,31155,6,0,P|228:79|166:117,1,153.124995326996
169,102,31883,2,0,P|206:113|333:115,1,153.124995326996
233,197,32610,2,0,P|241:133|322:114,1,153.124995326996
238,208,33337,2,0,P|243:144|329:126,1,153.124995326996
338,234,34065,2,0,B|346:263|323:328|323:328|283:292|329:240|345:162|345:162|330:283|281:316,1,437.49998664856
13,105,36974,6,0,B|6:99|71:46|115:39|149:80|136:101|120:83,1,153.124995326996
13,105,37701,2,0,P|41:86|163:31,1,153.124995326996
152,244,38428,2,0,B|41:214|111:156|112:118,1,153.124995326996
168,164,39155,2,0,P|205:182|152:243,1,153.124995326996
0,115,39883,2,0,B|29:112|88:132,1,87.499997329712
10,113,40610,2,0,P|6:42|20:8,1,65.624997997284,0|0,3:0|3:0,3:0:0:0:
132,62,40974,2,0,P|98:108|87:138,1,87.499997329712
63,24,41701,1,0,0:0:0:0:
87,136,42065,2,0,P|66:168|21:197,1,87.499997329712
229,5,42792,6,0,P|254:84|192:122,1,153.124995326996
187,110,43520,2,0,P|224:121|351:123,1,153.124995326996
350,125,44247,2,0,P|279:139|265:209,1,153.124995326996
218,270,44974,2,0,P|223:206|309:188,1,153.124995326996
301,262,45701,2,0,B|214:212|371:165|311:86|311:86|290:61|215:72|229:132|229:132|264:131|254:96|254:96|230:124|278:121,1,437.49998664856
156,263,48610,6,0,B|184:273|108:339|166:340|338:338,1,240.624992656708
333,249,49701,2,0,L|348:324,1,76.562497663498
330,238,50065,2,0,P|242:266|230:321,1,153.124995326996
316,317,51155,1,0,0:0:0:0:
261,237,51519,6,0,P|286:316|281:330,1,87.499997329712
263,144,52247,2,0,P|261:183|272:245,1,87.499997329712
285,62,52974,2,0,P|276:125|252:153,1,87.499997329712
259,175,53701,2,0,P|236:183|192:174,1,65.624997997284
192,181,54065,2,0,P|185:131|188:115,1,65.624997997284
156,212,54428,2,0,B|180:210|251:192|247:331|261:180|222:140|251:213|376:224,1,240.624992656708
374,120,55519,2,0,L|326:172,1,65.624997997284
354,158,55883,2,0,B|325:192|273:164|243:145|182:201,1,174.999994659424
264,95,56974,1,0,0:0:0:0:
245,98,57337,22,0,B|276:48|324:81|324:81|305:83|261:144|251:96|251:96,1,171.875005245209
289,89,57883,2,0,B|258:139|210:106|210:106|229:104|273:43|283:91|283:91,1,171.875005245209
287,108,58428,38,0,B|215:102|164:32|164:32|225:36|285:92,1,265.625005066395
244,108,58974,2,0,B|285:48|371:39|371:39|337:90|258:114,1,265.625005066395
258,84,59519,2,0,P|297:130|271:236,1,159.375003039837
284,222,59883,2,0,P|225:151|250:78,1,159.375003039837
235,97,60246,5,0,0:0:0:0:
330,215,60610,1,0,0:0:0:0:
193,214,60974,1,0,0:0:0:0:
182,221,61337,2,0,P|205:226|238:213,1,56.2499982833863
237,236,61701,1,0,0:0:0:0:
289,225,61883,1,0,0:0:0:0:
337,242,62065,1,0,0:0:0:0:
347,213,62428,1,0,0:0:0:0:
298,240,62610,1,0,0:0:0:0:
263,210,62792,1,0,0:0:0:0:
227,233,62974,1,0,0:0:0:0:
158,220,63155,1,0,0:0:0:0:
101,207,63337,2,0,P|130:205|141:208,1,37.4999988555909
233,234,63883,1,0,0:0:0:0:
267,209,64065,1,0,0:0:0:0:
300,243,64246,1,0,0:0:0:0:
329,219,64428,1,0,0:0:0:0:
403,258,64610,2,0,L|355:258,2,37.4999988555909
440,250,65155,2,0,L|400:243,1,37.4999988555909
441,233,65519,1,0,0:0:0:0:
437,229,65701,2,0,L|485:234,1,37.4999988555909
329,219,66065,1,0,0:0:0:0:
300,243,66246,1,0,0:0:0:0:
267,209,66428,1,0,0:0:0:0:
233,235,66792,1,0,0:0:0:0:
195,202,66974,1,0,0:0:0:0:
233,235,67155,2,0,L|265:209,1,37.4999988555909
330,221,67519,2,0,L|364:248,1,37.4999988555909
342,207,67883,1,0,0:0:0:0:
342,207,68065,2,0,L|361:245,1,37.4999988555909
195,208,68610,1,0,0:0:0:0:
223,198,68792,2,0,B|236:213|255:210|259:214,1,37.4999988555909
332,216,69155,1,0,0:0:0:0:
300,243,69337,1,0,0:0:0:0:
267,209,69519,1,0,0:0:0:0:
236,243,69701,2,0,L|277:235,1,37.4999988555909
198,211,70065,2,0,L|237:223,1,37.4999988555909
157,242,70428,1,0,0:0:0:0:
198,211,70792,2,0,L|233:222,1,37.4999988555909
236,243,71155,1,0,0:0:0:0:
286,235,71337,1,0,0:0:0:0:
328,205,71519,2,0,P|365:216|371:221,1,37.4999988555909
383,9,71883,6,0,B|358:119|429:28|459:65|468:137|439:96,1,153.124995326996
360,29,72610,2,0,B|342:47|295:77|316:175,1,153.124995326996
506,233,73337,2,0,P|502:268|449:216,1,153.124995326996
507,185,74065,2,0,B|505:219|495:283|560:182|420:282,1,153.124995326996
419,24,74792,2,0,P|392:23|344:65,1,87.499997329712
383,139,75519,2,0,P|385:112|345:61,1,87.499997329712
291,107,76246,1,0,0:0:0:0:
311,131,76610,2,0,P|331:113|337:49,1,87.499997329712
340,96,77337,1,0,0:0:0:0:
73,26,77701,6,0,P|108:8|219:57,1,153.124995326996
129,67,78428,2,0,P|179:38|280:58,1,153.124995326996
260,175,79155,2,0,P|269:106|238:22,1,153.124995326996
295,193,79883,2,0,P|266:169|217:52,1,153.124995326996
218,262,80610,2,0,B|245:248|307:267|307:267|298:305|251:343|172:328|172:328|184:287|256:305|275:266,1,375
0,141,83519,2,0,B|41:148|147:117|169:120,1,153.124995326996
52,104,84246,2,0,P|34:160|87:126,1,153.124995326996
84,235,84974,2,0,P|57:267|93:363,1,153.124995326996
45,284,85701,2,0,P|81:308|198:312,1,153.124995326996
119,41,86428,2,0,L|64:109,1,87.499997329712
142,94,87155,2,0,L|95:155,1,65.624997997284
60,205,87519,2,0,L|117:132,1,87.499997329712
140,117,88246,2,0,P|187:129|209:144,1,65.624997997284
143,181,88610,2,0,P|132:140|138:108,1,65.624997997284
180,131,88974,2,0,P|165:151|123:179,1,65.624997997284
134,27,89337,6,0,P|169:9|280:58,1,153.124995326996
257,46,90064,2,0,P|307:17|408:37,1,153.124995326996
298,170,90791,2,0,P|307:101|243:32,1,153.124995326996
295,162,91519,2,0,P|266:138|253:21,1,153.124995326996
208,236,92246,2,0,B|229:238|268:250|268:250|240:259|223:277|223:277|255:193|287:145|261:98|330:79|353:130|353:130|302:195|249:143,1,481.249985313416
275,72,95155,2,0,P|308:94|200:160,1,240.624992656708
239,34,96246,2,0,P|276:55|273:86,1,65.624997997284
256,196,96610,2,0,P|222:188|236:71,1,174.999994659424
251,167,97701,2,0,P|276:169|322:194,1,65.624997997284
246,302,98065,2,0,P|252:244|264:224,1,65.624997997284
255,238,98428,2,0,P|279:209|310:199,1,65.624997997284
251,280,98792,2,0,P|231:224|215:208,1,65.624997997284
228,220,99155,2,0,P|196:197|164:193,1,65.624997997284
143,193,99519,1,0,0:0:0:0:
259,230,100246,2,0,L|267:300,1,65.624997997284
246,302,100610,2,0,L|233:227,1,65.624997997284
14,77,100974,2,0,P|103:64|169:112,1,174.999994659424
216,33,102065,2,0,P|221:76|207:112,1,65.624997997284
155,69,102428,2,0,P|225:66|306:127,1,174.999994659424
314,60,103519,2,0,P|333:91|323:125,1,65.624997997284
254,66,103883,70,0,P|228:58|229:119,1,109.37499666214
267,100,104428,2,0,P|256:70|202:108,1,109.37499666214
184,119,104974,54,0,B|137:107|116:72|116:72|150:39|204:42|204:42|247:44|274:56,1,240.624992656708
312,110,106065,2,0,P|280:122|236:129,1,65.624997997284
264,52,106428,2,0,P|303:79|318:102,1,65.624997997284
222,85,106792,6,0,P|189:79|52:108,1,174.999994659424
251,168,108246,2,0,B|205:160|197:188|150:176|150:176|174:156|156:137|157:117|160:116,1,153.124995326996
256,91,108974,2,0,B|283:100|280:108|275:113|315:140|315:140|267:147|245:172,1,153.124995326996
155,116,109701,2,0,B|171:81|149:43|194:25|194:25|197:58|259:95|248:83,1,174.999994659424
326,195,110792,2,0,P|321:239|333:273,1,65.624997997284
334,128,111155,2,0,P|311:139|320:183,1,65.624997997284
326,181,111519,2,0,P|339:202|314:230,1,65.624997997284
313,283,111883,2,0,P|290:294|299:338,1,65.624997997284
305,336,112247,2,0,P|318:357|293:385,1,65.624997997284
232,277,112610,2,0,P|277:260|409:306,1,174.999994659424
160,148,114065,2,0,B|182:107|158:90|185:49|185:49|196:79|219:68|238:75|238:78,1,153.124995326996
231,177,114793,2,0,B|213:199|207:194|204:187|165:216|165:216|174:169|157:140,1,153.124995326996
260,95,115520,2,0,B|261:106|304:98|307:146|307:146|275:138|219:185|157:220|157:220|161:111|146:73|146:73|192:98|206:131|206:131|198:155|226:177|226:177|268:230|220:239|220:239|191:262|204:280|204:280|227:303|218:314,1,699.999978637696
319,162,118792,6,0,P|273:174|173:226,1,121.874994421006
324,150,119155,2,0,P|291:84|239:27,1,121.874994421006
319,162,119519,2,0,B|326:172|334:181|367:209|451:221,1,121.874994421006
221,213,119883,2,0,P|232:112|170:252,1,609.374972105028
126,375,121337,2,0,B|100:309|0:253|0:253|61:241|61:241|101:260|148:277|207:267|260:215|294:121|206:20|108:50,1,649.999970245363
131,153,123155,1,0,0:0:0:0:
214,221,123519,2,0,P|233:121|221:93,1,121.874994421006
214,221,123883,2,0,P|136:259|89:251,1,121.874994421006
227,104,124246,2,0,P|142:46|112:49,1,121.874994421006
107,257,124610,2,0,B|78:249|60:240|60:240|-4:252|-4:252|29:280|23:272,1,121.874994421006
133,46,124974,2,0,P|57:78|35:128,1,121.874994421006
1,255,125337,2,0,P|73:298|114:359,1,121.874994421006
332,379,125701,6,0,B|278:322|325:257|366:217|438:261|438:261|369:206|308:177|308:177|367:165|408:128|399:104|399:104|338:119|329:67,1,609.374972105028
417,99,127155,2,0,B|442:-9|338:-4|283:26|324:140|369:107|395:103|395:103|411:128|357:165|304:177|304:177|415:234|415:234,1,487.499977684022
330,379,128246,2,0,P|317:287|343:258,1,121.874994421006
439,266,128610,2,0,B|339:186|287:320|244:384|170:333,1,284.374986982346
138,307,129337,2,0,B|153:323|133:353|133:353|89:313|117:225|196:179|241:278,1,284.374986982346
280,175,130065,2,0,B|206:175|175:144|175:144|181:223|181:223|140:203|69:218,1,284.374986982346
204,54,130792,2,0,P|117:100|231:106,1,284.374986982346
377,50,131519,6,0,B|342:83|342:83|321:150|352:219|459:305|342:356|342:356|280:259|427:173|427:173|413:223,1,609.374972105028
415,82,132974,2,0,B|429:75|429:169|429:169|349:233|349:233|297:290|337:356,2,324.999985122681
427,173,134792,2,0,P|426:123|401:45,1,121.874994421006
354,186,135155,2,0,B|331:132|341:87|341:87|368:58,1,121.874994421006
426,172,135519,2,0,B|349:236|349:236|331:262,1,121.874994421006
385,332,135883,2,0,P|398:272|361:211,1,121.874994421006
335,352,136246,2,0,P|321:290|370:221,1,121.874994421006
340,114,136610,2,0,B|327:134|365:225|387:254,1,121.874994421006
322,304,136974,2,0,B|313:281|367:199|394:175,1,121.874994421006
253,221,137337,6,0,B|202:260|124:178|124:178|254:329|66:416|-20:313|63:182|63:182|96:242|104:255,1,609.374972105028
99,341,138792,2,0,B|33:337|34:257|34:257|40:215|62:185|62:185|24:116|38:74|38:74,1,284.374986982346
159,65,139519,2,0,P|150:132|119:190,1,121.874994421006
29,58,139883,2,0,P|38:125|69:183,1,121.874994421006
231,117,140246,6,0,B|291:130|294:79|294:79|282:15|181:5|159:70|159:70|156:133|125:182|125:182|159:233|159:233|207:253|211:134,1,568.749973964692
372,52,141701,2,0,B|333:15|211:-32|79:39|79:39|117:113|165:206|354:120|342:98,1,609.374972105028
456,95,143155,2,0,B|466:108|446:96|476:120|453:143,5,43.749998664856
460,93,144246,2,0,B|470:106|450:94|480:118|458:141,1,43.749998664856
284,169,144610,2,0,B|301:171|278:176|316:173|316:204,3,43.749998664856
281,175,145337,2,0,B|298:178|275:183|313:179|313:211,1,43.749998664856
292,165,145701,2,0,B|309:167|286:173|324:169|324:201,1,43.749998664856
351,344,146065,2,0,B|353:326|358:350|355:311|388:313,5,43.749998664856
354,339,147155,2,0,B|356:321|360:345|358:306|390:308,1,43.749998664856
284,169,147519,2,0,B|301:171|278:176|316:173|316:204,3,43.749998664856
287,173,148246,1,0,0:0:0:0:
287,173,148610,1,0,0:0:0:0:
15,76,148974,2,0,B|4:89|24:77|-5:101|17:123,5,43.749998664856
26,85,150065,2,0,B|14:98|35:86|5:110|28:132,1,43.749998664856
179,145,150428,2,0,B|161:147|184:152|146:149|146:180,6,43.749998664856
180,147,151701,1,0,0:0:0:0:
109,360,151883,2,0,B|106:342|101:365|103:327|71:328,7,43.749998664856
191,157,153337,2,0,B|173:159|196:164|158:161|158:192,3,43.749998664856
195,165,154065,1,0,0:0:0:0:
471,121,154837,6,0,L|466:228,1,93.75
455,231,155155,2,0,L|420:115,1,109.375
336,131,155519,2,0,P|305:175|306:229,1,109.375
333,231,155883,2,0,P|349:188|346:129,1,93.75
213,0,156246,2,0,P|234:71|224:118,1,109.375
253,80,156610,2,0,P|235:136|255:192,1,109.375
406,167,156974,2,0,P|344:169|352:196,1,109.375
394,213,157337,2,0,P|363:141|342:139,1,109.375
512,172,157701,6,0,L|512:52,1,109.375
501,114,158065,2,0,L|383:110,1,109.375
502,80,158428,2,0,L|502:190,1,109.375
386,119,158792,2,0,L|503:121,1,109.375
497,142,159155,1,0,0:0:0:0:
482,186,159519,2,0,P|462:179|371:221,1,125
398,205,160246,2,0,P|355:224|288:226,1,109.375
178,373,160610,6,0,P|177:312|156:270,1,109.375
189,362,160974,2,0,P|204:323|264:282,1,109.375
160,283,161337,2,0,P|181:238|182:174,1,109.375
256,301,161701,2,0,P|290:264|341:250,1,93.75
163,159,162065,2,0,P|200:132|258:91,1,109.375,0|0,2:0|2:0,2:0:0:0:
309,243,162428,2,0,P|354:256|423:236,1,109.375
230,106,162792,2,0,P|299:92|348:104,1,109.375
362,210,163155,2,0,P|386:232|430:303,1,109.375
213,374,163519,2,0,B|263:364|292:371|292:371|234:309|236:279|236:279|206:243|218:175|218:175|214:105|260:80|260:80|279:38|318:28,1,484.375,0|0,2:0|2:0,2:0:0:0:
310,93,164974,2,0,P|294:131|222:148,1,109.375
269,150,165337,2,0,P|277:180|244:256,1,109.375
319,229,165701,2,0,P|302:245|211:246,1,109.375
250,332,166065,2,0,P|227:310|230:227,1,109.375
47,19,166428,6,0,P|56:83|35:126,1,109.375
111,93,166792,2,0,P|87:130|25:158,1,109.375
39,124,167155,2,0,P|51:158|15:224,1,109.375
28,155,167519,2,0,P|55:178|76:248,1,109.375
19,219,167928,2,0,P|84:212|111:228,1,93.75
77,251,168292,2,0,P|51:279|0:299,1,93.75
106,224,168610,2,0,P|108:289|95:342,1,109.375
7,296,168974,2,0,P|64:306|108:341,1,109.375
154,371,169337,6,0,P|162:337|198:268,1,109.375
251,322,169701,2,0,P|184:318|136:303,1,109.375
177,270,170065,2,0,P|229:284|284:285,1,109.375
275,244,170429,2,0,P|248:291|233:343,1,109.375
223,332,170792,1,0,0:0:0:0:
192,293,171155,2,0,P|144:300|85:353,1,125
137,338,171883,2,0,P|143:301|127:222,1,109.375
178,373,172246,6,0,P|177:312|156:270,1,109.375
189,362,172610,2,0,P|204:323|264:282,1,109.375
160,283,172974,2,0,P|181:238|182:174,1,109.375
259,292,173337,2,0,P|277:249|314:220,1,93.75,0|0,2:0|2:0,2:0:0:0:
185,186,173701,2,0,P|173:132|145:86,1,109.375,0|0,2:0|2:0,2:0:0:0:
314,220,174065,2,0,P|318:173|362:116,1,109.375
169,122,174429,2,0,P|153:53|121:14,1,109.375
372,62,174791,2,0,P|348:84|304:155,1,109.375
207,374,175155,2,0,B|257:364|286:371|286:371|235:340|230:279|230:279|184:135|254:80|254:80|305:72|272:162,1,500,0|0,2:0|2:0,2:0:0:0:
285,170,176974,2,0,P|278:202|207:261,1,125
209,237,177701,1,0,0:0:0:0:
488,34,178065,6,0,B|477:89|461:227|330:381,1,375
374,240,179337,1,0,0:0:0:0:
475,282,179519,2,0,P|499:333|382:311,1,250
372,382,180610,2,0,P|351:334|322:281,1,109.375
282,364,180974,6,0,P|301:366|390:332,1,109.375
401,311,181337,1,0,0:0:0:0:
347,243,181519,2,0,P|339:276|335:359,1,109.375
369,367,181883,2,0,P|347:351|305:343,1,62.5
256,315,182246,1,0,0:0:0:0:
195,297,182428,1,0,0:0:0:0:
12,323,182792,2,0,P|47:319|117:352,1,109.375
131,358,183155,1,0,0:0:0:0:
70,360,183337,1,0,0:0:0:0:
4,370,183519,1,0,0:0:0:0:
16,66,183883,6,0,P|17:130|-21:239,1,171.875
45,129,184428,2,0,P|68:165|67:237,1,109.375
4,232,184792,2,0,P|25:263|44:297,1,62.5
52,347,185337,2,0,P|40:287|140:343,1,250
120,357,186428,2,0,P|157:348|230:359,1,109.375
279,384,186792,6,0,P|284:362|239:217,1,171.875
227,188,187337,2,0,P|207:144|293:152,1,171.875
314,69,187883,2,0,B|319:67|301:14|301:14|251:63|221:107,1,171.875
275,207,188428,2,0,B|274:212|329:223|329:223|311:155|288:107,1,171.875,0|0,2:0|0:0,0:0:0:0:
168,144,188974,2,0,B|163:140|126:182|126:182|194:201|179:196,1,109.375,0|0,2:0|0:0,0:0:0:0:
247,205,189337,2,0,P|313:220|352:225,1,93.75
428,225,189701,2,0,B|423:201|365:227|366:230|328:342|408:358|408:358|409:358|480:336|465:316|465:316|448:271|477:230|477:230|439:188|441:141,1,468.75
425,88,191155,5,0,0:0:0:0:
363,55,191337,2,0,L|315:108,1,62.5
252,53,191701,2,0,L|209:98,1,62.5
141,41,192065,1,0,0:0:0:0:
100,97,192246,1,0,0:0:0:0:
57,48,192610,5,0,0:0:0:0:
132,45,192792,1,0,0:0:0:0:
95,103,192974,1,0,0:0:0:0:
196,109,193155,2,0,L|239:49,1,62.5
297,100,193519,1,0,0:0:0:0:
351,40,193701,2,0,L|388:106,1,62.5
462,103,194065,5,0,0:0:0:0:
398,30,194246,1,0,0:0:0:0:
365,96,194428,2,0,L|325:41,1,62.5
282,104,194792,1,0,0:0:0:0:
192,91,195155,1,0,0:0:0:0:
98,74,195519,5,0,0:0:0:0:
167,47,195701,2,0,L|189:109,1,62.5
259,50,196065,1,0,0:0:0:0:
292,101,196246,1,0,0:0:0:0:
232,157,196428,2,0,L|274:108,1,62.5
343,47,196792,1,0,0:0:0:0:
404,103,196974,6,0,L|312:198,1,125
413,45,197519,2,0,L|369:103,1,62.5
317,38,197883,2,0,L|272:85,1,62.5
206,49,198246,1,0,0:0:0:0:
141,83,198428,1,0,0:0:0:0:
210,98,198610,2,0,L|268:50,1,62.5
329,106,198974,1,0,0:0:0:0:
372,65,199155,1,0,0:0:0:0:
458,62,199519,2,0,L|412:115,1,62.5
364,58,199883,5,0,0:0:0:0:
302,116,200065,1,0,0:0:0:0:
244,41,200246,1,0,0:0:0:0:
185,120,200428,1,0,0:0:0:0:
115,44,200610,2,0,L|118:113,1,62.5
94,131,200974,1,0,0:0:0:0:
415,34,201337,6,0,L|410:141,1,93.75
462,141,201655,2,0,L|427:25,1,109.375
401,182,202019,2,0,P|348:192|311:231,1,109.375
368,315,202383,2,0,P|384:272|381:213,1,93.75
192,20,202746,2,0,P|213:91|203:138,1,109.375
295,66,203110,2,0,P|277:122|297:178,1,109.375
445,245,203474,2,0,P|383:247|391:274,1,109.375
375,164,203837,2,0,P|406:236|427:238,1,109.375
512,167,204201,6,0,L|512:47,1,109.375
478,173,204565,2,0,L|360:169,1,109.375
368,59,204928,2,0,L|368:169,1,109.375
372,52,205292,2,0,L|489:54,1,109.375
434,104,205655,1,0,0:0:0:0:
482,186,206019,2,0,P|462:179|371:221,1,125
278,202,206428,2,0,P|310:206|334:153,1,93.75
372,222,206746,2,0,P|329:241|262:243,1,109.375
300,42,207155,6,0,P|299:103|278:145,1,109.375
267,149,207519,2,0,P|226:159|158:133,1,109.375
166,150,207883,2,0,P|147:91|153:45,1,109.375
162,38,208247,2,0,P|197:15|269:17,1,109.375
281,21,208610,2,0,P|315:71|322:117,1,109.375
315,127,208974,2,0,P|287:158|217:176,1,109.375
226,186,209337,2,0,P|173:174|135:135,1,109.375
128,127,209701,2,0,P|137:73|169:29,1,109.375
388,33,210065,2,0,B|341:126|342:127|342:127|363:174|407:230|407:230|331:215|293:217|293:217|258:289|233:343|233:343|224:290|178:226|178:226|90:210|43:223|43:223|76:170|94:110|94:110|98:65|69:14,1,974.999955368044
1,80,212974,6,0,P|10:144|-2:176,1,93.75
81,46,213292,2,0,P|57:83|-5:111,1,109.375
37,293,213655,2,0,P|49:259|13:193,1,109.375
1,384,214019,2,0,P|28:361|49:291,1,109.375
132,273,214428,2,0,P|197:266|224:282,1,93.75
208,225,214792,2,0,P|182:253|131:273,1,93.75
157,146,215110,2,0,P|196:197|217:247,1,109.375
112,270,215474,2,0,P|106:212|129:160,1,109.375
154,371,215837,6,0,P|162:337|198:268,1,109.375
254,367,216201,2,0,P|187:363|139:348,1,109.375
181,264,216565,2,0,P|233:278|288:279,1,109.375
303,271,216929,2,0,P|276:318|261:370,1,109.375
211,326,217292,1,0,0:0:0:0:
192,293,217655,2,0,P|144:300|85:353,1,125
137,338,218383,2,0,P|143:301|127:222,1,109.375
273,235,218746,6,0,P|272:174|251:132,1,109.375
303,90,219110,2,0,P|257:119|234:168,1,109.375
192,218,219519,2,0,P|238:200|283:154,1,109.375
346,193,219883,2,0,P|292:182|231:165,1,109.375
207,87,220246,2,0,P|218:140|246:186,1,109.375,0|0,2:0|2:0,2:0:0:0:
376,163,220610,2,0,P|318:151|267:157,1,109.375
244,261,220974,2,0,P|275:219|284:149,1,109.375
316,48,221337,2,0,P|292:70|248:141,1,109.375
333,28,221701,6,0,P|193:274|352:42,1,859.375
323,35,224246,1,0,0:0:0:0:
495,384,224610,6,0,B|484:329|468:191|337:37,1,375
380,175,225882,1,0,0:0:0:0:
459,41,226065,2,0,P|430:135|354:277,1,250
324,378,227155,2,0,P|303:330|274:277,1,109.375
285,358,227519,6,0,P|304:360|393:326,1,109.375
267,270,227882,1,0,0:0:0:0:
288,171,228064,2,0,P|280:204|276:287,1,109.375
402,324,228428,2,0,P|380:308|338:300,1,62.5
256,315,228791,1,0,0:0:0:0:
195,297,228973,1,0,0:0:0:0:
125,310,229155,1,0,0:0:0:0:
70,317,229337,1,0,0:0:0:0:
3,329,229565,1,0,0:0:0:0:
63,311,229700,1,0,0:0:0:0:
0,319,229882,1,0,0:0:0:0:
32,275,230064,1,0,0:0:0:0:
35,56,230428,6,0,B|36:120|0:223|0:223|78:266|108:371,1,359.375
26,357,231519,2,0,P|61:267|80:255,1,109.375
123,126,231883,2,0,P|131:150|56:111,1,234.375
0,37,232610,2,0,P|37:28|209:105,1,234.375
252,204,233337,2,0,P|283:200|278:117,1,125
227,188,233882,2,0,P|207:144|293:152,1,171.875
314,69,234428,2,0,B|319:67|301:14|301:14|251:63|221:107,1,171.875
275,207,234973,2,0,B|274:212|329:223|329:223|311:155|288:107,1,171.875,0|0,2:0|0:0,0:0:0:0:
168,144,235519,2,0,B|163:140|126:182|126:182|194:201|179:196,1,109.375,0|0,2:0|0:0,0:0:0:0:
247,205,235882,2,0,P|313:220|352:225,1,93.75
226,140,236246,6,0,B|253:108|253:108|271:170|271:170|271:171|184:156,1,187.5
162,133,236974,1,0,0:0:0:0:
173,137,237337,1,0,0:0:0:0:
229,20,237701,2,0,P|149:52|100:172,1,218.75
229,250,238474,2,0,P|261:231|299:180,1,93.75
316,157,238792,1,0,0:0:0:0:
317,79,238974,1,0,0:0:0:0:
107,196,239155,2,0,P|151:237|319:193,1,250
307,85,240246,2,0,P|308:136|296:201,1,109.375
271,231,240610,6,0,P|239:265|172:278,1,109.375
125,269,240974,2,0,P|90:239|61:177,1,109.375
102,50,241337,1,0,0:0:0:0:
61,127,241519,1,0,0:0:0:0:
97,234,241701,1,0,0:0:0:0:
248,114,242065,6,0,B|266:183|266:183|180:157|180:157|250:90,1,250
242,17,243519,2,0,P|119:46|77:137,1,234.375
207,258,244246,2,0,P|257:243|316:160,1,156.25
276,43,244519,2,0,P|206:18|127:47,1,156.25
90,141,244792,2,0,P|111:200|145:244,1,93.75
228,226,244974,6,0,B|306:233|306:233|267:171|267:171|179:277|179:277|336:347|390:270|390:270|407:158|278:42|277:42|28:88|90:312|90:312|261:407|498:407|506:214|506:214|308:-25|177:12,1,2000
32,45,248246,2,0,P|45:108|16:272,1,218.75
128,351,248610,2,0,P|97:271|87:115,1,218.75
206,129,248974,2,0,P|135:161|-8:135,1,218.75
132,101,249337,6,0,B|158:139|165:198|165:198|252:222|283:278|283:278|334:233|394:214|394:214|395:214|390:150|402:113|402:113|341:99|317:27|317:27|243:75|197:13|197:13|181:76|120:179|120:179|186:226|210:314|210:314|203:361,1,1124.99996566773
80,253,250792,2,0,B|186:199|186:199|264:239|281:278|281:278|327:238|397:214|397:214|390:154|403:114|403:114|326:79|301:8,2,599.999981689454
220,351,252610,1,0,0:0:0:0:
59,347,252974,2,0,P|96:259|231:269,1,224.999993133545
140,340,253337,2,0,P|106:283|200:145,1,224.999993133545
64,112,253701,2,0,L|220:127,1,149.999995422363
211,63,254065,2,0,L|51:114,1,149.999995422363
11,158,254428,2,0,P|35:200|29:344,1,187.499994277954
2,257,254746,2,0,P|65:248|164:268,1,149.999995422363
50,293,254974,2,0,P|122:211|154:199,1,112.499996566773
283,146,255155,6,0,B|270:133|236:127|236:127|250:172|296:168|296:168|323:139|330:125|330:125|283:132|285:182|285:182|314:255|294:315|294:315|423:254|412:130|412:130|375:16|265:18|265:18|174:90|110:141|190:300,1,1162.49996452332
80,290,256610,2,0,B|111:239|146:118|146:118|137:171|176:270|176:270|182:307,1,374.999988555909
322,283,257701,1,0,0:0:0:0:
225,342,257883,2,0,P|181:328|90:322,1,125
85,293,258428,1,0,0:0:0:0:
77,255,258792,1,0,0:0:0:0:
64,238,259155,1,0,0:0:0:0:
16,247,259337,1,0,0:0:0:0:
22,188,259519,2,0,P|84:178|109:183,3,62.5
150,187,259883,1,0,0:0:0:0:
235,116,260246,1,0,0:0:0:0:
171,127,260428,1,0,0:0:0:0:
81,179,260610,1,0,0:0:0:0:
66,266,260792,1,0,0:0:0:0:
249,335,260974,6,0,B|275:322|355:340|355:340|310:299|306:298|306:298|385:240|409:121|426:73|426:73|335:225|263:282|263:282|209:235|157:82|157:82|152:190|237:301,1,1124.99996566773
271,267,262428,2,0,B|282:250|317:203|317:203|279:223|279:223|280:171|280:171|264:221|264:221|232:164|232:164|257:254,1,374.999988555909
373,242,263519,2,0,L|347:341,2,99.9999969482423
389,178,263822,1,0,0:0:0:0:
404,170,263883,2,0,L|432:299,1,74.9999977111817
444,326,264065,1,0,0:0:0:0:
486,209,264246,1,0,0:0:0:0:
414,175,264428,1,0,0:0:0:0:
353,130,264610,1,0,0:0:0:0:
284,166,264792,1,0,0:0:0:0:
210,203,264974,1,0,0:0:0:0:
165,262,265155,1,0,0:0:0:0:
200,346,265337,1,0,0:0:0:0:
327,343,265519,1,0,0:0:0:0:
296,347,265610,1,0,0:0:0:0:
268,348,265701,1,0,0:0:0:0:
143,319,265883,1,0,0:0:0:0:
80,260,266065,1,0,0:0:0:0:
22,216,266246,1,0,0:0:0:0:
24,195,266337,1,0,0:0:0:0:
45,207,266428,2,0,L|118:190,3,74.9999977111817
185,163,266792,6,0,B|136:82|135:82|91:61|91:61|161:84|195:111|208:135|208:135|291:67|291:67|208:75|174:127|174:127|191:56|191:56|228:221|157:330,1,824.999974822999
60,301,267883,2,0,P|141:299|371:347,1,299.999990844727
378,300,268428,2,0,P|246:314|173:355,1,149.999995422363
51,335,268974,2,0,L|243:371,1,149.999995422363
319,270,269519,1,0,0:0:0:0:
308,316,269701,6,0,B|336:235|226:35|226:35|338:86|257:288|154:365|154:365|-35:252|-1:159|-1:159|38:113|19:34|19:34|-18:117|204:32|204:32|225:83|203:132|203:132|185:88|160:72|160:72|148:114|104:119|104:119|134:86|134:86|148:59|148:59|35:143,1,1724.99994735718
83,177,271883,1,0,0:0:0:0:
177,175,272246,1,0,0:0:0:0:
84,250,272610,2,0,P|165:270|205:215,1,149.999995422363
136,216,272974,1,0,0:0:0:0:
84,250,273155,2,0,P|165:270|205:215,1,149.999995422363
136,216,273519,1,0,0:0:0:0:
84,250,273701,2,0,P|165:270|205:215,1,149.999995422363
402,207,274065,5,0,0:0:0:0:
342,116,274246,2,0,L|343:253,1,112.499996566773
368,277,274428,2,0,L|366:140,1,112.499996566773
432,92,274610,2,0,P|338:99|303:128,1,112.499996566773
311,32,274792,2,0,P|307:98|342:159,1,112.499996566773
229,134,274974,2,0,P|306:151|341:141,1,112.499996566773
389,206,275155,2,0,P|386:128|266:201,1,262.499991989136
187,71,275519,6,0,P|156:170|-13:281,1,306.249990653992
22,163,275883,1,0,0:0:0:0:
209,236,276065,2,0,P|257:265|321:342,1,131.249995994568
154,211,276246,1,0,0:0:0:0:
246,188,276428,2,0,P|225:284|209:327,1,131.249995994568
249,113,276610,1,0,0:0:0:0:
249,113,276792,2,0,P|189:133|186:138,1,65.624997997284
135,62,276974,6,0,P|147:144|178:207,1,131.249995994568
47,157,277155,2,0,P|118:167|197:157,1,131.249995994568
27,244,277337,2,0,B|93:198|115:146|113:138|113:138|139:28|260:39,1,306.249990653992
401,129,277701,2,0,P|365:96|390:10,1,131.249995994568
332,136,277883,2,0,P|326:228|221:135,1,306.249990653992
353,212,278246,2,0,P|385:276|469:356,2,174.999994659424
511,314,278792,6,0,B|400:257|314:300|211:315,1,306.249990653992
247,118,279155,2,0,P|326:202|203:317,1,306.249990653992
127,126,279519,2,0,B|216:204|161:279|161:279|61:314|28:281,1,306.249990653992
232,45,279883,2,0,B|215:73|215:73|228:131|191:221,2,174.999994659424
86,98,280428,1,0,0:0:0:0:
260,0,280610,2,0,B|263:55|263:55|345:49|507:132,1,306.249990653992
456,237,280974,1,0,0:0:0:0:
150,126,281155,1,0,0:0:0:0:
484,118,281337,6,0,B|519:187|501:258|501:258|386:317|386:317|394:381,1,306.249990653992
198,165,281701,1,0,0:0:0:0:
163,230,281883,2,0,B|71:222|107:262|18:192,1,131.249995994568
217,273,282065,1,0,0:0:0:0:
88,163,282246,2,0,B|167:210|151:158|201:260,1,131.249995994568,0|0,2:0|2:0,2:0:0:0:
0,225,282428,1,0,0:0:0:0:
187,279,282610,2,0,P|230:303|324:348,1,131.249995994568
43,218,282792,5,0,0:0:0:0:
161,240,282974,1,0,0:0:0:0:
279,267,283155,2,0,B|336:213|336:213|526:386,1,306.249990653992
286,331,283519,1,0,0:0:0:0:
179,262,283701,2,0,B|201:215|118:154|189:111,1,131.249995994568
216,346,283883,1,0,0:0:0:0:
286,225,284065,2,0,B|205:222|145:260|146:260,1,131.249995994568
27,208,284246,6,0,B|100:165|100:165|237:202,1,218.75
74,298,284610,2,0,B|-3:198|270:233,1,262.499991989136
126,363,284974,2,0,B|166:295|166:295|313:293,1,218.75
346,384,285337,2,0,P|301:354|277:324,1,75
208,139,285519,1,0,0:0:0:0:
239,41,285701,6,0,B|330:14|382:33|417:126|398:242,1,306.249990653992
183,41,286065,2,0,P|261:62|454:206,1,306.249990653992
122,73,286428,1,0,0:0:0:0:
172,89,286519,1,0,0:0:0:0:
219,111,286610,1,0,0:0:0:0:
135,127,286792,2,0,P|56:99|14:108,1,87.499997329712
221,176,286974,1,0,0:0:0:0:
275,196,287065,1,0,0:0:0:0:
348,194,287155,6,0,P|381:122|204:79,1,306.249990653992
296,250,287519,1,0,0:0:0:0:
231,285,287701,2,0,B|289:264|291:264|291:264|387:283,1,131.249995994568
149,315,287883,1,0,0:0:0:0:
156,236,288065,2,0,B|220:273|220:273|286:257,1,131.249995994568
46,249,288246,1,0,0:0:0:0:
111,114,288428,2,0,P|184:90|221:106,1,93.75
55,33,288610,6,0,B|52:92|52:94|-21:138,1,131.249995994568
91,165,288792,2,0,B|27:152|27:152|-26:206,1,131.249995994568
9,300,288974,2,0,P|69:270|316:251,1,306.249990653992
478,172,289337,1,0,0:0:0:0:
410,239,289519,2,0,B|355:302|354:302|302:266,1,131.249995994568
502,221,289701,1,0,0:0:0:0:
422,147,289883,2,0,P|374:106|255:75,2,174.999994659424
373,42,290428,6,0,B|356:90|360:118|318:200,1,131.249995994568
489,26,290610,1,0,0:0:0:0:
303,35,290792,2,0,B|315:73|322:136|319:192,1,131.249995994568
159,29,290974,1,0,0:0:0:0:
394,151,291155,2,0,B|374:94|378:66|358:46|358:46|291:66|155:154,1,306.249990653992
393,247,291519,2,0,B|373:188|373:188|263:181|-34:369,1,481.249985313416
315,320,292065,1,0,0:0:0:0:
0,287,292246,2,0,P|67:221|251:320,1,306.249990653992
270,203,292610,2,0,P|239:312|251:411,1,174.999994659424
497,270,292974,6,0,B|413:232|401:226|335:191|349:129|225:83,1,306.249990653992
367,32,293337,1,0,0:0:0:0:
429,152,293519,2,0,P|402:201|405:298,1,131.249995994568
492,48,293701,1,0,0:0:0:0:
291,129,293883,2,0,P|309:172|318:282,1,131.249995994568
155,137,294065,1,0,0:0:0:0:
228,46,294246,2,0,B|212:138|226:208|207:209,1,131.249995994568
12,128,294428,5,0,0:0:0:0:
154,96,294610,1,0,0:0:0:0:
299,62,294792,2,0,P|291:116|313:243,1,174.999994659424
365,40,295155,1,0,0:0:0:0:
197,46,295337,2,0,P|281:47|355:70,1,131.249995994568
345,77,295519,1,0,0:0:0:0:
122,185,295701,2,0,P|46:180|-4:210,1,131.249995994568
154,246,295883,6,0,B|250:160|58:147|49:71,1,218.75
145,276,296246,2,0,B|120:230|118:55|112:-2|98:57,1,262.499991989136
92,315,296610,2,0,B|136:194|168:127|158:189|153:101,1,218.75
9,312,296974,2,0,B|52:274|140:290|140:290|102:267,1,175
52,138,297337,6,0,P|46:203|5:275,1,131.249995994568
99,106,297519,1,0,0:0:0:0:
154,206,297701,2,0,P|160:140|129:47,1,131.249995994568
216,257,297883,1,0,0:0:0:0:
280,171,298065,2,0,P|297:233|285:315,1,131.249995994568,0|0,2:0|2:0,2:0:0:0:
312,124,298247,1,0,2:0:0:0:
399,197,298429,2,0,P|380:133|318:57,1,131.249995994568,0|0,2:0|2:0,2:0:0:0:
501,127,298610,2,0,P|432:70|368:58,1,131.249995994568
511,5,298792,6,0,B|483:49|475:52|475:52|196:11,1,306.249990653992
428,139,299155,1,0,0:0:0:0:
182,102,299337,2,0,P|267:104|319:122,1,131.249995994568
109,76,299519,1,0,0:0:0:0:
217,197,299701,2,0,P|146:191|64:199,1,131.249995994568
336,230,299883,1,0,0:0:0:0:
147,347,300065,2,0,P|148:302|231:264,1,131.249995994568
385,302,300246,6,0,B|386:258|386:184|386:184|338:162,1,131.249995994568
314,353,300428,2,0,B|295:265|295:265|238:245,1,131.249995994568
176,305,300610,2,0,B|261:252|261:252|446:370,1,306.249990653992
147,304,300974,1,0,0:0:0:0:
188,55,301155,2,0,P|204:130|240:106,1,131.249995994568
143,121,301337,1,0,0:0:0:0:
46,262,301519,2,0,P|72:187|127:99,2,174.999994659424
137,259,302065,6,0,B|174:221|224:149|245:168,1,131.249995994568
230,352,302246,1,0,0:0:0:0:
31,184,302428,2,0,B|68:222|118:294|139:275,1,131.249995994568
130,161,302610,1,0,0:0:0:0:
292,244,302792,2,0,P|166:252|137:263,1,131.249995994568
477,258,302974,1,0,0:0:0:0:
429,179,303155,6,0,B|379:82|382:78|474:69|474:69|438:352|438:352|380:344,1,481.249985313416
386,140,303701,1,0,0:0:0:0:
380,335,303883,2,0,P|248:307|226:311,1,131.249995994568
56,193,304065,1,0,0:0:0:0:
40,112,304246,2,0,P|100:122|180:151,1,131.249995994568
263,231,304428,1,0,0:0:0:0:
226,109,304610,6,0,P|92:77|31:228,1,306.249990653992
276,125,304974,1,0,0:0:0:0:
129,148,305155,2,0,P|193:162|261:214,1,131.249995994568
53,157,305337,1,0,0:0:0:0:
253,78,305519,2,0,P|190:81|106:122,1,131.249995994568
342,83,305701,1,0,0:0:0:0:
362,252,305883,2,0,P|341:205|417:182,1,131.249995994568
487,157,306065,5,0,0:0:0:0:
336,177,306246,1,0,0:0:0:0:
185,194,306428,2,0,B|186:254|186:254|148:350,1,131.249995994568
121,186,306610,1,0,0:0:0:0:
162,124,306792,2,0,B|216:132|216:132|317:175,1,131.249995994568
95,52,306974,2,0,P|69:113|84:198,1,131.249995994568
114,174,307155,1,0,0:0:0:0:
230,142,307337,2,0,L|230:5,1,131.249995994568
422,77,307519,6,0,B|421:36|298:60|298:60,1,218.75
398,153,307883,2,0,B|352:62|186:47|186:47,1,262.499991989136
341,231,308246,2,0,B|358:111|425:42|425:42,1,218.75
277,242,308610,2,0,B|391:115|404:111|404:111,1,175
505,296,308974,6,0,B|379:298|279:304|279:304|203:240,1,306.249990653992
512,209,309337,2,0,B|451:243|351:272|351:272|196:253,1,306.249990653992
91,231,309700,1,0,0:0:0:0:
39,199,309792,1,0,0:0:0:0:
11,142,309883,1,0,0:0:0:0:
136,189,310065,2,0,L|128:277,1,87.499997329712
184,300,310246,1,0,0:0:0:0:
233,310,310337,1,0,0:0:0:0:
293,358,310428,6,0,B|301:274|400:278|324:158|214:86,1,306.249990653992
271,285,310837,1,0,0:0:0:0:
385,121,310974,2,0,P|451:124|493:204,1,131.249995994568
318,138,311155,1,0,0:0:0:0:
217,118,311337,2,0,P|186:59|234:-17,1,131.249995994568
265,167,311518,1,0,0:0:0:0:
237,222,311701,1,0,0:0:0:0:
87,153,311883,6,0,B|98:222|97:222|2:147,1,131.249995994568
179,198,312065,2,0,P|118:200|32:160,1,131.249995994568
158,298,312246,2,0,B|136:198|53:134|93:-2,1,306.249990653992
20,215,312610,1,0,0:0:0:0:
10,328,312792,2,0,B|99:313|184:222|307:381,1,306.249990653992
446,228,313155,2,0,P|463:337|516:388,2,174.999994659424
486,113,313701,6,0,B|419:98|312:125|312:125|264:246,1,306.249990653992
382,59,314065,2,0,B|253:58|212:54|212:54|113:160,1,306.249990653992
0,0,314428,2,0,P|9:73|75:84,1,131.249995994568
151,90,314610,1,0,0:0:0:0:
16,243,314792,6,0,B|79:219|162:110|162:110|357:109|357:109|365:226,1,481.249985313416
268,353,315337,1,0,0:0:0:0:
261,181,315519,1,0,0:0:0:0:
443,284,315701,1,0,0:0:0:0:
179,213,315883,1,0,0:0:0:0:
457,146,316065,1,0,0:0:0:0:
330,0,316246,6,0,P|317:103|328:315,1,306.249990653992
236,103,316610,1,0,0:0:0:0:
88,90,316792,2,0,P|183:148|219:132,1,131.249995994568
16,176,316974,1,0,0:0:0:0:
85,243,317155,2,0,P|168:223|224:247,1,131.249995994568
11,170,317337,1,0,0:0:0:0:
99,14,317519,2,0,P|141:53|234:78,1,131.249995994568
379,50,317701,5,0,0:0:0:0:
353,199,317883,1,0,0:0:0:0:
325,373,318065,2,0,P|334:300|502:141,1,306.249990653992
468,284,318428,1,0,0:0:0:0:
486,77,318610,2,0,B|428:107|316:-12|180:117,1,306.249990653992
248,6,318974,1,0,0:0:0:0:
293,312,319155,2,0,P|266:236|209:220,1,125
284,313,319519,2,0,P|303:230|277:169,1,149.999995422363
261,336,319883,2,0,P|366:251|386:154,1,218.75
96,147,320246,2,0,P|110:261|243:343,1,262.499991989136
265,213,320610,6,0,P|344:203|417:212,1,131.249995994568
223,302,320792,1,0,0:0:0:0:
238,106,320974,2,0,P|181:99|98:106,1,131.249995994568
246,278,321155,1,0,0:0:0:0:
260,52,321337,2,0,P|307:55|474:98,1,187.5
277,238,321519,1,0,0:0:0:0:
258,4,321701,2,0,P|151:1|56:31,1,187.5
257,241,321883,1,0,0:0:0:0:
291,384,322065,5,0,0:0:0:0:
324,277,322246,1,0,0:0:0:0:
296,276,322337,1,0,0:0:0:0:
266,273,322428,2,0,P|205:276|146:308,1,87.499997329712
46,188,322610,1,0,0:0:0:0:
92,89,322792,2,0,P|147:117|173:243,1,174.999994659424
26,73,323155,2,0,P|106:35|210:45,1,174.999994659424
316,95,323519,1,0,0:0:0:0:
