osu file format v14

[General]
AudioFilename: audio.mp3
AudioLeadIn: 0
PreviewTime: 248155
Countdown: 0
SampleSet: None
StackLeniency: 0.9
Mode: 0
LetterboxInBreaks: 0
WidescreenStoryboard: 1

[Editor]
Bookmarks: 25337,60246,71883,119883,143155,154610,154633,154655,154678,154701,154724,154746,154769,154792,154815,154837,154860,154883,154905,154928,154951,154974,189701,201337,249337,275519,323519,346792,375883
DistanceSpacing: 1.3
BeatDivisor: 4
GridSize: 32
TimelineZoom: 1

[Metadata]
Title:Ano hi no sanekazura
TitleUnicode:あの日のサネカズラ
Artist:Diao ye zong feat. Meramipop
ArtistUnicode:凋叶棕 feat. めらみぽっぷ
Creator:Chai the Tea
Version:CS 4, AR 9
Source:東方Project ~ Phantasmagoria of Flower View
Tags:Kazami Yuuka RD-Sounds 今昔幻想郷 ~ Flower Land / Gensokyo, Past and Present ~ Flower Land 娶 Marriage Comiket 95 C95
BeatmapID:2079775
BeatmapSetID:993013

[Difficulty]
HPDrainRate:5
CircleSize:4
OverallDifficulty:8
ApproachRate:9
SliderMultiplier:2.5
SliderTickRate:1

[Events]
//Background and Video events
0,0,"FYIoriginalpicwas7795x4606.png",0,0
//Break Periods
//Storyboard Layer 0 (Background)
//Storyboard Layer 1 (Fail)
//Storyboard Layer 2 (Pass)
//Storyboard Layer 3 (Foreground)
//Storyboard Sound Samples

[TimingPoints]
2065,363.636363636364,4,3,1,40,1,0
2065,-222.222222222221,4,3,1,40,0,0
25337,-285.714285714284,4,3,1,40,0,0
57337,-181.818181818181,4,3,1,40,0,0
58428,-117.647058823529,4,3,1,40,0,0
60246,-333.333333333333,4,3,1,40,0,0
71883,-285.714285714284,4,3,1,40,0,0
80610,-399.999999999997,4,3,1,40,0,0
83519,-285.714285714284,4,3,1,40,0,0
118792,-153.846153846153,4,3,1,40,0,0
143155,-285.714285714282,4,3,1,40,0,0
154792,-200,4,3,1,40,0,0
210065,-153.846153846154,4,3,1,40,0,0
212974,-200,4,3,1,40,0,0
244246,-100,4,3,1,40,0,0
249337,-83.3333333333333,4,3,1,40,0,0
256610,-166.666666666667,4,3,1,40,0,0
257883,-100,4,3,1,40,0,0
262428,-166.666666666667,4,3,1,40,0,0
263519,-83.3333333333334,4,3,1,40,0,0
275519,-71.4285714285714,4,3,1,40,0,1
276792,-142.857142857143,4,3,1,40,0,1
276974,-71.4285714285714,4,3,1,40,0,1
276974,-71.4285714285714,4,3,1,40,0,1
284246,-100,4,3,1,40,0,1
284610,-83.3333333333333,4,3,1,40,0,1
284974,-100,4,3,1,40,0,1
285337,-125,4,3,1,40,0,1
285701,-71.4285714285714,4,3,1,40,0,1
295883,-100,4,3,1,40,0,1
296246,-83.3333333333333,4,3,1,40,0,1
296610,-100,4,3,1,40,0,1
296974,-125,4,3,1,40,0,1
297337,-71.4285714285714,4,3,1,40,0,1
307519,-100,4,3,1,40,0,1
307882,-83.3333333333333,4,3,1,40,0,1
308246,-100,4,3,1,40,0,1
308610,-125,4,3,1,40,0,1
308973,-71.4285714285714,4,3,1,40,0,1
319155,-100,4,3,1,40,0,1
319518,-83.3333333333333,4,3,1,40,0,1
319882,-100,4,3,1,40,0,1
320246,-83.3333333333333,4,3,1,40,0,1
320609,-71.4285714285714,4,3,1,40,0,1
321337,-50,4,3,1,40,0,1
322428,-71.4285714285714,4,3,1,40,0,1

[Colours]
Combo1 : 39,143,141
Combo2 : 255,128,64
Combo3 : 243,109,75
Combo4 : 203,12,40
Combo5 : 251,251,0
Combo6 : 143,204,17

[HitObjects]
319,270,269519,5,0,0:0:0:0:
308,316,269701,6,0,B|336:235|226:35|226:35|338:86|257:288|154:365|154:365|-35:252|-1:159|-1:159|38:113|19:34|19:34|-18:117|204:32|204:32|225:83|203:132|203:132|185:88|160:72|160:72|148:114|104:119|104:119|134:86|134:86|148:59|148:59|35:143,1,1724.99994735718
83,177,271883,1,0,0:0:0:0:
177,175,272246,1,0,0:0:0:0:
84,250,272610,2,0,P|165:270|205:215,1,149.999995422363
136,216,272974,1,0,0:0:0:0:
84,250,273155,2,0,P|165:270|205:215,1,149.999995422363
136,216,273519,1,0,0:0:0:0:
84,250,273701,2,0,P|165:270|205:215,1,149.999995422363
402,207,274065,5,0,0:0:0:0:
342,116,274246,2,0,L|343:253,1,112.499996566773
368,277,274428,2,0,L|366:140,1,112.499996566773
432,92,274610,2,0,P|338:99|303:128,1,112.499996566773
311,32,274792,2,0,P|307:98|342:159,1,112.499996566773
229,134,274974,2,0,P|306:151|341:141,1,112.499996566773
389,206,275155,2,0,P|386:128|266:201,1,262.499991989136
187,71,275519,6,0,P|156:170|-13:281,1,306.249990653992
22,163,275883,1,0,0:0:0:0:
209,236,276065,2,0,P|257:265|321:342,1,131.249995994568
154,211,276246,1,0,0:0:0:0:
246,188,276428,2,0,P|225:284|209:327,1,131.249995994568
249,113,276610,1,0,0:0:0:0:
249,113,276792,2,0,P|189:133|186:138,1,65.624997997284
135,62,276974,6,0,P|147:144|178:207,1,131.249995994568
47,157,277155,2,0,P|118:167|197:157,1,131.249995994568
27,244,277337,2,0,B|93:198|115:146|113:138|113:138|139:28|260:39,1,306.249990653992
401,129,277701,2,0,P|365:96|390:10,1,131.249995994568
332,136,277883,2,0,P|326:228|221:135,1,306.249990653992
353,212,278246,2,0,P|385:276|469:356,2,174.999994659424
511,314,278792,6,0,B|400:257|314:300|211:315,1,306.249990653992
247,118,279155,2,0,P|326:202|203:317,1,306.249990653992
127,126,279519,2,0,B|216:204|161:279|161:279|61:314|28:281,1,306.249990653992
232,45,279883,2,0,B|215:73|215:73|228:131|191:221,2,174.999994659424
86,98,280428,1,0,0:0:0:0:
260,0,280610,2,0,B|263:55|263:55|345:49|507:132,1,306.249990653992
456,237,280974,1,0,0:0:0:0:
150,126,281155,1,0,0:0:0:0:
484,118,281337,6,0,B|519:187|501:258|501:258|386:317|386:317|394:381,1,306.249990653992
198,165,281701,1,0,0:0:0:0:
163,230,281883,2,0,B|71:222|107:262|18:192,1,131.249995994568
217,273,282065,1,0,0:0:0:0:
88,163,282246,2,0,B|167:210|151:158|201:260,1,131.249995994568,0|0,2:0|2:0,2:0:0:0:
0,225,282428,1,0,0:0:0:0:
187,279,282610,2,0,P|230:303|324:348,1,131.249995994568
43,218,282792,5,0,0:0:0:0:
161,240,282974,1,0,0:0:0:0:
279,267,283155,2,0,B|336:213|336:213|526:386,1,306.249990653992
286,331,283519,1,0,0:0:0:0:
179,262,283701,2,0,B|201:215|118:154|189:111,1,131.249995994568
216,346,283883,1,0,0:0:0:0:
286,225,284065,2,0,B|205:222|145:260|146:260,1,131.249995994568
27,208,284246,6,0,B|100:165|100:165|237:202,1,218.75
74,298,284610,2,0,B|-3:198|270:233,1,262.499991989136
126,363,284974,2,0,B|166:295|166:295|313:293,1,218.75
346,384,285337,2,0,P|301:354|277:324,1,75
208,139,285519,1,0,0:0:0:0:
239,41,285701,6,0,B|330:14|382:33|417:126|398:242,1,306.249990653992
183,41,286065,2,0,P|261:62|454:206,1,306.249990653992
122,73,286428,1,0,0:0:0:0:
172,89,286519,1,0,0:0:0:0:
219,111,286610,1,0,0:0:0:0:
135,127,286792,2,0,P|56:99|14:108,1,87.499997329712
221,176,286974,1,0,0:0:0:0:
275,196,287065,1,0,0:0:0:0:
348,194,287155,6,0,P|381:122|204:79,1,306.249990653992
296,250,287519,1,0,0:0:0:0:
231,285,287701,2,0,B|289:264|291:264|291:264|387:283,1,131.249995994568
149,315,287883,1,0,0:0:0:0:
156,236,288065,2,0,B|220:273|220:273|286:257,1,131.249995994568
46,249,288246,1,0,0:0:0:0:
111,114,288428,2,0,P|184:90|221:106,1,93.75
55,33,288610,6,0,B|52:92|52:94|-21:138,1,131.249995994568
91,165,288792,2,0,B|27:152|27:152|-26:206,1,131.249995994568
9,300,288974,2,0,P|69:270|316:251,1,306.249990653992
478,172,289337,1,0,0:0:0:0:
410,239,289519,2,0,B|355:302|354:302|302:266,1,131.249995994568
502,221,289701,1,0,0:0:0:0:
422,147,289883,2,0,P|374:106|255:75,2,174.999994659424
373,42,290428,6,0,B|356:90|360:118|318:200,1,131.249995994568
489,26,290610,1,0,0:0:0:0:
303,35,290792,2,0,B|315:73|322:136|319:192,1,131.249995994568
159,29,290974,1,0,0:0:0:0:
394,151,291155,2,0,B|374:94|378:66|358:46|358:46|291:66|155:154,1,306.249990653992
393,247,291519,2,0,B|373:188|373:188|263:181|-34:369,1,481.249985313416
315,320,292065,1,0,0:0:0:0:
0,287,292246,2,0,P|67:221|251:320,1,306.249990653992
270,203,292610,2,0,P|239:312|251:411,1,174.999994659424
497,270,292974,6,0,B|413:232|401:226|335:191|349:129|225:83,1,306.249990653992
367,32,293337,1,0,0:0:0:0:
429,152,293519,2,0,P|402:201|405:298,1,131.249995994568
492,48,293701,1,0,0:0:0:0:
291,129,293883,2,0,P|309:172|318:282,1,131.249995994568
155,137,294065,1,0,0:0:0:0:
228,46,294246,2,0,B|212:138|226:208|207:209,1,131.249995994568
12,128,294428,5,0,0:0:0:0:
154,96,294610,1,0,0:0:0:0:
299,62,294792,2,0,P|291:116|313:243,1,174.999994659424
365,40,295155,1,0,0:0:0:0:
197,46,295337,2,0,P|281:47|355:70,1,131.249995994568
345,77,295519,1,0,0:0:0:0:
122,185,295701,2,0,P|46:180|-4:210,1,131.249995994568
154,246,295883,6,0,B|250:160|58:147|49:71,1,218.75
145,276,296246,2,0,B|120:230|118:55|112:-2|98:57,1,262.499991989136
92,315,296610,2,0,B|136:194|168:127|158:189|153:101,1,218.75
9,312,296974,2,0,B|52:274|140:290|140:290|102:267,1,175
52,138,297337,6,0,P|46:203|5:275,1,131.249995994568
99,106,297519,1,0,0:0:0:0:
154,206,297701,2,0,P|160:140|129:47,1,131.249995994568
216,257,297883,1,0,0:0:0:0:
280,171,298065,2,0,P|297:233|285:315,1,131.249995994568,0|0,2:0|2:0,2:0:0:0:
312,124,298247,1,0,2:0:0:0:
399,197,298429,2,0,P|380:133|318:57,1,131.249995994568,0|0,2:0|2:0,2:0:0:0:
501,127,298610,2,0,P|432:70|368:58,1,131.249995994568
511,5,298792,6,0,B|483:49|475:52|475:52|196:11,1,306.249990653992
428,139,299155,1,0,0:0:0:0:
182,102,299337,2,0,P|267:104|319:122,1,131.249995994568
109,76,299519,1,0,0:0:0:0:
217,197,299701,2,0,P|146:191|64:199,1,131.249995994568
336,230,299883,1,0,0:0:0:0:
147,347,300065,2,0,P|148:302|231:264,1,131.249995994568
385,302,300246,6,0,B|386:258|386:184|386:184|338:162,1,131.249995994568
314,353,300428,2,0,B|295:265|295:265|238:245,1,131.249995994568
176,305,300610,2,0,B|261:252|261:252|446:370,1,306.249990653992
147,304,300974,1,0,0:0:0:0:
188,55,301155,2,0,P|204:130|240:106,1,131.249995994568
143,121,301337,1,0,0:0:0:0:
46,262,301519,2,0,P|72:187|127:99,2,174.999994659424
137,259,302065,6,0,B|174:221|224:149|245:168,1,131.249995994568
230,352,302246,1,0,0:0:0:0:
31,184,302428,2,0,B|68:222|118:294|139:275,1,131.249995994568
130,161,302610,1,0,0:0:0:0:
292,244,302792,2,0,P|166:252|137:263,1,131.249995994568
477,258,302974,1,0,0:0:0:0:
429,179,303155,6,0,B|379:82|382:78|474:69|474:69|438:352|438:352|380:344,1,481.249985313416
386,140,303701,1,0,0:0:0:0:
380,335,303883,2,0,P|248:307|226:311,1,131.249995994568
56,193,304065,1,0,0:0:0:0:
40,112,304246,2,0,P|100:122|180:151,1,131.249995994568
263,231,304428,1,0,0:0:0:0:
226,109,304610,6,0,P|92:77|31:228,1,306.249990653992
276,125,304974,1,0,0:0:0:0:
129,148,305155,2,0,P|193:162|261:214,1,131.249995994568
53,157,305337,1,0,0:0:0:0:
253,78,305519,2,0,P|190:81|106:122,1,131.249995994568
342,83,305701,1,0,0:0:0:0:
362,252,305883,2,0,P|341:205|417:182,1,131.249995994568
487,157,306065,5,0,0:0:0:0:
336,177,306246,1,0,0:0:0:0:
185,194,306428,2,0,B|186:254|186:254|148:350,1,131.249995994568
121,186,306610,1,0,0:0:0:0:
162,124,306792,2,0,B|216:132|216:132|317:175,1,131.249995994568
95,52,306974,2,0,P|69:113|84:198,1,131.249995994568
114,174,307155,1,0,0:0:0:0:
230,142,307337,2,0,L|230:5,1,131.249995994568
422,77,307519,6,0,B|421:36|298:60|298:60,1,218.75
398,153,307883,2,0,B|352:62|186:47|186:47,1,262.499991989136
341,231,308246,2,0,B|358:111|425:42|425:42,1,218.75
277,242,308610,2,0,B|391:115|404:111|404:111,1,175
505,296,308974,6,0,B|379:298|279:304|279:304|203:240,1,306.249990653992
512,209,309337,2,0,B|451:243|351:272|351:272|196:253,1,306.249990653992
91,231,309700,1,0,0:0:0:0:
39,199,309792,1,0,0:0:0:0:
11,142,309883,1,0,0:0:0:0:
136,189,310065,2,0,L|128:277,1,87.499997329712
184,300,310246,1,0,0:0:0:0:
233,310,310337,1,0,0:0:0:0:
293,358,310428,6,0,B|301:274|400:278|324:158|214:86,1,306.249990653992
271,285,310837,1,0,0:0:0:0:
385,121,310974,2,0,P|451:124|493:204,1,131.249995994568
318,138,311155,1,0,0:0:0:0:
217,118,311337,2,0,P|186:59|234:-17,1,131.249995994568
265,167,311518,1,0,0:0:0:0:
237,222,311701,1,0,0:0:0:0:
87,153,311883,6,0,B|98:222|97:222|2:147,1,131.249995994568
179,198,312065,2,0,P|118:200|32:160,1,131.249995994568
158,298,312246,2,0,B|136:198|53:134|93:-2,1,306.249990653992
20,215,312610,1,0,0:0:0:0:
10,328,312792,2,0,B|99:313|184:222|307:381,1,306.249990653992
446,228,313155,2,0,P|463:337|516:388,2,174.999994659424
486,113,313701,6,0,B|419:98|312:125|312:125|264:246,1,306.249990653992
382,59,314065,2,0,B|253:58|212:54|212:54|113:160,1,306.249990653992
0,0,314428,2,0,P|9:73|75:84,1,131.249995994568
151,90,314610,1,0,0:0:0:0:
16,243,314792,6,0,B|79:219|162:110|162:110|357:109|357:109|365:226,1,481.249985313416
268,353,315337,1,0,0:0:0:0:
261,181,315519,1,0,0:0:0:0:
443,284,315701,1,0,0:0:0:0:
179,213,315883,1,0,0:0:0:0:
457,146,316065,1,0,0:0:0:0:
330,0,316246,6,0,P|317:103|328:315,1,306.249990653992
236,103,316610,1,0,0:0:0:0:
88,90,316792,2,0,P|183:148|219:132,1,131.249995994568
16,176,316974,1,0,0:0:0:0:
85,243,317155,2,0,P|168:223|224:247,1,131.249995994568
11,170,317337,1,0,0:0:0:0:
99,14,317519,2,0,P|141:53|234:78,1,131.249995994568
379,50,317701,5,0,0:0:0:0:
353,199,317883,1,0,0:0:0:0:
325,373,318065,2,0,P|334:300|502:141,1,306.249990653992
468,284,318428,1,0,0:0:0:0:
486,77,318610,2,0,B|428:107|316:-12|180:117,1,306.249990653992
248,6,318974,1,0,0:0:0:0:
293,312,319155,2,0,P|266:236|209:220,1,125
284,313,319519,2,0,P|303:230|277:169,1,149.999995422363
261,336,319883,2,0,P|366:251|386:154,1,218.75
96,147,320246,2,0,P|110:261|243:343,1,262.499991989136
265,213,320610,6,0,P|344:203|417:212,1,131.249995994568
223,302,320792,1,0,0:0:0:0:
238,106,320974,2,0,P|181:99|98:106,1,131.249995994568
246,278,321155,1,0,0:0:0:0:
260,52,321337,2,0,P|307:55|474:98,1,187.5
277,238,321519,1,0,0:0:0:0:
258,4,321701,2,0,P|151:1|56:31,1,187.5
257,241,321883,1,0,0:0:0:0:
291,384,322065,5,0,0:0:0:0:
324,277,322246,1,0,0:0:0:0:
296,276,322337,1,0,0:0:0:0:
266,273,322428,2,0,P|205:276|146:308,1,87.499997329712
46,188,322610,1,0,0:0:0:0:
92,89,322792,2,0,P|147:117|173:243,1,174.999994659424
26,73,323155,2,0,P|106:35|210:45,1,174.999994659424
316,95,323519,1,0,0:0:0:0:
