osu file format v14

[General]
AudioFilename: audio.mp3
AudioLeadIn: 0
PreviewTime: 63105
Countdown: 0
SampleSet: Soft
StackLeniency: 0.7
Mode: 0
LetterboxInBreaks: 0
EpilepsyWarning: 1
WidescreenStoryboard: 1

[Editor]
DistanceSpacing: 0.6
BeatDivisor: 4
GridSize: 8
TimelineZoom: 0.9

[Metadata]
Title:Sasagu Uta -Higan Retour Symphony-
TitleUnicode:ささぐうた -ヒガン・ルトゥール・シンフォニー-
Artist:Diao ye zong
ArtistUnicode:凋叶棕
Creator:Hailie
Version:A Peaceful Journey
Source:東方花映塚 ~ Phantasmagoria of Flower View.
Tags:彼岸帰航~Riverside View 東方花映塚 Touhou Kaeizuka RD-Sounds C80 Comiket 80 遙 Haruka Komachi Onozuka This Song I Give: "Higan Retour Symphony" 東方 Project ZUN Shinigami Meramipop Megapcmx
BeatmapID:1428997
BeatmapSetID:675527

[Difficulty]
HPDrainRate:6.5
CircleSize:5
OverallDifficulty:8.5
ApproachRate:8.7
SliderMultiplier:1.8
SliderTickRate:1

[Events]
//Background and Video events
0,0,"BG.jpg",0,0
//Break Periods
2,40079,41428
2,137628,139750
2,146918,155363
//Storyboard Layer 0 (Background)
//Storyboard Layer 1 (Fail)
//Storyboard Layer 2 (Pass)
//Storyboard Layer 3 (Foreground)
//Storyboard Sound Samples

[TimingPoints]
396,387.096774193548,3,2,1,5,1,0
1557,-125,3,2,1,50,0,0
2718,-125,3,2,1,50,0,0
12008,-100,3,2,1,50,0,0
42202,-166.666666666667,3,2,1,40,0,0
63105,-125,3,2,1,50,0,0
81686,-100,3,2,1,50,0,0
100266,-71.4285714285714,3,2,1,70,0,1
117105,-71.4285714285714,3,2,1,70,0,0
118847,-66.6666666666667,4,2,1,70,0,1
137041,-66.6666666666667,4,2,1,70,0,0
137428,-166.666666666667,4,2,1,30,0,0
145170,-66.6666666666667,4,2,1,60,0,0
146718,-125,4,2,1,50,0,0
156008,-166.666666666667,4,2,1,30,0,0
174589,-125,4,2,1,50,0,0
193170,-100,4,2,1,50,0,0
211750,-71.4285714285714,4,2,1,70,0,1
228395,-71.4285714285714,4,2,1,70,0,0
230331,-66.6666666666667,4,2,1,70,0,1
248912,-83.3333333333333,4,2,1,70,0,0
269815,-66.6666666666667,4,2,1,80,0,1
287621,-66.6666666666667,4,2,1,80,0,0
288395,-66.6666666666667,4,2,1,80,0,1
306879,-66.6666666666667,4,2,1,80,0,0
306976,-66.6666666666667,4,2,1,80,0,1
311621,-100,4,2,1,50,0,0
320912,-83.3333333333333,4,2,1,60,0,0
330202,-166.666666666667,4,2,1,30,0,0
331363,-166.666666666667,4,2,1,20,0,0
332137,-166.666666666667,4,2,1,10,0,0
332525,-166.666666666667,4,2,1,5,0,0

[Colours]
Combo1 : 180,90,0
Combo2 : 255,0,0
Combo3 : 0,80,157
Combo4 : 192,192,192

[HitObjects]
256,192,396,12,4,1557,0:0:0:0:
348,316,1944,6,0,P|371:313|397:317,1,36,2|0,0:0|0:0,0:0:0:0:
463,298,2137,5,2,0:0:0:0:
478,283,2234,1,2,0:0:0:0:
482,261,2331,1,2,0:0:0:0:
479,239,2428,1,2,0:0:0:0:
467,220,2525,1,2,0:0:0:0:
447,211,2621,1,2,0:0:0:0:
425,211,2718,5,6,0:0:0:0:
191,133,3105,2,0,P|189:97|195:42,1,72
241,188,3492,2,0,P|243:223|241:259,1,72,2|0,0:0|0:0,0:0:0:0:
236,281,3783,1,0,0:0:0:0:
228,300,3879,6,0,B|294:332|314:279|390:314,1,144,12|2,0:0|0:0,0:0:0:0:
482,209,4460,2,0,B|421:232|403:196|338:209,1,144,12|0,0:0|0:0,0:0:0:0:
236,81,5041,6,0,L|242:184,1,72,10|0,0:0|0:0,0:0:0:0:
104,97,5428,2,0,L|80:9,1,72,10|0,0:0|0:0,0:0:0:0:
3,154,5815,2,0,L|42:231,1,72,10|0,0:0|0:0,0:0:0:0:
143,345,6202,6,0,P|208:318|288:355,1,144,14|0,0:0|0:0,0:0:0:0:
446,250,6783,2,0,P|379:274|314:246,1,144,14|0,0:0|0:0,0:0:0:0:
299,230,7266,1,0,0:0:0:0:
293,209,7363,6,0,B|308:152|267:127|294:55,1,144,14|0,0:0|0:0,0:0:0:0:
425,116,7944,1,2,0:0:0:0:
291,38,8137,1,0,0:0:0:0:
150,121,8331,1,2,0:0:0:0:
291,67,8525,1,0,0:0:0:0:
425,116,8718,1,2,0:0:0:0:
290,13,8912,2,0,L|291:104,1,72,8|0,0:0|0:0,0:0:0:0:
162,205,9299,2,0,L|162:131,1,72,8|0,0:0|0:0,0:0:0:0:
164,110,9589,1,0,0:0:0:0:
165,89,9686,6,0,P|205:91|262:86,1,72,2|0,0:0|0:0,0:0:0:0:
350,196,10073,2,0,P|314:194|273:196,1,72,8|0,0:0|0:0,0:0:0:0:
172,299,10460,2,0,P|212:301|269:296,1,72,8|0,0:0|0:0,0:0:0:0:
410,357,10847,1,2,0:0:0:0:
274,275,11041,1,2,0:0:0:0:
123,360,11234,1,8,0:0:0:0:
123,360,11331,1,8,0:0:0:0:
123,360,11428,1,8,0:0:0:0:
123,360,11525,1,8,0:0:0:0:
123,360,11621,1,8,0:0:0:0:
274,204,11815,1,2,0:0:0:0:
274,204,11912,1,0,0:0:0:0:
274,204,12008,6,0,P|274:156|269:91,1,90,6|0,0:0|0:0,0:0:0:0:
192,257,12395,2,0,P|189:301|190:346,1,90,8|0,0:0|0:0,0:0:0:0:
107,251,12783,1,2,0:0:0:0:
274,204,12976,2,0,P|318:206|368:204,1,90,8|0,0:0|0:0,0:0:0:0:
488,209,13363,1,0,0:0:0:0:
387,336,13557,2,0,P|337:333|298:334,1,90,8|0,0:0|0:0,0:0:0:0:
163,289,13944,1,2,0:0:0:0:
304,247,14137,1,8,0:0:0:0:
127,256,14331,6,0,L|127:372,1,90,2|0,0:0|0:0,0:0:0:0:
195,208,14718,2,0,L|195:97,1,90,8|0,0:0|0:0,0:0:0:0:
324,125,15105,1,2,0:0:0:0:
285,277,15299,2,0,L|183:279,1,90,8|2,0:0|0:0,0:0:0:0:
328,196,15686,2,0,L|442:194,1,90,8|0,0:0|0:0,0:0:0:0:
484,94,16073,1,2,0:0:0:0:
345,47,16266,1,10,0:0:0:0:
345,47,16363,1,10,0:0:0:0:
345,47,16460,1,10,0:0:0:0:
345,47,16557,1,10,0:0:0:0:
345,47,16654,6,0,P|297:50|232:47,1,90,6|2,0:0|0:0,0:0:0:0:
108,138,17041,2,0,P|153:137|199:138,1,90,8|0,0:0|0:0,0:0:0:0:
319,163,17428,1,2,0:0:0:0:
170,224,17621,2,0,P|168:272|168:325,1,90,8|2,0:0|0:0,0:0:0:0:
71,246,18008,1,0,0:0:0:0:
243,221,18202,2,0,P|244:174|243:124,1,90,10|0,0:0|0:0,0:0:0:0:
379,105,18589,1,0,0:0:0:0:
250,29,18783,2,0,L|143:32,1,90,8|2,0:0|0:0,0:0:0:0:
115,215,19170,5,8,0:0:0:0:
121,42,19363,1,8,0:0:0:0:
207,177,19557,1,8,0:0:0:0:
46,135,19750,2,0,L|146:131,1,90,2|8,0:0|0:0,0:0:0:0:
339,180,20137,5,12,0:0:0:0:
209,108,20331,1,0,0:0:0:0:
299,257,20525,1,8,0:0:0:0:
272,86,20718,1,0,0:0:0:0:
225,284,20912,1,8,0:0:0:0:
85,74,21299,6,0,P|133:75|198:71,1,90,6|0,0:0|0:0,0:0:0:0:
308,68,21686,1,2,0:0:0:0:
195,165,21879,2,0,P|148:165|82:167,1,90,8|0,0:0|0:0,0:0:0:0:
246,219,22266,2,0,P|245:266|246:313,1,90,8|2,0:0|0:0,0:0:0:0:
403,334,22653,1,8,0:0:0:0:
394,161,22847,1,2,0:0:0:0:
385,299,23041,1,2,0:0:0:0:
417,132,23234,2,0,P|370:134|324:131,1,90,8|0,0:0|0:0,0:0:0:0:
158,126,23621,6,0,L|158:14,1,90,6|0,0:0|0:0,0:0:0:0:
240,159,24008,1,2,0:0:0:0:
88,163,24202,2,0,L|84:280,1,90,8|0,0:0|0:0,0:0:0:0:
223,327,24589,2,0,P|266:326|329:327,1,90,8|2,0:0|0:0,0:0:0:0:
356,171,24975,1,8,0:0:0:0:
352,343,25169,1,2,0:0:0:0:
328,205,25363,1,2,0:0:0:0:
377,365,25557,2,0,P|423:367|479:367,1,90,8|0,0:0|0:0,0:0:0:0:
495,217,25944,6,0,P|450:218|405:217,1,90,6|0,0:0|0:0,0:0:0:0:
261,216,26331,1,2,0:0:0:0:
342,66,26525,2,0,P|392:66|432:66,1,90,8|0,0:0|0:0,0:0:0:0:
305,142,26912,2,0,P|305:179|304:256,1,90,8|2,0:0|0:0,0:0:0:0:
153,245,27299,1,8,0:0:0:0:
137,83,27492,1,2,0:0:0:0:
169,210,27686,1,2,0:0:0:0:
163,49,27879,2,0,P|115:48|71:49,1,90,8|0,0:0|0:0,0:0:0:0:
26,194,28266,6,0,L|26:298,1,90,6|0,0:0|0:0,0:0:0:0:
157,335,28654,1,2,0:0:0:0:
102,200,28847,2,0,L|102:93,1,90,8|0,0:0|0:0,0:0:0:0:
247,67,29234,2,0,P|290:68|353:67,1,90,8|2,0:0|0:0,0:0:0:0:
373,212,29620,1,8,0:0:0:0:
365,41,29814,1,2,0:0:0:0:
347,179,30008,1,2,0:0:0:0:
393,20,30202,2,0,P|439:18|495:18,1,90,8|0,0:0|0:0,0:0:0:0:
416,142,30589,6,0,P|363:143|307:142,1,90,6|0,0:0|0:0,0:0:0:0:
176,138,30976,1,2,0:0:0:0:
223,284,31170,2,8,P|268:283|323:284,1,90,8|0,0:0|0:0,0:0:0:0:
458,331,31557,1,8,0:0:0:0:
356,205,31750,2,0,P|356:160|355:115,1,90,2|0,0:0|0:0,0:0:0:0:
216,44,32137,1,8,0:0:0:0:
361,48,32331,1,2,0:0:0:0:
243,166,32525,1,8,0:0:0:0:
38,114,32912,6,0,L|38:-2,1,90,6|0,0:0|0:0,0:0:0:0:
189,22,33299,1,2,0:0:0:0:
129,180,33492,2,0,L|33:180,1,90,8|0,0:0|0:0,0:0:0:0:
142,297,33879,2,0,L|263:296,1,90,8|0,0:0|0:0,0:0:0:0:
372,191,34266,2,0,L|267:191,1,90,8|0,0:0|0:0,0:0:0:0:
212,101,34654,1,2,0:0:0:0:
257,260,34847,1,8,0:0:0:0:
293,143,35041,1,0,0:0:0:0:
452,225,35234,6,0,B|434:270|434:270|444:328,1,90,6|0,0:0|0:0,0:0:0:0:
284,286,35621,1,2,0:0:0:0:
327,119,35815,2,0,P|373:121|444:118,1,90,8|0,0:0|0:0,0:0:0:0:
494,274,36202,1,8,0:0:0:0:
328,227,36395,2,0,P|281:225|227:227,1,90,2|0,0:0|0:0,0:0:0:0:
87,147,36783,1,8,0:0:0:0:
157,272,36976,1,2,0:0:0:0:
160,90,37170,1,8,0:0:0:0:
111,349,37557,6,0,B|113:349|154:338|154:338|216:354,1,90,6|0,0:0|0:0,0:0:0:0:
377,341,37944,1,2,0:0:0:0:
249,183,38137,2,0,P|252:231|251:278,1,90,8|0,0:0|0:0,0:0:0:0:
407,146,38525,1,8,0:0:0:0:
105,146,38718,5,8,0:0:0:0:
380,328,39105,1,8,0:0:0:0:
258,21,39492,1,8,0:0:0:0:
152,330,39879,5,6,0:0:0:0:
484,193,42202,5,6,0:0:0:0:
256,35,43363,1,2,0:0:0:0:
44,85,44525,6,0,B|121:73|122:118|216:91,1,161.999995056153,6|0,0:0|0:0,0:0:0:0:
203,94,45299,1,0,0:0:0:0:
234,32,45492,1,0,0:0:0:0:
234,32,45686,2,0,P|277:93|215:167,1,161.999995056153,2|0,0:0|0:0,0:0:0:0:
167,164,46460,2,0,P|137:159|95:170,1,53.9999983520508,2|0,0:0|0:0,0:0:0:0:
41,172,46847,2,0,B|21:244|65:260|43:335,1,161.999995056153,2|0,0:0|0:0,0:0:0:0:
43,331,47621,1,2,0:0:0:0:
122,329,47815,1,0,0:0:0:0:
232,342,48008,2,0,P|274:285|214:237,1,161.999995056153,2|0,0:0|0:0,0:0:0:0:
43,199,48976,5,0,0:0:0:0:
43,199,49170,2,0,B|59:122|17:114|42:35,1,161.999995056153,2|0,0:0|0:0,0:0:0:0:
41,40,49944,1,2,0:0:0:0:
119,37,50137,1,0,0:0:0:0:
119,37,50331,2,0,P|176:46|241:35,1,107.999996704102,2|0,0:0|0:0,0:0:0:0:
270,111,50912,1,0,0:0:0:0:
270,111,51105,2,0,P|243:106|207:112,1,53.9999983520508,2|0,0:0|0:0,0:0:0:0:
153,125,51492,2,0,B|136:169|168:190|145:255,1,107.999996704102,2|0,0:0|0:0,0:0:0:0:
122,296,52073,1,0,0:0:0:0:
122,296,52266,2,0,P|150:303|192:287,1,53.9999983520508,2|0,0:0|0:0,0:0:0:0:
263,190,52654,2,0,B|340:212|339:171|426:188,1,161.999995056153,2|0,0:0|0:0,0:0:0:0:
480,355,53621,5,0,0:0:0:0:
336,348,53815,2,0,P|276:310|336:300,1,161.999995056153,6|0,0:0|0:0,0:0:0:0:
327,293,54589,1,2,0:0:0:0:
173,344,54783,1,0,0:0:0:0:
173,344,54976,2,0,B|189:272|141:254|174:171,1,161.999995056153,2|0,0:0|0:0,0:0:0:0:
169,184,55750,1,2,0:0:0:0:
150,86,55944,1,0,0:0:0:0:
150,86,56137,2,0,B|223:117|244:69|319:95,2,161.999995056153,2|0|2,0:0|0:0|0:0,0:0:0:0:
105,273,57686,2,0,P|132:283|178:279,1,53.9999983520508,2|0,0:0|0:0,0:0:0:0:
229,290,58073,2,0,P|259:291|299:306,1,53.9999983520508,2|0,0:0|0:0,0:0:0:0:
415,311,58460,6,0,P|445:272|437:212,1,107.999996704102,2|0,0:0|0:0,0:0:0:0:
410,40,59234,2,0,P|381:44|338:35,1,53.9999983520508,2|0,0:0|0:0,0:0:0:0:
288,34,59621,2,0,P|235:27|169:43,1,107.999996704102,2|0,0:0|0:0,0:0:0:0:
122,78,60202,1,0,0:0:0:0:
122,78,60395,2,0,P|113:107|123:151,1,53.9999983520508,2|0,0:0|0:0,0:0:0:0:
105,250,60783,2,0,P|157:238|223:257,1,107.999996704102,2|0,0:0|0:0,0:0:0:0:
279,268,61363,1,0,0:0:0:0:
279,268,61557,2,0,P|322:273|355:266,1,53.9999983520508,2|0,0:0|0:0,0:0:0:0:
502,206,61944,5,0,0:0:0:0:
428,350,62137,1,2,0:0:0:0:
240,204,62525,5,2,0:0:0:0:
157,341,62718,1,2,0:0:0:0:
157,341,63105,6,0,B|174:283|134:258|156:196,1,144,2|0,0:0|0:0,0:0:0:0:
262,17,63879,1,2,0:0:0:0:
299,153,64073,1,0,0:0:0:0:
168,110,64266,2,0,B|103:128|90:89|0:116,1,144,2|0,0:0|0:0,0:0:0:0:
230,241,65041,1,2,0:0:0:0:
230,241,65428,6,0,L|229:165,1,72,2|0,0:0|0:0,0:0:0:0:
308,58,65815,1,0,0:0:0:0:
328,191,66008,1,0,0:0:0:0:
237,96,66202,1,2,0:0:0:0:
362,112,66395,1,0,0:0:0:0:
229,169,66589,2,0,P|160:180|76:153,1,144,2|2,0:0|0:0,0:0:0:0:
255,305,67363,1,2,0:0:0:0:
280,66,67750,6,0,B|343:48|360:98|439:62,1,144,2|0,0:0|0:0,0:0:0:0:
423,201,68331,1,0,0:0:0:0:
311,134,68525,1,2,0:0:0:0:
452,128,68718,1,0,0:0:0:0:
341,199,68912,2,0,P|345:271|326:352,1,144,2|2,0:0|0:0,0:0:0:0:
114,358,69686,6,0,P|77:353|32:362,1,72,2|0,0:0|0:0,0:0:0:0:
10,247,70073,2,0,P|13:208|2:159,1,72,2|0,0:0|0:0,0:0:0:0:
42,62,70460,1,0,0:0:0:0:
183,70,70654,1,0,0:0:0:0:
89,171,70847,1,2,0:0:0:0:
108,24,71041,1,0,0:0:0:0:
175,160,71234,2,0,P|246:145|318:164,2,144,2|2|2,0:0|0:0|0:0,0:0:0:0:
303,47,72202,5,2,0:0:0:0:
476,39,72395,2,0,P|426:82|439:179,1,144,2|0,0:0|0:0,0:0:0:0:
362,358,73170,1,2,0:0:0:0:
287,212,73363,1,2,0:0:0:0:
362,358,73557,2,0,P|293:338|215:366,1,144,2|0,0:0|0:0,0:0:0:0:
58,251,74331,6,0,L|58:162,1,72,2|0,0:0|0:0,0:0:0:0:
166,86,74718,2,0,L|166:247,1,144,2|0,0:0|0:0,0:0:0:0:
102,333,75299,2,0,P|170:315|254:339,1,144,2|0,0:0|0:0,0:0:0:0:
355,357,75879,2,0,P|392:361|443:353,1,72,2|0,0:0|0:0,0:0:0:0:
478,286,76266,2,0,P|480:246|476:192,1,72,2|0,0:0|0:0,0:0:0:0:
378,143,76654,2,0,P|376:181|379:237,1,72,2|0,0:0|0:0,0:0:0:0:
269,262,77041,6,0,P|270:224|266:168,1,72,2|0,0:0|0:0,0:0:0:0:
177,87,77428,1,0,0:0:0:0:
177,87,77621,2,0,L|177:253,1,144,2|2,0:0|0:0,0:0:0:0:
60,238,78202,2,0,L|60:147,1,72,2|0,0:0|0:0,0:0:0:0:
48,39,78589,5,0,0:0:0:0:
48,39,78783,2,0,P|114:49|209:35,1,144,2|0,0:0|0:0,0:0:0:0:
235,145,79363,2,0,P|225:181|242:232,1,72,2|0,0:0|0:0,0:0:0:0:
295,320,79750,1,0,0:0:0:0:
295,320,79944,2,0,P|320:262|295:182,1,144,2|2,0:0|0:0,0:0:0:0:
456,34,80525,5,10,0:0:0:0:
392,74,80718,1,10,0:0:0:0:
392,74,80815,1,10,0:0:0:0:
392,74,80912,1,2,0:0:0:0:
331,24,81105,1,2,0:0:0:0:
278,79,81299,1,10,0:0:0:0:
220,34,81492,1,2,0:0:0:0:
114,135,81686,6,0,P|65:137|9:135,1,90,6|0,0:0|0:0,0:0:0:0:
28,301,82073,1,8,0:0:0:0:
153,228,82266,2,0,P|197:226|245:226,1,90,2|0,0:0|0:0,0:0:0:0:
409,160,82654,1,0,0:0:0:0:
409,160,82847,2,0,L|409:45,1,90,2|0,0:0|0:0,0:0:0:0:
340,228,83234,2,0,L|340:332,1,90,8|0,0:0|0:0,0:0:0:0:
443,228,83621,1,2,0:0:0:0:
283,190,83815,1,0,0:0:0:0:
283,190,84008,2,0,P|196:220|105:181,1,180,6|8,0:0|0:0,0:0:0:0:
346,56,84783,5,0,0:0:0:0:
280,26,84976,1,2,0:0:0:0:
212,56,85170,1,2,0:0:0:0:
284,277,85557,1,8,0:0:0:0:
281,61,85944,1,2,0:0:0:0:
284,277,86331,6,0,P|238:274|183:280,1,90,6|0,0:0|0:0,0:0:0:0:
96,155,86718,1,0,0:0:0:0:
96,155,86912,2,0,P|93:209|95:273,1,90,2|8,0:0|0:0,0:0:0:0:
245,269,87299,1,0,0:0:0:0:
253,93,87492,2,0,P|296:94|349:93,1,90,6|0,0:0|0:0,0:0:0:0:
210,169,87879,2,0,P|167:170|107:168,1,90,2|0,0:0|0:0,0:0:0:0:
294,158,88266,1,8,0:0:0:0:
222,238,88460,1,0,0:0:0:0:
225,104,88654,5,8,0:0:0:0:
283,270,88847,1,8,0:0:0:0:
238,91,89041,1,8,0:0:0:0:
270,282,89234,1,8,0:0:0:0:
250,77,89428,1,8,0:0:0:0:
258,293,89621,1,8,0:0:0:0:
266,63,89815,5,8,0:0:0:0:
200,346,90202,1,8,0:0:0:0:
398,147,90589,1,8,0:0:0:0:
131,274,90976,6,0,P|175:273|220:275,1,90,6|0,0:0|0:0,0:0:0:0:
376,275,91363,1,8,0:0:0:0:
276,163,91557,2,0,P|229:165|186:164,1,90,2|0,0:0|0:0,0:0:0:0:
245,348,91944,1,8,0:0:0:0:
294,145,92137,1,8,0:0:0:0:
351,364,92525,6,0,L|449:364,1,90,8|0,0:0|0:0,0:0:0:0:
302,290,92912,2,0,L|194:290,1,90,8|0,0:0|0:0,0:0:0:0:
152,121,93299,2,0,P|149:75|166:11,1,90,6|0,0:0|0:0,0:0:0:0:
291,125,93686,2,0,P|297:169|292:217,1,90,2|0,0:0|0:0,0:0:0:0:
110,125,94073,2,0,P|105:76|119:20,1,90,2|0,0:0|0:0,0:0:0:0:
106,277,94460,6,0,B|195:257|190:316|310:279,1,180,6|0,0:0|0:0,0:0:0:0:
504,345,95234,6,0,P|509:297|501:239,1,90,2|0,0:0|0:0,0:0:0:0:
392,93,95621,2,0,P|384:138|388:188,1,90,6|0,0:0|0:0,0:0:0:0:
337,321,96008,5,8,0:0:0:0:
247,170,96202,1,8,0:0:0:0:
330,332,96395,1,8,0:0:0:0:
255,163,96589,1,8,0:0:0:0:
323,342,96783,1,8,0:0:0:0:
263,154,96976,1,8,0:0:0:0:
419,255,97170,5,8,0:0:0:0:
217,219,97363,1,8,0:0:0:0:
421,347,97557,1,8,0:0:0:0:
421,347,97654,1,8,0:0:0:0:
421,347,97750,1,8,0:0:0:0:
314,135,97944,5,12,0:0:0:0:
251,357,98137,1,8,0:0:0:0:
251,357,98234,1,8,0:0:0:0:
251,357,98331,1,10,0:0:0:0:
394,227,98525,5,2,0:0:0:0:
179,149,98718,1,8,0:0:0:0:
179,149,98815,1,8,0:0:0:0:
179,149,98912,1,8,0:0:0:0:
263,327,99105,5,8,0:0:0:0:
123,229,99299,1,2,0:0:0:0:
263,146,99492,1,8,0:0:0:0:
194,339,99686,5,2,0:0:0:0:
32,252,99879,1,2,0:0:0:0:
171,134,100073,1,2,0:0:0:0:
385,196,100266,6,2,P|455:131|351:136,1,251.999992309571,6|0,0:0|0:0,0:0:0:0:
171,134,100847,2,0,P|110:138|33:132,1,125.999996154785,2|0,0:0|0:0,0:0:0:0:
148,277,101234,1,2,0:0:0:0:
276,178,101428,1,2,0:0:0:0:
147,64,101621,1,2,0:0:0:0:
148,277,101815,2,0,P|210:273|281:279,1,125.999996154785,8|0,0:0|0:0,0:0:0:0:
477,359,102202,1,8,0:0:0:0:
308,290,102395,1,8,0:0:0:0:
511,365,102589,6,2,B|543:259|469:229|508:116,1,251.999992309571,6|0,0:0|0:0,0:0:0:0:
328,46,103170,2,0,P|267:51|197:42,1,125.999996154785,2|0,0:0|0:0,0:0:0:0:
30,28,103557,1,2,0:0:0:0:
196,124,103750,2,2,B|220:182|220:182|201:257,1,125.999996154785,6|0,0:0|0:0,0:0:0:0:
381,321,104137,5,8,0:0:0:0:
336,297,104234,1,8,0:0:0:0:
285,297,104331,1,8,0:0:0:0:
240,319,104428,1,8,0:0:0:0:
193,334,104525,1,8,0:0:0:0:
143,328,104621,1,8,0:0:0:0:
101,298,104718,1,8,0:0:0:0:
196,124,104912,6,2,B|300:98|330:185|454:140,1,251.999992309571,6|0,0:0|0:0,0:0:0:0:
283,54,105492,2,0,P|220:49|153:66,1,125.999996154785,2|0,0:0|0:0,0:0:0:0:
23,158,105879,1,2,0:0:0:0:
179,185,106073,1,2,0:0:0:0:
69,54,106266,1,2,0:0:0:0:
84,276,106460,1,10,0:0:0:0:
84,276,106847,6,2,P|143:269|218:278,1,125.999996154785,10|0,0:0|0:0,0:0:0:0:
406,186,107234,6,2,P|470:177|401:252,1,251.999992309571,6|0,0:0|0:0,0:0:0:0:
266,318,107815,1,2,0:0:0:0:
100,194,108008,2,0,P|161:203|245:191,1,125.999996154785
319,14,108395,5,8,0:0:0:0:
262,217,108589,1,8,0:0:0:0:
231,16,108783,1,8,0:0:0:0:
336,190,108976,1,8,0:0:0:0:
167,52,109170,1,8,0:0:0:0:
398,140,109363,1,8,0:0:0:0:
141,25,109557,6,0,P|76:29|7:26,1,125.999996154785,6|0,0:0|0:0,0:0:0:0:
78,207,109944,1,8,0:0:0:0:
188,87,110137,2,0,P|251:84|325:84,1,125.999996154785,2|8,0:0|0:0,0:0:0:0:
494,41,110525,1,2,0:0:0:0:
402,196,110718,2,0,P|346:195|264:197,1,125.999996154785,2|0,0:0|0:0,0:0:0:0:
79,178,111105,2,0,L|75:319,1,125.999996154785,2|8,0:0|0:0,0:0:0:0:
240,257,111492,5,2,0:0:0:0:
90,147,111686,1,8,0:0:0:0:
270,132,111879,2,0,P|336:135|418:132,1,125.999996154785,6|0,0:0|0:0,0:0:0:0:
332,323,112266,2,0,P|270:320|195:325,1,125.999996154785,8|0,0:0|0:0,0:0:0:0:
90,147,112654,1,8,0:0:0:0:
185,292,112847,1,0,0:0:0:0:
229,61,113041,5,2,0:0:0:0:
128,213,113234,1,0,0:0:0:0:
312,217,113428,1,2,0:0:0:0:
113,112,113621,5,8,0:0:0:0:
233,220,113815,1,0,0:0:0:0:
372,110,114008,1,8,0:0:0:0:
353,317,114202,6,0,P|292:315|217:318,1,125.999996154785,6|0,0:0|0:0,0:0:0:0:
79,235,114589,1,8,0:0:0:0:
166,360,114783,1,2,0:0:0:0:
139,166,114976,2,0,P|201:169|265:168,1,125.999996154785,8|0,0:0|0:0,0:0:0:0:
354,317,115363,5,8,0:0:0:0:
256,32,115750,1,8,0:0:0:0:
140,321,116137,1,8,0:0:0:0:
410,209,116525,6,6,P|301:160|416:153,1,314.999990386963,6|0,0:0|0:0,0:0:0:0:
467,249,117105,5,2,0:0:0:0:
459,272,117202,1,2,0:0:0:0:
444,292,117299,1,2,0:0:0:0:
422,305,117395,1,2,0:0:0:0:
398,314,117492,1,2,0:0:0:0:
372,317,117589,1,2,0:0:0:0:
346,313,117686,1,2,0:0:0:0:
321,305,117783,1,2,0:0:0:0:
299,292,117879,1,2,0:0:0:0:
281,274,117976,1,2,0:0:0:0:
271,250,118073,1,2,0:0:0:0:
271,224,118170,1,2,0:0:0:0:
279,200,118266,1,2,0:0:0:0:
296,181,118363,1,2,0:0:0:0:
342,162,118460,5,8,0:0:0:0:
342,212,118557,1,0,0:0:0:0:
342,262,118654,1,8,0:0:0:0:
342,311,118750,1,4,0:0:0:0:
340,363,118847,6,0,P|273:360|188:364,1,135.000005149842,6|0,0:0|0:0,0:0:0:0:
55,242,119234,2,0,P|122:244|190:241,1,135.000005149842,2|0,0:0|0:0,0:0:0:0:
379,141,119621,2,0,P|401:123|381:162,1,135.000005149842,8|0,0:0|0:0,0:0:0:0:
212,76,120008,2,0,B|143:92|139:62|69:76,1,135.000005149842,6|0,0:0|0:0,0:0:0:0:
189,241,120395,2,0,B|253:232|261:263|329:248,1,135.000005149842,2|0,0:0|0:0,0:0:0:0:
105,344,120783,2,0,P|93:296|123:338,1,135.000005149842,8|0,0:0|0:0,0:0:0:0:
321,250,121170,5,6,0:0:0:0:
123,225,121363,1,0,0:0:0:0:
209,76,121557,2,0,L|209:215,1,135.000005149842,2|0,0:0|0:0,0:0:0:0:
348,346,121944,2,0,L|347:188,1,135.000005149842,8|0,0:0|0:0,0:0:0:0:
179,99,122331,1,6,0:0:0:0:
372,127,122525,1,0,0:0:0:0:
186,187,122718,1,2,0:0:0:0:
305,31,122912,1,0,0:0:0:0:
310,269,123105,1,10,0:0:0:0:
310,269,123492,6,0,P|240:268|149:271,1,135.000005149842,6|0,0:0|0:0,0:0:0:0:
40,136,123879,2,0,P|107:138|175:135,1,135.000005149842,2|0,0:0|0:0,0:0:0:0:
398,114,124266,2,0,P|347:103|394:80,1,135.000005149842,8|0,0:0|0:0,0:0:0:0:
370,277,124654,2,0,B|431:298|450:266|506:278,1,135.000005149842,6|0,0:0|0:0,0:0:0:0:
321,349,125041,2,0,B|265:369|245:335|184:352,1,135.000005149842,2|0,0:0|0:0,0:0:0:0:
37,172,125428,2,0,P|85:183|38:187,1,135.000005149842,8|0,0:0|0:0,0:0:0:0:
256,242,125815,5,6,0:0:0:0:
348,63,126008,1,2,0:0:0:0:
315,38,126105,1,2,0:0:0:0:
274,36,126202,1,2,0:0:0:0:
236,55,126299,1,2,0:0:0:0:
217,91,126395,1,2,0:0:0:0:
218,131,126492,1,2,0:0:0:0:
236,167,126589,1,2,0:0:0:0:
270,188,126686,1,2,0:0:0:0:
310,191,126783,2,0,P|345:183|374:156,1,67.5000025749208,2|2,0:0|0:0,0:0:0:0:
432,213,126976,5,2,0:0:0:0:
441,252,127073,1,2,0:0:0:0:
431,291,127170,1,2,0:0:0:0:
401,318,127266,1,2,0:0:0:0:
361,328,127363,1,2,0:0:0:0:
321,317,127460,1,2,0:0:0:0:
291,289,127557,1,2,0:0:0:0:
284,248,127654,1,2,0:0:0:0:
298,204,127750,5,6,0:0:0:0:
225,342,127944,1,2,0:0:0:0:
136,173,128137,6,0,P|69:171|-28:174,1,135.000005149842,6|0,0:0|0:0,0:0:0:0:
125,35,128525,2,0,P|192:39|264:36,1,135.000005149842,2|0,0:0|0:0,0:0:0:0:
475,97,128912,2,0,P|432:82|483:78,1,135.000005149842,8|0,0:0|0:0,0:0:0:0:
486,270,129299,2,0,B|434:291|413:258|352:271,1,135.000005149842,6|0,0:0|0:0,0:0:0:0:
323,66,129686,1,2,0:0:0:0:
332,298,129879,1,8,0:0:0:0:
332,298,129976,1,8,0:0:0:0:
332,298,130073,1,8,0:0:0:0:
332,298,130170,1,8,0:0:0:0:
332,298,130266,1,8,0:0:0:0:
332,298,130363,1,8,0:0:0:0:
332,298,130460,5,14,0:0:0:0:
301,145,130654,1,0,0:0:0:0:
332,340,130847,1,8,0:0:0:0:
428,184,131041,1,2,0:0:0:0:
428,184,131137,1,0,0:0:0:0:
428,184,131234,1,8,0:0:0:0:
277,282,131428,1,8,0:0:0:0:
268,113,131621,5,2,0:0:0:0:
148,255,131815,1,8,0:0:0:0:
339,208,132008,1,8,0:0:0:0:
177,142,132202,1,2,0:0:0:0:
262,355,132395,1,8,0:0:0:0:
262,355,132492,1,8,0:0:0:0:
262,355,132589,1,8,0:0:0:0:
262,355,132686,1,8,0:0:0:0:
262,355,132783,6,0,P|198:351|105:357,1,135.000005149842,6|0,0:0|0:0,0:0:0:0:
19,186,133170,2,0,P|87:191|154:187,1,135.000005149842,2|0,0:0|0:0,0:0:0:0:
380,186,133557,2,0,P|407:222|366:195,1,135.000005149842,8|0,0:0|0:0,0:0:0:0:
275,36,133944,2,0,B|209:57|203:17|118:43,1,135.000005149842,6|0,0:0|0:0,0:0:0:0:
271,187,134331,2,0,B|326:215|348:171|425:199,1,135.000005149842,2|0,0:0|0:0,0:0:0:0:
504,378,134718,1,8,0:0:0:0:
440,185,134912,1,0,0:0:0:0:
194,130,135105,5,6,0:0:0:0:
253,311,135299,1,2,0:0:0:0:
295,312,135395,1,2,0:0:0:0:
330,294,135492,1,2,0:0:0:0:
353,260,135589,1,2,0:0:0:0:
352,219,135686,1,2,0:0:0:0:
333,182,135783,1,2,0:0:0:0:
299,159,135879,1,2,0:0:0:0:
258,159,135976,1,2,0:0:0:0:
221,177,136073,2,0,P|201:208|203:262,1,67.5000025749208,2|2,0:0|0:0,0:0:0:0:
275,337,136266,5,2,0:0:0:0:
306,363,136363,1,2,0:0:0:0:
346,369,136460,1,2,0:0:0:0:
384,357,136557,1,2,0:0:0:0:
408,325,136654,1,2,0:0:0:0:
408,284,136750,1,2,0:0:0:0:
388,248,136847,1,2,0:0:0:0:
350,232,136944,1,2,0:0:0:0:
305,242,137041,6,0,P|241:258|157:226,1,135.000005149842,6|0,0:0|0:0,0:0:0:0:
384,357,137428,1,2,0:0:0:0:
408,193,140525,5,0,0:0:0:0:
256,316,140912,1,2,0:0:0:0:
255,17,141686,1,0,0:0:0:0:
116,194,142073,1,4,0:0:0:0:
440,249,142847,5,2,0:0:0:0:
255,351,143234,1,0,0:0:0:0:
121,105,144008,1,2,0:0:0:0:
334,16,144395,2,0,P|391:65|387:118,1,107.999996704102,2|0,0:0|0:0,0:0:0:0:
323,86,144976,1,0,0:0:0:0:
286,318,145170,1,2,0:0:0:0:
286,318,145266,1,2,0:0:0:0:
286,318,145363,1,2,0:0:0:0:
286,318,145460,1,2,0:0:0:0:
286,318,145557,6,0,P|358:308|434:327,1,135.000005149842,14|0,0:0|0:0,0:0:0:0:
164,192,145944,1,14,0:0:0:0:
475,140,146525,1,0,0:0:0:0:
306,46,146718,5,2,0:0:0:0:
445,217,156008,6,0,P|451:127|479:167,1,215.999993408203,2|0,0:0|0:0,0:0:0:0:
305,229,157170,2,0,B|223:250|223:250|170:222|170:222|78:244,1,215.999993408203,2|0,0:0|0:0,0:0:0:0:
70,79,158331,2,0,B|152:100|152:100|205:72|205:72|274:88,1,215.999993408203,2|0,0:0|0:0,0:0:0:0:
459,109,159492,1,2,0:0:0:0:
137,154,160073,1,2,0:0:0:0:
422,190,160654,6,0,P|372:248|458:230,1,215.999993408203,2|0,0:0|0:0,0:0:0:0:
287,326,161815,2,0,B|181:301|181:365|57:328,1,215.999993408203,2|0,0:0|0:0,0:0:0:0:
210,201,162976,2,0,B|332:224|328:169|424:185,1,215.999993408203,2|0,0:0|0:0,0:0:0:0:
257,17,164137,1,2,0:0:0:0:
491,257,164718,1,2,0:0:0:0:
245,351,165299,6,0,B|272:265|197:237|247:125,1,215.999993408203,2|0,0:0|0:0,0:0:0:0:
240,139,166266,1,0,0:0:0:0:
313,144,166460,2,0,P|246:73|175:156,1,215.999993408203,2|0,0:0|0:0,0:0:0:0:
244,142,167428,1,0,0:0:0:0:
171,210,167621,2,0,P|242:245|325:197,2,161.999995056153,2|0|2,0:0|0:0|0:0,0:0:0:0:
420,335,169363,1,2,0:0:0:0:
84,340,169944,6,0,P|112:240|38:147,1,215.999993408203,2|0,0:0|0:0,0:0:0:0:
212,60,171105,2,0,B|284:55|284:55|354:98|354:98|425:95,1,215.999993408203,2|0,0:0|0:0,0:0:0:0:
391,272,172266,2,0,B|329:274|329:274|259:231|259:231|187:236,1,215.999993408203,2|0,0:0|0:0,0:0:0:0:
248,43,173428,1,2,0:0:0:0:
153,344,174008,1,2,0:0:0:0:
429,161,174589,6,0,P|328:143|205:170,1,216,6|0,0:0|0:0,0:0:0:0:
217,164,175363,1,2,0:0:0:0:
209,73,175557,1,0,0:0:0:0:
328,145,175750,2,0,B|289:247|355:267|326:370,1,216,2|0,0:0|0:0,0:0:0:0:
329,357,176525,1,2,0:0:0:0:
237,319,176718,1,0,0:0:0:0:
316,209,176912,2,0,P|383:216|475:210,1,144,2|0,0:0|0:0,0:0:0:0:
512,275,177492,1,0,0:0:0:0:
462,145,177686,1,2,0:0:0:0:
414,279,177879,1,0,0:0:0:0:
360,127,178073,2,0,B|249:163|244:87|133:120,1,216,2|2,0:0|0:0,0:0:0:0:
225,330,179234,6,0,P|274:284|196:309,1,216,2|0,0:0|0:0,0:0:0:0:
193,301,180008,1,2,0:0:0:0:
99,317,180202,1,0,0:0:0:0:
59,184,180395,2,0,B|180:227|169:148|286:179,1,216,2|0,0:0|0:0,0:0:0:0:
269,175,181170,1,2,0:0:0:0:
380,164,181363,1,0,0:0:0:0:
423,296,181557,2,0,P|328:285|208:298,1,216,2|0,0:0|0:0,0:0:0:0:
209,297,182331,1,2,0:0:0:0:
233,204,182525,1,0,0:0:0:0:
87,222,182718,2,0,P|52:138|108:164,1,216,2|2,0:0|0:0,0:0:0:0:
252,56,183686,5,0,0:0:0:0:
252,204,183879,2,0,B|357:173|361:249|468:208,1,216,2|0,0:0|0:0,0:0:0:0:
461,210,184654,1,2,0:0:0:0:
379,321,184847,1,0,0:0:0:0:
386,146,185041,2,0,P|460:103|378:77,1,216,2|0,0:0|0:0,0:0:0:0:
237,46,185815,5,2,0:0:0:0:
237,163,186008,1,0,0:0:0:0:
237,32,186202,2,0,P|275:30|336:31,1,72,2|0,0:0|0:0,0:0:0:0:
368,159,186589,1,0,0:0:0:0:
234,161,186783,2,0,P|198:163|152:162,1,72,2|0,0:0|0:0,0:0:0:0:
166,288,187170,1,0,0:0:0:0:
315,281,187363,6,0,P|358:280|401:282,1,72,2|0,0:0|0:0,0:0:0:0:
306,161,187750,2,0,P|269:163|218:160,1,72,2|0,0:0|0:0,0:0:0:0:
192,263,188137,2,0,P|193:308|192:356,1,72,2|0,0:0|0:0,0:0:0:0:
308,233,188525,2,0,P|307:199|307:156,1,72,2|0,0:0|0:0,0:0:0:0:
155,88,188912,2,0,P|102:107|140:117,1,144,2|0,0:0|0:0,0:0:0:0:
256,302,189686,1,2,0:0:0:0:
361,103,190073,5,0,0:0:0:0:
361,103,190266,2,0,P|293:109|206:99,1,144,2|0,0:0|0:0,0:0:0:0:
135,219,190847,2,0,P|170:216|209:219,1,72,2|0,0:0|0:0,0:0:0:0:
303,286,191234,1,0,0:0:0:0:
303,286,191428,2,0,B|318:230|280:196|305:135,1,144,2|0,0:0|0:0,0:0:0:0:
462,25,192008,5,8,0:0:0:0:
417,85,192202,1,10,0:0:0:0:
417,85,192299,1,10,0:0:0:0:
417,85,192395,1,2,0:0:0:0:
482,132,192589,1,2,0:0:0:0:
420,176,192783,1,10,0:0:0:0:
468,239,192976,1,2,0:0:0:0:
297,318,193170,6,0,P|297:271|296:221,1,90,6|0,0:0|0:0,0:0:0:0:
393,107,193557,1,8,0:0:0:0:
248,64,193750,2,0,P|248:111|249:155,1,90,2|0,0:0|0:0,0:0:0:0:
223,311,194137,1,0,0:0:0:0:
223,311,194331,2,0,L|132:311,1,90,2|0,0:0|0:0,0:0:0:0:
290,237,194718,2,0,L|390:237,1,90,8|0,0:0|0:0,0:0:0:0:
404,109,195105,1,0,0:0:0:0:
245,54,195299,1,0,0:0:0:0:
245,54,195492,2,0,B|215:144|278:139|244:248,1,180,6|8,0:0|0:0,0:0:0:0:
433,256,196266,5,0,0:0:0:0:
466,192,196460,1,2,0:0:0:0:
433,128,196654,1,2,0:0:0:0:
204,196,197041,1,8,0:0:0:0:
423,195,197428,1,2,0:0:0:0:
204,196,197815,6,0,P|153:198|98:196,1,90,6|0,0:0|0:0,0:0:0:0:
179,338,198202,1,0,0:0:0:0:
179,338,198395,2,0,P|226:336|272:337,1,90,2|8,0:0|0:0,0:0:0:0:
428,332,198783,1,0,0:0:0:0:
341,147,198976,2,0,P|340:199|342:251,1,90,6|0,0:0|0:0,0:0:0:0:
219,321,199363,2,0,P|220:272|217:208,1,90,2|0,0:0|0:0,0:0:0:0:
299,71,199750,1,8,0:0:0:0:
249,166,199944,1,0,0:0:0:0:
366,95,200137,5,8,0:0:0:0:
194,121,200331,1,8,0:0:0:0:
376,110,200525,1,8,0:0:0:0:
182,108,200718,1,8,0:0:0:0:
387,130,200912,1,8,0:0:0:0:
170,94,201105,1,8,0:0:0:0:
397,150,201299,5,8,0:0:0:0:
118,40,201686,1,8,0:0:0:0:
322,249,202073,1,8,0:0:0:0:
175,31,202460,6,0,P|128:33|71:32,1,90,6|0,0:0|0:0,0:0:0:0:
14,167,202847,1,8,0:0:0:0:
176,137,203041,2,0,P|225:136|282:137,1,90,2|0,0:0|0:0,0:0:0:0:
148,268,203428,1,8,0:0:0:0:
176,99,203621,1,8,0:0:0:0:
174,293,204008,6,0,L|268:293,1,90,8|0,0:0|0:0,0:0:0:0:
127,210,204395,2,0,L|19:210,1,90,8|0,0:0|0:0,0:0:0:0:
224,158,204783,2,0,P|230:113|219:60,1,90,6|0,0:0|0:0,0:0:0:0:
127,210,205170,2,0,P|119:252|124:301,1,90,2|0,0:0|0:0,0:0:0:0:
265,164,205557,2,0,P|270:119|257:58,1,90,2|0,0:0|0:0,0:0:0:0:
370,264,205944,6,0,B|284:292|280:243|190:266,1,180,6|0,0:0|0:0,0:0:0:0:
396,166,206718,6,0,P|440:163|514:174,1,90,2|0,0:0|0:0,0:0:0:0:
414,344,207105,2,0,P|372:348|314:343,1,90,6|0,0:0|0:0,0:0:0:0:
191,226,207492,5,8,0:0:0:0:
337,256,207686,1,8,0:0:0:0:
180,218,207879,1,8,0:0:0:0:
346,266,208073,1,8,0:0:0:0:
168,208,208266,1,8,0:0:0:0:
355,277,208460,1,8,0:0:0:0:
265,59,208654,5,8,0:0:0:0:
241,270,208847,1,8,0:0:0:0:
382,76,209041,1,8,0:0:0:0:
382,76,209137,1,8,0:0:0:0:
382,76,209234,1,8,0:0:0:0:
137,162,209428,5,8,0:0:0:0:
375,198,209621,1,8,0:0:0:0:
375,198,209718,1,8,0:0:0:0:
375,198,209815,1,8,0:0:0:0:
243,55,210008,5,2,0:0:0:0:
186,291,210202,1,8,0:0:0:0:
186,291,210299,1,8,0:0:0:0:
186,291,210395,1,8,0:0:0:0:
311,158,210589,5,8,0:0:0:0:
266,323,210783,1,2,0:0:0:0:
102,244,210976,1,8,0:0:0:0:
293,228,211170,5,2,0:0:0:0:
97,171,211363,1,2,0:0:0:0:
271,103,211557,1,2,0:0:0:0:
97,313,211750,6,2,B|131:196|49:186|91:54,1,251.999992309571,6|0,0:0|0:0,0:0:0:0:
270,26,212331,2,0,P|332:32|420:20,1,125.999996154785,2|0,0:0|0:0,0:0:0:0:
401,191,212718,1,2,0:0:0:0:
280,97,212912,1,2,0:0:0:0:
452,92,213105,1,0,0:0:0:0:
270,196,213299,2,0,P|278:254|268:331,1,125.999996154785,8|0,0:0|0:0,0:0:0:0:
82,345,213686,1,8,0:0:0:0:
265,357,213879,1,10,0:0:0:0:
62,301,214073,6,2,P|-1:244|102:252,1,251.999992309571,6|0,0:0|0:0,0:0:0:0:
254,109,214654,2,0,P|318:117|391:101,1,125.999996154785,2|0,0:0|0:0,0:0:0:0:
456,254,215041,1,2,0:0:0:0:
252,229,215234,2,2,B|271:174|271:174|251:102,1,125.999996154785,6|0,0:0|0:0,0:0:0:0:
206,348,215621,5,10,0:0:0:0:
256,374,215718,1,8,0:0:0:0:
312,375,215815,1,8,0:0:0:0:
352,332,215912,1,8,0:0:0:0:
351,273,216008,1,8,0:0:0:0:
310,232,216105,1,0,0:0:0:0:
252,229,216202,1,10,0:0:0:0:
300,55,216395,6,2,P|206:81|301:132,1,251.999992309571,6|0,0:0|0:0,0:0:0:0:
126,223,216976,2,0,P|59:219|-25:224,1,125.999996154785,2|0,0:0|0:0,0:0:0:0:
142,315,217363,1,2,0:0:0:0:
137,153,217557,1,2,0:0:0:0:
58,290,217750,1,2,0:0:0:0:
274,205,217944,1,8,0:0:0:0:
274,205,218331,6,2,P|338:201|427:208,1,125.999996154785,6|0,0:0|0:0,0:0:0:0:
256,38,218718,6,2,B|127:22|163:94|-9:57,1,251.999992309571,6|0,0:0|0:0,0:0:0:0:
77,253,219299,1,2,0:0:0:0:
265,167,219492,2,0,P|260:105|273:35,1,125.999996154785
363,215,219879,5,8,0:0:0:0:
155,164,220073,1,8,0:0:0:0:
295,308,220266,1,8,0:0:0:0:
257,99,220460,1,8,0:0:0:0:
234,354,220654,1,10,0:0:0:0:
234,354,220750,1,0,0:0:0:0:
234,354,220847,1,8,0:0:0:0:
234,354,220944,1,0,0:0:0:0:
234,354,221041,6,0,P|167:349|98:352,1,125.999996154785,6|0,0:0|0:0,0:0:0:0:
23,192,221428,1,8,0:0:0:0:
192,149,221621,2,0,P|180:213|193:288,1,125.999996154785,2|0,0:0|0:0,0:0:0:0:
366,305,222008,1,8,0:0:0:0:
397,125,222202,2,0,P|337:133|251:118,1,125.999996154785,2|0,0:0|0:0,0:0:0:0:
73,257,222589,2,0,B|89:198|89:198|59:120,1,125.999996154785,8|0,0:0|0:0,0:0:0:0:
261,196,222976,5,8,0:0:0:0:
97,128,223170,1,0,0:0:0:0:
218,311,223363,2,0,P|279:307|353:312,1,125.999996154785,6|0,0:0|0:0,0:0:0:0:
466,156,223750,2,0,P|404:160|330:154,1,125.999996154785,8|0,0:0|0:0,0:0:0:0:
173,134,224137,1,0,0:0:0:0:
326,223,224331,1,8,0:0:0:0:
143,315,224525,5,2,0:0:0:0:
241,133,224718,1,0,0:0:0:0:
332,324,224912,1,8,0:0:0:0:
245,52,225299,1,8,0:0:0:0:
143,295,225686,5,2,0:0:0:0:
171,344,225783,1,2,0:0:0:0:
223,363,225879,1,8,0:0:0:0:
277,347,225976,1,8,0:0:0:0:
300,295,226073,1,8,0:0:0:0:
285,239,226170,1,8,0:0:0:0:
235,213,226266,1,8,0:0:0:0:
344,32,226460,5,8,0:0:0:0:
288,45,226557,1,8,0:0:0:0:
282,101,226654,1,8,0:0:0:0:
333,123,226750,1,8,0:0:0:0:
375,82,226847,5,8,0:0:0:0:
191,174,227041,1,8,0:0:0:0:
378,240,227234,1,2,0:0:0:0:
288,45,227428,2,0,P|227:55|147:38,1,125.999996154785,8|0,0:0|0:0,0:0:0:0:
75,194,227815,5,8,0:0:0:0:
255,353,228008,2,0,L|255:216,1,125.999996154785,6|0,0:0|0:0,0:0:0:0:
426,134,228395,5,2,0:0:0:0:
257,46,228589,1,10,0:0:0:0:
86,134,228976,5,2,0:0:0:0:
257,46,229170,1,10,0:0:0:0:
414,282,229557,5,2,0:0:0:0:
255,198,229750,1,2,0:0:0:0:
94,292,229944,1,10,0:0:0:0:
94,292,230331,6,0,P|161:289|238:291,1,135.000005149842,6|0,0:0|0:0,0:0:0:0:
400,176,230718,2,0,P|335:179|266:177,1,135.000005149842,2|0,0:0|0:0,0:0:0:0:
57,133,231105,2,0,P|6:144|53:167,1,135.000005149842,8|0,0:0|0:0,0:0:0:0:
200,39,231492,2,0,B|251:62|275:31|337:46,1,135.000005149842,6|0,0:0|0:0,0:0:0:0:
267,213,231879,2,0,B|214:233|190:197|126:216,1,135.000005149842,2|0,0:0|0:0,0:0:0:0:
302,344,232266,2,0,P|347:308|295:318,1,135.000005149842,8|0,0:0|0:0,0:0:0:0:
106,273,232654,5,6,0:0:0:0:
299,236,232847,1,0,0:0:0:0:
138,161,233041,2,0,L|138:300,1,135.000005149842,2|0,0:0|0:0,0:0:0:0:
298,197,233428,2,0,L|297:52,1,135.000005149842,8|0,0:0|0:0,0:0:0:0:
413,216,233815,1,6,0:0:0:0:
235,136,234008,1,0,0:0:0:0:
422,106,234202,1,2,0:0:0:0:
300,260,234395,1,0,0:0:0:0:
333,42,234589,1,8,0:0:0:0:
333,42,234976,6,0,P|266:46|177:40,1,135.000005149842,6|0,0:0|0:0,0:0:0:0:
40,174,235363,2,0,P|111:170|185:175,1,135.000005149842,2|0,0:0|0:0,0:0:0:0:
390,172,235750,2,0,P|436:157|385:140,1,135.000005149842,8|0,0:0|0:0,0:0:0:0:
293,326,236137,2,0,B|233:337|220:314|159:325,1,135.000005149842,6|0,0:0|0:0,0:0:0:0:
333,238,236525,2,0,B|387:264|416:227|478:248,1,135.000005149842,2|0,0:0|0:0,0:0:0:0:
252,138,236912,2,0,P|210:141|256:116,1,135.000005149842,8|0,0:0|0:0,0:0:0:0:
345,282,237299,5,6,0:0:0:0:
470,143,237492,1,2,0:0:0:0:
482,104,237589,1,2,0:0:0:0:
477,63,237686,1,2,0:0:0:0:
447,33,237783,1,2,0:0:0:0:
408,21,237879,1,2,0:0:0:0:
363,31,237976,1,2,0:0:0:0:
336,61,238073,1,2,0:0:0:0:
332,102,238170,1,2,0:0:0:0:
344,141,238266,2,0,P|370:167|404:179,1,67.5000025749208,2|2,0:0|0:0,0:0:0:0:
437,278,238460,5,2,0:0:0:0:
422,316,238557,1,2,0:0:0:0:
386,335,238654,1,2,0:0:0:0:
345,335,238750,1,2,0:0:0:0:
309,315,238847,1,2,0:0:0:0:
293,277,238944,1,2,0:0:0:0:
301,236,239041,1,2,0:0:0:0:
332,211,239137,1,2,0:0:0:0:
371,204,239234,5,6,0:0:0:0:
277,356,239428,1,2,0:0:0:0:
74,297,239621,6,0,P|144:295|225:298,1,135.000005149842,6|0,0:0|0:0,0:0:0:0:
371,204,240008,2,0,P|311:208|237:205,1,135.000005149842,2|0,0:0|0:0,0:0:0:0:
23,202,240395,2,0,P|-13:161|37:175,1,135.000005149842,8|0,0:0|0:0,0:0:0:0:
195,55,240783,2,0,B|249:82|274:38|349:71,1,135.000005149842,6|0,0:0|0:0,0:0:0:0:
260,232,241170,1,2,0:0:0:0:
199,39,241363,1,8,0:0:0:0:
199,39,241460,1,8,0:0:0:0:
199,39,241557,1,8,0:0:0:0:
199,39,241654,1,8,0:0:0:0:
199,39,241750,1,8,0:0:0:0:
199,39,241847,1,8,0:0:0:0:
199,39,241944,5,14,0:0:0:0:
321,159,242137,1,0,0:0:0:0:
142,110,242331,1,8,0:0:0:0:
309,54,242525,1,2,0:0:0:0:
224,217,242718,1,8,0:0:0:0:
199,39,242912,1,8,0:0:0:0:
295,227,243105,5,2,0:0:0:0:
106,177,243299,1,8,0:0:0:0:
278,124,243492,1,8,0:0:0:0:
192,273,243686,1,2,0:0:0:0:
178,66,243879,1,8,0:0:0:0:
178,66,243976,1,8,0:0:0:0:
178,66,244073,1,8,0:0:0:0:
178,66,244170,1,8,0:0:0:0:
178,66,244266,6,0,P|106:71|19:65,1,135.000005149842,6|0,0:0|0:0,0:0:0:0:
57,272,244654,2,0,P|126:268|220:276,1,135.000005149842,2|0,0:0|0:0,0:0:0:0:
428,301,245041,2,0,P|455:337|414:310,1,135.000005149842,8|0,0:0|0:0,0:0:0:0:
386,110,245428,2,0,B|325:128|310:94|224:118,1,135.000005149842,6|0,0:0|0:0,0:0:0:0:
234,292,245815,2,0,B|296:312|312:277|392:302,1,135.000005149842,2|0,0:0|0:0,0:0:0:0:
503,121,246202,1,8,0:0:0:0:
410,288,246395,1,0,0:0:0:0:
371,39,246589,5,6,0:0:0:0:
288,201,246783,1,2,0:0:0:0:
286,241,246879,1,2,0:0:0:0:
312,271,246976,1,2,0:0:0:0:
352,281,247073,1,2,0:0:0:0:
392,274,247170,1,2,0:0:0:0:
417,243,247266,1,2,0:0:0:0:
421,202,247363,1,2,0:0:0:0:
403,165,247460,1,2,0:0:0:0:
369,141,247557,2,0,P|335:136|294:144,1,67.5000025749208,2|2,0:0|0:0,0:0:0:0:
292,307,247750,5,6,0:0:0:0:
221,92,247944,1,8,0:0:0:0:
153,305,248137,1,8,0:0:0:0:
334,157,248331,1,8,0:0:0:0:
90,206,248525,5,10,0:0:0:0:
90,206,248621,1,10,0:0:0:0:
90,206,248718,1,10,0:0:0:0:
90,206,248815,1,10,0:0:0:0:
90,206,248912,6,0,L|213:206,1,107.999996704102,6|0,0:0|0:0,0:0:0:0:
350,122,249299,1,0,0:0:0:0:
388,313,249492,2,0,P|335:311|261:315,1,107.999996704102,8|0,0:0|0:0,0:0:0:0:
111,339,249879,1,2,0:0:0:0:
114,138,250073,2,0,P|169:140|230:138,1,107.999996704102,6|0,0:0|0:0,0:0:0:0:
405,47,250460,2,0,P|354:45|291:46,1,107.999996704102,8|0,0:0|0:0,0:0:0:0:
345,226,250847,1,8,0:0:0:0:
271,68,251041,1,0,0:0:0:0:
242,324,251234,6,0,P|231:273|249:220,1,107.999996704102,6|0,0:0|0:0,0:0:0:0:
229,52,251621,2,2,P|207:122|262:59,1,215.999993408203
452,147,252202,1,8,0:0:0:0:
290,328,252395,2,2,B|190:312|205:365|60:336,1,215.999993408203,6|8,0:0|0:0,0:0:0:0:
296,194,253170,1,8,0:0:0:0:
135,165,253363,1,0,0:0:0:0:
319,64,253557,6,0,P|373:68|432:65,1,107.999996704102,2|0,0:0|0:0,0:0:0:0:
484,200,253944,1,2,0:0:0:0:
297,193,254137,2,0,P|245:191|180:195,1,107.999996704102,8|0,0:0|0:0,0:0:0:0:
29,111,254525,1,10,0:0:0:0:
129,328,254718,6,2,P|216:313|141:272,1,215.999993408203,6|8,0:0|0:0,0:0:0:0:
296,72,255492,1,8,0:0:0:0:
231,209,255686,1,0,0:0:0:0:
142,33,255879,6,0,P|87:35|24:32,1,107.999996704102,2|0,0:0|0:0,0:0:0:0:
9,195,256266,1,0,0:0:0:0:
181,136,256460,2,0,P|237:135|299:137,1,107.999996704102,2|0,0:0|0:0,0:0:0:0:
450,257,256847,1,8,0:0:0:0:
468,40,257041,5,6,0:0:0:0:
265,72,257234,1,8,0:0:0:0:
265,72,257331,1,8,0:0:0:0:
265,72,257428,1,8,0:0:0:0:
451,144,257621,1,8,0:0:0:0:
265,72,257815,1,8,0:0:0:0:
380,247,258008,1,8,0:0:0:0:
231,46,258202,6,0,P|175:48|97:45,1,107.999996704102,6|0,0:0|0:0,0:0:0:0:
47,195,258589,1,0,0:0:0:0:
238,204,258783,2,0,P|293:203|368:205,1,107.999996704102,8|0,0:0|0:0,0:0:0:0:
472,317,259170,1,8,0:0:0:0:
387,105,259363,2,0,B|371:154|398:168|383:223,1,107.999996704102,6|0,0:0|0:0,0:0:0:0:
256,360,259750,2,0,B|247:314|271:301|260:250,1,107.999996704102,8|0,0:0|0:0,0:0:0:0:
91,182,260137,1,8,0:0:0:0:
258,214,260331,1,0,0:0:0:0:
306,24,260525,6,0,P|253:26|179:21,1,107.999996704102,6|0,0:0|0:0,0:0:0:0:
27,16,260912,1,8,0:0:0:0:
91,182,261105,2,0,P|146:178|226:185,1,107.999996704102,8|0,0:0|0:0,0:0:0:0:
392,108,261492,1,8,0:0:0:0:
337,337,261686,2,2,B|236:321|235:376|115:346,1,215.999993408203,6|8,0:0|0:0,0:0:0:0:
263,103,262460,1,10,0:0:0:0:
263,323,262654,1,0,0:0:0:0:
357,132,262847,5,2,0:0:0:0:
263,286,263041,1,0,0:0:0:0:
167,118,263234,1,2,0:0:0:0:
263,323,263428,2,0,P|210:322|139:328,1,107.999996704102,2|0,0:0|0:0,0:0:0:0:
23,192,263815,1,8,0:0:0:0:
216,50,264008,6,2,B|306:99|355:32|439:66,1,215.999993408203,6|8,0:0|0:0,0:0:0:0:
253,314,264783,1,8,0:0:0:0:
249,118,264976,1,8,0:0:0:0:
360,315,265170,6,0,P|305:310|245:315,1,107.999996704102,2|8,0:0|0:0,0:0:0:0:
93,213,265557,1,2,0:0:0:0:
294,68,265750,2,0,P|278:122|286:178,1,107.999996704102,2|0,0:0|0:0,0:0:0:0:
93,213,266137,1,8,0:0:0:0:
237,19,266331,5,12,0:0:0:0:
379,238,266525,1,8,0:0:0:0:
151,153,266718,1,8,0:0:0:0:
422,112,266912,5,8,0:0:0:0:
244,296,267105,1,8,0:0:0:0:
251,49,267299,1,8,0:0:0:0:
360,279,267492,5,6,0:0:0:0:
241,181,267686,1,2,0:0:0:0:
76,226,267879,1,2,0:0:0:0:
331,317,268073,5,8,0:0:0:0:
231,218,268266,1,2,0:0:0:0:
99,251,268460,1,2,0:0:0:0:
177,24,268654,5,12,0:0:0:0:
308,189,268847,1,2,0:0:0:0:
165,344,269041,1,2,0:0:0:0:
365,206,269234,5,10,0:0:0:0:
365,206,269331,1,0,0:0:0:0:
365,206,269428,1,8,0:0:0:0:
365,206,269525,1,0,0:0:0:0:
365,206,269621,1,10,0:0:0:0:
365,206,269718,1,0,0:0:0:0:
365,206,269815,6,2,P|427:216|350:146,1,270.000010299683,6|0,0:0|0:0,0:0:0:0:
323,332,270395,2,0,P|258:330|163:335,1,135.000005149842,2|0,0:0|0:0,0:0:0:0:
187,127,270783,1,2,0:0:0:0:
327,233,270976,1,2,0:0:0:0:
188,82,271170,1,2,0:0:0:0:
63,261,271363,2,0,P|130:264|222:260,1,135.000005149842,8|0,0:0|0:0,0:0:0:0:
379,103,271750,1,8,0:0:0:0:
187,167,271944,1,8,0:0:0:0:
404,325,272137,6,6,B|431:198|353:196|399:60,1,270.000010299683,6|0,0:0|0:0,0:0:0:0:
221,36,272718,2,0,P|154:47|75:32,1,135.000005149842,2|0,0:0|0:0,0:0:0:0:
86,214,273105,1,8,0:0:0:0:
280,69,273299,2,2,B|251:125|309:145|271:230,1,135.000005149842,6|0,0:0|0:0,0:0:0:0:
162,334,273686,5,8,0:0:0:0:
102,346,273783,1,8,0:0:0:0:
48,317,273879,1,8,0:0:0:0:
42,256,273976,1,8,0:0:0:0:
86,214,274073,1,8,0:0:0:0:
238,132,274266,1,8,0:0:0:0:
339,354,274460,6,2,B|369:235|282:213|341:68,1,270.000010299683,6|0,0:0|0:0,0:0:0:0:
93,86,275041,2,0,P|163:99|239:84,1,135.000005149842,2|0,0:0|0:0,0:0:0:0:
412,142,275428,1,2,0:0:0:0:
217,192,275621,1,2,0:0:0:0:
387,249,275815,1,2,0:0:0:0:
256,34,276008,1,10,0:0:0:0:
256,34,276395,6,2,L|256:171,1,135.000005149842,10|0,0:0|0:0,0:0:0:0:
131,356,276783,6,2,P|254:310|401:377,1,270.000010299683,6|0,0:0|0:0,0:0:0:0:
348,162,277363,1,0,0:0:0:0:
410,361,277557,1,2,0:0:0:0:
448,148,277750,1,2,0:0:0:0:
215,132,277944,5,8,0:0:0:0:
479,128,278137,1,8,0:0:0:0:
215,132,278331,1,8,0:0:0:0:
448,241,278525,1,8,0:0:0:0:
215,132,278718,1,8,0:0:0:0:
351,344,278912,1,8,0:0:0:0:
147,207,279105,6,0,P|82:197|1:209,1,135.000005149842,6|0,0:0|0:0,0:0:0:0:
27,26,279492,1,8,0:0:0:0:
212,62,279686,2,0,B|276:77|276:77|352:57,1,135.000005149842,2|0,0:0|0:0,0:0:0:0:
512,123,280073,1,8,0:0:0:0:
321,182,280266,2,0,P|334:247|315:323,1,135.000005149842,2|0,0:0|0:0,0:0:0:0:
52,317,280654,2,0,B|119:301|119:301|204:324,1,135.000005149842,8|0,0:0|0:0,0:0:0:0:
168,102,281041,5,8,0:0:0:0:
252,266,281234,1,0,0:0:0:0:
46,206,281428,2,0,B|66:147|22:120|50:50,1,135.000005149842,6|0,0:0|0:0,0:0:0:0:
240,26,281815,2,0,B|215:89|264:103|233:184,1,135.000005149842,8|0,0:0|0:0,0:0:0:0:
260,345,282202,1,0,0:0:0:0:
356,149,282395,1,8,0:0:0:0:
112,212,282589,5,2,0:0:0:0:
293,260,282783,1,0,0:0:0:0:
168,68,282976,1,8,0:0:0:0:
74,362,283363,1,8,0:0:0:0:
385,218,283750,5,2,0:0:0:0:
396,277,283847,1,2,0:0:0:0:
367,330,283944,1,8,0:0:0:0:
308,345,284041,1,8,0:0:0:0:
254,317,284137,1,8,0:0:0:0:
245,256,284234,1,8,0:0:0:0:
282,208,284331,1,8,0:0:0:0:
119,48,284525,5,8,0:0:0:0:
62,29,284621,1,8,0:0:0:0:
23,75,284718,1,8,0:0:0:0:
56,127,284815,1,8,0:0:0:0:
117,109,284912,5,12,0:0:0:0:
313,192,285105,1,8,0:0:0:0:
218,46,285299,1,2,0:0:0:0:
116,257,285492,2,0,B|179:235|179:235|259:260,1,135.000005149842,8|0,0:0|0:0,0:0:0:0:
467,158,285879,5,8,0:0:0:0:
321,341,286073,2,0,P|257:355|181:333,1,135.000005149842,6|0,0:0|0:0,0:0:0:0:
407,60,286460,5,8,0:0:0:0:
472,272,286654,1,6,0:0:0:0:
42,283,287041,5,0,0:0:0:0:
107,67,287234,1,6,0:0:0:0:
446,148,287621,5,8,0:0:0:0:
256,75,287815,1,8,0:0:0:0:
65,152,288008,1,8,0:0:0:0:
256,75,288395,6,0,B|235:137|276:153|250:232,1,135.000005149842,6|0,0:0|0:0,0:0:0:0:
135,348,288783,2,0,B|122:289|158:270|140:203,1,135.000005149842,2|0,0:0|0:0,0:0:0:0:
401,214,289170,2,0,P|444:214|398:186,1,135.000005149842,8|0,0:0|0:0,0:0:0:0:
247,64,289557,2,0,P|175:73|99:62,1,135.000005149842,6|0,0:0|0:0,0:0:0:0:
240,193,289944,2,0,P|310:188|389:194,1,135.000005149842,2|0,0:0|0:0,0:0:0:0:
154,320,290331,2,0,P|118:329|157:296,1,135.000005149842,8|0,0:0|0:0,0:0:0:0:
359,258,290718,5,4,0:0:0:0:
155,213,290912,1,0,0:0:0:0:
288,355,291105,2,0,B|298:291|298:291|283:218,1,135.000005149842,2|0,0:0|0:0,0:0:0:0:
162,81,291492,2,0,B|145:140|145:140|157:229,1,135.000005149842,8|0,0:0|0:0,0:0:0:0:
323,114,291879,1,6,0:0:0:0:
202,266,292073,1,0,0:0:0:0:
393,189,292266,1,2,0:0:0:0:
192,141,292460,1,0,0:0:0:0:
300,335,292654,1,8,0:0:0:0:
300,335,293041,6,0,B|313:274|274:261|300:185,1,135.000005149842,6|0,0:0|0:0,0:0:0:0:
376,35,293428,2,0,B|356:89|395:105|376:175,1,135.000005149842,2|0,0:0|0:0,0:0:0:0:
133,204,293815,2,0,P|89:198|140:180,1,135.000005149842,8|0,0:0|0:0,0:0:0:0:
254,333,294202,2,0,P|326:326|402:334,1,135.000005149842,6|0,0:0|0:0,0:0:0:0:
267,202,294589,2,0,P|203:212|132:203,1,135.000005149842,2|0,0:0|0:0,0:0:0:0:
366,134,294976,2,0,P|403:144|364:111,1,135.000005149842,8|0,0:0|0:0,0:0:0:0:
135,76,295363,5,6,0:0:0:0:
202,263,295557,1,2,0:0:0:0:
230,291,295654,1,2,0:0:0:0:
267,297,295750,1,2,0:0:0:0:
305,281,295847,1,2,0:0:0:0:
319,243,295944,1,2,0:0:0:0:
310,203,296041,1,2,0:0:0:0:
278,177,296137,1,2,0:0:0:0:
236,179,296234,1,2,0:0:0:0:
202,202,296331,2,0,P|191:237|196:283,1,67.5000025749208,2|2,0:0|0:0,0:0:0:0:
296,338,296525,5,2,0:0:0:0:
332,351,296621,1,2,0:0:0:0:
373,345,296718,1,2,0:0:0:0:
404,319,296815,1,2,0:0:0:0:
410,279,296912,1,2,0:0:0:0:
396,240,297008,1,2,0:0:0:0:
360,219,297105,1,2,0:0:0:0:
319,220,297202,1,2,0:0:0:0:
288,248,297299,5,14,0:0:0:0:
109,165,297492,1,10,0:0:0:0:
285,29,297686,6,0,P|278:90|284:167,1,135.000005149842,6|0,0:0|0:0,0:0:0:0:
198,348,298073,2,0,P|206:278|196:207,1,135.000005149842,2|0,0:0|0:0,0:0:0:0:
440,223,298460,2,0,P|478:224|434:196,1,135.000005149842,8|0,0:0|0:0,0:0:0:0:
332,348,298847,2,0,B|269:369|252:330|175:355,1,135.000005149842,6|0,0:0|0:0,0:0:0:0:
21,350,299234,1,2,0:0:0:0:
144,174,299428,1,8,0:0:0:0:
144,174,299525,1,8,0:0:0:0:
144,174,299621,1,8,0:0:0:0:
144,174,299718,1,8,0:0:0:0:
144,174,299815,1,8,0:0:0:0:
144,174,299912,1,8,0:0:0:0:
144,174,300008,5,14,0:0:0:0:
290,91,300202,1,2,0:0:0:0:
351,258,300395,1,8,0:0:0:0:
327,80,300589,1,2,0:0:0:0:
145,30,300783,1,8,0:0:0:0:
360,71,300976,1,8,0:0:0:0:
277,278,301170,5,2,0:0:0:0:
241,94,301363,1,8,0:0:0:0:
37,92,301557,1,8,0:0:0:0:
222,115,301750,1,2,0:0:0:0:
287,335,301944,1,8,0:0:0:0:
287,335,302041,1,8,0:0:0:0:
287,335,302137,1,8,0:0:0:0:
287,335,302234,1,8,0:0:0:0:
287,335,302331,6,0,P|220:328|136:339,1,135.000005149842,6|0,0:0|0:0,0:0:0:0:
29,175,302718,2,0,P|96:184|173:172,1,135.000005149842,2|0,0:0|0:0,0:0:0:0:
427,137,303105,2,0,P|479:132|435:105,1,135.000005149842,8|0,0:0|0:0,0:0:0:0:
254,38,303492,2,0,B|239:97|271:114|254:188,1,135.000005149842,6|0,0:0|0:0,0:0:0:0:
398,330,303879,2,0,B|409:276|381:253|395:195,1,135.000005149842,2|0,0:0|0:0,0:0:0:0:
254,38,304266,1,8,0:0:0:0:
256,336,304654,5,6,0:0:0:0:
183,92,304847,1,2,0:0:0:0:
203,109,304944,1,2,0:0:0:0:
226,122,305041,1,2,0:0:0:0:
251,129,305137,1,2,0:0:0:0:
277,133,305234,1,2,0:0:0:0:
304,132,305331,1,2,0:0:0:0:
336,121,305428,1,2,0:0:0:0:
354,85,305525,1,2,0:0:0:0:
339,47,305621,1,2,0:0:0:0:
300,33,305718,1,2,0:0:0:0:
256,62,305815,5,2,0:0:0:0:
258,113,305912,1,2,0:0:0:0:
299,145,306008,1,2,0:0:0:0:
348,170,306105,1,2,0:0:0:0:
366,219,306202,1,2,0:0:0:0:
349,270,306299,1,2,0:0:0:0:
296,279,306395,1,2,0:0:0:0:
261,243,306492,1,2,0:0:0:0:
279,192,306589,1,2,0:0:0:0:
332,183,306686,1,2,0:0:0:0:
366,219,306783,1,2,0:0:0:0:
349,270,306879,1,2,0:0:0:0:
296,279,306976,6,0,P|229:274|147:284,1,135.000005149842,6|0,0:0|0:0,0:0:0:0:
50,136,307363,2,0,P|115:143|205:130,1,135.000005149842,2|0,0:0|0:0,0:0:0:0:
441,164,307750,2,0,P|467:210|426:186,1,135.000005149842,8|0,0:0|0:0,0:0:0:0:
255,347,308137,2,0,B|268:294|232:272|257:194,1,135.000005149842,6|0,0:0|0:0,0:0:0:0:
157,20,308525,2,0,B|172:83|144:97|152:155,1,135.000005149842,2|0,0:0|0:0,0:0:0:0:
407,174,308912,1,8,0:0:0:0:
256,75,309105,1,0,0:0:0:0:
92,214,309299,5,8,0:0:0:0:
276,174,309492,1,8,0:0:0:0:
404,318,309686,1,8,0:0:0:0:
290,151,309879,1,8,0:0:0:0:
74,193,310073,1,8,0:0:0:0:
306,126,310266,1,8,0:0:0:0:
256,348,310460,5,6,0:0:0:0:
54,83,310847,1,6,0:0:0:0:
458,83,311234,1,6,0:0:0:0:
254,173,311621,6,0,P|257:223|254:278,1,90,6|0,0:0|0:0,0:0:0:0:
183,129,312008,2,0,P|180:78|184:28,1,90,2|0,0:0|0:0,0:0:0:0:
392,59,312395,1,8,0:0:0:0:
392,59,312783,2,0,P|342:61|281:58,1,90,2|0,0:0|0:0,0:0:0:0:
206,202,313170,2,0,P|256:201|331:205,1,90,2|0,0:0|0:0,0:0:0:0:
479,289,313557,1,8,0:0:0:0:
479,289,313944,6,0,L|479:172,1,90,2|0,0:0|0:0,0:0:0:0:
367,68,314331,2,0,L|367:175,1,90,2|0,0:0|0:0,0:0:0:0:
368,345,314718,1,8,0:0:0:0:
368,345,315105,2,0,L|248:345,1,90,2|0,0:0|0:0,0:0:0:0:
133,264,315492,2,0,L|244:264,1,90,2|0,0:0|0:0,0:0:0:0:
414,261,315879,1,8,0:0:0:0:
414,261,316266,6,0,P|414:208|413:148,1,90,6|0,0:0|0:0,0:0:0:0:
296,50,316654,2,0,P|295:100|296:164,1,90,2|0,0:0|0:0,0:0:0:0:
105,163,317041,1,8,0:0:0:0:
105,163,317428,2,0,P|158:164|212:164,1,90,2|0,0:0|0:0,0:0:0:0:
233,318,317815,2,0,P|184:318|119:319,1,90,2|0,0:0|0:0,0:0:0:0:
98,138,318202,1,8,0:0:0:0:
393,102,318589,5,6,0:0:0:0:
353,297,318783,1,2,0:0:0:0:
321,300,318879,1,2,0:0:0:0:
289,293,318976,1,2,0:0:0:0:
263,272,319073,1,2,0:0:0:0:
250,242,319170,1,2,0:0:0:0:
254,210,319266,1,2,0:0:0:0:
274,184,319363,5,2,0:0:0:0:
444,162,319557,1,2,0:0:0:0:
308,90,319750,1,2,0:0:0:0:
389,240,319944,1,2,0:0:0:0:
405,72,320137,1,2,0:0:0:0:
286,168,320331,1,2,0:0:0:0:
441,20,320525,1,14,0:0:0:0:
441,20,320912,6,0,P|385:24|318:19,1,107.999996704102,6|0,0:0|0:0,0:0:0:0:
217,118,321299,2,0,P|273:115|329:118,1,107.999996704102,2|0,0:0|0:0,0:0:0:0:
144,123,321686,1,8,0:0:0:0:
144,123,322073,2,0,B|153:172|126:187|139:247,1,107.999996704102,6|0,0:0|0:0,0:0:0:0:
255,352,322460,1,2,0:0:0:0:
421,204,322654,1,8,0:0:0:0:
421,204,322750,1,8,0:0:0:0:
421,204,322847,1,8,0:0:0:0:
421,204,322944,1,8,0:0:0:0:
421,204,323041,1,8,0:0:0:0:
421,204,323137,1,8,0:0:0:0:
421,204,323234,5,6,0:0:0:0:
296,117,323428,1,2,0:0:0:0:
296,117,323525,1,2,0:0:0:0:
296,117,323621,1,8,0:0:0:0:
133,185,323815,1,2,0:0:0:0:
301,74,324008,1,8,0:0:0:0:
441,190,324202,1,8,0:0:0:0:
256,270,324395,5,2,0:0:0:0:
178,100,324589,1,8,0:0:0:0:
364,32,324783,1,8,0:0:0:0:
211,112,324976,1,2,0:0:0:0:
301,301,325170,1,8,0:0:0:0:
301,301,325266,1,8,0:0:0:0:
301,301,325363,1,8,0:0:0:0:
301,301,325460,1,8,0:0:0:0:
301,301,325557,6,0,P|245:300|174:304,1,107.999996704102,6|0,0:0|0:0,0:0:0:0:
70,170,325944,2,0,P|124:173|181:171,1,107.999996704102,2|0,0:0|0:0,0:0:0:0:
387,123,326331,1,8,0:0:0:0:
387,123,326718,2,0,B|395:81|370:66|386:5,1,107.999996704102,6|0,0:0|0:0,0:0:0:0:
331,201,327105,2,0,B|342:247|313:257|325:322,1,107.999996704102,2|0,0:0|0:0,0:0:0:0:
222,126,327492,1,8,0:0:0:0:
62,340,327879,5,6,0:0:0:0:
324,309,328073,1,2,0:0:0:0:
331,277,328170,1,2,0:0:0:0:
323,245,328266,1,2,0:0:0:0:
300,221,328363,1,2,0:0:0:0:
267,219,328460,1,2,0:0:0:0:
238,233,328557,1,2,0:0:0:0:
220,260,328654,1,2,0:0:0:0:
222,292,328750,1,2,0:0:0:0:
238,319,328847,1,2,0:0:0:0:
266,333,328944,1,2,0:0:0:0:
299,332,329041,5,12,0:0:0:0:
254,21,329428,1,14,0:0:0:0:
51,343,329815,1,14,0:0:0:0:
461,343,330202,6,0,B|416:304|333:299|278:333|278:333|178:192|239:132|338:113|416:272|181:306|181:306|130:293|104:256|106:213,1,755.999976928712
