osu file format v14

[General]
AudioFilename: Diao ye zong - Owaranu Matsuri.mp3
AudioLeadIn: 0
PreviewTime: 195322
Countdown: 0
SampleSet: Soft
StackLeniency: 0.3
Mode: 0
LetterboxInBreaks: 0
EpilepsyWarning: 1
WidescreenStoryboard: 1

[Editor]
DistanceSpacing: 1.5
BeatDivisor: 4
GridSize: 4
TimelineZoom: 1.9

[Metadata]
Title:Owaranu Matsuri
TitleUnicode:無終祭
Artist:Diao ye zong
ArtistUnicode:凋叶棕
Creator:tokiko
Version:feast
Source:東方Project
Tags:touhou 蓮台野夜行 ~ Ghostly Field Club RD-Sounds めらみぽっぷ meramipop 幻想の永遠祭 Illusionary Eternal Festival 夢 Utsutsu C90 Team Shanghai Alice ZUN
BeatmapID:1417468
BeatmapSetID:670176

[Difficulty]
HPDrainRate:6
CircleSize:4.3
OverallDifficulty:8
ApproachRate:8.7
SliderMultiplier:1.8
SliderTickRate:1

[Events]
//Background and Video events
0,0,"Diao ye zong - Owaranu Matsuri.jpg",0,0
//Break Periods
2,37858,51027
2,209537,222706
//Storyboard Layer 0 (Background)
//Storyboard Layer 1 (Fail)
//Storyboard Layer 2 (Pass)
//Storyboard Layer 3 (Foreground)
//Storyboard Sound Samples

[TimingPoints]
870,437.956204379562,4,2,1,20,1,0
20140,-100,4,2,1,50,0,0
51672,-100,4,2,1,60,0,0
79702,-100,4,2,1,65,0,0
93716,-66.6666666666667,4,2,1,75,0,1
121745,-100,4,2,1,65,0,0
135760,-100,4,2,1,20,0,0
137293,-100,4,2,1,25,0,0
138388,-100,4,2,1,35,0,0
142110,-100,4,2,2,35,0,0
142767,-200,4,2,1,25,0,0
146709,-200,4,2,1,15,0,0
149775,-200,4,2,1,25,0,0
156782,-133.333333333333,4,2,1,40,0,0
163789,-133.333333333333,4,2,1,50,0,0
173643,-100,4,2,1,10,0,0
174519,-100,4,2,1,15,0,0
175833,-100,4,2,1,20,0,0
176709,-100,4,2,1,25,0,0
177585,-100,4,2,1,30,0,0
188315,-25,4,2,1,20,0,0
188424,-25,4,2,1,80,0,0
188534,-25,4,2,1,5,0,0
189629,-400,4,2,1,5,0,0
191818,-100,4,2,1,30,0,0
195322,-100,4,2,2,30,0,0
223351,-100,4,2,1,60,0,0
265395,-66.6666666666667,4,2,1,75,0,1
325176,-66.6666666666667,4,2,1,45,0,0
327147,-66.6666666666667,4,2,1,45,0,1
328899,437.956204379562,4,2,1,65,1,0
328899,-100,4,2,1,65,0,0
357585,-400,4,2,1,5,0,0
360760,437.956204379562,4,2,1,30,1,0
361635,-100,4,2,1,15,0,0
364044,-100,4,2,1,30,0,0
378825,-100,4,2,1,25,0,0
379263,-100,4,2,1,50,0,0

[Colours]
Combo1 : 214,123,124
Combo2 : 168,101,236
Combo3 : 123,214,123
Combo4 : 123,169,214

[HitObjects]
80,56,3497,5,10,0:0:0:0:
80,56,3716,1,0,0:0:0:0:
80,56,3935,1,10,0:0:0:0:
164,68,4154,5,0,0:0:0:0:
164,68,4373,1,10,0:0:0:0:
252,44,4592,1,10,0:0:0:0:
336,80,4811,1,0,0:0:0:0:
416,36,5030,1,10,0:0:0:0:
416,36,5249,1,10,0:0:0:0:
444,124,5468,1,0,0:0:0:0:
412,208,5687,1,10,0:0:0:0:
232,192,5906,5,10,0:0:0:0:
232,192,6125,1,0,0:0:0:0:
144,188,6344,1,10,0:0:0:0:
144,188,6563,1,0,0:0:0:0:
56,180,6782,1,10,0:0:0:0:
76,268,7001,5,10,0:0:0:0:
76,268,7220,1,0,0:0:0:0:
160,300,7439,1,10,0:0:0:0:
248,276,7658,6,0,P|304:272|436:276,1,180,10|10,0:0|0:0,0:0:0:0:
427,275,8315,1,0,0:0:0:0:
448,188,8534,1,10,0:0:0:0:
468,100,8753,1,10,0:0:0:0:
468,100,8972,1,0,0:0:0:0:
468,100,9191,1,10,0:0:0:0:
296,160,9410,5,10,0:0:0:0:
296,160,9629,1,0,0:0:0:0:
208,144,9848,1,10,0:0:0:0:
208,144,10067,1,0,0:0:0:0:
120,160,10286,5,10,0:0:0:0:
120,160,10505,2,0,L|20:148,1,90,10|0,0:0|0:0,0:0:0:0:
30,149,10942,1,10,0:0:0:0:
40,320,11161,5,10,0:0:0:0:
128,304,11380,1,0,0:0:0:0:
216,324,11599,1,10,0:0:0:0:
300,296,11818,1,0,0:0:0:0:
216,324,12037,5,10,0:0:0:0:
300,296,12256,1,10,0:0:0:0:
384,328,12475,1,0,0:0:0:0:
384,328,12694,1,10,0:0:0:0:
420,152,12913,5,10,0:0:0:0:
332,176,13132,1,0,0:0:0:0:
332,176,13351,1,10,0:0:0:0:
332,176,13570,5,0,0:0:0:0:
316,88,13789,1,10,0:0:0:0:
232,60,14008,1,10,0:0:0:0:
232,60,14227,5,0,0:0:0:0:
210,99,14337,1,0,0:0:0:0:
202,143,14446,1,10,0:0:0:0:
215,185,14556,1,0,0:0:0:0:
232,227,14665,1,0,0:0:0:0:
233,272,14775,1,0,0:0:0:0:
217,313,14884,6,0,P|176:304|120:308,1,90,10|10,0:0|0:0,0:0:0:0:
45,337,15322,1,2,0:0:0:0:
128,306,15541,1,8,0:0:0:0:
45,337,15760,6,0,P|84:315|128:305,1,90,10|2,0:0|0:0,0:0:0:0:
217,313,16198,1,8,0:0:0:0:
300,280,16417,1,2,0:0:0:0:
376,328,16636,6,0,L|472:316,1,90,10|8,0:0|0:0,0:0:0:0:
480,228,17074,1,2,0:0:0:0:
496,140,17293,1,8,0:0:0:0:
508,52,17512,6,0,P|460:56|364:32,1,135,10|0,0:0|0:0,0:0:0:0:
344,68,17950,1,0,0:0:0:0:
354,111,18059,1,0,0:0:0:0:
355,156,18169,1,10,0:0:0:0:
345,200,18278,1,0,0:0:0:0:
325,240,18388,6,0,P|302:239|280:244,1,45
209,279,18607,2,0,P|190:291|174:307,1,45,10|0,0:0|0:0,0:0:0:0:
172,148,18826,6,0,P|149:147|127:144,1,45
56,112,19045,2,0,P|37:99|21:83,1,45,10|0,0:0|0:0,0:0:0:0:
173,28,19264,6,0,P|178:49|180:72,1,45,10|0,0:0|0:0,0:0:0:0:
172,148,19483,2,0,P|164:169|153:188,1,45
312,208,19702,6,0,P|306:229|304:252,1,45,10|0,0:0|0:0,0:0:0:0:
313,328,19921,2,0,P|320:349|331:368,1,45,10|0,0:0|0:0,0:0:0:0:
372,104,20140,5,8,0:1:0:0:
372,104,20359,2,0,P|328:108|232:92,1,135,10|0,0:0|0:0,0:0:0:0:
192,92,20797,1,10,0:0:0:0:
108,120,21015,5,0,0:0:0:0:
108,120,21234,1,10,0:0:0:0:
108,120,21453,1,10,0:0:0:0:
192,92,21672,1,0,0:0:0:0:
280,104,21891,5,10,0:0:0:0:
280,104,22110,1,10,0:0:0:0:
252,188,22329,1,0,0:0:0:0:
252,188,22548,1,10,0:0:0:0:
292,272,22767,5,0,0:0:0:0:
292,272,22877,2,0,L|288:308,1,22.5
356,244,22986,2,0,L|352:200,1,45,8|0,0:0|0:0,0:0:0:0:
364,156,23205,1,8,0:0:0:0:
383,116,23315,1,0,0:0:0:0:
425,106,23424,1,0,0:0:0:0:
460,133,23534,1,0,0:0:0:0:
462,176,23643,5,4,0:1:0:0:
462,176,24081,1,2,0:0:0:0:
462,176,24300,1,2,0:0:0:0:
328,196,24519,5,12,0:1:0:0:
328,196,24957,1,2,0:0:0:0:
328,196,25176,1,2,0:0:0:0:
194,176,25395,5,8,0:0:0:0:
108,202,25833,1,2,0:0:0:0:
134,288,26271,1,8,0:0:0:0:
221,262,26709,1,2,0:0:0:0:
221,262,26928,1,2,0:0:0:0:
356,280,27147,5,12,0:1:0:0:
356,280,27585,1,2,0:0:0:0:
356,280,27804,1,2,0:0:0:0:
491,262,28023,5,4,0:1:0:0:
496,172,28242,1,0,0:0:0:0:
500,84,28461,1,2,0:0:0:0:
500,84,28680,1,2,0:0:0:0:
372,44,28899,6,0,L|280:36,1,90,4|0,0:1|0:0,0:0:0:0:
282,36,29337,1,2,0:0:0:0:
282,36,29556,1,0,0:0:0:0:
256,124,29775,5,6,0:0:0:0:
296,212,29994,1,8,0:0:0:0:
248,292,30213,1,10,0:0:0:0:
288,376,30432,1,2,0:0:0:0:
152,372,30651,5,4,0:1:0:0:
152,372,31088,1,2,0:0:0:0:
152,372,31307,1,2,0:0:0:0:
132,240,31526,5,12,0:1:0:0:
132,240,31964,1,2,0:0:0:0:
132,240,32183,1,2,0:0:0:0:
152,108,32402,5,8,0:0:0:0:
78,57,32840,1,2,0:0:0:0:
28,132,33278,1,8,0:0:0:0:
102,181,33716,1,2,0:0:0:0:
102,181,33935,1,2,0:0:0:0:
236,156,34154,5,12,0:1:0:0:
236,156,34592,1,2,0:0:0:0:
236,156,34811,1,2,0:0:0:0:
370,181,35030,5,4,0:1:0:0:
370,181,35249,1,2,0:0:0:0:
460,172,35468,1,2,0:0:0:0:
404,100,35687,1,0,0:0:0:0:
370,181,35906,6,0,L|386:285,1,90,10|0,0:0|0:0,0:0:0:0:
383,269,36344,1,2,0:0:0:0:
383,269,36563,1,2,0:0:0:0:
256,224,36782,6,0,P|208:220|120:228,1,135,8|0,0:0|0:0,0:0:0:0:
36,196,37220,6,0,P|84:192|172:200,1,135,4|0,0:1|0:0,0:0:0:0:
256,124,37658,5,4,0:0:0:0:
256,124,51672,5,4,0:1:0:0:
288,212,51891,1,0,0:0:0:0:
288,212,52001,1,2,0:3:0:0:
420,236,52329,1,8,0:0:0:0:
420,236,52767,1,2,0:3:0:0:
456,152,52986,2,0,L|444:60,1,90,8|0,0:0|0:0,0:0:0:0:
320,12,53424,5,4,0:1:0:0:
240,44,53643,1,0,0:0:0:0:
240,44,53753,1,2,0:3:0:0:
108,16,54081,1,8,0:0:0:0:
108,16,54519,1,2,0:3:0:0:
56,88,54738,2,0,L|68:188,1,90,8|2,0:0|0:3,0:0:0:0:
80,196,55067,1,2,0:3:0:0:
96,212,55176,5,4,0:1:0:0:
188,196,55395,1,0,0:0:0:0:
188,196,55505,1,2,0:3:0:0:
312,244,55833,1,8,0:0:0:0:
312,244,56271,1,2,0:3:0:0:
240,300,56490,2,0,P|204:292|144:292,1,90,8|0,0:0|0:0,0:0:0:0:
20,320,56928,5,12,0:1:0:0:
64,240,57147,1,0,0:0:0:0:
56,220,57256,1,2,0:3:0:0:
48,200,57366,1,4,0:1:0:0:
76,112,57585,1,8,0:0:0:0:
160,140,57804,1,0,0:0:0:0:
244,108,58023,5,0,3:0:0:0:
264,104,58132,1,0,3:0:0:0:
288,100,58242,2,0,L|280:220,1,90,12|0,3:1|0:0,0:0:0:0:
384,240,58570,1,0,3:0:0:0:
360,236,58680,6,0,L|368:356,1,90,8|0,3:2|0:0,0:0:0:0:
352,344,59008,1,2,0:3:0:0:
216,336,59337,1,8,0:0:0:0:
216,336,59775,1,2,0:3:0:0:
156,272,59994,2,0,L|160:180,1,90,8|0,0:0|0:0,0:0:0:0:
208,56,60432,5,4,0:1:0:0:
296,72,60651,1,0,0:0:0:0:
296,72,60760,1,2,0:3:0:0:
428,36,61088,1,8,0:0:0:0:
428,36,61526,1,2,0:3:0:0:
376,112,61745,2,0,L|380:204,1,90,8|2,0:0|0:3,0:0:0:0:
372,224,62074,1,2,0:3:0:0:
364,244,62183,5,4,0:1:0:0:
400,332,62402,1,0,0:0:0:0:
400,332,62512,1,2,0:3:0:0:
268,360,62840,1,8,0:0:0:0:
268,360,63278,1,2,0:3:0:0:
200,300,63497,2,0,P|194:272|200:196,1,90,8|0,0:0|0:0,0:0:0:0:
244,84,63935,5,12,0:1:0:0:
316,140,64154,1,0,0:0:0:0:
336,132,64264,1,2,0:3:0:0:
356,124,64373,1,4,0:1:0:0:
444,140,64592,1,8,0:0:0:0:
500,212,64811,1,0,0:0:0:0:
444,280,65030,5,0,3:0:0:0:
424,272,65140,1,0,3:0:0:0:
404,264,65249,2,0,L|300:280,1,90,12|0,3:1|0:0,0:0:0:0:
232,356,65578,1,0,3:0:0:0:
252,348,65687,6,0,L|356:364,1,90,8|0,3:2|0:0,0:0:0:0:
364,360,66015,1,2,0:3:0:0:
384,352,66125,1,0,0:0:0:0:
496,284,66344,5,8,0:0:0:0:
496,284,66563,2,0,L|500:176,1,90,2|0,0:0|0:0,0:0:0:0:
488,180,66891,1,2,0:0:0:0:
488,180,67001,1,0,0:0:0:0:
400,156,67220,1,2,0:0:0:0:
272,196,67439,6,0,L|164:192,1,90,8|2,0:0|0:0,0:0:0:0:
164,208,67767,1,2,0:3:0:0:
148,224,67877,1,2,0:0:0:0:
16,196,68096,5,8,0:0:0:0:
28,284,68315,1,2,0:0:0:0:
112,320,68534,1,8,0:0:0:0:
136,316,68643,1,2,0:0:0:0:
160,312,68753,1,4,0:1:0:0:
244,340,68972,1,2,0:0:0:0:
368,288,69191,6,0,P|396:284|464:288,1,90,8|0,0:0|0:0,0:0:0:0:
476,300,69519,1,2,0:3:0:0:
492,316,69629,1,2,0:0:0:0:
436,192,69848,5,8,0:0:0:0:
348,176,70067,2,0,L|240:184,1,90,2|0,0:0|0:0,0:0:0:0:
236,176,70395,1,2,0:3:0:0:
216,168,70505,1,10,0:0:0:0:
136,132,70724,1,10,0:0:0:0:
112,264,70942,6,0,L|120:364,1,90,8|0,0:0|0:0,0:0:0:0:
140,364,71271,1,0,0:0:0:0:
256,296,71599,5,8,0:0:0:0:
388,332,71818,1,10,0:0:0:0:
464,280,72037,5,0,3:0:0:0:
468,256,72147,1,0,3:0:0:0:
472,236,72256,2,0,L|456:136,1,90,12|0,3:1|0:0,0:0:0:0:
360,204,72585,1,0,0:0:0:0:
356,184,72694,6,0,L|372:84,1,90,8|0,3:2|0:0,0:0:0:0:
356,80,73023,1,0,0:0:0:0:
340,64,73132,1,0,0:0:0:0:
252,60,73351,1,8,0:0:0:0:
164,84,73570,6,0,P|128:88|56:76,1,90,8|0,0:0|0:0,0:0:0:0:
88,172,74008,1,2,0:0:0:0:
100,260,74227,1,2,0:0:0:0:
236,292,74446,6,0,L|336:284,1,90,8|0,0:0|0:0,0:0:0:0:
340,268,74775,1,2,0:3:0:0:
352,248,74884,1,0,0:0:0:0:
440,224,75103,1,8,0:0:0:0:
440,224,75322,6,0,L|444:324,1,90
380,376,75760,1,12,0:1:0:0:
300,340,75979,1,2,0:3:0:0:
280,336,76088,1,2,0:3:0:0:
260,331,76198,5,4,0:1:0:0:
172,348,76417,1,0,0:0:0:0:
172,348,76526,1,2,0:3:0:0:
120,220,76855,1,8,0:0:0:0:
168,96,77074,5,8,0:0:0:0:
256,120,77293,1,0,0:0:0:0:
256,120,77512,1,2,0:0:0:0:
344,96,77731,1,2,0:0:0:0:
428,128,77950,6,0,L|424:228,1,90,8|0,0:0|0:0,0:0:0:0:
340,196,78278,1,2,0:3:0:0:
340,196,78388,2,0,L|344:295,1,90,8|0,0:0|0:0,0:0:0:0:
248,268,78826,2,0,L|261:367,1,90,8|0,0:0|0:0,0:0:0:0:
280,368,79154,1,0,0:0:0:0:
300,376,79264,1,8,0:0:0:0:
384,348,79483,1,0,0:0:0:0:
284,196,79702,5,4,0:1:0:0:
152,216,80030,1,0,0:0:0:0:
152,216,80140,1,4,0:0:0:0:
68,184,80359,1,0,0:0:0:0:
68,184,80578,2,0,L|24:196,1,45,4|0,0:0|0:0,0:0:0:0:
12,332,81015,1,8,0:0:0:0:
12,332,81234,1,8,0:0:0:0:
188,364,81453,5,4,0:1:0:0:
324,348,81782,1,0,0:0:0:0:
324,348,81891,1,4,0:0:0:0:
396,292,82110,1,0,0:0:0:0:
396,292,82329,2,0,L|452:300,1,45,4|0,0:0|0:0,0:0:0:0:
476,168,82767,1,8,0:0:0:0:
476,168,82986,1,8,0:0:0:0:
308,104,83205,6,0,P|256:100|208:100,1,90,12|0,0:0|0:0,0:0:0:0:
156,220,83643,2,0,P|208:216|256:216,1,90,12|0,0:0|0:0,0:0:0:0:
245,215,83972,1,2,0:0:0:0:
304,288,84081,5,12,0:0:0:0:
324,156,84410,1,4,0:0:0:0:
324,156,84519,1,0,0:0:0:0:
288,72,84738,1,4,0:0:0:0:
288,72,84957,6,0,L|192:68,1,90,8|0,0:0|0:0,0:0:0:0:
180,80,85286,1,0,0:0:0:0:
164,96,85395,1,4,0:0:0:0:
180,184,85614,1,8,0:0:0:0:
120,308,85833,5,12,0:0:0:0:
120,308,85942,1,2,0:3:0:0:
208,280,86161,1,12,0:0:0:0:
208,280,86271,1,0,0:0:0:0:
292,316,86490,1,2,0:0:0:0:
316,312,86599,1,0,0:0:0:0:
336,308,86709,6,0,L|440:324,1,90,12|0,0:0|0:0,0:0:0:0:
444,312,87037,1,2,0:0:0:0:
464,304,87147,1,4,0:0:0:0:
492,220,87366,1,8,0:0:0:0:
428,104,87585,6,0,L|440:4,1,90,12|2,0:0|0:3,0:0:0:0:
416,20,87913,1,4,0:0:0:0:
396,32,88023,1,8,0:0:0:0:
308,24,88242,1,12,0:0:0:0:
184,80,88461,6,0,L|80:72,1,90,12|2,0:0|0:3,0:0:0:0:
76,84,88789,1,0,0:0:0:0:
68,104,88899,1,4,0:0:0:0:
112,180,89118,1,12,0:0:0:0:
56,304,89337,6,0,L|160:300,1,90,12|2,0:0|0:0,0:0:0:0:
228,336,89665,1,6,0:0:0:0:
240,348,89775,2,0,L|344:340,1,90,8|6,0:0|0:0,0:0:0:0:
396,280,90103,1,2,0:0:0:0:
412,288,90213,6,0,P|428:244|428:196,1,90,4|0,0:0|0:0,0:0:0:0:
384,124,90651,1,4,0:0:0:0:
384,124,90869,1,2,0:3:0:0:
256,160,91088,5,12,0:0:0:0:
172,144,91307,1,2,0:3:0:0:
172,144,91417,2,0,L|176:192,1,45,12|0,0:0|0:0,0:0:0:0:
252,248,91636,1,2,0:3:0:0:
252,248,91745,2,0,L|248:296,1,45,12|0,0:0|0:0,0:0:0:0:
192,364,91964,5,12,1:2:0:0:
381,326,92293,1,2,1:2:0:0:
345,134,92621,5,2,1:2:0:0:
192,364,92840,1,2,1:2:0:0:
192,364,93059,5,0,1:2:0:0:
188,352,93169,1,0,1:2:0:0:
184,340,93278,1,8,1:2:0:0:
190,295,93388,1,0,1:2:0:0:
256,236,93497,2,0,L|248:184,1,45,8|0,0:0|0:0,0:0:0:0:
172,40,93716,6,0,P|120:36|28:36,1,135.000005149842,12|0,0:1|0:0,0:0:0:0:
136,128,94154,2,0,L|140:208,1,67.5000025749208,8|0,0:0|0:0,0:0:0:0:
240,196,94373,2,0,L|243:128,1,67.5000025749208,4|0,0:1|0:0,0:0:0:0:
344,128,94592,1,8,0:0:0:0:
344,128,94811,5,0,0:0:0:0:
376,136,94921,1,0,0:0:0:0:
408,132,95030,2,0,L|492:124,1,67.5000025749208,8|0,0:0|0:0,0:0:0:0:
416,44,95249,2,0,L|332:36,1,67.5000025749208,4|0,0:1|0:0,0:0:0:0:
148,80,95468,6,0,P|136:124|144:232,1,135.000005149842,12|2,0:1|0:3,0:0:0:0:
332,148,95906,2,0,P|344:192|336:300,1,135.000005149842,8|2,0:0|0:3,0:0:0:0:
138,212,96344,1,8,0:0:0:0:
138,212,96563,5,0,0:0:0:0:
133,179,96672,1,0,0:0:0:0:
133,145,96782,1,8,0:0:0:0:
138,112,96891,1,0,0:0:0:0:
148,79,97001,2,0,L|220:72,1,67.5000025749208,4|0,0:1|0:0,0:0:0:0:
412,128,97220,6,0,P|344:124|268:132,1,135.000005149842,12|0,0:1|0:0,0:0:0:0:
364,236,97658,2,0,L|356:308,1,67.5000025749208,8|0,0:0|0:0,0:0:0:0:
256,304,97877,2,0,L|248:236,1,67.5000025749208,4|0,0:1|0:0,0:0:0:0:
148,236,98096,1,8,0:0:0:0:
148,236,98315,5,0,0:0:0:0:
152,268,98424,1,0,0:0:0:0:
144,300,98534,2,0,L|56:296,1,67.5000025749208,8|0,0:0|0:0,0:0:0:0:
8,220,98753,2,0,L|100:216,1,67.5000025749208,4|0,0:1|0:0,0:0:0:0:
184,136,98972,5,12,0:0:0:0:
320,140,99191,1,2,0:0:0:0:
424,312,99410,5,12,0:0:0:0:
288,316,99629,1,2,0:0:0:0:
444,188,99848,5,12,0:0:0:0:
256,116,100067,1,10,0:0:0:0:
356,292,100286,5,12,0:0:0:0:
408,96,100505,1,10,0:0:0:0:
104,360,100724,6,0,P|184:364|252:340,1,135.000005149842,12|0,0:1|0:0,0:0:0:0:
160,236,101161,2,0,L|80:232,1,67.5000025749208,8|0,0:0|0:0,0:0:0:0:
92,132,101380,2,0,L|172:128,1,67.5000025749208,4|0,0:1|0:0,0:0:0:0:
160,28,101599,1,8,0:0:0:0:
160,28,101818,1,0,0:0:0:0:
360,52,102037,6,0,L|356:128,1,67.5000025749208,8|0,0:0|0:0,0:0:0:0:
456,120,102256,2,0,L|452:52,1,67.5000025749208,4|0,0:1|0:0,0:0:0:0:
348,228,102475,6,0,P|300:220|192:220,1,135.000005149842,12|2,0:1|0:3,0:0:0:0:
380,332,102913,2,0,P|312:332|245:341,1,135.000005149842,8|2,0:0|0:3,0:0:0:0:
188,148,103351,1,8,0:0:0:0:
384,92,103570,5,4,0:1:0:0:
188,148,103789,1,10,0:0:0:0:
156,152,103899,1,0,0:0:0:0:
124,144,104008,2,0,L|56:152,1,67.5000025749208
232,260,104227,6,0,P|284:252|376:252,1,135.000005149842,12|0,0:1|0:0,0:0:0:0:
474,183,104665,2,0,L|466:259,1,67.5000025749208,8|0,0:0|0:0,0:0:0:0:
366,251,104884,2,0,L|358:183,1,67.5000025749208,4|0,0:1|0:0,0:0:0:0:
256,184,105103,1,8,0:0:0:0:
256,184,105322,1,0,0:0:0:0:
52,184,105541,6,0,L|60:260,1,67.5000025749208,8|0,0:0|0:0,0:0:0:0:
160,252,105760,2,0,L|167:184,1,67.5000025749208,4|0,0:1|0:0,0:0:0:0:
244,72,105979,5,12,0:0:0:0:
380,60,106198,1,10,0:0:0:0:
216,180,106417,5,12,0:0:0:0:
80,168,106636,1,2,0:0:0:0:
312,308,106855,5,12,0:0:0:0:
448,296,107074,1,2,0:0:0:0:
464,224,107183,1,2,0:0:0:0:
480,152,107293,1,12,1:0:0:0:
428,368,107512,1,8,0:0:0:0:
200,32,107731,6,0,L|64:40,1,135.000005149842,12|0,0:1|0:0,0:0:0:0:
172,120,108169,2,0,P|205:122|248:114,1,67.5000025749208,8|0,0:0|0:0,0:0:0:0:
328,64,108388,2,0,P|361:58|394:60,1,67.5000025749208,4|0,0:1|0:0,0:0:0:0:
484,112,108607,1,8,0:0:0:0:
484,112,108826,1,0,0:0:0:0:
368,280,109045,6,0,P|376:256|376:208,1,67.5000025749208,8|0,0:0|0:0,0:0:0:0:
276,212,109264,2,0,P|275:245|285:277,1,67.5000025749208,4|0,0:1|0:0,0:0:0:0:
316,76,109483,6,0,L|164:68,1,135.000005149842,12|2,0:1|0:3,0:0:0:0:
260,256,109921,2,0,L|125:263,1,135.000005149842,8|2,0:0|0:3,0:0:0:0:
181,68,110359,1,8,0:0:0:0:
181,68,110578,5,0,0:0:0:0:
214,70,110687,1,0,0:0:0:0:
248,72,110797,1,10,0:0:0:0:
372,128,111015,2,0,P|377:152|376:196,1,67.5000025749208
256,360,111234,6,0,L|248:216,1,135.000005149842,12|0,0:1|0:0,0:0:0:0:
156,128,111672,2,0,P|129:122|88:124,1,67.5000025749208,8|0,0:0|0:0,0:0:0:0:
84,224,111891,2,0,P|117:229|150:228,1,67.5000025749208,4|0,0:1|0:0,0:0:0:0:
244,188,112110,1,8,0:0:0:0:
244,188,112329,5,0,0:0:0:0:
272,204,112439,1,0,0:0:0:0:
304,212,112548,2,0,P|309:193|308:144,1,67.5000025749208,8|0,0:0|0:0,0:0:0:0:
400,100,112767,2,0,P|397:133|404:166,1,67.5000025749208,4|0,0:1|0:0,0:0:0:0:
472,284,112986,5,12,0:0:0:0:
340,304,113205,1,2,0:0:0:0:
172,192,113424,5,12,0:0:0:0:
304,212,113643,1,2,0:0:0:0:
132,316,113862,5,12,0:0:0:0:
132,316,114081,5,0,0:0:0:0:
100,308,114191,1,0,0:0:0:0:
68,300,114300,1,10,0:0:0:0:
36,168,114519,1,10,0:0:0:0:
420,300,114738,6,0,L|428:148,1,135.000005149842,12|0,0:1|0:0,0:0:0:0:
344,60,115176,2,0,P|320:55|272:56,1,67.5000025749208,8|0,0:0|0:0,0:0:0:0:
188,104,115395,2,0,P|154:104|120:99,1,67.5000025749208,4|0,0:1|0:0,0:0:0:0:
32,52,115614,1,8,0:0:0:0:
32,52,115833,1,0,0:0:0:0:
112,240,116052,6,0,P|117:211|116:168,1,67.5000025749208,8|0,0:0|0:0,0:0:0:0:
16,176,116271,2,0,P|14:209|20:242,1,67.5000025749208,4|0,0:1|0:0,0:0:0:0:
180,368,116490,6,0,L|320:364,1,135.000005149842,12|2,0:1|0:3,0:0:0:0:
140,260,116928,2,0,L|279:268,1,135.000005149842,8|2,0:0|0:3,0:0:0:0:
100,372,117366,1,8,0:0:0:0:
100,372,117585,5,0,0:0:0:0:
68,360,117694,1,0,0:0:0:0:
36,348,117804,1,10,0:0:0:0:
84,224,118023,1,10,0:0:0:0:
24,32,118242,6,0,P|48:28|96:28,1,67.5000025749208,10|0,0:1|0:0,0:0:0:0:
184,64,118461,2,0,L|400:56,1,202.500007724762,4|0,0:1|0:0,0:0:0:0:
412,36,118899,1,2,0:0:0:0:
400,172,119118,1,8,0:0:0:0:
288,100,119337,1,2,0:0:0:0:
292,132,119446,1,0,0:0:0:0:
296,164,119556,5,10,0:0:0:0:
256,292,119775,1,2,0:0:0:0:
92,172,119994,6,0,L|100:320,1,135.000005149842,12|2,0:0|0:0,0:0:0:0:
184,124,120322,1,0,0:0:0:0:
184,124,120432,2,0,L|176:272,1,135.000005149842,12|0,0:0|0:0,0:0:0:0:
348,368,120869,5,12,0:0:0:0:
456,288,121088,1,2,0:0:0:0:
472,216,121198,1,2,0:0:0:0:
488,144,121307,1,12,1:0:0:0:
440,360,121526,1,8,0:0:0:0:
244,176,121745,6,0,P|180:172|108:172,1,135,12|0,0:1|0:0,0:0:0:0:
88,184,122183,2,0,P|100:144|92:88,1,90,10|0,0:0|0:0,0:0:0:0:
28,4,122621,1,4,0:1:0:0:
140,36,122840,2,0,L|192:32,1,45,2|0,0:3|0:0,0:0:0:0:
276,24,123059,1,8,0:0:0:0:
276,24,123278,1,2,0:0:0:0:
420,140,123497,5,8,0:0:0:0:
420,140,123716,1,2,0:0:0:0:
372,268,123935,1,10,0:0:0:0:
296,216,124154,1,2,0:0:0:0:
212,244,124373,5,8,0:0:0:0:
212,244,124483,1,0,0:0:0:0:
128,212,124702,1,2,0:0:0:0:
112,228,124811,1,8,0:0:0:0:
28,192,125030,1,10,0:0:0:0:
172,84,125249,6,0,P|208:80|316:84,1,135,12|0,0:1|0:0,0:0:0:0:
324,68,125687,2,0,P|320:116|336:160,1,90,10|0,0:0|0:0,0:0:0:0:
440,208,126125,1,4,0:1:0:0:
384,308,126344,2,0,L|336:304,1,45,2|0,0:3|0:0,0:0:0:0:
248,296,126563,1,8,0:0:0:0:
248,296,126782,1,2,0:0:0:0:
220,120,127001,5,8,0:0:0:0:
220,120,127220,1,2,0:0:0:0:
108,48,127439,1,10,0:0:0:0:
68,128,127658,1,2,0:0:0:0:
116,204,127877,5,8,0:0:0:0:
116,204,127986,1,0,0:0:0:0:
56,272,128205,1,2,0:0:0:0:
60,296,128315,1,8,0:0:0:0:
124,360,128534,1,10,0:0:0:0:
272,260,128753,6,0,P|284:200|276:116,1,135,12|0,0:1|0:0,0:0:0:0:
264,108,129191,2,0,P|316:108|356:96,1,90,10|0,0:0|0:0,0:0:0:0:
412,0,129629,1,8,0:0:0:0:
468,104,129848,2,0,L|464:148,1,45,2|0,0:3|0:0,0:0:0:0:
452,240,130067,1,8,0:0:0:0:
452,240,130286,1,2,0:0:0:0:
276,212,130505,5,8,0:0:0:0:
276,212,130724,1,2,0:0:0:0:
344,96,130942,1,10,0:0:0:0:
264,52,131161,1,2,0:0:0:0:
184,92,131380,5,8,0:0:0:0:
184,92,131490,1,0,0:0:0:0:
100,56,131709,1,2,0:0:0:0:
80,64,131818,1,8,0:0:0:0:
0,96,132037,1,10,0:0:0:0:
120,228,132256,6,0,P|184:220|264:220,1,135,12|0,0:1|0:0,0:0:0:0:
272,208,132694,2,0,P|268:160|276:108,1,90,10|0,0:0|0:0,0:0:0:0:
316,8,133132,1,8,0:0:0:0:
408,76,133351,2,0,L|452:72,1,45,2|0,0:3|0:0,0:0:0:0:
460,172,133570,1,0,1:0:0:0:
460,172,133680,1,0,1:0:0:0:
460,172,133789,2,0,L|416:168,1,45,0|0,1:0|0:0,0:0:0:0:
324,156,134008,5,4,0:0:0:0:
324,156,135760,5,10,0:0:0:0:
324,156,135979,1,0,0:0:0:0:
324,156,136198,1,10,0:0:0:0:
236,136,136417,1,0,0:0:0:0:
236,136,136636,1,10,0:0:0:0:
148,160,136855,1,10,0:0:0:0:
64,132,137074,1,0,0:0:0:0:
76,312,137293,5,10,0:0:0:0:
76,312,137512,1,10,0:0:0:0:
160,284,137731,1,0,0:0:0:0:
160,284,137950,1,10,0:0:0:0:
248,304,138169,1,0,0:0:0:0:
424,276,138388,5,10,0:0:0:0:
424,276,138607,1,10,0:0:0:0:
424,276,138826,1,0,0:0:0:0:
380,100,139045,5,10,0:0:0:0:
380,100,139264,1,0,0:0:0:0:
292,76,139483,1,10,0:0:0:0:
292,76,139702,1,0,0:0:0:0:
208,108,139921,1,10,0:0:0:0:
208,108,140140,1,10,0:0:0:0:
124,80,140359,1,0,0:0:0:0:
44,116,140578,1,10,0:0:0:0:
64,296,140797,5,10,0:0:0:0:
64,296,141015,1,0,0:0:0:0:
152,280,141234,1,10,0:0:0:0:
152,280,141453,1,0,0:0:0:0:
240,300,141672,1,10,0:0:0:0:
408,232,141891,5,10,0:0:0:0:
408,232,142110,1,2,0:0:0:0:
408,232,142329,1,2,0:0:0:0:
492,260,142548,1,2,0:0:0:0:
476,80,142767,6,0,P|408:88|304:52,1,180,8|2,0:1|0:0,0:0:0:0:
156,60,144081,1,2,0:3:0:0:
292,72,144519,6,0,L|296:180,1,90,8|2,0:1|0:0,0:0:0:0:
252,216,145176,2,0,P|216:208|156:208,1,90,2|0,0:3|0:0,0:0:0:0:
96,224,145833,1,0,0:0:0:0:
163,207,146052,1,0,0:0:0:0:
252,216,146271,6,0,L|332:212,1,67.5,8|0,0:1|0:0,0:0:0:0:
340,188,146709,1,0,0:0:0:0:
340,188,146928,1,0,0:0:0:0:
332,276,147147,5,2,0:3:0:0:
280,320,147366,1,0,0:0:0:0:
228,364,147585,1,0,0:0:0:0:
228,364,147804,1,0,0:0:0:0:
140,344,148023,5,2,0:3:0:0:
140,344,148242,1,0,0:0:0:0:
108,284,148461,1,0,0:0:0:0:
148,228,148680,1,0,0:0:0:0:
104,148,148899,5,2,0:3:0:0:
104,148,149118,1,0,0:0:0:0:
144,92,149337,1,0,0:0:0:0:
292,192,149775,6,0,P|360:196|468:164,1,180,8|2,0:1|0:0,0:0:0:0:
460,316,151088,1,2,0:3:0:0:
476,184,151526,6,0,L|468:84,1,90,8|2,0:1|0:0,0:0:0:0:
400,104,152183,2,0,P|372:96|296:92,1,90,2|0,0:3|0:0,0:0:0:0:
248,116,152840,1,0,0:0:0:0:
311,90,153059,1,0,0:0:0:0:
400,104,153278,6,0,L|396:192,1,67.5,8|0,0:1|0:0,0:0:0:0:
376,200,153716,1,0,0:0:0:0:
376,200,153935,1,0,0:0:0:0:
292,228,154154,5,2,0:3:0:0:
224,216,154373,1,0,0:0:0:0:
156,204,154592,1,0,0:0:0:0:
156,204,154811,1,0,0:0:0:0:
68,224,155030,5,2,0:3:0:0:
68,224,155249,1,0,0:0:0:0:
36,164,155468,1,0,0:0:0:0:
76,108,155687,1,0,0:0:0:0:
32,28,155906,5,2,0:3:0:0:
492,312,156782,5,8,0:1:0:0:
372,296,157110,1,2,0:3:0:0:
372,296,157220,1,0,0:0:0:0:
296,320,157439,1,2,0:3:0:0:
224,284,157658,2,0,L|152:280,1,67.5000025749208,0|2,0:0|0:3,0:0:0:0:
144,248,157986,2,0,L|211:244,1,67.5000025749208,0|2,0:0|0:3,0:0:0:0:
208,92,158315,1,0,0:0:0:0:
344,104,158534,5,8,0:1:0:0:
392,176,158753,1,0,0:0:0:0:
392,176,158862,1,2,0:3:0:0:
364,296,159191,1,2,0:3:0:0:
404,372,159410,1,2,0:3:0:0:
404,372,159519,1,0,0:0:0:0:
464,316,159738,1,2,0:3:0:0:
464,316,159848,2,0,L|468:236,1,67.5000025749208
396,132,160286,5,8,0:1:0:0:
280,100,160614,1,0,0:0:0:0:
280,100,160724,1,2,0:3:0:0:
204,128,160942,1,2,0:3:0:0:
128,100,161161,2,0,L|20:96,1,101.250003862381,0|2,0:0|0:0,0:0:0:0:
8,132,161599,1,2,0:3:0:0:
20,212,161818,1,0,0:0:0:0:
148,256,162037,5,8,0:1:0:0:
220,216,162256,2,0,P|260:212|348:208,1,101.250003862381,2|0,0:0|0:0,0:0:0:0:
352,180,162694,2,0,L|344:288,1,101.250003862381,2|0,0:0|0:0,0:0:0:0:
360,320,163132,1,2,0:3:0:0:
488,360,163351,1,2,0:0:0:0:
488,360,163789,5,8,0:0:0:0:
476,280,164008,1,0,0:0:0:0:
464,200,164227,1,0,0:0:0:0:
452,120,164446,1,8,0:0:0:0:
440,40,164665,5,10,0:0:0:0:
464,200,164994,1,10,0:0:0:0:
488,360,165322,1,10,0:0:0:0:
488,360,165760,5,0,0:0:0:0:
416,324,165979,1,0,0:0:0:0:
336,324,166198,1,8,0:0:0:0:
256,216,166417,5,4,0:1:0:0:
328,184,166636,1,0,0:0:0:0:
408,184,166855,1,8,0:0:0:0:
440,52,167074,1,4,0:1:0:0:
440,52,167512,5,0,0:0:0:0:
360,44,167731,1,0,0:0:0:0:
280,36,167950,1,8,0:0:0:0:
188,136,168169,1,4,0:1:0:0:
108,128,168388,1,0,0:0:0:0:
28,120,168607,1,8,0:0:0:0:
84,244,168826,1,4,0:1:0:0:
164,232,169045,1,0,0:0:0:0:
292,268,169264,5,0,0:0:0:0:
292,268,169483,1,0,0:0:0:0:
368,240,169702,1,8,0:0:0:0:
444,264,169921,1,4,0:1:0:0:
500,204,170140,1,0,0:0:0:0:
464,132,170359,1,8,0:0:0:0:
496,56,170578,1,4,0:1:0:0:
368,8,170797,1,4,0:0:0:0:
368,8,173643,5,10,0:0:0:0:
368,8,173862,1,0,0:0:0:0:
328,88,174081,1,10,0:0:0:0:
328,88,174300,1,0,0:0:0:0:
368,168,174519,1,10,0:0:0:0:
368,168,174738,1,10,0:0:0:0:
324,248,174957,1,0,0:0:0:0:
372,324,175176,1,10,0:0:0:0:
372,324,175395,1,10,0:0:0:0:
372,324,175614,1,0,0:0:0:0:
204,256,175833,5,10,0:0:0:0:
204,256,176052,1,0,0:0:0:0:
292,279,176271,5,10,0:0:0:0:
376,243,176490,1,10,0:0:0:0:
456,287,176709,1,0,0:0:0:0:
456,287,176928,1,10,0:0:0:0:
484,199,177147,1,10,0:0:0:0:
452,115,177366,1,0,0:0:0:0:
272,96,177585,5,10,0:0:0:0:
272,96,177804,1,0,0:0:0:0:
184,92,178023,1,10,0:0:0:0:
184,92,178242,1,0,0:0:0:0:
96,88,178461,1,10,0:0:0:0:
72,176,178680,5,10,0:0:0:0:
72,176,178899,1,0,0:0:0:0:
108,260,179118,1,10,0:0:0:0:
196,284,179337,6,0,P|248:276|380:276,1,180,10|10,0:0|0:0,0:0:0:0:
375,275,179994,1,0,0:0:0:0:
360,188,180213,1,10,0:0:0:0:
344,100,180432,1,10,0:0:0:0:
344,100,180651,1,0,0:0:0:0:
344,100,180869,1,10,0:0:0:0:
164,80,181088,5,10,0:0:0:0:
164,80,181307,1,0,0:0:0:0:
160,168,181526,1,10,0:0:0:0:
160,168,181745,1,0,0:0:0:0:
156,256,181964,5,10,0:0:0:0:
156,256,182183,2,0,L|144:368,1,90,10|0,0:0|0:0,0:0:0:0:
146,345,182621,1,10,0:0:0:0:
324,332,182840,5,10,0:0:0:0:
360,248,183059,1,0,0:0:0:0:
316,168,183278,1,10,0:0:0:0:
352,84,183497,1,0,0:0:0:0:
316,168,183716,5,10,0:0:0:0:
352,84,183935,1,10,0:0:0:0:
300,12,184154,1,0,0:0:0:0:
300,12,184373,1,10,0:0:0:0:
128,60,184592,5,10,0:0:0:0:
104,148,184811,1,0,0:0:0:0:
104,148,185030,1,10,0:0:0:0:
104,148,185249,1,0,0:0:0:0:
144,228,185468,1,10,0:0:0:0:
232,216,185687,1,10,0:0:0:0:
232,216,185906,5,0,0:0:0:0:
274,201,186015,1,0,0:0:0:0:
319,198,186125,1,10,0:0:0:0:
362,209,186234,1,0,0:0:0:0:
405,222,186344,1,0,0:0:0:0:
450,221,186453,1,0,0:0:0:0:
492,207,186563,6,0,L|500:108,1,90,10|10,0:0|0:0,0:0:0:0:
392,36,187001,2,0,L|398:125,1,90,0|10,0:0|0:0,0:0:0:0:
420,304,187439,1,10,0:0:0:0:
420,304,187877,5,10,0:0:0:0:
332,300,188096,1,0,0:0:0:0:
192,188,188315,1,10,0:0:0:0:
224,104,188424,6,0,L|224:288,1,180,12|0,0:0|0:0,0:0:0:0:
224,284,189629,6,0,L|224:104,1,180
224,284,191818,5,8,0:1:0:0:
224,284,192037,2,0,P|268:288|364:272,1,135,10|0,0:0|0:0,0:0:0:0:
384,236,192475,1,10,0:0:0:0:
472,260,192694,5,0,0:0:0:0:
472,260,192913,1,10,0:0:0:0:
472,260,193132,1,10,0:0:0:0:
492,172,193351,1,0,0:0:0:0:
408,200,193570,5,10,0:0:0:0:
408,200,193789,1,10,0:0:0:0:
324,168,194008,1,0,0:0:0:0:
324,168,194227,1,10,0:0:0:0:
240,200,194446,5,0,0:0:0:0:
240,200,194556,2,0,L|244:240,1,22.5
172,176,194665,2,0,L|176:132,1,45,8|0,0:0|0:0,0:0:0:0:
156,88,194884,1,10,0:0:0:0:
121,59,194994,1,0,0:0:0:0:
77,51,195103,1,0,0:0:0:0:
35,66,195213,1,0,0:0:0:0:
6,100,195322,5,2,0:0:0:0:
6,100,195760,1,0,1:0:0:0:
6,100,195979,1,0,1:0:0:0:
16,236,196198,5,2,0:0:0:0:
16,236,196636,1,0,1:0:0:0:
16,236,196855,1,0,1:0:0:0:
28,372,197074,5,2,0:0:0:0:
112,340,197512,1,0,1:0:0:0:
196,376,197950,1,2,0:0:0:0:
276,336,198388,1,0,1:0:0:0:
276,336,198607,1,0,1:0:0:0:
408,364,198826,5,2,0:0:0:0:
408,364,199264,1,0,1:0:0:0:
408,364,199483,1,0,1:0:0:0:
432,232,199702,5,2,0:0:0:0:
432,232,199921,1,0,1:0:0:0:
428,208,200030,1,0,1:0:0:0:
424,188,200140,1,0,1:0:0:0:
444,100,200359,1,0,0:0:0:0:
344,8,200578,5,2,1:2:0:0:
256,4,200797,1,0,1:0:0:0:
192,68,201015,1,0,1:0:0:0:
104,72,201234,1,2,1:0:0:0:
8,164,201453,6,0,P|16:232|8:360,1,180,2|0,0:0|0:0,0:0:0:0:
10,343,202329,5,2,0:0:0:0:
10,343,202767,1,0,1:0:0:0:
10,343,202986,1,0,1:0:0:0:
144,332,203205,5,2,0:0:0:0:
144,332,203643,1,0,1:0:0:0:
144,332,203862,1,0,1:0:0:0:
280,320,204081,5,2,0:0:0:0:
340,252,204519,1,0,1:0:0:0:
300,172,204957,1,2,0:0:0:0:
360,104,205395,1,0,1:0:0:0:
360,104,205614,1,0,1:0:0:0:
256,20,205833,5,2,0:0:0:0:
256,20,206271,1,0,1:0:0:0:
256,20,206490,1,0,1:0:0:0:
120,32,206709,5,2,1:2:0:0:
84,116,206928,1,0,1:0:0:0:
132,192,207147,1,0,1:0:0:0:
96,276,207366,1,0,1:0:0:0:
208,352,207585,5,2,1:2:0:0:
288,308,207804,1,0,1:0:0:0:
364,356,208023,1,0,1:0:0:0:
444,312,208242,1,2,1:0:0:0:
476,180,208461,5,2,0:0:0:0:
476,180,208899,1,0,1:0:0:0:
388,172,209118,1,0,1:0:0:0:
300,164,209337,1,6,1:2:0:0:
272,140,223351,5,4,0:1:0:0:
184,164,223570,1,0,0:0:0:0:
184,164,223680,1,2,0:3:0:0:
52,132,224008,1,8,0:0:0:0:
52,132,224446,1,2,0:3:0:0:
8,212,224665,2,0,L|16:312,1,90,8|0,0:0|0:0,0:0:0:0:
140,356,225103,5,4,0:1:0:0:
228,332,225322,1,0,0:0:0:0:
228,332,225432,1,2,0:3:0:0:
360,356,225760,1,8,0:0:0:0:
360,356,226198,1,2,0:3:0:0:
428,296,226417,2,0,L|420:196,1,90,8|2,0:0|0:3,0:0:0:0:
408,188,226745,1,2,0:3:0:0:
416,168,226855,5,4,0:1:0:0:
452,88,227074,1,0,0:0:0:0:
452,88,227183,1,2,0:3:0:0:
340,12,227512,1,8,0:0:0:0:
340,12,227950,1,2,0:3:0:0:
264,60,228169,2,0,P|232:56|160:56,1,90,8|0,0:0|0:0,0:0:0:0:
40,84,228607,5,12,0:1:0:0:
108,144,228826,1,0,0:0:0:0:
104,168,228935,1,2,0:3:0:0:
100,192,229045,1,8,0:0:0:0:
124,280,229264,1,8,0:0:0:0:
212,300,229483,1,0,0:0:0:0:
288,252,229702,5,0,3:0:0:0:
312,248,229811,1,0,3:0:0:0:
336,244,229921,2,0,L|444:256,1,90,8|0,3:1|0:0,0:0:0:0:
472,152,230249,1,0,3:0:0:0:
448,148,230359,6,0,L|340:160,1,90,8|0,3:2|0:0,0:0:0:0:
340,144,230687,1,2,0:3:0:0:
204,132,231015,1,8,0:0:0:0:
204,132,231453,1,2,0:3:0:0:
120,160,231672,2,0,L|128:264,1,90,8|0,0:0|0:0,0:0:0:0:
208,356,232110,5,4,0:1:0:0:
296,340,232329,1,0,0:0:0:0:
296,340,232439,1,2,0:3:0:0:
336,212,232767,1,8,0:0:0:0:
336,212,233205,1,2,0:3:0:0:
292,132,233424,2,0,L|188:140,1,90,8|0,0:0|0:0,0:0:0:0:
184,128,233753,1,2,0:3:0:0:
168,116,233862,5,4,0:1:0:0:
80,104,234081,1,0,0:0:0:0:
80,104,234191,1,2,0:3:0:0:
116,236,234519,1,8,0:0:0:0:
116,236,234957,1,2,0:3:0:0:
196,280,235176,2,0,P|228:272|300:272,1,90,8|0,0:0|0:0,0:0:0:0:
420,296,235614,5,12,0:1:0:0:
480,232,235833,1,0,0:0:0:0:
476,212,235942,1,2,0:3:0:0:
472,192,236052,1,8,0:0:0:0:
416,120,236271,1,8,0:0:0:0:
328,140,236490,1,0,0:0:0:0:
248,100,236709,5,0,3:0:0:0:
224,96,236818,1,0,3:0:0:0:
200,92,236928,2,0,L|208:200,1,90,8|0,3:1|0:0,0:0:0:0:
312,224,237256,1,0,3:0:0:0:
288,220,237366,6,0,L|276:324,1,90,8|0,3:2|0:0,0:0:0:0:
276,332,237694,1,2,0:3:0:0:
284,352,237804,1,0,0:0:0:0:
416,332,238023,5,8,0:0:0:0:
416,332,238242,2,0,L|420:232,1,90,2|0,0:0|0:0,0:0:0:0:
408,228,238570,1,0,0:0:0:0:
408,228,238680,1,2,0:0:0:0:
376,144,238899,1,2,0:0:0:0:
432,20,239118,6,0,L|328:16,1,90,8|2,0:0|0:0,0:0:0:0:
320,24,239446,1,2,0:3:0:0:
304,40,239556,1,2,0:0:0:0:
172,24,239775,5,8,0:0:0:0:
132,104,239994,1,2,0:0:0:0:
184,176,240213,1,8,0:0:0:0:
180,200,240322,1,2,0:0:0:0:
176,224,240432,1,4,0:1:0:0:
204,308,240651,1,2,0:0:0:0:
332,260,240869,6,0,P|368:256|436:256,1,90,8|0,0:0|0:0,0:0:0:0:
444,264,241198,1,2,0:3:0:0:
464,276,241307,1,2,0:0:0:0:
500,144,241526,5,8,0:0:0:0:
436,80,241745,2,0,L|340:76,1,90,2|0,0:0|0:0,0:0:0:0:
324,68,242074,1,2,0:3:0:0:
304,56,242183,1,10,0:0:0:0:
216,36,242402,1,10,0:0:0:0:
84,68,242621,6,0,L|88:168,1,90,8|0,0:0|0:0,0:0:0:0:
100,180,242950,1,0,0:0:0:0:
228,224,243278,5,8,0:0:0:0:
352,172,243497,1,10,0:0:0:0:
440,192,243716,5,0,3:0:0:0:
436,216,243826,1,0,3:0:0:0:
432,236,243935,2,0,L|440:340,1,90,8|0,3:1|0:0,0:0:0:0:
344,260,244264,1,0,3:0:0:0:
348,280,244373,6,0,L|340:384,1,90,8|0,3:2|0:0,0:0:0:0:
320,360,244702,1,0,0:0:0:0:
300,348,244811,1,0,0:0:0:0:
212,324,245030,1,8,0:0:0:0:
124,336,245249,6,0,P|72:340|28:328,1,90,8|0,0:0|0:0,0:0:0:0:
64,244,245687,1,2,0:0:0:0:
40,156,245906,1,2,0:0:0:0:
92,32,246125,6,0,L|184:28,1,90,8|0,0:0|0:0,0:0:0:0:
204,36,246453,1,2,0:3:0:0:
224,48,246563,1,0,0:0:0:0:
312,32,246782,1,8,0:0:0:0:
312,32,247001,6,0,L|308:132,1,90
372,184,247439,1,12,0:1:0:0:
460,168,247658,1,2,0:3:0:0:
456,188,247767,1,2,0:3:0:0:
452,208,247877,5,4,0:1:0:0:
488,296,248096,1,0,0:0:0:0:
488,296,248205,1,2,0:3:0:0:
356,316,248534,1,8,0:0:0:0:
232,260,248753,5,8,0:0:0:0:
144,280,248972,1,0,0:0:0:0:
144,280,249191,1,2,0:0:0:0:
60,252,249410,1,2,0:0:0:0:
128,192,249629,6,0,L|124:100,1,90,8|0,0:0|0:0,0:0:0:0:
204,144,249957,1,2,0:3:0:0:
204,144,250067,2,0,L|208:52,1,90,8|0,0:0|0:0,0:0:0:0:
284,104,250505,2,0,L|296:12,1,90,8|0,0:0|0:0,0:0:0:0:
316,12,250833,1,0,0:0:0:0:
336,8,250942,1,8,0:0:0:0:
424,20,251161,1,0,0:0:0:0:
368,192,251380,5,4,0:1:0:0:
236,168,251709,1,0,0:0:0:0:
236,168,251818,1,4,0:0:0:0:
148,192,252037,1,0,0:0:0:0:
148,192,252256,2,0,L|96:188,1,45,4|0,0:0|0:0,0:0:0:0:
84,56,252694,1,8,0:0:0:0:
84,56,252913,1,8,0:0:0:0:
260,28,253132,5,4,0:1:0:0:
392,52,253461,1,0,0:0:0:0:
392,52,253570,1,4,0:0:0:0:
480,28,253789,1,0,0:0:0:0:
480,28,254008,2,0,L|472:92,1,45,4|0,0:0|0:0,0:0:0:0:
408,192,254446,1,8,0:0:0:0:
408,192,254665,1,8,0:0:0:0:
284,140,254884,6,0,P|252:136|172:136,1,90,12|0,0:0|0:0,0:0:0:0:
124,252,255322,2,0,P|156:248|236:248,1,90,12|0,0:0|0:0,0:0:0:0:
213,246,255651,1,2,0:0:0:0:
284,300,255760,5,12,0:0:0:0:
416,272,256088,1,4,0:0:0:0:
416,272,256198,1,0,0:0:0:0:
504,284,256417,1,4,0:0:0:0:
504,284,256636,6,0,L|508:192,1,90,8|0,0:0|0:0,0:0:0:0:
500,172,256964,1,0,0:0:0:0:
488,152,257074,1,4,0:0:0:0:
500,64,257293,1,8,0:0:0:0:
376,24,257512,5,12,0:0:0:0:
376,24,257621,1,2,0:3:0:0:
288,36,257840,1,12,0:0:0:0:
288,36,257950,1,0,0:0:0:0:
200,12,258169,1,2,0:0:0:0:
180,20,258278,1,0,0:0:0:0:
160,28,258388,6,0,L|40:20,1,90,12|0,0:0|0:0,0:0:0:0:
52,36,258716,1,2,0:0:0:0:
36,52,258826,1,4,0:0:0:0:
16,140,259045,1,8,0:0:0:0:
92,252,259264,6,0,L|84:352,1,90,12|2,0:0|0:3,0:0:0:0:
104,356,259592,1,4,0:0:0:0:
124,368,259702,1,8,0:0:0:0:
212,340,259921,1,12,0:0:0:0:
344,368,260140,6,0,L|440:364,1,90,12|2,0:0|0:3,0:0:0:0:
452,352,260468,1,0,0:0:0:0:
468,336,260578,1,4,0:0:0:0:
440,248,260797,1,12,0:0:0:0:
472,116,261015,6,0,L|376:112,1,90,12|2,0:0|0:0,0:0:0:0:
300,72,261344,1,6,0:0:0:0:
308,56,261453,2,0,L|218:59,1,90,8|6,0:0|0:0,0:0:0:0:
132,36,261782,1,2,0:0:0:0:
116,28,261891,6,0,P|108:72|120:120,1,90,4|0,0:0|0:0,0:0:0:0:
168,192,262329,1,4,0:0:0:0:
168,192,262548,1,2,0:3:0:0:
304,176,262767,5,12,0:0:0:0:
392,168,262986,1,2,0:3:0:0:
392,168,263096,2,0,L|388:224,1,45,12|0,0:0|0:0,0:0:0:0:
316,268,263315,1,2,0:3:0:0:
316,268,263424,2,0,L|320:324,1,45,12|0,0:0|0:0,0:0:0:0:
392,364,263643,5,12,1:2:0:0:
203,326,263972,1,2,1:2:0:0:
239,134,264300,5,2,1:2:0:0:
392,364,264519,1,2,1:2:0:0:
392,364,264738,5,0,1:2:0:0:
396,352,264848,1,0,1:2:0:0:
400,340,264957,1,8,1:2:0:0:
394,295,265067,1,0,1:2:0:0:
476,256,265176,2,0,L|468:200,1,45,8|0,0:0|0:0,0:0:0:0:
360,84,265395,6,0,P|324:76|208:76,1,135.000005149842,12|0,0:1|0:0,0:0:0:0:
108,140,265833,2,0,L|112:224,1,67.5000025749208,8|0,0:0|0:0,0:0:0:0:
196,260,266052,2,0,L|199:192,1,67.5000025749208,4|0,0:1|0:0,0:0:0:0:
208,92,266271,1,8,0:0:0:0:
208,92,266490,5,0,0:0:0:0:
240,88,266599,1,0,0:0:0:0:
272,96,266709,2,0,L|364:88,1,67.5000025749208,8|0,0:0|0:0,0:0:0:0:
380,184,266928,2,0,L|288:176,1,67.5000025749208,4|0,0:1|0:0,0:0:0:0:
492,84,267147,6,0,P|500:160|484:232,1,135.000005149842,12|2,0:1|0:3,0:0:0:0:
296,168,267585,2,0,P|288:244|304:316,1,135.000005149842,8|2,0:0|0:3,0:0:0:0:
489,217,268023,1,8,0:0:0:0:
489,217,268242,5,0,0:0:0:0:
497,184,268351,1,0,0:0:0:0:
500,150,268461,1,8,0:0:0:0:
498,117,268570,1,0,0:0:0:0:
491,83,268680,2,0,L|407:79,1,67.5000025749208,4|0,0:1|0:0,0:0:0:0:
232,144,268899,6,0,P|288:140|380:156,1,135.000005149842,12|0,0:1|0:0,0:0:0:0:
464,244,269337,2,0,L|460:324,1,67.5000025749208,8|0,0:0|0:0,0:0:0:0:
368,352,269556,2,0,L|364:284,1,67.5000025749208,4|0,0:1|0:0,0:0:0:0:
360,188,269775,1,8,0:0:0:0:
360,188,269994,6,0,L|264:180,1,67.5000025749208,8|0,0:0|0:0,0:0:0:0:
240,96,270213,2,0,L|336:88,1,67.5000025749208,4|0,0:1|0:0,0:0:0:0:
412,80,270432,1,8,0:0:0:0:
96,336,270651,5,12,0:0:0:0:
80,200,270869,1,2,0:0:0:0:
256,100,271088,5,12,0:0:0:0:
240,236,271307,1,2,0:0:0:0:
164,48,271526,5,12,0:0:0:0:
364,32,271745,1,10,0:0:0:0:
212,164,271964,5,12,0:0:0:0:
408,112,272183,1,10,0:0:0:0:
72,336,272402,6,0,P|136:328|220:328,1,135.000005149842,12|0,0:1|0:0,0:0:0:0:
324,260,272840,2,0,L|320:192,1,67.5000025749208,8|0,0:0|0:0,0:0:0:0:
416,156,273059,2,0,L|412:224,1,67.5000025749208,4|0,0:1|0:0,0:0:0:0:
404,324,273278,1,8,0:0:0:0:
404,324,273497,1,0,0:0:0:0:
224,228,273716,6,0,L|148:224,1,67.5000025749208,8|0,0:0|0:0,0:0:0:0:
120,132,273935,2,0,L|196:128,1,67.5000025749208,4|0,0:1|0:0,0:0:0:0:
8,224,274154,6,0,P|12:276|-8:360,1,135.000005149842,12|2,0:1|0:3,0:0:0:0:
136,212,274592,2,0,P|135:264|108:346,1,135.000005149842,8|2,0:0|0:3,0:0:0:0:
324,300,275030,1,8,0:0:0:0:
376,92,275249,5,4,0:1:0:0:
324,300,275468,1,10,0:0:0:0:
356,296,275578,1,0,0:0:0:0:
388,304,275687,2,0,L|384:380,1,67.5000025749208
256,212,275906,6,0,P|264:168|240:72,1,135.000005149842,12|0,0:1|0:0,0:0:0:0:
120,28,276344,2,0,L|32:24,1,67.5000025749208,8|0,0:0|0:0,0:0:0:0:
20,120,276563,2,0,L|108:116,1,67.5000025749208,4|0,0:1|0:0,0:0:0:0:
188,112,276782,1,8,0:0:0:0:
188,112,277001,1,0,0:0:0:0:
372,32,277220,6,0,L|460:28,1,67.5000025749208,8|0,0:0|0:0,0:0:0:0:
472,124,277439,2,0,L|384:120,1,67.5000025749208,4|0,0:1|0:0,0:0:0:0:
304,116,277658,5,8,0:0:0:0:
396,216,277877,1,2,0:0:0:0:
388,288,277986,1,2,0:0:0:0:
376,360,278096,1,10,0:0:0:0:
504,312,278315,1,4,0:1:0:0:
256,204,278534,5,8,0:0:0:0:
164,312,278753,1,2,0:0:0:0:
92,300,278862,1,2,0:0:0:0:
20,288,278972,1,12,1:0:0:0:
240,328,279191,1,8,0:0:0:0:
504,20,279410,6,0,L|352:16,1,135.000005149842,12|0,0:1|0:0,0:0:0:0:
256,92,279848,2,0,P|277:89|324:88,1,67.5000025749208,8|0,0:0|0:0,0:0:0:0:
324,188,280067,2,0,P|302:185|256:184,1,67.5000025749208,4|0,0:1|0:0,0:0:0:0:
256,284,280286,1,8,0:0:0:0:
256,284,280505,1,0,0:0:0:0:
96,156,280724,6,0,P|124:152|164:156,1,67.5000025749208,8|0,0:0|0:0,0:0:0:0:
96,232,280942,2,0,P|67:236|28:232,1,67.5000025749208,4|0,0:1|0:0,0:0:0:0:
140,60,281161,6,0,L|292:52,1,135.000005149842,12|2,0:1|0:3,0:0:0:0:
196,240,281599,2,0,L|331:247,1,135.000005149842,8|2,0:0|0:3,0:0:0:0:
274,52,282037,1,8,0:0:0:0:
274,52,282256,5,0,0:0:0:0:
308,48,282366,1,0,0:0:0:0:
340,44,282475,1,10,0:0:0:0:
456,112,282694,2,0,P|433:108|384:108,1,67.5000025749208
224,228,282913,6,0,L|72:224,1,135.000005149842,12|0,0:1|0:0,0:0:0:0:
164,336,283351,2,0,P|186:333|244:332,1,67.5000025749208,8|0,0:0|0:0,0:0:0:0:
332,352,283570,2,0,P|365:351|399:347,1,67.5000025749208,4|0,0:1|0:0,0:0:0:0:
484,292,283789,1,8,0:0:0:0:
484,292,284008,5,0,0:0:0:0:
488,260,284118,1,0,0:0:0:0:
492,228,284227,2,0,P|465:221|404:220,1,67.5000025749208,8|0,0:0|0:0,0:0:0:0:
384,124,284446,2,0,P|410:130|472:131,1,67.5000025749208,4|0,0:1|0:0,0:0:0:0:
356,36,284665,5,12,0:0:0:0:
220,20,284884,1,2,0:0:0:0:
80,168,285103,5,12,0:0:0:0:
216,152,285322,1,2,0:0:0:0:
72,296,285541,5,12,0:0:0:0:
72,296,285760,5,0,0:0:0:0:
104,288,285869,1,0,0:0:0:0:
136,292,285979,2,0,P|168:296|216:288,1,67.5000025749208,8|0,0:0|0:0,0:0:0:0:
208,192,286198,2,0,P|176:188|128:195,1,67.5000025749208,4|0,0:1|0:0,0:0:0:0:
332,260,286417,6,0,L|484:256,1,135.000005149842,12|0,0:1|0:0,0:0:0:0:
380,152,286855,2,0,P|355:146|300:148,1,67.5000025749208,8|0,0:0|0:0,0:0:0:0:
212,164,287074,2,0,P|178:164|145:157,1,67.5000025749208,4|0,0:1|0:0,0:0:0:0:
68,92,287293,1,8,0:0:0:0:
68,92,287512,1,0,0:0:0:0:
108,292,287731,6,0,P|112:324|104:360,1,67.5000025749208,8|0,0:0|0:0,0:0:0:0:
188,300,287950,2,0,P|184:268|192:232,1,67.5000025749208,4|0,0:1|0:0,0:0:0:0:
288,56,288169,6,0,L|436:52,1,135.000005149842,12|2,0:1|0:3,0:0:0:0:
260,172,288607,2,0,L|407:155,1,135.000005149842,8|2,0:0|0:3,0:0:0:0:
208,64,289045,1,8,0:0:0:0:
208,64,289264,5,0,0:0:0:0:
180,80,289373,1,0,0:0:0:0:
152,96,289483,1,10,0:0:0:0:
20,64,289702,1,10,0:0:0:0:
128,236,289921,6,0,P|153:231|204:232,1,67.5000025749208,10|0,0:1|0:0,0:0:0:0:
296,256,290140,2,0,L|308:48,1,202.500007724762,4|0,0:1|0:0,0:0:0:0:
332,28,290578,1,2,0:0:0:0:
468,20,290797,1,8,0:0:0:0:
428,148,291015,1,2,0:0:0:0:
432,180,291125,1,0,0:0:0:0:
436,212,291234,5,10,0:0:0:0:
496,332,291453,1,2,0:0:0:0:
304,272,291672,6,0,L|144:268,1,135.000005149842,12|2,0:0|0:0,0:0:0:0:
344,160,292001,1,0,0:0:0:0:
344,160,292110,2,0,L|184:169,1,135.000005149842,12|0,0:0|0:0,0:0:0:0:
8,136,292548,5,12,0:0:0:0:
132,88,292767,1,2,0:0:0:0:
120,160,292877,1,2,0:0:0:0:
108,232,292986,1,12,1:0:0:0:
144,16,293205,1,8,0:0:0:0:
468,256,293424,6,0,P|400:264|324:236,1,135.000005149842,12|0,0:1|0:0,0:0:0:0:
436,152,293862,2,0,L|432:80,1,67.5000025749208,8|0,0:0|0:0,0:0:0:0:
332,84,294081,2,0,L|328:151,1,67.5000025749208,4|0,0:1|0:0,0:0:0:0:
228,152,294300,1,8,0:0:0:0:
228,152,294519,5,0,0:0:0:0:
196,148,294629,1,0,0:0:0:0:
164,140,294738,2,0,L|80:156,1,67.5000025749208,8|0,0:0|0:0,0:0:0:0:
96,256,294957,2,0,L|180:272,1,67.5000025749208,4|0,0:1|0:0,0:0:0:0:
332,356,295176,6,0,P|384:360|484:344,1,135.000005149842,12|2,0:1|0:3,0:0:0:0:
376,160,295614,2,0,P|442:149|509:153,1,135.000005149842,8|2,0:0|0:3,0:0:0:0:
465,349,296052,1,8,0:0:0:0:
465,349,296271,5,0,0:0:0:0:
432,356,296380,1,0,0:0:0:0:
399,359,296490,1,8,0:0:0:0:
365,359,296599,1,0,0:0:0:0:
331,355,296709,2,0,L|259:371,1,67.5000025749208,4|0,0:1|0:0,0:0:0:0:
88,268,296928,6,0,P|108:200|96:128,1,135.000005149842,12|0,0:1|0:0,0:0:0:0:
20,28,297366,2,0,L|96:20,1,67.5000025749208,8|0,0:0|0:0,0:0:0:0:
92,124,297585,2,0,L|16:116,1,67.5000025749208,4|0,0:1|0:0,0:0:0:0:
24,220,297804,1,8,0:0:0:0:
24,220,298023,5,0,0:0:0:0:
28,252,298132,1,0,0:0:0:0:
32,284,298242,2,0,L|24:356,1,67.5000025749208,8|0,0:0|0:0,0:0:0:0:
120,320,298461,2,0,L|112:252,1,67.5000025749208,4|0,0:1|0:0,0:0:0:0:
132,120,298680,5,12,0:0:0:0:
4,80,298899,1,2,0:0:0:0:
168,192,299118,5,12,0:0:0:0:
296,152,299337,1,2,0:0:0:0:
128,40,299556,5,12,0:0:0:0:
48,224,299775,1,10,0:0:0:0:
204,96,299994,5,12,0:0:0:0:
396,164,300213,1,10,0:0:0:0:
20,316,300432,6,0,P|64:308|176:312,1,135.000005149842,12|0,0:1|0:0,0:0:0:0:
284,348,300869,2,0,L|356:344,1,67.5000025749208,8|0,0:0|0:0,0:0:0:0:
352,244,301088,2,0,L|280:240,1,67.5000025749208,4|0,0:1|0:0,0:0:0:0:
284,140,301307,1,8,0:0:0:0:
284,140,301526,1,0,0:0:0:0:
84,112,301745,6,0,L|88:184,1,67.5000025749208,8|0,0:0|0:0,0:0:0:0:
188,200,301964,2,0,L|191:132,1,67.5000025749208,0|0,0:2|0:0,0:0:0:0:
128,328,302183,6,0,P|176:332|272:316,1,135.000005149842,12|2,0:1|0:3,0:0:0:0:
190,132,302621,2,0,P|237:140|334:132,1,135.000005149842,8|2,0:0|0:3,0:0:0:0:
500,32,303059,1,8,0:0:0:0:
323,135,303278,5,4,0:1:0:0:
500,32,303497,1,10,0:0:0:0:
496,64,303607,1,0,0:0:0:0:
492,96,303716,2,0,L|500:180,1,67.5000025749208
400,340,303935,6,0,P|348:332|256:332,1,135.000005149842,12|0,0:1|0:0,0:0:0:0:
132,304,304373,2,0,L|128:228,1,67.5000025749208,8|0,0:0|0:0,0:0:0:0:
220,196,304592,2,0,L|216:263,1,67.5000025749208,4|0,0:1|0:0,0:0:0:0:
208,364,304811,1,8,0:0:0:0:
208,364,305030,1,0,0:0:0:0:
384,264,305249,6,0,L|388:188,1,67.5000025749208,8|0,0:0|0:0,0:0:0:0:
296,156,305468,2,0,L|299:223,1,67.5000025749208,4|0,0:1|0:0,0:0:0:0:
312,360,305687,5,8,0:0:0:0:
444,336,305906,1,2,0:0:0:0:
460,264,306015,1,2,0:0:0:0:
476,192,306125,1,10,1:0:0:0:
440,60,306344,1,4,0:1:0:0:
204,192,306563,5,8,0:0:0:0:
72,216,306782,1,2,0:0:0:0:
64,144,306891,1,2,0:0:0:0:
56,72,307001,1,12,1:0:0:0:
80,288,307220,1,8,0:0:0:0:
408,48,307439,6,0,L|268:56,1,135.000005149842,12|0,0:1|0:0,0:0:0:0:
172,148,307877,2,0,P|197:143|240:144,1,67.5000025749208,8|0,0:0|0:0,0:0:0:0:
332,184,308096,2,0,P|365:185|398:179,1,67.5000025749208,4|0,0:1|0:0,0:0:0:0:
464,100,308315,1,8,0:0:0:0:
464,100,308534,1,0,0:0:0:0:
380,284,308753,6,0,P|406:280|448:284,1,67.5000025749208,8|0,0:0|0:0,0:0:0:0:
376,360,308972,2,0,P|349:364|308:360,1,67.5000025749208,4|0,0:1|0:0,0:0:0:0:
156,224,309191,6,0,L|320:216,1,135.000005149842,12|2,0:1|0:3,0:0:0:0:
228,24,309629,2,0,L|362:30,1,135.000005149842,8|2,0:0|0:3,0:0:0:0:
290,217,310067,1,8,0:0:0:0:
290,217,310286,5,0,0:0:0:0:
256,218,310395,1,0,0:0:0:0:
222,220,310505,1,10,0:0:0:0:
92,184,310724,2,0,P|96:224|88:252,1,67.5000025749208
16,60,310942,6,0,L|164:56,1,135.000005149842,12|0,0:1|0:0,0:0:0:0:
272,112,311380,2,0,P|266:139|268:180,1,67.5000025749208,8|0,0:0|0:0,0:0:0:0:
368,184,311599,2,0,P|373:151|372:118,1,67.5000025749208,4|0,0:1|0:0,0:0:0:0:
332,24,311818,1,8,0:0:0:0:
332,24,312037,5,0,0:0:0:0:
364,16,312147,1,0,0:0:0:0:
396,16,312256,2,0,P|428:20|468:12,1,67.5000025749208,8|0,0:0|0:0,0:0:0:0:
512,104,312475,2,0,P|480:100|440:108,1,67.5000025749208,4|0,0:1|0:0,0:0:0:0:
324,164,312694,5,12,0:0:0:0:
188,148,312913,1,2,0:0:0:0:
256,340,313132,5,12,0:0:0:0:
392,324,313351,1,2,0:0:0:0:
204,248,313570,5,12,0:0:0:0:
204,248,313789,5,0,0:0:0:0:
172,260,313899,1,0,0:0:0:0:
140,272,314008,1,8,0:0:0:0:
24,208,314227,1,4,0:1:0:0:
416,112,314446,6,0,L|412:252,1,135.000005149842,12|0,0:1|0:0,0:0:0:0:
324,348,314884,2,0,P|296:351|252:344,1,67.5000025749208,8|0,0:0|0:0,0:0:0:0:
163,305,315103,2,0,P|129:299|96:302,1,67.5000025749208,4|0,0:1|0:0,0:0:0:0:
8,352,315322,1,8,0:0:0:0:
8,352,315541,1,0,0:0:0:0:
132,192,315760,6,0,P|138:168|140:120,1,67.5000025749208,8|0,0:0|0:0,0:0:0:0:
40,128,315979,2,0,P|40:161|48:194,1,67.5000025749208,4|0,0:1|0:0,0:0:0:0:
196,336,316198,6,0,L|348:332,1,135.000005149842,12|2,0:1|0:3,0:0:0:0:
152,236,316636,2,0,L|286:239,1,135.000005149842,8|0,0:0|0:3,0:0:0:0:
108,336,317074,1,8,0:0:0:0:
109,336,317293,5,0,0:0:0:0:
76,337,317402,1,0,0:0:0:0:
42,338,317512,1,10,0:0:0:0:
16,204,317731,1,10,0:0:0:0:
200,116,317950,6,0,P|225:111|272:112,1,67.5000025749208,10|0,0:1|0:0,0:0:0:0:
364,140,318169,2,0,L|352:348,1,202.500007724762,4|0,0:1|0:0,0:0:0:0:
328,364,318607,1,2,0:0:0:0:
212,296,318826,1,8,0:0:0:0:
80,328,319045,1,2,0:0:0:0:
108,348,319154,1,0,0:0:0:0:
136,368,319264,1,10,0:0:0:0:
16,204,319483,1,2,0:0:0:0:
200,116,319702,6,0,P|225:111|272:112,1,67.5000025749208,10|0,0:1|0:0,0:0:0:0:
364,140,319921,2,0,L|352:348,1,202.500007724762,4|0,0:1|0:0,0:0:0:0:
328,364,320359,1,2,0:0:0:0:
212,296,320578,1,8,0:0:0:0:
80,328,320797,1,2,0:0:0:0:
108,348,320906,1,0,0:0:0:0:
136,368,321015,1,10,0:0:0:0:
16,204,321234,1,2,0:0:0:0:
200,116,321453,6,0,P|225:111|272:112,1,67.5000025749208,10|0,0:1|0:0,0:0:0:0:
364,140,321672,2,0,L|352:348,1,202.500007724762,4|0,0:1|0:0,0:0:0:0:
328,364,322110,1,2,0:0:0:0:
212,296,322329,1,8,0:0:0:0:
80,328,322548,1,2,0:0:0:0:
108,348,322658,1,0,0:0:0:0:
136,368,322767,1,10,0:0:0:0:
16,204,322986,1,2,0:0:0:0:
136,368,323205,5,10,0:0:0:0:
16,204,323424,1,2,0:0:0:0:
136,368,323643,5,10,0:0:0:0:
16,204,323862,1,2,0:0:0:0:
136,368,324081,5,10,0:0:0:0:
16,204,324300,1,2,0:0:0:0:
136,368,324519,5,10,0:0:0:0:
16,204,324738,1,2,0:0:0:0:
136,368,324957,5,10,0:0:0:0:
164,68,325176,1,2,0:0:0:0:
164,68,327147,6,0,L|172:216,1,135.000005149842,12|2,0:0|0:0,0:0:0:0:
256,20,327475,1,0,0:0:0:0:
256,20,327585,2,0,L|248:168,1,135.000005149842,12|0,0:0|0:0,0:0:0:0:
352,332,328023,5,12,0:0:0:0:
240,252,328242,1,2,0:0:0:0:
168,244,328351,1,2,0:0:0:0:
96,236,328461,1,12,1:0:0:0:
316,260,328680,1,8,0:0:0:0:
448,24,328899,5,12,0:0:0:0:
448,24,329336,1,0,1:0:0:0:
456,112,329555,1,2,0:0:0:0:
464,200,329774,1,8,1:2:0:0:
464,200,329993,5,2,0:0:0:0:
440,196,330103,1,2,0:0:0:0:
416,192,330212,1,10,0:0:0:0:
328,176,330431,1,8,0:0:0:0:
208,236,330650,6,0,P|160:236|116:220,1,90,12|0,0:0|1:0,0:0:0:0:
190,189,331088,2,0,P|157:155|137:112,1,90,12|0,0:0|1:0,0:0:0:0:
212,144,331526,2,0,P|212:95|228:52,1,90,12|0,0:0|1:0,0:0:0:0:
312,24,331855,1,0,0:0:0:0:
312,24,331964,1,8,0:0:0:0:
357,24,332074,1,0,0:0:0:0:
402,24,332183,1,2,0:0:0:0:
447,24,332293,1,2,0:0:0:0:
492,24,332402,6,0,L|480:176,1,135,12|0,0:0|0:0,0:0:0:0:
412,164,332840,2,0,L|424:316,1,135,12|0,1:2|0:0,0:0:0:0:
396,360,333278,6,0,L|385:225,1,135,12|0,0:0|0:0,0:0:0:0:
316,220,333716,2,0,L|324:112,1,90,12|0,1:2|0:0,0:0:0:0:
248,20,334154,5,8,0:0:0:0:
160,36,334373,1,2,0:0:0:0:
232,152,334592,5,8,1:0:0:0:
144,168,334811,1,2,0:0:0:0:
228,272,335030,5,8,0:0:0:0:
228,272,335249,5,2,0:0:0:0:
271,261,335358,1,0,0:0:0:0:
316,254,335468,1,8,0:0:0:0:
361,251,335577,1,0,0:0:0:0:
406,252,335687,1,10,0:0:0:0:
450,257,335796,1,0,0:0:0:0:
494,265,335906,5,12,0:0:0:0:
494,265,336344,1,0,1:0:0:0:
484,176,336563,1,2,0:0:0:0:
472,88,336782,1,8,1:2:0:0:
472,88,337001,1,0,1:0:0:0:
472,88,337220,1,8,1:2:0:0:
392,44,337439,1,8,0:0:0:0:
272,108,337658,6,0,P|224:112|164:96,1,90,12|0,0:0|1:0,0:0:0:0:
326,143,338096,2,0,P|289:112|258:59,1,90,12|0,0:0|1:0,0:0:0:0:
340,208,338534,2,0,P|336:160|352:100,1,90,12|0,0:0|1:0,0:0:0:0:
388,40,338971,1,8,0:0:0:0:
343,39,339081,1,0,0:0:0:0:
298,38,339190,1,2,0:0:0:0:
253,37,339300,1,0,0:0:0:0:
208,36,339409,5,12,0:0:0:0:
124,72,339628,1,2,0:0:0:0:
196,124,339847,5,8,1:0:0:0:
115,167,340066,1,2,0:0:0:0:
196,208,340285,5,8,0:0:0:0:
128,92,340504,1,2,0:0:0:0:
188,28,340723,1,8,0:0:0:0:
232,21,340833,1,0,0:0:0:0:
277,19,340942,1,10,0:0:0:0:
322,20,341052,1,0,0:0:0:0:
367,26,341161,5,12,0:0:0:0:
448,64,341380,1,0,1:0:0:0:
444,88,341490,1,0,1:0:0:0:
440,112,341599,2,0,L|452:208,1,90,12|0,1:2|0:0,0:0:0:0:
408,328,342037,5,8,0:0:0:0:
328,288,342256,1,0,1:0:0:0:
284,280,342366,1,0,1:0:0:0:
240,276,342475,1,8,1:0:0:0:
108,292,342694,1,8,0:0:0:0:
256,64,342913,5,12,0:0:0:0:
256,64,343351,1,0,1:0:0:0:
348,64,343570,1,2,0:0:0:0:
440,64,343789,1,8,1:2:0:0:
440,64,344008,6,0,L|436:128,1,45
504,184,344227,1,8,0:0:0:0:
504,184,344336,1,0,0:0:0:0:
504,184,344446,2,0,L|508:248,1,45
444,292,344665,6,0,P|431:245|404:207,1,90,12|0,0:0|1:0,0:0:0:0:
393,289,345103,2,0,P|351:265|305:256,1,90,12|0,0:0|1:0,0:0:0:0:
355,320,345541,2,0,P|308:332|270:359,1,90,12|0,0:0|1:0,0:0:0:0:
274,355,345869,1,0,0:0:0:0:
184,352,345979,5,8,0:0:0:0:
184,352,346198,1,4,0:1:0:0:
336,80,346417,5,12,0:0:0:0:
336,80,346855,1,0,1:0:0:0:
248,72,347074,1,2,0:0:0:0:
160,64,347293,1,8,1:2:0:0:
160,64,347512,6,0,L|164:120,1,45
240,176,347731,1,8,0:0:0:0:
240,176,347840,1,0,0:0:0:0:
240,176,347950,2,0,L|236:232,1,45
276,304,348169,6,0,P|320:296|376:296,1,90,12|0,0:0|1:0,0:0:0:0:
217,298,348607,2,0,P|259:314|307:342,1,90,12|0,0:0|1:0,0:0:0:0:
169,265,349044,2,0,P|197:299|225:347,1,90,12|0,0:0|1:0,0:0:0:0:
221,338,349373,1,0,0:0:0:0:
140,376,349482,5,8,0:0:0:0:
140,376,349701,1,4,0:1:0:0:
156,72,349920,5,12,0:0:0:0:
156,72,350358,1,0,1:0:0:0:
244,96,350577,1,2,0:0:0:0:
328,124,350796,1,8,1:2:0:0:
328,124,351015,6,0,L|380:120,1,45
408,216,351234,1,8,0:0:0:0:
408,216,351344,1,0,0:0:0:0:
408,216,351453,2,0,L|356:212,1,45
292,268,351672,6,0,P|256:268|200:256,1,90,12|0,0:0|1:0,0:0:0:0:
180,180,352110,2,0,P|216:180|272:168,1,90,12|0,0:0|0:0,0:0:0:0:
292,92,352548,2,0,P|256:92|200:80,1,90,12|0,0:0|1:0,0:0:0:0:
203,81,352877,1,0,0:0:0:0:
132,36,352986,5,8,0:0:0:0:
132,36,353205,1,4,0:1:0:0:
52,332,353424,5,12,0:0:0:0:
52,332,353862,1,0,1:0:0:0:
140,324,354081,1,2,0:0:0:0:
228,316,354300,1,8,1:2:0:0:
228,316,354519,6,0,L|220:264,1,45
296,216,354738,1,8,0:0:0:0:
296,216,354847,1,0,0:0:0:0:
296,216,354957,2,0,L|304:164,1,45
376,116,355176,6,0,P|380:84|380:20,1,90,12|0,0:0|1:0,0:0:0:0:
245,87,355504,1,2,0:3:0:0:
245,87,355614,2,0,P|219:66|165:32,1,90,12|0,0:0|1:0,0:0:0:0:
152,184,356052,2,0,P|120:190|59:209,1,90,12|0,0:0|1:0,0:0:0:0:
65,207,356380,1,0,0:0:0:0:
36,292,356490,5,8,0:0:0:0:
36,292,356709,1,4,0:1:0:0:
80,221,357585,6,0,L|80:372,1,146.25
80,368,361635,5,10,0:0:0:0:
80,368,361854,1,0,0:0:0:0:
80,368,362073,1,10,0:0:0:0:
168,348,362292,5,0,0:0:0:0:
168,348,362511,1,10,0:0:0:0:
256,368,362730,1,10,0:0:0:0:
344,344,362949,1,0,0:0:0:0:
432,364,363168,1,10,0:0:0:0:
432,364,363387,1,10,0:0:0:0:
468,280,363606,1,0,0:0:0:0:
444,192,363825,1,10,0:0:0:0:
272,144,364044,5,10,0:0:0:0:
272,144,364263,1,0,0:0:0:0:
264,232,364482,1,10,0:0:0:0:
264,232,364701,1,0,0:0:0:0:
256,320,364920,5,10,0:0:0:0:
168,344,365139,1,10,0:0:0:0:
168,344,365358,1,0,0:0:0:0:
80,324,365577,1,10,0:0:0:0:
140,256,365796,6,0,P|152:204|140:76,1,180,10|10,0:0|0:0,0:0:0:0:
140,78,366453,1,0,0:0:0:0:
228,96,366672,1,10,0:0:0:0:
316,112,366891,1,10,0:0:0:0:
316,112,367110,1,0,0:0:0:0:
316,112,367329,1,10,0:0:0:0:
492,80,367548,5,10,0:0:0:0:
492,80,367767,1,0,0:0:0:0:
512,168,367986,1,10,0:0:0:0:
512,168,368205,1,0,0:0:0:0:
480,252,368424,5,10,0:0:0:0:
480,252,368643,2,0,L|496:356,1,90,10|0,0:0|0:0,0:0:0:0:
493,340,369081,1,10,0:0:0:0:
324,280,369300,5,10,0:0:0:0:
244,240,369519,1,0,0:0:0:0:
164,284,369738,1,10,0:0:0:0:
84,244,369957,1,0,0:0:0:0:
164,284,370176,5,10,0:0:0:0:
84,244,370395,1,10,0:0:0:0:
8,292,370614,1,0,0:0:0:0:
8,292,370832,1,10,0:0:0:0:
12,112,371051,5,10,0:0:0:0:
92,72,371270,1,0,0:0:0:0:
92,72,371489,1,10,0:0:0:0:
92,72,371708,1,0,0:0:0:0:
168,120,371927,1,10,0:0:0:0:
240,68,372146,1,10,0:0:0:0:
240,68,372365,5,0,0:0:0:0:
283,58,372475,1,0,0:0:0:0:
328,61,372584,1,10,0:0:0:0:
370,76,372694,1,0,0:0:0:0:
414,88,372803,1,0,0:0:0:0:
458,84,372913,1,0,0:0:0:0:
500,69,373022,6,0,P|492:109|508:165,1,90,10|10,0:0|0:0,0:0:0:0:
468,240,373460,1,2,0:0:0:0:
503,156,373679,1,2,0:0:0:0:
500,69,373898,6,0,P|460:61|404:77,1,90,10|2,0:0|0:0,0:0:0:0:
336,120,374336,1,8,0:0:0:0:
248,108,374555,1,2,0:0:0:0:
172,160,374774,6,0,L|64:156,1,90,10|8,0:0|0:0,0:0:0:0:
92,248,375212,1,2,0:0:0:0:
104,336,375431,1,8,0:0:0:0:
188,300,375650,6,0,P|236:296|328:296,1,135,10|0,0:0|0:0,0:0:0:0:
344,304,376088,1,2,0:0:0:0:
432,288,376307,1,12,0:0:0:0:
432,288,378387,6,0,P|437:266|439:244,1,45,10|0,0:0|0:0,0:0:0:0:
431,168,378606,2,0,P|423:147|412:127,1,45
280,216,378825,6,0,P|275:194|273:172,1,45,10|0,0:0|0:0,0:0:0:0:
281,96,379044,2,0,P|289:75|300:55,1,45
188,172,379263,6,0,P|166:177|144:179,1,45,10|0,0:0|0:0,0:0:0:0:
68,171,379482,2,0,P|47:163|27:152,1,45,10|0,0:0|0:0,0:0:0:0:
124,280,379701,5,0,0:0:0:0:
124,280,379811,2,0,P|145:275|168:273,1,45
428,344,380030,5,8,0:1:0:0:
428,344,380248,2,0,P|380:352|284:328,1,135,10|0,0:0|0:0,0:0:0:0:
276,292,380686,1,10,0:0:0:0:
196,328,380905,5,0,0:0:0:0:
196,328,381124,1,10,0:0:0:0:
196,328,381343,1,10,0:0:0:0:
276,292,381562,1,0,0:0:0:0:
364,312,381781,5,10,0:0:0:0:
364,312,382000,1,10,0:0:0:0:
412,236,382219,1,0,0:0:0:0:
412,236,382438,1,10,0:0:0:0:
368,156,382657,5,0,0:0:0:0:
368,156,382767,2,0,L|372:116,1,22.5
300,176,382876,2,0,L|304:220,1,45,8|0,0:0|0:0,0:0:0:0:
280,264,383095,1,10,0:0:0:0:
236,275,383205,1,0,0:0:0:0:
191,273,383314,1,0,0:0:0:0:
149,259,383424,1,0,0:0:0:0:
112,233,383533,5,4,0:1:0:0:
112,233,383971,1,2,0:0:0:0:
112,233,384190,1,2,0:0:0:0:
240,188,384409,5,12,0:1:0:0:
240,188,384847,1,2,0:0:0:0:
240,188,385066,1,2,0:0:0:0:
368,232,385285,5,8,0:0:0:0:
446,186,385723,1,2,0:0:0:0:
401,108,386161,1,8,0:0:0:0:
323,153,386599,1,2,0:0:0:0:
323,153,386818,1,2,0:0:0:0:
188,140,387037,5,12,0:1:0:0:
188,140,387475,1,2,0:0:0:0:
188,140,387694,1,2,0:0:0:0:
92,236,387913,5,4,0:1:0:0:
84,148,388132,1,0,0:0:0:0:
76,60,388351,1,2,0:0:0:0:
76,60,388570,1,2,0:0:0:0:
204,24,388789,6,0,L|296:16,1,90,4|0,0:1|0:0,0:0:0:0:
294,16,389227,1,2,0:0:0:0:
294,16,389446,1,0,0:0:0:0:
320,104,389665,5,6,0:0:0:0:
284,188,389884,1,8,0:0:0:0:
328,268,390102,1,10,0:0:0:0:
292,352,390321,1,2,0:0:0:0:
428,348,390540,5,4,0:1:0:0:
428,348,390978,1,2,0:0:0:0:
428,348,391197,1,2,0:0:0:0:
464,216,391416,5,12,0:1:0:0:
464,216,391854,1,2,0:0:0:0:
464,216,392073,1,2,0:0:0:0:
416,92,392292,5,8,0:0:0:0:
341,40,392730,1,2,0:0:0:0:
289,113,393168,1,8,0:0:0:0:
363,165,393606,1,2,0:0:0:0:
363,165,393825,1,2,0:0:0:0:
344,300,394044,5,12,0:1:0:0:
344,300,394482,1,2,0:0:0:0:
344,300,394701,1,2,0:0:0:0:
212,272,394920,5,4,0:1:0:0:
212,272,395139,1,2,0:0:0:0:
296,244,395358,1,2,0:0:0:0:
280,332,395577,1,0,0:0:0:0:
212,272,395796,6,0,L|112:268,1,90,10|0,0:0|0:0,0:0:0:0:
122,268,396234,1,2,0:0:0:0:
122,268,396453,1,2,0:0:0:0:
84,140,396672,6,0,P|132:136|220:144,1,135,8|0,0:0|0:0,0:0:0:0:
308,128,397110,6,0,P|260:124|172:132,1,135,4|0,0:1|0:0,0:0:0:0:
256,208,397548,5,4,0:0:0:0:
