osu file format v14

[General]
AudioFilename: Diao ye zong - Owaranu Matsuri.mp3
AudioLeadIn: 0
PreviewTime: 195322
Countdown: 0
SampleSet: Soft
StackLeniency: 0.3
Mode: 0
LetterboxInBreaks: 0
EpilepsyWarning: 1
WidescreenStoryboard: 1

[Editor]
DistanceSpacing: 1.5
BeatDivisor: 4
GridSize: 4
TimelineZoom: 1.9

[Metadata]
Title:Owaranu Matsuri
TitleUnicode:無終祭
Artist:Diao ye zong
ArtistUnicode:凋叶棕
Creator:kanor
Version:Loop
Source:東方Project
Tags:touhou 蓮台野夜行 ~ Ghostly Field Club RD-Sounds めらみぽっぷ meramipop 幻想の永遠祭 Illusionary Eternal Festival 夢 Utsutsu C90 Team Shanghai Alice ZUN tokiko Japanese Video Game
BeatmapID:2446379
BeatmapSetID:1172976

[Difficulty]
HPDrainRate:6
CircleSize:4
OverallDifficulty:8
ApproachRate:9.2
SliderMultiplier:1.6
SliderTickRate:1

[Events]
//Background and Video events
0,0,"Diao ye zong - Owaranu Matsuri.jpg",0,0
//Break Periods
2,135651,142197
2,146471,149205
2,153479,155555
2,173424,178767
2,359099,365226
//Storyboard Layer 0 (Background)
//Storyboard Layer 1 (Fail)
//Storyboard Layer 2 (Pass)
//Storyboard Layer 3 (Foreground)
//Storyboard Layer 4 (Overlay)
//Storyboard Sound Samples

[TimingPoints]
870,437.956204379562,4,2,3,20,1,0
7658,-133.333333333333,4,2,3,20,0,0
23643,-133.333333333333,4,2,3,30,0,0
26271,-200,4,2,3,30,0,0
27147,-133.333333333333,4,2,3,30,0,0
29775,-200,4,2,3,30,0,0
30651,-133.333333333333,4,2,3,30,0,0
33278,-200,4,2,3,30,0,0
34154,-133.333333333333,4,2,3,30,0,0
37658,-133.333333333333,4,2,3,40,0,0
41161,-1000,4,2,3,40,0,0
44665,-133.333333333333,4,2,3,40,0,0
48169,-1000,4,2,3,40,0,0
51234,-133.333333333333,4,2,3,50,0,0
65687,-100,4,2,3,60,0,0
78826,-66.6666666666667,4,2,3,70,0,0
92840,-100,4,2,3,80,0,0
93169,-66.6666666666667,4,2,3,80,0,0
142767,-200,4,2,3,40,0,0
156782,-133.333333333333,4,2,3,40,0,0
163789,-133.333333333333,4,2,3,60,0,0
170359,419.58041958042,4,2,3,60,1,0
172548,437.956204379562,4,2,3,20,1,0
179337,-133.333333333333,4,2,3,20,0,0
188315,-33.3333333333333,4,2,3,40,0,0
189628,-33.3333333333333,4,2,3,15,0,0
190066,-33.3333333333333,4,2,3,20,0,0
190504,-33.3333333333333,4,2,3,25,0,0
191271,-33.3333333333333,4,2,3,5,0,0
191599,-133.333333333333,4,2,3,30,0,0
197950,-200,4,2,3,30,0,0
198826,-133.333333333333,4,2,3,30,0,0
201453,-200,4,2,3,30,0,0
202329,-133.333333333333,4,2,3,30,0,0
204957,-200,4,2,3,30,0,0
205833,-133.333333333333,4,2,3,30,0,0
209337,-133.333333333333,4,2,3,50,0,0
237366,-100,4,2,3,60,0,0
250505,-66.6666666666667,4,2,3,70,0,0
264519,-100,4,2,3,70,0,0
264848,-66.6666666666667,4,2,3,80,0,0
325067,-66.6666666666667,4,2,3,5,0,0
327147,437.956204379562,4,2,3,80,1,0
327147,-66.6666666666667,4,2,3,80,0,0
328899,-66.6666666666667,4,2,3,80,0,0
358789,-66.6666666666667,4,2,3,25,0,0
360760,437.956204379562,4,2,3,20,1,0
365796,-133.333333333333,4,2,3,20,0,0
378387,-133.333333333333,4,2,3,10,0,0
378825,-133.333333333333,4,2,3,15,0,0
379263,-133.333333333333,4,2,3,20,0,0
379811,-133.333333333333,4,2,3,20,0,0
383533,-133.333333333333,4,2,3,30,0,0
386161,-200,4,2,3,30,0,0
387037,-133.333333333333,4,2,3,30,0,0
389665,-200,4,2,3,30,0,0
390541,-133.333333333333,4,2,3,30,0,0
393168,-200,4,2,3,30,0,0
394044,-133.333333333333,4,2,3,30,0,0

[Colours]
Combo1 : 214,123,124
Combo2 : 168,101,236
Combo3 : 123,214,123
Combo4 : 123,169,214

[HitObjects]
0,196,7658,6,0,L|80:188,1,60.0000022888184,0|2,0:0|0:0,0:0:0:0:
60,191,8534,2,0,L|1:197,1,60.0000022888184,0|2,0:0|0:0,0:0:0:0:
132,216,9191,5,0,0:0:0:0:
132,216,9410,2,0,P|134:171|124:148,1,60.0000022888184,0|2,0:0|0:0,0:0:0:0:
200,120,9848,2,0,P|170:87|146:77,1,60.0000022888184,0|0,0:0|0:0,0:0:0:0:
56,24,10286,1,0,0:0:0:0:
56,24,10505,2,0,L|44:148,2,120.000004577637,2|0|2,0:0|0:0|0:0,0:0:0:0:
264,68,12037,5,0,0:0:0:0:
264,68,12256,2,0,P|304:40|376:48,1,120.000004577637,2|0,0:0|0:0,0:0:0:0:
444,72,12913,1,0,0:0:0:0:
444,72,13132,2,0,P|446:27|436:4,1,60.0000022888184,2|0,0:0|0:0,0:0:0:0:
372,45,13570,1,2,0:0:0:0:
384,124,13789,1,0,0:0:0:0:
512,120,14008,6,0,L|504:196,1,60.0000022888184,2|0,0:0|0:0,0:0:0:0:
504,196,14337,1,0,0:0:0:0:
500,212,14446,2,0,L|452:208,1,30.0000011444092,2|0,0:0|0:0,0:0:0:0:
384,224,14665,1,0,0:0:0:0:
384,224,14775,1,0,0:0:0:0:
384,224,14884,6,0,P|376:280|392:356,1,120.000004577637,2|0,0:0|0:0,0:0:0:0:
460,360,15541,1,2,0:0:0:0:
382,222,15760,2,0,P|374:278|390:354,1,120.000004577637,2|0,0:0|0:0,0:0:0:0:
460,360,16417,1,2,0:0:0:0:
380,220,16636,6,0,P|373:253|375:299,1,60.0000022888184,2|0,0:0|0:0,0:0:0:0:
256,355,17074,2,0,P|249:325|248:296,1,60.0000022888184,2|0,0:0|0:0,0:0:0:0:
148,264,17512,2,0,P|141:297|143:343,1,60.0000022888184,2|0,0:0|0:0,0:0:0:0:
62,357,17950,5,2,0:0:0:0:
58,339,18060,1,0,0:0:0:0:
56,321,18169,1,2,0:0:0:0:
56,304,18278,1,0,0:0:0:0:
56,304,19921,5,2,0:0:0:0:
8,240,20140,1,2,0:0:0:0:
64,148,20359,2,0,P|120:152|188:124,1,120.000004577637,2|2,0:0|0:0,0:0:0:0:
228,68,21015,1,2,0:0:0:0:
247,41,21234,1,0,0:0:0:0:
228,14,21453,1,2,0:0:0:0:
196,24,21672,1,0,0:0:0:0:
196,57,21891,5,2,0:0:0:0:
260,100,22110,1,0,0:0:0:0:
340,104,22329,1,2,0:0:0:0:
412,72,22548,1,0,0:0:0:0:
496,4,22767,5,2,0:0:0:0:
498,20,22876,1,0,0:0:0:0:
501,38,22985,1,0,0:0:0:0:
503,56,23095,1,0,0:0:0:0:
500,88,23205,5,2,0:0:0:0:
472,114,23314,1,0,0:0:0:0:
464,152,23423,1,2,0:0:0:0:
477,188,23533,1,0,0:0:0:0:
496,260,23643,5,4,0:3:0:0:
496,260,24081,2,0,P|508:288|508:324,1,60.0000022888184,0|2,0:0|0:0,0:0:0:0:
352,240,24519,5,2,0:0:0:0:
352,240,24957,2,0,P|380:251|405:276,1,60.0000022888184,0|2,0:0|0:0,0:0:0:0:
256,356,25395,5,2,0:0:0:0:
256,356,25833,1,2,0:0:0:0:
256,356,26271,2,0,P|284:344|336:352,1,80,2|0,0:0|0:0,0:0:0:0:
332,350,26928,1,2,0:0:0:0:
176,352,27147,5,4,0:3:0:0:
176,352,27585,2,0,P|164:324|164:288,1,60.0000022888184,0|2,0:0|0:0,0:0:0:0:
240,164,28023,2,0,P|252:192|252:228,1,60.0000022888184,2|0,0:0|0:0,0:0:0:0:
244,232,28351,1,0,0:0:0:0:
236,244,28461,2,0,L|244:320,1,60.0000022888184,0|2,0:0|0:0,0:0:0:0:
88,376,28899,6,0,L|80:300,1,60.0000022888184,2|0,0:0|0:0,0:0:0:0:
20,264,29337,1,2,0:0:0:0:
96,192,29556,1,0,0:0:0:0:
24,68,29775,6,0,L|32:160,1,80,2|0,0:0|0:0,0:0:0:0:
96,192,30432,1,2,0:0:0:0:
204,40,30651,5,4,0:3:0:0:
204,40,31089,2,0,P|192:68|192:104,1,60.0000022888184,0|2,0:0|0:0,0:0:0:0:
348,20,31527,5,2,0:0:0:0:
348,20,31965,2,0,P|319:31|294:56,1,60.0000022888184,0|2,0:0|0:0,0:0:0:0:
444,136,32403,5,2,0:0:0:0:
444,136,32841,1,2,0:0:0:0:
444,136,33279,2,0,P|416:124|364:132,1,80,2|0,0:0|0:0,0:0:0:0:
320,192,33935,1,2,0:0:0:0:
392,316,34154,6,0,B|460:312|428:356|516:344,1,120.000004577637,4|0,0:3|0:0,0:0:0:0:
392,316,34811,1,2,0:0:0:0:
280,356,35030,5,2,0:0:0:0:
262,320,35249,1,0,0:0:0:0:
297,303,35468,1,0,0:0:0:0:
315,338,35687,1,2,0:0:0:0:
280,356,35906,5,2,0:0:0:0:
244,284,36125,1,0,0:0:0:0:
314,250,36344,1,2,0:0:0:0:
350,320,36563,1,0,0:0:0:0:
196,352,36782,6,0,L|124:348,1,60.0000022888184,2|2,0:0|0:0,0:0:0:0:
4,200,37220,2,0,L|76:196,1,60.0000022888184,2|2,0:0|0:0,0:0:0:0:
272,164,37658,6,0,B|160:174|117:189|92:267|146:324|226:320|261:262|236:201|181:135|181:135|129:73|104:10|139:-45|218:-49|273:4|246:82|205:98|94:110,1,840.000032043458,4|2,0:3|0:0,0:0:0:0:
20,100,41161,6,0,L|24:132,3,32,2|2|2|2,0:0|0:0|0:0|0:0,0:0:0:0:
80,184,44227,1,2,0:0:0:0:
252,248,44665,6,0,B|259:194|208:179|162:193|140:213|102:332|240:328|280:320|324:364|324:364|308:216|388:192|444:188|488:224|516:252|536:304|484:396|420:396|376:348|396:296|420:284,1,840.000032043458,4|2,0:3|0:0,0:0:0:0:
411,291,48169,6,0,L|407:323,3,32,2|2|2|2,0:0|0:0|0:0|0:0,0:0:0:0:
407,321,51234,6,0,L|416:256,1,60.0000022888184,0|0,0:0|0:0,0:0:0:0:
452,112,51672,5,4,3:0:0:0:
512,168,51891,1,2,0:0:0:0:
512,168,52001,1,0,3:0:0:0:
436,192,52220,1,2,0:0:0:0:
436,192,52330,1,0,3:0:0:0:
436,192,52767,5,0,0:0:0:0:
368,80,52986,2,0,L|359:139,1,60.0000022888184,8|0,0:3|0:0,0:0:0:0:
176,192,53424,5,0,3:0:0:0:
132,120,53643,1,2,0:0:0:0:
132,120,53753,1,0,3:0:0:0:
172,48,53972,1,2,0:0:0:0:
172,48,54081,1,0,3:0:0:0:
172,48,54519,5,0,0:0:0:0:
216,116,54738,1,8,0:3:0:0:
176,192,54957,2,0,L|176:232,1,30.0000011444092,0|0,3:0|3:0,0:0:0:0:
104,244,55176,6,0,L|36:240,1,60.0000022888184,0|2,3:0|0:0,0:0:0:0:
44,256,55505,2,0,L|103:259,1,60.0000022888184,0|2,3:0|0:0,0:0:0:0:
156,316,55833,1,0,3:0:0:0:
156,316,56271,5,0,0:0:0:0:
312,296,56490,2,0,L|371:299,1,60.0000022888184,8|0,0:3|0:0,0:0:0:0:
236,368,56928,6,0,P|232:336|244:300,1,60.0000022888184,0|2,3:0|0:0,0:0:0:0:
236,288,57256,1,0,3:0:0:0:
268,212,57475,1,2,0:0:0:0:
268,212,57585,1,0,3:0:0:0:
212,96,57804,5,0,3:0:0:0:
212,96,57913,1,0,3:0:0:0:
248,24,58132,1,0,3:0:0:0:
248,24,58242,2,0,L|336:28,1,60.0000022888184,8|0,3:3|0:0,0:0:0:0:
384,8,58570,5,0,3:0:0:0:
384,8,58680,2,0,L|392:92,1,60.0000022888184,4|2,3:0|0:0,0:0:0:0:
460,16,59008,2,0,L|468:100,1,60.0000022888184,0|2,3:0|0:0,0:0:0:0:
420,136,59337,1,0,3:0:0:0:
420,136,59775,5,0,0:0:0:0:
452,284,59994,2,0,L|460:368,1,60.0000022888184,8|0,0:3|0:0,0:0:0:0:
496,188,60432,5,0,3:0:0:0:
412,216,60651,1,2,0:0:0:0:
412,216,60760,1,0,3:0:0:0:
340,168,60979,1,2,0:0:0:0:
340,168,61088,1,0,3:0:0:0:
340,168,61526,5,0,0:0:0:0:
420,136,61745,1,8,0:3:0:0:
496,188,61964,2,0,L|492:236,1,30.0000011444092,0|0,3:0|3:0,0:0:0:0:
452,284,62183,6,0,L|460:368,1,60.0000022888184,0|2,3:0|0:0,0:0:0:0:
385,363,62512,2,0,L|380:304,1,60.0000022888184,0|2,3:0|0:0,0:0:0:0:
308,344,62840,1,0,3:0:0:0:
308,344,63278,5,0,0:0:0:0:
126,363,63497,2,0,L|132:304,1,60.0000022888184,8|0,0:3|0:0,0:0:0:0:
8,168,63935,6,0,L|13:227,1,60.0000022888184,0|2,3:0|0:0,0:0:0:0:
16,240,64264,1,0,3:0:0:0:
84,212,64483,1,2,0:0:0:0:
87,228,64592,1,0,3:0:0:0:
199,162,64811,5,0,3:3:0:0:
196,182,64920,1,2,0:0:0:0:
276,172,65140,1,0,3:3:0:0:
272,200,65249,1,8,3:0:0:0:
420,164,65468,5,0,3:0:0:0:
420,164,65578,1,0,3:0:0:0:
420,164,65687,2,0,L|416:284,1,120,4|0,3:1|3:0,0:0:0:0:
340,320,66125,2,0,P|328:288|344:236,1,80,2|0,0:0|0:0,0:0:0:0:
496,224,66563,5,0,3:0:0:0:
484,332,66782,1,2,0:0:0:0:
472,340,66891,1,0,3:0:0:0:
456,348,67001,2,0,P|424:360|372:344,1,80,8|2,0:3|3:2,0:0:0:0:
256,192,67439,6,0,B|188:176|196:224|136:208,1,120,2|0,3:2|3:0,0:0:0:0:
72,156,67877,2,0,L|60:240,1,80,2|0,0:0|0:0,0:0:0:0:
168,368,68315,5,0,3:0:0:0:
248,344,68534,1,2,0:0:0:0:
248,344,68643,1,0,3:0:0:0:
248,344,68753,2,0,L|236:264,1,80,8|2,0:3|3:2,0:0:0:0:
256,192,69081,5,0,3:0:0:0:
256,192,69191,1,2,0:0:0:0:
312,56,69410,1,0,0:0:0:0:
312,56,69519,1,0,3:0:0:0:
312,56,69629,2,0,P|317:113|289:145,1,80,2|0,0:0|0:0,0:0:0:0:
256,192,70067,5,0,3:0:0:0:
110,211,70286,1,2,0:0:0:0:
110,211,70395,1,0,3:0:0:0:
110,211,70505,2,0,P|157:178|199:186,1,80,8|2,0:3|3:2,0:0:0:0:
340,308,70942,6,0,B|424:332|424:332|488:320,2,120,2|2|2,3:2|3:2|3:2,0:0:0:0:
260,336,71818,1,0,3:0:0:0:
256,352,71928,1,2,0:0:0:0:
188,296,72147,1,0,3:0:0:0:
168,292,72256,5,8,0:3:0:0:
152,288,72366,1,0,3:0:0:0:
128,360,72475,5,8,3:0:0:0:
112,356,72585,1,0,3:0:0:0:
40,364,72694,6,0,P|20:308|44:252,1,120,4|0,3:1|3:0,0:0:0:0:
88,196,73132,2,0,P|104:160|84:104,1,80,2|0,0:0|3:0,0:0:0:0:
4,20,73570,1,2,0:0:0:0:
16,100,73789,1,0,3:0:0:0:
184,168,74008,1,8,0:3:0:0:
196,88,74227,1,0,3:0:0:0:
352,40,74446,6,0,P|408:20|464:44,1,120,2|0,0:0|3:0,0:0:0:0:
448,116,74884,2,0,P|405:127|369:111,1,80,2|0,0:0|3:0,0:0:0:0:
184,8,75322,1,2,0:0:0:0:
196,88,75541,1,0,3:0:0:0:
312,204,75760,1,8,0:3:0:0:
304,292,75979,5,0,3:0:0:0:
304,292,76088,1,0,3:0:0:0:
304,292,76198,2,0,P|352:288|384:308,1,80,2|0,0:0|0:0,0:0:0:0:
456,280,76526,1,0,3:0:0:0:
456,280,76636,2,0,L|456:360,1,80,8|2,3:0|0:0,0:0:0:0:
264,300,77074,6,0,P|303:272|341:273,1,80,0|2,3:0|0:2,0:0:0:0:
448,260,77402,1,0,3:0:0:0:
448,260,77512,2,0,L|448:340,1,80,8|2,3:0|0:0,0:0:0:0:
228,324,77950,6,0,P|248:280|281:262,1,80,8|2,3:0|3:2,0:0:0:0:
304,172,78278,1,0,3:0:0:0:
304,172,78388,2,0,P|351:180|377:208,1,80,8|2,3:0|3:2,0:0:0:0:
104,372,78826,6,0,P|93:332|116:284,1,60.0000022888184,8|0,0:3|0:0,0:0:0:0:
104,160,79045,2,0,P|124:124|174:106,1,60.0000022888184,8|0,0:3|0:0,0:0:0:0:
4,276,79264,6,0,P|28:239|78:222,1,60.0000022888184,8|0,0:3|0:0,0:0:0:0:
136,240,79483,2,0,P|175:228|223:251,1,60.0000022888184,8|0,0:3|0:0,0:0:0:0:
413,188,79702,6,0,P|347:197|296:162,1,120.000004577637,4|0,1:2|0:0,0:0:0:0:
220,160,80030,1,2,0:0:0:0:
212,140,80140,1,0,3:0:0:0:
413,188,80359,6,0,P|347:197|296:162,1,120.000004577637,2|0,1:2|0:0,0:0:0:0:
368,120,80687,1,2,0:0:0:0:
360,100,80797,1,0,3:0:0:0:
413,188,81015,6,0,P|380:200|328:192,1,60.0000022888184,8|0,0:0|0:0,0:0:0:0:
276,100,81234,2,0,P|264:67|280:19,1,60.0000022888184,2|0,0:0|0:0,0:0:0:0:
496,56,81453,6,0,B|512:92|512:92|496:208,1,120.000004577637,0|0,1:0|0:0,0:0:0:0:
472,244,81782,1,2,0:0:0:0:
480,264,81892,1,0,3:0:0:0:
496,56,82110,6,0,B|512:92|512:92|496:208,1,120.000004577637,2|0,1:2|0:0,0:0:0:0:
405,168,82439,1,2,0:0:0:0:
413,188,82549,1,0,3:0:0:0:
496,56,82767,6,0,B|508:88|508:88|508:120,1,60.0000022888184,8|0,0:0|0:0,0:0:0:0:
340,216,82986,2,0,B|328:184|328:184|328:152,1,60.0000022888184,2|0,0:0|0:0,0:0:0:0:
408,64,83205,6,0,L|428:328,2,240.000009155274,2|2|2,1:2|1:2|1:2,0:0:0:0:
408,64,84410,5,0,3:0:0:0:
420,140,84519,2,0,L|408:232,1,60.0000022888184,8|0,0:0|0:0,0:0:0:0:
504,92,84738,2,0,L|492:184,1,60.0000022888184,2|0,0:0|0:0,0:0:0:0:
504,288,84957,5,2,0:0:0:0:
504,288,85176,2,0,L|511:228,1,60.0000022888184,0|0,1:0|3:0,0:0:0:0:
412,199,85395,2,0,P|372:243|312:239,1,120.000004577637,0|0,1:0|3:0,0:0:0:0:
164,192,85833,5,2,0:0:0:0:
244,200,86052,1,0,3:0:0:0:
240,216,86161,1,0,3:0:0:0:
236,232,86271,2,0,L|244:328,1,60.0000022888184,8|0,0:0|3:0,0:0:0:0:
16,316,86490,2,0,L|11:256,1,60.0000022888184,2|0,1:2|3:0,0:0:0:0:
128,336,86709,6,0,P|119:270|154:219,1,120.000004577637,4|2,1:0|0:0,0:0:0:0:
68,192,87037,1,0,0:0:0:0:
60,172,87147,1,0,3:0:0:0:
11,256,87366,1,2,1:2:0:0:
128,336,87585,6,0,P|119:270|154:219,1,120.000004577637,0|2,1:0|0:0,0:0:0:0:
188,160,87913,1,0,0:0:0:0:
196,140,88023,1,8,0:0:0:0:
148,4,88242,1,2,0:0:0:0:
16,72,88461,6,0,P|55:103|140:80,1,120.000004577637,0|2,1:0|3:2,0:0:0:0:
301,116,88789,1,0,3:0:0:0:
301,116,88899,2,0,P|261:147|177:124,1,120.000004577637,0|2,0:0|1:2,0:0:0:0:
120,280,89337,6,0,P|159:311|244:288,1,120.000004577637,0|2,1:0|3:2,0:0:0:0:
308,296,89665,1,0,3:0:0:0:
308,296,89775,2,0,L|304:368,1,60.0000022888184,10|0,0:0|3:0,0:0:0:0:
184,236,89994,2,0,L|176:120,1,60.0000022888184,2|0,1:2|3:0,0:0:0:0:
288,68,90213,5,0,1:0:0:0:
288,68,90322,1,0,3:0:0:0:
288,68,90432,2,0,P|305:100|308:140,1,60.0000022888184,2|0,3:2|0:0,0:0:0:0:
423,113,90651,5,8,3:2:0:0:
423,113,90760,1,0,3:0:0:0:
423,113,90870,2,0,P|397:139|360:154,1,60.0000022888184,2|0,1:2|0:0,0:0:0:0:
421,256,91088,6,0,P|388:240|362:209,1,60.0000022888184,0|0,1:0|3:0,0:0:0:0:
284,299,91307,5,2,3:2:0:0:
284,299,91417,2,0,P|289:262|310:228,1,60.0000022888184,0|8,1:0|3:2,0:0:0:0:
288,68,91636,5,0,3:0:0:0:
288,68,91745,2,0,P|305:100|308:140,1,60.0000022888184,2|0,1:2|3:0,0:0:0:0:
202,182,91964,6,0,P|237:175|276:185,1,60.0000022888184,2|0,1:2|0:0,0:0:0:0:
55,181,92293,2,0,P|31:153|20:114,1,60.0000022888184,2|0,1:2|0:2,0:0:0:0:
128,309,92621,2,0,P|115:343|87:372,1,60.0000022888184,2|0,1:2|0:0,0:0:0:0:
128,224,92840,6,0,L|132:128,1,80,2|0,1:2|3:0,0:0:0:0:
252,80,93169,5,0,3:0:0:0:
252,80,93278,2,0,P|233:110|231:146,1,60.0000022888184,0|0,3:0|3:0,0:0:0:0:
216,312,93497,1,0,3:0:0:0:
216,312,93607,1,0,3:0:0:0:
216,312,93716,6,0,P|252:280|340:296,1,120.000004577637,4|0,1:2|0:0,0:0:0:0:
408,368,94045,1,0,3:0:0:0:
408,368,94154,2,0,L|392:280,1,60.0000022888184,8|0,0:0|3:0,0:0:0:0:
264,136,94373,2,0,L|248:224,1,60.0000022888184,0|0,1:0|3:0,0:0:0:0:
216,312,94592,6,0,P|252:280|340:296,1,120.000004577637,0|2,1:0|0:0,0:0:0:0:
484,340,94921,1,0,3:0:0:0:
484,340,95030,2,0,L|468:252,1,60.0000022888184,8|0,0:0|3:0,0:0:0:0:
344,132,95249,2,0,L|328:220,1,60.0000022888184,2|0,1:2|3:0,0:0:0:0:
328,292,95468,5,0,1:0:0:0:
328,292,95578,1,0,3:0:0:0:
328,292,95687,2,0,L|240:308,1,60.0000022888184,0|0,3:0|0:0,0:0:0:0:
472,196,95906,1,8,0:0:0:0:
472,196,96016,1,0,3:0:0:0:
472,196,96125,2,0,L|384:212,1,60.0000022888184,0|0,1:0|0:0,0:0:0:0:
344,132,96344,6,0,L|256:148,1,60.0000022888184,0|0,0:0|3:0,0:0:0:0:
488,36,96563,2,0,L|400:52,1,60.0000022888184,2|0,1:2|3:0,0:0:0:0:
308,216,96782,5,8,3:2:0:0:
232,198,96891,1,0,3:0:0:0:
208,122,97001,1,2,1:2:0:0:
284,142,97110,1,0,3:0:0:0:
152,180,97220,6,0,P|128:128|160:52,1,120.000004577637,4|0,1:0|0:0,0:0:0:0:
220,44,97548,1,0,3:0:0:0:
220,44,97658,2,0,L|308:52,1,60.0000022888184,8|0,0:0|3:0,0:0:0:0:
92,128,97877,2,0,L|4:136,1,60.0000022888184,0|0,1:0|3:0,0:0:0:0:
143,69,98096,5,0,1:0:0:0:
248,284,98315,1,2,3:2:0:0:
224,212,98424,1,0,3:0:0:0:
248,284,98534,2,0,L|336:292,1,60.0000022888184,8|0,0:0|3:0,0:0:0:0:
64,352,98753,2,0,L|-24:360,1,60.0000022888184,2|0,1:2|3:0,0:0:0:0:
156,296,98972,6,0,L|148:355,1,60.0000022888184,0|0,1:0|3:0,0:0:0:0:
64,212,99191,2,0,L|56:271,1,60.0000022888184,2|0,0:0|3:0,0:0:0:0:
144,264,99410,6,0,L|151:323,1,60.0000022888184,8|0,0:0|3:0,0:0:0:0:
248,132,99629,2,0,L|255:191,1,60.0000022888184,2|0,1:2|3:0,0:0:0:0:
112,52,99848,5,0,3:0:0:0:
112,52,99957,1,0,3:0:0:0:
112,52,100067,2,0,L|104:111,1,60.0000022888184,2|0,1:2|0:0,0:0:0:0:
328,176,100286,5,10,3:2:0:0:
404,158,100395,1,0,3:0:0:0:
428,82,100505,1,2,1:2:0:0:
352,102,100614,1,0,3:0:0:0:
380,232,100724,6,0,L|368:380,1,120.000004577637,4|0,1:0|0:0,0:0:0:0:
472,372,101052,1,0,3:0:0:0:
472,372,101161,2,0,L|464:288,1,60.0000022888184,8|0,0:0|3:0,0:0:0:0:
272,360,101380,2,0,L|292:288,1,60.0000022888184,0|0,1:0|3:0,0:0:0:0:
380,232,101599,6,0,L|368:380,1,120.000004577637,0|2,1:0|0:0,0:0:0:0:
486,352,101927,1,0,3:0:0:0:
486,352,102037,2,0,L|471:269,1,60.0000022888184,8|0,0:0|3:0,0:0:0:0:
264,344,102256,2,0,L|284:272,1,60.0000022888184,2|0,1:2|3:0,0:0:0:0:
384,172,102475,5,0,1:0:0:0:
384,172,102585,1,0,3:0:0:0:
384,172,102694,2,0,L|376:268,1,60.0000022888184,0|0,3:0|0:0,0:0:0:0:
312,36,102913,1,8,3:2:0:0:
312,36,103023,1,0,3:0:0:0:
312,36,103132,2,0,L|304:132,1,60.0000022888184,0|0,1:0|0:0,0:0:0:0:
464,156,103351,6,0,L|456:252,1,60.0000022888184,0|0,0:0|3:0,0:0:0:0:
232,52,103570,2,0,L|224:148,1,60.0000022888184,2|0,1:2|3:0,0:0:0:0:
216,252,103789,1,8,3:2:0:0:
284,280,103899,1,0,3:0:0:0:
212,228,104008,1,2,1:2:0:0:
304,268,104118,1,0,3:0:0:0:
208,204,104227,6,0,P|156:180|88:208,1,120.000004577637,4|0,1:0|0:0,0:0:0:0:
36,156,104556,1,0,3:0:0:0:
36,156,104665,2,0,P|20:196|28:236,1,60.0000022888184,8|0,0:0|3:0,0:0:0:0:
96,332,104884,2,0,P|112:292|104:252,1,60.0000022888184,0|0,1:0|3:0,0:0:0:0:
256,204,105103,5,0,0:0:0:0:
180,96,105322,1,2,1:2:0:0:
180,96,105432,1,0,3:0:0:0:
180,96,105541,2,0,P|164:136|172:176,1,60.0000022888184,8|0,0:0|3:0,0:0:0:0:
240,352,105760,2,0,P|256:312|248:272,1,60.0000022888184,2|0,1:2|3:0,0:0:0:0:
360,40,105979,6,0,P|344:80|352:120,1,60.0000022888184,2|0,1:2|3:0,0:0:0:0:
424,384,106198,2,0,P|440:344|432:304,1,60.0000022888184,2|0,1:2|3:0,0:0:0:0:
440,188,106417,5,10,3:2:0:0:
440,188,106526,1,0,3:0:0:0:
440,188,106636,1,2,1:2:0:0:
440,188,106745,1,0,3:0:0:0:
440,188,106855,2,0,B|372:172|396:228|316:204,1,120.000004577637,2|10,1:2|1:2,0:0:0:0:
312,216,107183,5,8,0:0:0:0:
280,224,107293,1,10,0:0:0:0:
220,176,107402,1,8,0:0:0:0:
160,224,107512,1,10,1:2:0:0:
72,168,107621,1,8,0:0:0:0:
0,292,107731,6,0,P|65:306|109:268,1,120.000004577637,4|0,1:2|0:0,0:0:0:0:
172,320,108059,1,0,3:0:0:0:
172,320,108169,2,0,P|208:316|244:324,1,60.0000022888184,8|0,0:0|3:0,0:0:0:0:
292,368,108388,2,0,P|328:372|364:364,1,60.0000022888184,0|0,1:0|3:0,0:0:0:0:
508,308,108607,6,0,P|443:322|399:284,1,120.000004577637,0|2,1:0|0:0,0:0:0:0:
356,236,108935,1,0,3:0:0:0:
356,236,109045,2,0,P|320:232|284:240,1,60.0000022888184,8|0,0:0|3:0,0:0:0:0:
224,184,109264,2,0,P|188:188|152:180,1,60.0000022888184,2|0,1:2|3:0,0:0:0:0:
32,24,109483,5,0,1:0:0:0:
32,24,109592,1,0,3:0:0:0:
32,24,109702,2,0,L|40:120,1,60.0000022888184,0|0,3:0|0:0,0:0:0:0:
88,212,109921,1,8,0:0:0:0:
88,212,110030,1,0,3:0:0:0:
88,212,110140,2,0,L|96:116,1,60.0000022888184,0|0,1:0|0:0,0:0:0:0:
132,36,110359,6,0,L|228:28,1,60.0000022888184,0|0,0:0|3:0,0:0:0:0:
400,96,110578,2,0,L|304:88,1,60.0000022888184,2|0,1:2|3:0,0:0:0:0:
268,24,110797,5,8,3:2:0:0:
232,93,110906,1,0,3:0:0:0:
272,161,111015,1,2,1:2:0:0:
309,90,111125,1,0,3:0:0:0:
196,164,111234,6,0,P|180:220|204:280,1,120.000004577637,4|0,1:0|0:0,0:0:0:0:
272,356,111563,1,0,3:0:0:0:
272,356,111672,2,0,L|288:256,1,60.0000022888184,8|0,0:0|3:0,0:0:0:0:
344,240,111891,2,0,L|360:140,1,60.0000022888184,0|0,1:0|3:0,0:0:0:0:
272,161,112110,5,0,1:0:0:0:
484,116,112329,1,2,3:2:0:0:
412,92,112439,1,0,3:0:0:0:
484,116,112548,2,0,L|468:216,1,60.0000022888184,8|0,0:0|3:0,0:0:0:0:
512,312,112767,2,0,L|496:412,1,60.0000022888184,2|0,1:2|3:0,0:0:0:0:
412,280,112986,6,0,P|430:256|460:248,1,60.0000022888184,0|0,1:0|3:0,0:0:0:0:
384,360,113205,2,0,P|380:330|395:303,1,60.0000022888184,2|0,0:0|3:0,0:0:0:0:
228,172,113424,6,0,P|232:142|252:116,1,60.0000022888184,8|0,0:0|3:0,0:0:0:0:
252,344,113643,2,0,P|234:320|232:288,1,60.0000022888184,2|0,1:2|3:0,0:0:0:0:
116,380,113862,5,0,3:0:0:0:
116,380,113972,1,0,3:0:0:0:
116,380,114081,2,0,P|88:368|70:341,1,60.0000022888184,2|0,1:2|0:0,0:0:0:0:
48,132,114300,5,10,3:2:0:0:
84,201,114409,1,0,3:0:0:0:
44,269,114518,1,0,0:0:0:0:
7,198,114628,1,0,3:0:0:0:
4,72,114738,6,0,B|76:64|32:108|120:100,1,120.000004577637,4|0,1:0|0:0,0:0:0:0:
196,76,115067,1,0,3:0:0:0:
196,76,115176,2,0,L|212:-24,1,60.0000022888184,8|0,0:0|3:0,0:0:0:0:
264,200,115395,2,0,L|248:100,1,60.0000022888184,0|0,1:0|3:0,0:0:0:0:
456,196,115614,6,0,B|384:188|428:232|340:224,1,120.000004577637,0|2,1:0|0:0,0:0:0:0:
264,200,115943,1,0,3:0:0:0:
264,200,116052,2,0,L|248:100,1,60.0000022888184,8|0,0:0|3:0,0:0:0:0:
196,324,116271,2,0,L|212:224,1,60.0000022888184,2|0,1:2|3:0,0:0:0:0:
284,64,116490,5,0,1:0:0:0:
284,64,116599,1,0,3:0:0:0:
284,64,116709,2,0,L|384:80,1,60.0000022888184,0|0,3:0|0:0,0:0:0:0:
172,188,116928,1,8,3:2:0:0:
172,188,117037,1,0,3:0:0:0:
172,188,117147,2,0,L|72:204,1,60.0000022888184,0|0,1:0|0:0,0:0:0:0:
260,144,117366,6,0,L|360:160,1,60.0000022888184,0|0,0:0|3:0,0:0:0:0:
205,264,117585,2,0,L|105:280,1,60.0000022888184,2|0,1:2|3:0,0:0:0:0:
296,240,117804,5,8,3:2:0:0:
308,348,117914,1,0,3:0:0:0:
288,256,118023,1,2,1:2:0:0:
316,332,118133,1,0,3:0:0:0:
300,296,118242,5,4,1:0:0:0:
476,300,118461,1,0,1:0:0:0:
476,300,118570,1,0,3:0:0:0:
476,300,118680,2,0,P|418:305|396:376,1,120.000004577637,8|0,0:0|1:0,0:0:0:0:
212,296,119118,5,0,1:0:0:0:
36,300,119337,1,2,1:2:0:0:
36,300,119446,1,0,3:0:0:0:
36,300,119556,2,0,P|93:305|116:376,1,120.000004577637,8|2,0:0|1:2,0:0:0:0:
176,224,119994,6,0,P|169:190|152:168,1,60.0000022888184,0|0,0:0|3:0,0:0:0:0:
336,224,120213,2,0,P|342:190|360:168,1,60.0000022888184,2|0,1:2|3:0,0:0:0:0:
260,64,120432,5,10,3:2:0:0:
239,35,120541,1,0,3:0:0:0:
272,46,120651,1,0,1:0:0:0:
239,57,120760,1,0,3:0:0:0:
260,29,120869,1,10,3:2:0:0:
256,200,121088,6,0,L|256:120,1,60.0000022888184,10|8,1:2|0:0,0:0:0:0:
88,80,121307,2,0,P|99:48|95:19,1,60.0000022888184,10|8,1:2|0:0,0:0:0:0:
424,80,121526,2,0,P|412:48|416:19,1,60.0000022888184,10|8,1:2|0:0,0:0:0:0:
512,200,121745,6,0,P|455:159|404:168,1,120.000004577637,6|0,1:2|0:0,0:0:0:0:
340,200,122074,1,0,3:0:0:0:
340,200,122183,2,0,P|396:240|448:232,1,120.000004577637,10|0,0:0|1:0,0:0:0:0:
256,140,122621,6,0,B|245:185|245:185|272:276,1,120.000004577637,0|2,1:0|3:2,0:0:0:0:
296,332,122950,1,0,1:0:0:0:
296,332,123059,1,8,0:0:0:0:
256,140,123278,1,2,1:2:0:0:
124,208,123497,5,2,0:0:0:0:
152,324,123716,1,0,1:0:0:0:
152,324,123826,1,0,3:0:0:0:
152,324,123935,1,10,0:0:0:0:
124,208,124154,1,0,1:0:0:0:
32,268,124373,6,0,P|16:224|44:156,1,120.000004577637,0|2,1:0|0:0,0:0:0:0:
41,158,124702,1,0,1:0:0:0:
32,88,124811,2,0,P|68:88|96:112,1,60.0000022888184,8|0,3:2|3:0,0:0:0:0:
240,28,125030,2,0,P|258:59|251:95,1,60.0000022888184,2|0,1:2|3:0,0:0:0:0:
184,196,125249,6,0,L|168:64,1,120.000004577637,4|0,1:0|0:0,0:0:0:0:
87,100,125578,1,0,3:0:0:0:
87,100,125687,2,0,L|101:219,1,120.000004577637,10|0,0:0|1:0,0:0:0:0:
220,332,126125,6,0,P|176:296|88:316,1,120.000004577637,0|2,1:0|3:2,0:0:0:0:
72,364,126454,1,0,1:0:0:0:
72,364,126563,1,8,0:0:0:0:
220,332,126782,1,2,1:2:0:0:
496,272,127001,5,2,0:0:0:0:
396,368,127220,1,0,1:0:0:0:
396,368,127330,1,0,3:0:0:0:
396,368,127439,1,10,0:0:0:0:
264,300,127658,1,0,1:0:0:0:
364,176,127877,6,0,L|384:324,1,120.000004577637,0|2,1:0|0:0,0:0:0:0:
468,264,128206,1,0,1:0:0:0:
468,264,128315,2,0,P|468:228|452:196,1,60.0000022888184,8|0,3:2|3:0,0:0:0:0:
284,232,128534,2,0,P|284:268|300:300,1,60.0000022888184,2|0,1:2|3:0,0:0:0:0:
420,148,128753,6,0,B|364:172|364:172|296:156,1,120.000004577637,4|0,1:0|0:0,0:0:0:0:
216,188,129081,1,0,3:0:0:0:
212,208,129191,1,10,0:0:0:0:
252,108,129410,5,0,1:0:0:0:
248,88,129519,1,0,3:0:0:0:
244,68,129629,2,0,P|204:36|120:52,1,120.000004577637,0|2,1:0|3:2,0:0:0:0:
96,104,129957,1,0,1:0:0:0:
104,180,130067,2,0,P|144:212|228:196,1,120.000004577637,8|2,0:0|1:2,0:0:0:0:
96,104,130505,5,2,0:0:0:0:
8,228,130724,1,0,1:0:0:0:
8,228,130834,1,0,3:0:0:0:
8,228,130943,1,10,0:0:0:0:
60,348,131162,1,0,1:0:0:0:
216,340,131381,6,0,P|260:356|328:328,1,120.000004577637,0|2,1:0|0:0,0:0:0:0:
325,330,131710,1,0,1:0:0:0:
408,360,131819,2,0,P|412:320|396:288,1,60.0000022888184,8|0,3:2|3:0,0:0:0:0:
256,208,132037,2,0,P|252:248|268:280,1,60.0000022888184,2|0,1:2|3:0,0:0:0:0:
448,240,132256,5,4,1:0:0:0:
448,240,132366,1,0,3:0:0:0:
448,240,132475,2,0,P|410:225|375:232,1,60.0000022888184,0|0,3:0|0:0,0:0:0:0:
393,49,132694,5,10,3:2:0:0:
393,49,132804,1,0,3:0:0:0:
393,49,132913,2,0,P|362:75|351:109,1,60.0000022888184,0|0,1:0|0:0,0:0:0:0:
201,1,133132,5,0,1:0:0:0:
201,1,133242,1,0,3:0:0:0:
201,1,133351,2,0,P|208:41|231:68,1,60.0000022888184,2|0,3:2|1:0,0:0:0:0:
64,144,133570,5,8,3:2:0:0:
105,169,133679,1,8,3:2:0:0:
153,180,133788,1,10,1:2:0:0:
203,180,133898,1,8,3:2:0:0:
0,248,142767,6,0,P|25:213|104:212,1,120,4|0,3:3|0:0,0:0:0:0:
152,264,143643,2,0,L|144:352,1,80,0|0,3:0|3:0,0:0:0:0:
328,296,144519,2,0,B|388:292|364:336|448:328,2,120,0|0|0,3:0|3:0|3:0,0:0:0:0:
256,360,146271,1,4,3:0:0:0:
480,76,149775,6,0,P|455:41|376:40,1,120,4|0,3:0|0:0,0:0:0:0:
328,92,150651,2,0,L|336:180,1,80,0|0,3:0|3:0,0:0:0:0:
164,192,151527,2,0,B|104:188|128:232|44:224,2,120,0|0|0,3:0|3:0|3:0,0:0:0:0:
256,192,153279,1,4,3:0:0:0:
256,192,156125,6,0,L|252:144,2,40,0|0|0,3:0|3:0|3:0,0:0:0:0:
316,252,156782,6,0,P|363:244|408:268,1,90.0000034332277,4|0,0:1|3:0,0:0:0:0:
416,272,157220,2,0,L|492:268,1,60.0000022888184,2|0,0:0|3:0,0:0:0:0:
376,348,157658,2,0,L|284:344,2,90.0000034332277,2|2|2,3:2|3:2|3:2,0:0:0:0:
475,268,158753,5,0,3:0:0:0:
448,192,158972,2,0,L|452:116,1,60.0000022888184,2|0,0:0|3:0,0:0:0:0:
500,0,159410,2,0,L|504:76,1,60.0000022888184,2|0,0:0|3:0,0:0:0:0:
504,72,159738,1,2,3:2:0:0:
504,84,159848,1,0,3:0:0:0:
408,32,160067,6,0,B|344:20|372:76|280:52,1,120.000004577637,2|0,3:2|3:0,0:0:0:0:
224,20,160724,1,2,0:0:0:0:
295,55,160942,1,0,3:0:0:0:
152,48,161161,2,0,P|124:88|144:160,1,120.000004577637,2|2,3:2|3:2,0:0:0:0:
138,154,161818,5,2,3:2:0:0:
36,132,162037,2,0,L|48:232,1,90.0000034332277,2|0,0:0|3:0,0:0:0:0:
48,240,162475,1,2,0:0:0:0:
12,308,162694,1,2,3:2:0:0:
64,364,162913,1,0,0:0:0:0:
78,362,163022,1,0,0:0:0:0:
93,360,163132,2,0,L|140:360,1,30.0000011444092,2|0,3:2|3:0,0:0:0:0:
167,257,163350,1,2,3:2:0:0:
396,356,163789,5,2,0:0:0:0:
345,257,164008,1,0,3:0:0:0:
444,206,164227,1,2,0:0:0:0:
494,305,164446,1,0,3:0:0:0:
420,280,164665,5,2,0:0:0:0:
420,280,164994,1,2,0:0:0:0:
420,280,165322,1,2,0:0:0:0:
256,136,165541,5,0,3:0:0:0:
216,204,165760,6,0,L|140:216,2,60.0000022888184,0|2|0,3:0|3:2|3:0,0:0:0:0:
100,134,166417,1,2,0:0:0:0:
6,164,166636,1,2,3:2:0:0:
6,261,166855,1,2,0:0:0:0:
100,292,167074,1,2,3:2:0:0:
318,212,167293,5,0,3:0:0:0:
290,101,167512,5,0,3:0:0:0:
290,101,167621,1,0,3:0:0:0:
290,101,167731,1,2,3:2:0:0:
372,22,167950,5,0,3:0:0:0:
372,22,168059,1,0,3:0:0:0:
372,22,168169,1,2,3:2:0:0:
482,54,168388,5,0,3:0:0:0:
482,54,168497,1,0,3:0:0:0:
482,54,168607,1,2,3:2:0:0:
510,164,168826,5,2,3:2:0:0:
510,164,169264,5,2,3:2:0:0:
510,164,169483,1,2,3:2:0:0:
428,244,169702,1,2,3:2:0:0:
284,200,169921,5,2,3:2:0:0:
184,264,170140,5,2,3:2:0:0:
112,244,170359,5,2,3:2:0:0:
76,264,170568,5,2,3:2:0:0:
52,256,170778,5,4,0:1:0:0:
512,196,179337,6,0,L|432:188,1,60.0000022888184,0|2,0:0|0:0,0:0:0:0:
452,191,180212,2,0,L|511:197,1,60.0000022888184,0|2,0:0|0:0,0:0:0:0:
380,216,180870,5,0,0:0:0:0:
380,216,181089,2,0,P|378:171|388:148,1,60.0000022888184,0|2,0:0|0:0,0:0:0:0:
312,120,181527,2,0,P|342:87|366:77,1,60.0000022888184,0|0,0:0|0:0,0:0:0:0:
456,24,181965,1,0,0:0:0:0:
456,24,182184,2,0,L|468:148,2,120.000004577637,2|0|2,0:0|0:0|0:0,0:0:0:0:
248,68,183716,5,0,0:0:0:0:
248,68,183935,2,0,P|208:40|136:48,1,120.000004577637,2|0,0:0|0:0,0:0:0:0:
68,72,184592,1,0,0:0:0:0:
68,72,184811,2,0,P|66:27|76:4,1,60.0000022888184,2|0,0:0|0:0,0:0:0:0:
140,45,185249,1,2,0:0:0:0:
128,124,185468,1,0,0:0:0:0:
0,120,185687,6,0,L|8:196,1,60.0000022888184,2|0,0:0|0:0,0:0:0:0:
8,196,186016,1,0,0:0:0:0:
12,212,186125,2,0,L|60:208,1,30.0000011444092,2|0,0:0|0:0,0:0:0:0:
128,224,186344,1,0,0:0:0:0:
128,224,186454,1,0,0:0:0:0:
128,224,186563,6,0,P|136:280|120:356,1,120.000004577637,2|0,0:0|0:0,0:0:0:0:
52,360,187220,1,2,0:0:0:0:
130,222,187439,2,0,P|138:278|122:354,1,120.000004577637,2|0,0:0|0:0,0:0:0:0:
52,360,188096,1,2,0:0:0:0:
132,220,188315,5,0,0:0:0:0:
132,220,188424,2,0,B|144:280|144:280|124:352,1,120.000004577637,0|0,0:0|0:0,0:0:0:0:
256,192,189629,12,0,191380,0:0:0:0:
456,80,191599,5,2,0:0:0:0:
504,144,191818,1,2,0:0:0:0:
448,236,192037,2,0,P|392:232|324:260,1,120.000004577637,2|2,0:0|0:0,0:0:0:0:
284,316,192693,1,2,0:0:0:0:
265,343,192912,1,0,0:0:0:0:
284,370,193131,1,2,0:0:0:0:
316,360,193350,1,0,0:0:0:0:
316,327,193569,5,2,0:0:0:0:
252,284,193788,1,0,0:0:0:0:
172,280,194007,1,2,0:0:0:0:
100,312,194226,1,0,0:0:0:0:
16,380,194445,5,2,0:0:0:0:
14,364,194556,1,0,0:0:0:0:
11,346,194665,1,0,0:0:0:0:
9,328,194775,1,0,0:0:0:0:
12,296,194883,5,2,0:0:0:0:
40,270,194994,1,0,0:0:0:0:
48,232,195103,1,2,0:0:0:0:
35,196,195213,1,0,0:0:0:0:
16,124,195321,5,4,0:3:0:0:
16,124,195760,2,0,P|4:96|4:60,1,60.0000022888184,0|2,0:0|0:0,0:0:0:0:
160,144,196197,5,2,0:0:0:0:
160,144,196636,2,0,P|132:133|107:108,1,60.0000022888184,0|2,0:0|0:0,0:0:0:0:
256,28,197073,5,2,0:0:0:0:
256,28,197511,1,2,0:0:0:0:
256,28,197950,2,0,P|228:40|176:32,1,80,2|0,0:0|0:0,0:0:0:0:
180,34,198606,1,2,0:0:0:0:
336,32,198825,5,4,0:3:0:0:
336,32,199264,2,0,P|348:60|348:96,1,60.0000022888184,0|2,0:0|0:0,0:0:0:0:
272,220,199702,2,0,P|260:192|260:156,1,60.0000022888184,2|0,0:0|0:0,0:0:0:0:
268,152,200029,1,0,0:0:0:0:
276,140,200140,2,0,L|268:64,1,60.0000022888184,0|2,0:0|0:0,0:0:0:0:
424,8,200578,6,0,L|432:84,1,60.0000022888184,2|0,0:0|0:0,0:0:0:0:
492,120,201015,1,2,0:0:0:0:
416,192,201234,1,0,0:0:0:0:
488,316,201453,6,0,L|480:224,1,80,2|0,0:0|0:0,0:0:0:0:
416,192,202110,1,2,0:0:0:0:
308,344,202329,5,4,0:3:0:0:
308,344,202767,2,0,P|320:316|320:280,1,60.0000022888184,0|2,0:0|0:0,0:0:0:0:
164,364,203205,5,2,0:0:0:0:
164,364,203643,2,0,P|193:353|218:328,1,60.0000022888184,0|2,0:0|0:0,0:0:0:0:
68,248,204081,5,2,0:0:0:0:
68,248,204519,1,2,0:0:0:0:
68,248,204957,2,0,P|96:260|148:252,1,80,2|0,0:0|0:0,0:0:0:0:
192,192,205613,1,2,0:0:0:0:
120,68,205833,6,0,B|52:72|84:28|-4:40,1,120.000004577637,4|0,0:3|0:0,0:0:0:0:
120,68,206489,1,2,0:0:0:0:
232,28,206708,5,2,0:0:0:0:
250,64,206927,1,0,0:0:0:0:
215,81,207146,1,0,0:0:0:0:
197,46,207365,1,2,0:0:0:0:
232,28,207584,5,2,0:0:0:0:
268,100,207803,1,0,0:0:0:0:
198,134,208022,1,2,0:0:0:0:
162,64,208241,1,0,0:0:0:0:
316,32,208461,6,0,L|388:36,1,60.0000022888184,2|2,0:0|0:0,0:0:0:0:
508,184,208899,2,0,L|436:188,1,60.0000022888184,2|2,0:0|0:0,0:0:0:0:
320,244,209337,5,4,0:1:0:0:
294,195,209556,1,0,0:0:0:0:
342,171,209775,1,0,0:0:0:0:
366,218,209994,1,2,0:0:0:0:
318,244,210213,5,2,0:0:0:0:
293,195,210432,1,0,0:0:0:0:
342,172,210651,1,0,0:0:0:0:
365,219,210870,1,2,0:0:0:0:
317,246,211088,5,2,0:0:0:0:
293,196,211307,1,0,0:0:0:0:
342,175,211526,1,0,0:0:0:0:
364,222,211745,1,2,0:0:0:0:
316,247,211964,5,2,0:0:0:0:
293,198,212183,1,0,0:0:0:0:
342,176,212402,1,2,0:0:0:0:
364,224,212621,1,0,0:0:0:0:
316,247,212840,5,2,0:0:0:0:
293,198,213059,1,0,0:0:0:0:
342,176,213278,1,0,0:0:0:0:
364,224,213497,1,2,0:0:0:0:
315,248,213716,5,2,0:0:0:0:
293,199,213935,1,0,0:0:0:0:
342,179,214154,1,0,0:0:0:0:
363,227,214373,1,2,0:0:0:0:
313,251,214592,5,2,0:0:0:0:
293,200,214811,1,0,0:0:0:0:
342,179,215030,1,0,0:0:0:0:
363,229,215249,1,2,0:0:0:0:
312,252,215468,5,2,0:0:0:0:
292,201,215687,1,0,0:0:0:0:
342,182,215906,1,2,0:0:0:0:
361,231,216125,1,0,0:0:0:0:
82,94,216344,5,4,0:1:0:0:
163,202,216563,1,2,0:0:0:0:
137,136,216782,1,0,0:0:0:0:
152,271,217001,1,2,0:0:0:0:
107,326,217220,5,0,0:0:0:0:
165,286,217439,1,2,0:0:0:0:
236,282,217658,1,0,0:0:0:0:
298,314,217877,1,2,0:0:0:0:
337,374,218096,5,0,0:0:0:0:
335,238,218315,1,2,0:0:0:0:
317,306,218534,1,0,0:0:0:0:
385,187,218753,1,2,0:0:0:0:
453,170,218972,5,0,0:0:0:0:
382,168,219191,1,2,0:0:0:0:
322,130,219410,1,2,0:0:0:0:
291,67,219629,1,2,0:0:0:0:
296,0,219848,5,0,0:0:0:0:
217,108,220067,1,2,0:0:0:0:
271,63,220286,1,0,0:0:0:0:
147,118,220505,1,2,0:0:0:0:
336,370,220724,5,0,0:0:0:0:
336,237,220943,1,2,0:0:0:0:
319,305,221162,1,0,0:0:0:0:
387,187,221381,1,2,0:0:0:0:
85,94,221599,5,0,0:0:0:0:
164,203,221818,1,2,0:0:0:0:
137,137,222037,1,0,0:0:0:0:
151,272,222256,1,2,0:0:0:0:
450,170,222475,5,0,0:0:0:0:
304,120,222694,1,2,0:0:0:0:
384,108,222913,2,0,L|375:167,1,60.0000022888184,2|2,0:0|0:0,0:0:0:0:
452,280,223351,5,4,3:0:0:0:
512,336,223570,1,2,0:0:0:0:
512,336,223680,1,0,3:0:0:0:
436,360,223899,1,2,0:0:0:0:
436,360,224007,1,0,3:0:0:0:
452,280,224446,5,0,0:0:0:0:
280,312,224665,2,0,L|221:303,1,60.0000022888184,8|0,0:3|0:0,0:0:0:0:
344,364,225103,5,0,3:0:0:0:
364,288,225322,1,2,0:0:0:0:
364,288,225432,1,0,3:0:0:0:
296,228,225651,1,2,0:0:0:0:
296,228,225760,1,0,3:0:0:0:
296,228,226198,5,0,0:0:0:0:
208,176,226417,1,8,0:3:0:0:
264,88,226636,2,0,L|264:128,1,30.0000011444092,0|0,3:0|3:0,0:0:0:0:
144,84,226855,6,0,L|148:16,1,60.0000022888184,0|2,3:0|0:0,0:0:0:0:
132,24,227184,2,0,L|129:83,1,60.0000022888184,0|2,3:0|0:0,0:0:0:0:
72,136,227512,1,0,3:0:0:0:
72,136,227950,5,0,0:0:0:0:
24,288,228169,2,0,L|21:347,1,60.0000022888184,8|0,0:3|0:0,0:0:0:0:
0,216,228607,6,0,P|32:212|68:224,1,60.0000022888184,0|2,3:0|0:0,0:0:0:0:
72,224,228935,1,0,3:0:0:0:
108,300,229154,1,2,0:0:0:0:
108,300,229264,1,0,3:0:0:0:
228,264,229483,5,0,3:0:0:0:
228,264,229592,1,0,3:0:0:0:
300,300,229811,1,0,3:0:0:0:
300,300,229921,2,0,L|296:388,1,60.0000022888184,8|0,3:3|0:0,0:0:0:0:
376,348,230249,5,0,3:0:0:0:
376,348,230359,2,0,L|460:340,1,60.0000022888184,4|2,3:0|0:0,0:0:0:0:
384,272,230687,2,0,L|468:264,1,60.0000022888184,0|2,3:0|0:0,0:0:0:0:
504,312,231016,1,0,3:0:0:0:
504,312,231454,5,0,0:0:0:0:
496,152,231673,2,0,L|504:236,1,60.0000022888184,8|0,0:3|0:0,0:0:0:0:
384,52,232111,5,0,3:0:0:0:
300,24,232330,1,2,0:0:0:0:
300,24,232439,1,0,3:0:0:0:
320,108,232658,1,2,0:0:0:0:
320,108,232767,1,0,3:0:0:0:
380,52,233205,5,0,0:0:0:0:
232,80,233424,1,8,0:3:0:0:
160,16,233643,2,0,L|156:64,1,30.0000011444092,0|0,3:0|3:0,0:0:0:0:
20,32,233862,6,0,L|104:24,1,60.0000022888184,0|2,3:0|0:0,0:0:0:0:
99,99,234191,2,0,L|40:104,1,60.0000022888184,0|2,3:0|0:0,0:0:0:0:
80,176,234519,1,0,3:0:0:0:
80,176,234957,5,0,0:0:0:0:
225,139,235176,2,0,L|231:80,1,60.0000022888184,8|0,0:3|0:0,0:0:0:0:
160,176,235614,6,0,L|165:235,1,60.0000022888184,0|2,3:0|0:0,0:0:0:0:
168,256,235943,1,0,3:0:0:0:
128,324,236162,1,2,0:0:0:0:
131,340,236271,1,0,3:0:0:0:
347,235,236490,5,0,3:3:0:0:
344,255,236599,1,2,0:0:0:0:
384,324,236819,1,0,3:3:0:0:
380,352,236928,1,8,3:0:0:0:
252,352,237147,5,0,3:0:0:0:
252,352,237257,1,0,3:0:0:0:
252,352,237366,2,0,L|256:232,1,120,4|0,3:1|3:0,0:0:0:0:
216,172,237804,2,0,P|248:160|300:176,1,80,2|0,0:0|0:0,0:0:0:0:
456,108,238242,5,0,3:0:0:0:
444,216,238461,1,2,0:0:0:0:
432,224,238570,1,0,3:0:0:0:
416,232,238680,2,0,P|384:244|332:228,1,80,8|2,0:3|3:2,0:0:0:0:
274,54,239118,6,0,B|258:122|306:114|290:174,1,120,2|0,3:2|3:0,0:0:0:0:
340,234,239556,2,0,L|328:318,1,80,2|0,0:0|0:0,0:0:0:0:
212,152,239994,5,0,3:0:0:0:
188,72,240213,1,2,0:0:0:0:
188,72,240322,1,0,3:0:0:0:
188,72,240432,2,0,L|108:84,1,80,8|2,0:3|3:2,0:0:0:0:
58,145,240760,5,0,3:0:0:0:
58,145,240870,1,2,0:0:0:0:
114,9,241089,1,0,0:0:0:0:
114,9,241198,1,0,3:0:0:0:
114,9,241308,2,0,P|119:66|91:98,1,80,2|0,0:0|0:0,0:0:0:0:
148,240,241746,5,0,3:0:0:0:
2,259,241965,1,2,0:0:0:0:
2,259,242074,1,0,3:0:0:0:
2,259,242184,2,0,P|49:226|91:234,1,80,8|2,0:3|3:2,0:0:0:0:
256,180,242621,6,0,B|264:220|264:220|248:260|248:260|260:312,2,120,2|2|2,3:2|3:2|3:2,0:0:0:0:
180,148,243497,1,0,3:0:0:0:
176,164,243607,1,2,0:0:0:0:
284,28,243826,1,0,3:0:0:0:
264,60,243935,5,8,0:3:0:0:
268,76,244045,1,0,3:0:0:0:
324,128,244154,5,8,3:0:0:0:
340,124,244264,1,0,3:0:0:0:
420,112,244373,6,0,P|400:56|424:0,1,120,4|0,3:1|3:0,0:0:0:0:
475,59,244811,2,0,P|446:98|404:113,1,80,2|0,0:0|3:0,0:0:0:0:
256,180,245249,1,2,0:0:0:0:
268,260,245468,1,0,3:0:0:0:
480,352,245687,1,8,0:3:0:0:
492,272,245906,1,0,3:0:0:0:
268,260,246125,6,0,P|324:280|380:256,1,120,2|0,0:0|3:0,0:0:0:0:
377,258,246563,2,0,P|337:286|322:328,1,80,2|0,0:0|3:0,0:0:0:0:
196,356,247001,1,2,0:0:0:0:
76,200,247220,1,0,3:0:0:0:
116,344,247439,1,8,0:3:0:0:
0,172,247658,5,0,3:0:0:0:
0,172,247767,1,0,3:0:0:0:
0,172,247877,2,0,P|-4:220|16:252,1,80,2|0,0:0|0:0,0:0:0:0:
136,260,248205,1,0,3:0:0:0:
136,260,248315,2,0,L|216:260,1,80,8|2,3:0|0:0,0:0:0:0:
2,149,248753,6,0,P|-5:197|11:230,1,80,0|2,3:0|0:2,0:0:0:0:
130,249,249081,1,0,3:0:0:0:
130,249,249191,2,0,L|210:256,1,80,8|2,3:0|0:0,0:0:0:0:
7,127,249629,6,0,P|-4:174|9:209,1,80,8|2,3:0|3:2,0:0:0:0:
183,181,249957,1,0,3:0:0:0:
183,181,250067,2,0,P|195:134|181:99,1,80,8|2,3:0|3:2,0:0:0:0:
84,20,250505,6,0,L|96:108,1,60.0000022888184,8|0,0:3|0:0,0:0:0:0:
100,160,250724,2,0,L|88:248,1,60.0000022888184,8|0,0:3|0:0,0:0:0:0:
300,56,250942,6,0,L|312:144,1,60.0000022888184,8|0,0:3|0:0,0:0:0:0:
304,288,251161,2,0,L|292:376,1,60.0000022888184,8|0,0:3|0:0,0:0:0:0:
352,216,251380,6,0,P|286:207|235:242,1,120.000004577637,4|0,1:2|0:0,0:0:0:0:
176,272,251708,1,2,0:0:0:0:
168,252,251818,1,0,3:0:0:0:
242,233,252037,6,0,P|299:243|351:215,1,120.000004577637,2|0,1:2|0:0,0:0:0:0:
420,260,252365,1,2,0:0:0:0:
428,240,252475,1,0,3:0:0:0:
351,215,252694,6,0,P|318:203|266:211,1,60.0000022888184,8|0,0:0|0:0,0:0:0:0:
128,336,252913,2,0,P|161:348|213:340,1,60.0000022888184,2|0,0:0|0:0,0:0:0:0:
112,176,253132,6,0,B|72:200|72:200|32:192|32:192|-16:216,1,120.000004577637,0|0,1:0|0:0,0:0:0:0:
32,276,253460,1,2,0:0:0:0:
40,296,253570,1,0,3:0:0:0:
2,206,253789,6,0,B|32:192|32:192|72:200|72:200|112:176,1,120.000004577637,2|0,1:2|0:0,0:0:0:0:
64,112,254118,1,2,0:0:0:0:
56,92,254226,1,0,3:0:0:0:
112,176,254446,6,0,B|200:184,1,60.0000022888184,8|0,0:0|0:0,0:0:0:0:
304,84,254665,2,0,B|296:-4,1,60.0000022888184,2|0,0:0|0:0,0:0:0:0:
420,40,254884,6,0,B|368:24|324:60|324:60|264:44|264:44|232:72|156:60,2,240.000009155274,2|2|10,1:2|1:2|0:2,0:0:0:0:
420,40,256088,5,8,3:2:0:0:
392,168,256197,2,0,P|383:137|388:108,1,60.0000022888184,8|0,0:0|0:0,0:0:0:0:
500,12,256416,2,0,L|488:104,1,60.0000022888184,2|0,1:2|0:0,0:0:0:0:
472,204,256635,5,2,0:0:0:0:
472,204,256854,2,0,L|479:144,1,60.0000022888184,0|0,1:0|3:0,0:0:0:0:
295,209,257074,2,0,P|335:165|395:169,1,120.000004577637,0|0,1:0|3:0,0:0:0:0:
512,356,257511,5,2,0:0:0:0:
504,276,257730,1,0,3:0:0:0:
488,280,257839,1,0,3:0:0:0:
472,284,257949,2,0,L|380:268,1,60.0000022888184,8|0,0:0|3:0,0:0:0:0:
295,209,258169,2,0,L|387:193,1,60.0000022888184,0|0,1:0|3:0,0:0:0:0:
376,352,258388,6,0,P|310:361|259:326,1,120.000004577637,4|2,1:0|3:2,0:0:0:0:
204,256,258715,1,0,3:0:0:0:
184,248,258825,1,0,3:0:0:0:
295,209,259044,1,2,1:2:0:0:
376,352,259264,6,0,P|310:361|259:326,1,120.000004577637,0|2,1:0|3:2,0:0:0:0:
295,209,259591,1,0,3:0:0:0:
315,201,259701,1,8,0:0:0:0:
200,100,259920,1,0,0:0:0:0:
376,352,260140,6,0,P|310:361|259:326,1,120.000004577637,0|2,1:0|3:2,0:0:0:0:
57,215,260468,1,0,3:0:0:0:
57,215,260578,2,0,P|82:154|138:127,1,120.000004577637,0|2,0:0|1:2,0:0:0:0:
334,8,261015,2,0,P|375:60|370:122,1,120.000004577637,0|2,1:0|3:2,0:0:0:0:
392,192,261343,1,0,3:0:0:0:
392,192,261453,2,0,L|320:188,1,60.0000022888184,8|0,0:0|3:0,0:0:0:0:
240,88,261672,2,0,L|356:80,1,60.0000022888184,2|0,1:2|3:0,0:0:0:0:
452,260,261891,5,0,1:0:0:0:
452,260,262000,1,0,3:0:0:0:
452,260,262110,2,0,P|469:228|472:188,1,60.0000022888184,2|0,3:2|0:0,0:0:0:0:
332,336,262329,5,8,3:2:0:0:
332,336,262438,1,0,3:0:0:0:
332,336,262548,2,0,P|362:316|385:283,1,60.0000022888184,2|0,1:2|0:0,0:0:0:0:
192,300,262767,6,0,P|227:308|266:300,1,60.0000022888184,0|0,1:0|3:0,0:0:0:0:
116,176,262986,5,2,3:2:0:0:
116,176,263096,2,0,P|135:206|168:229,1,60.0000022888184,0|8,1:0|3:2,0:0:0:0:
168,48,263315,5,0,3:0:0:0:
168,48,263424,2,0,P|159:83|167:122,1,60.0000022888184,2|0,1:2|3:0,0:0:0:0:
324,228,263643,6,0,P|332:192|324:153,1,60.0000022888184,2|0,1:2|0:0,0:0:0:0:
190,299,263972,2,0,P|188:329|197:358,1,60.0000022888184,2|0,1:2|0:2,0:0:0:0:
325,229,264300,2,0,P|334:194|326:155,1,60.0000022888184,2|0,1:2|0:0,0:0:0:0:
256,28,264519,6,0,L|256:116,1,80,10|0,1:2|0:0,0:0:0:0:
256,144,264848,5,0,3:0:0:0:
272,124,264957,1,0,3:0:0:0:
240,104,265067,1,0,3:0:0:0:
180,144,265176,1,0,3:0:0:0:
220,212,265286,1,0,3:0:0:0:
304,216,265395,6,0,P|340:184|428:200,1,120.000004577637,4|0,1:2|0:0,0:0:0:0:
384,316,265724,1,0,3:0:0:0:
384,316,265833,2,0,L|368:228,1,60.0000022888184,8|0,0:0|3:0,0:0:0:0:
496,128,266052,2,0,L|480:216,1,60.0000022888184,0|0,1:0|3:0,0:0:0:0:
304,216,266271,6,0,P|340:184|428:200,1,120.000004577637,0|2,1:0|0:0,0:0:0:0:
468,324,266600,1,0,3:0:0:0:
468,324,266709,2,0,L|452:236,1,60.0000022888184,8|0,0:0|3:0,0:0:0:0:
419,127,266928,2,0,L|403:215,1,60.0000022888184,2|0,1:2|3:0,0:0:0:0:
240,296,267147,5,0,1:0:0:0:
240,296,267257,1,0,3:0:0:0:
240,296,267366,2,0,L|328:312,1,60.0000022888184,0|0,3:0|0:0,0:0:0:0:
108,344,267585,1,8,0:0:0:0:
108,344,267693,1,0,3:0:0:0:
108,344,267804,2,0,L|196:360,1,60.0000022888184,0|0,1:0|0:0,0:0:0:0:
0,224,268023,6,0,L|88:240,1,60.0000022888184,0|0,0:0|3:0,0:0:0:0:
212,136,268242,2,0,L|300:152,1,60.0000022888184,2|0,1:2|3:0,0:0:0:0:
136,172,268461,5,8,3:2:0:0:
60,154,268570,1,0,3:0:0:0:
36,78,268680,1,2,1:2:0:0:
112,98,268789,1,0,3:0:0:0:
196,228,268899,6,0,P|144:252|68:220,1,120.000004577637,4|0,1:0|0:0,0:0:0:0:
8,228,269227,1,0,3:0:0:0:
8,228,269337,2,0,L|0:316,1,60.0000022888184,8|0,0:0|3:0,0:0:0:0:
144,296,269556,2,0,L|152:384,1,60.0000022888184,0|0,1:0|3:0,0:0:0:0:
232,368,269775,5,0,1:0:0:0:
340,208,269994,1,2,3:2:0:0:
268,184,270103,1,0,3:0:0:0:
340,208,270213,2,0,L|348:296,1,60.0000022888184,8|0,0:0|3:0,0:0:0:0:
512,292,270432,2,0,L|504:380,1,60.0000022888184,2|0,1:2|3:0,0:0:0:0:
280,308,270651,6,0,L|272:367,1,60.0000022888184,0|0,1:0|3:0,0:0:0:0:
424,264,270870,2,0,L|416:323,1,60.0000022888184,2|0,0:0|3:0,0:0:0:0:
488,152,271089,6,0,L|495:211,1,60.0000022888184,8|0,0:0|3:0,0:0:0:0:
252,40,271308,2,0,L|259:99,1,60.0000022888184,2|0,1:2|3:0,0:0:0:0:
392,16,271527,5,0,3:0:0:0:
392,16,271636,1,0,3:0:0:0:
392,16,271746,2,0,L|384:75,1,60.0000022888184,2|0,1:2|0:0,0:0:0:0:
324,216,271965,5,10,3:2:0:0:
257,257,272074,1,0,3:0:0:0:
186,220,272184,1,2,1:2:0:0:
254,180,272293,1,0,3:0:0:0:
112,192,272403,6,0,P|92:128|132:64,1,120.000004577637,4|0,1:0|0:0,0:0:0:0:
228,140,272731,1,0,3:0:0:0:
228,140,272840,2,0,L|144:132,1,60.0000022888184,8|0,0:0|3:0,0:0:0:0:
60,24,273059,2,0,L|-24:16,1,60.0000022888184,0|0,1:0|3:0,0:0:0:0:
112,192,273278,6,0,P|92:128|132:64,1,120.000004577637,0|2,1:0|0:0,0:0:0:0:
200,60,273607,1,0,3:0:0:0:
200,60,273716,2,0,L|192:-24,1,60.0000022888184,8|0,0:0|3:0,0:0:0:0:
20,212,273935,2,0,L|12:128,1,60.0000022888184,2|0,1:2|3:0,0:0:0:0:
212,296,274154,5,0,1:0:0:0:
212,296,274264,1,0,3:0:0:0:
212,296,274373,2,0,L|204:392,1,60.0000022888184,0|0,3:0|0:0,0:0:0:0:
120,276,274592,1,8,3:2:0:0:
120,276,274702,1,0,3:0:0:0:
120,276,274811,2,0,L|112:372,1,60.0000022888184,0|0,1:0|0:0,0:0:0:0:
492,180,275030,6,0,L|484:276,1,60.0000022888184,0|0,0:0|3:0,0:0:0:0:
400,160,275249,2,0,L|392:256,1,60.0000022888184,2|0,1:2|3:0,0:0:0:0:
260,180,275468,1,8,3:2:0:0:
192,208,275578,1,0,3:0:0:0:
280,192,275687,1,2,1:2:0:0:
172,196,275797,1,0,3:0:0:0:
296,204,275906,6,0,P|320:152|292:84,1,120.000004577637,4|0,1:0|0:0,0:0:0:0:
124,4,276235,1,0,3:0:0:0:
124,4,276344,2,0,P|108:44|116:84,1,60.0000022888184,8|0,0:0|3:0,0:0:0:0:
184,76,276563,2,0,P|200:36|192:-4,1,60.0000022888184,0|0,1:0|3:0,0:0:0:0:
388,172,276782,5,0,0:0:0:0:
456,132,277001,1,2,1:2:0:0:
456,132,277111,1,0,3:0:0:0:
456,132,277220,2,0,P|472:172|464:212,1,60.0000022888184,8|0,0:0|3:0,0:0:0:0:
320,220,277439,2,0,P|304:180|312:140,1,60.0000022888184,2|0,1:2|3:0,0:0:0:0:
20,196,277658,6,0,P|4:236|12:276,1,60.0000022888184,2|0,1:2|3:0,0:0:0:0:
256,368,277877,2,0,P|272:328|264:288,1,60.0000022888184,2|0,1:2|3:0,0:0:0:0:
92,272,278096,5,10,3:2:0:0:
92,350,278205,1,0,3:0:0:0:
159,311,278315,1,2,1:2:0:0:
114,311,278424,1,0,3:0:0:0:
114,311,278534,2,0,B|46:295|70:351|-10:327,1,120.000004577637,2|10,1:2|1:2,0:0:0:0:
4,252,278862,5,8,0:0:0:0:
20,260,278972,1,10,0:0:0:0:
84,216,279081,1,8,0:0:0:0:
168,268,279191,1,10,1:2:0:0:
232,184,279300,1,8,0:0:0:0:
336,276,279410,6,0,P|401:290|445:252,1,120.000004577637,4|0,1:2|0:0,0:0:0:0:
496,200,279738,1,0,3:0:0:0:
496,200,279848,2,0,P|500:164|492:128,1,60.0000022888184,8|0,0:0|3:0,0:0:0:0:
320,76,280067,2,0,P|316:40|324:4,1,60.0000022888184,0|0,1:0|3:0,0:0:0:0:
364,140,280286,6,0,P|299:154|255:116,1,120.000004577637,0|2,1:0|0:0,0:0:0:0:
192,20,280614,1,0,3:0:0:0:
192,20,280724,2,0,P|196:56|188:92,1,60.0000022888184,8|0,0:0|3:0,0:0:0:0:
16,144,280943,2,0,P|12:180|20:216,1,60.0000022888184,2|0,1:2|3:0,0:0:0:0:
96,52,281161,5,0,1:0:0:0:
96,52,281271,1,0,3:0:0:0:
96,52,281381,2,0,L|104:148,1,60.0000022888184,0|0,3:0|0:0,0:0:0:0:
216,260,281600,1,8,0:0:0:0:
216,260,281709,1,0,3:0:0:0:
216,260,281819,2,0,L|224:356,1,60.0000022888184,0|0,1:0|0:0,0:0:0:0:
108,192,282038,6,0,L|204:184,1,60.0000022888184,0|0,0:0|3:0,0:0:0:0:
364,288,282257,2,0,L|268:280,1,60.0000022888184,2|0,1:2|3:0,0:0:0:0:
112,284,282476,5,8,3:2:0:0:
38,315,282585,1,0,3:0:0:0:
120,300,282694,1,2,1:2:0:0:
46,331,282804,1,0,3:0:0:0:
184,352,282913,6,0,P|200:296|176:236,1,120.000004577637,4|0,1:0|0:0,0:0:0:0:
192,112,283242,1,0,3:0:0:0:
192,112,283351,2,0,P|237:108|260:120,1,60.0000022888184,8|0,0:0|3:0,0:0:0:0:
444,184,283570,2,0,P|489:187|512:176,1,60.0000022888184,0|0,1:0|3:0,0:0:0:0:
348,144,283789,5,0,1:0:0:0:
428,36,284008,1,2,3:2:0:0:
504,16,284118,1,0,3:0:0:0:
428,36,284227,2,0,L|412:136,1,60.0000022888184,8|0,0:0|3:0,0:0:0:0:
292,208,284446,2,0,L|276:308,1,60.0000022888184,2|0,1:2|3:0,0:0:0:0:
376,236,284665,6,0,P|400:254|408:284,1,60.0000022888184,0|0,1:0|3:0,0:0:0:0:
312,344,284884,2,0,P|342:340|369:355,1,60.0000022888184,2|0,0:0|3:0,0:0:0:0:
292,208,285103,6,0,P|264:219|234:211,1,60.0000022888184,8|0,0:0|3:0,0:0:0:0:
224,32,285322,2,0,P|212:59|185:75,1,60.0000022888184,2|0,1:2|3:0,0:0:0:0:
0,328,285541,6,0,P|3:298|25:276,1,60.0000022888184,0|0,3:0|3:0,0:0:0:0:
186,357,285760,2,0,P|167:333|167:302,1,60.0000022888184,2|0,1:2|0:0,0:0:0:0:
108,120,285979,5,10,3:2:0:0:
144,189,286088,1,0,3:0:0:0:
104,257,286197,1,0,0:0:0:0:
67,186,286307,1,0,3:0:0:0:
108,120,286417,6,0,B|180:112|136:156|224:148,1,120.000004577637,4|0,1:0|0:0,0:0:0:0:
312,16,286746,1,0,3:0:0:0:
312,16,286855,2,0,L|412:32,1,60.0000022888184,8|0,0:0|3:0,0:0:0:0:
448,176,287074,2,0,L|548:192,1,60.0000022888184,0|0,1:0|3:0,0:0:0:0:
507,185,287293,6,0,B|435:177|479:221|391:213,1,120.000004577637,0|2,1:0|0:0,0:0:0:0:
356,124,287620,1,0,3:0:0:0:
356,124,287731,2,0,L|256:140,1,60.0000022888184,8|0,0:0|3:0,0:0:0:0:
288,308,287950,2,0,L|188:324,1,60.0000022888184,2|0,1:2|3:0,0:0:0:0:
240,216,288169,5,0,1:0:0:0:
240,216,288278,1,0,3:0:0:0:
240,216,288388,2,0,L|340:232,1,60.0000022888184,0|0,3:0|0:0,0:0:0:0:
404,328,288607,1,8,3:2:0:0:
404,328,288716,1,0,3:0:0:0:
404,328,288826,2,0,L|504:344,1,60.0000022888184,0|0,1:0|0:0,0:0:0:0:
248,308,289045,6,0,L|348:324,1,60.0000022888184,0|0,0:0|3:0,0:0:0:0:
104,248,289264,2,0,L|204:264,1,60.0000022888184,2|0,1:2|3:0,0:0:0:0:
8,236,289483,5,8,3:2:0:0:
20,344,289591,1,0,3:0:0:0:
0,252,289702,1,2,1:2:0:0:
28,328,289810,1,0,3:0:0:0:
12,292,289921,5,4,1:0:0:0:
187,192,290140,1,0,1:0:0:0:
187,192,290249,1,0,3:0:0:0:
187,192,290359,2,0,P|129:197|107:268,1,120.000004577637,8|0,0:0|1:0,0:0:0:0:
500,292,290797,5,0,1:0:0:0:
325,192,291016,1,2,1:2:0:0:
325,192,291125,1,0,3:0:0:0:
325,192,291235,2,0,P|383:197|405:268,1,120.000004577637,8|2,0:0|1:2,0:0:0:0:
200,324,291673,6,0,P|193:290|176:268,1,60.0000022888184,0|0,0:0|3:0,0:0:0:0:
311,323,291891,2,0,P|316:294|333:270,1,60.0000022888184,2|0,1:2|3:0,0:0:0:0:
260,64,292111,5,10,3:2:0:0:
239,35,292220,1,0,3:0:0:0:
272,46,292330,1,0,1:0:0:0:
239,57,292439,1,0,3:0:0:0:
260,29,292548,1,10,3:2:0:0:
256,184,292658,6,0,L|256:264,1,60.0000022888184,0|10,0:0|1:2,0:0:0:0:
88,304,292877,2,0,P|99:336|95:365,1,60.0000022888184,8|10,0:0|1:2,0:0:0:0:
424,304,293096,2,0,P|412:336|416:365,1,60.0000022888184,8|10,0:0|1:2,0:0:0:0:
412,156,293424,6,0,L|420:224,3,60.0000022888184,4|0|2|0,1:2|0:0|0:0|3:0,0:0:0:0:
488,132,293862,1,8,3:2:0:0:
466,96,293971,1,0,3:0:0:0:
429,77,294080,1,2,1:2:0:0:
387,79,294190,1,0,3:0:0:0:
353,102,294300,5,0,1:0:0:0:
344,132,294410,1,0,3:0:0:0:
208,216,294519,5,2,3:2:0:0:
199,186,294629,1,0,3:0:0:0:
276,108,294738,5,8,3:2:0:0:
267,138,294848,1,0,3:0:0:0:
131,222,294957,5,2,1:2:0:0:
122,192,295067,1,0,3:0:0:0:
52,144,295176,6,0,L|40:216,3,60.0000022888184,0|0|2|0,1:0|3:0|3:2|0:0,0:0:0:0:
48,68,295614,2,0,L|-8:21,3,60.0000022888184,8|0|2|0,0:0|3:0|1:2|0:0,0:0:0:0:
116,104,296052,5,0,3:0:0:0:
146,113,296162,1,0,3:0:0:0:
287,70,296271,5,2,1:2:0:0:
280,40,296381,1,0,3:0:0:0:
188,48,296490,5,8,3:2:0:0:
209,70,296600,1,0,3:0:0:0:
353,104,296709,5,2,1:2:0:0:
362,74,296819,1,0,3:0:0:0:
252,144,296928,6,0,L|236:216,3,60.0000022888184,4|0|2|0,1:0|0:0|0:0|3:0,0:0:0:0:
324,180,297366,5,8,0:0:0:0:
315,210,297476,1,0,3:0:0:0:
404,184,297585,5,2,1:2:0:0:
395,214,297693,1,0,3:0:0:0:
488,252,297804,6,0,L|504:324,3,60.0000022888184,0|0|2|0,1:0|0:0|3:2|3:0,0:0:0:0:
416,288,298242,5,8,0:0:0:0:
425,318,298350,1,0,3:0:0:0:
336,292,298461,5,2,1:2:0:0:
345,322,298569,1,0,3:0:0:0:
268,356,298680,5,0,1:0:0:0:
238,365,298788,1,0,3:0:0:0:
165,194,298899,5,2,3:2:0:0:
188,216,299007,1,0,3:0:0:0:
216,296,299118,5,8,3:2:0:0:
185,288,299226,1,0,3:0:0:0:
207,104,299337,5,2,1:2:0:0:
216,134,299445,1,0,3:0:0:0:
136,72,299556,5,0,3:0:0:0:
143,41,299664,1,0,3:0:0:0:
308,56,299775,5,2,1:2:0:0:
301,87,299883,1,0,3:0:0:0:
56,52,299994,5,10,3:2:0:0:
63,21,300102,1,0,3:0:0:0:
228,36,300213,5,2,1:2:0:0:
221,67,300321,1,0,3:0:0:0:
128,104,300432,6,0,L|136:172,3,60.0000022888184,4|0|2|0,1:0|0:0|0:0|3:0,0:0:0:0:
56,136,300870,1,8,0:0:0:0:
35,173,300979,1,0,3:0:0:0:
37,214,301088,1,2,1:2:0:0:
60,249,301198,1,0,3:0:0:0:
116,304,301307,6,0,L|124:372,3,60.0000022888184,0|0|2|0,1:0|0:0|0:0|3:0,0:0:0:0:
156,236,301746,5,0,0:0:0:0:
186,245,301854,1,0,0:0:0:0:
146,313,301964,5,2,1:2:0:0:
116,304,302074,1,0,0:0:0:0:
220,312,302184,6,0,P|236:336|236:384,3,60.0000022888184,0|0|2|0,1:0|3:0|3:2|0:0,0:0:0:0:
216,228,302621,2,0,P|244:226|286:250,3,60.0000022888184,8|0|2|0,3:2|3:0|1:2|0:0,0:0:0:0:
152,139,303059,5,0,3:0:0:0:
140,118,303169,1,0,3:0:0:0:
176,139,303278,1,2,1:2:0:0:
140,160,303388,1,0,3:0:0:0:
40,55,303497,5,8,3:2:0:0:
52,34,303607,1,0,3:0:0:0:
16,55,303716,1,2,1:2:0:0:
52,76,303826,1,0,3:0:0:0:
144,32,303934,6,0,L|216:48,3,60.0000022888184,4|0|2|0,1:0|0:0|0:0|3:0,0:0:0:0:
280,48,304372,5,8,3:2:0:0:
271,78,304482,1,0,3:0:0:0:
347,82,304591,1,2,1:2:0:0:
356,52,304701,1,0,3:0:0:0:
308,148,304811,5,0,3:0:0:0:
317,178,304921,1,0,3:0:0:0:
393,174,305030,1,2,1:2:0:0:
384,144,305140,1,0,3:0:0:0:
360,244,305249,5,8,3:2:0:0:
351,274,305359,1,0,3:0:0:0:
427,278,305468,1,2,1:2:0:0:
436,248,305578,1,0,3:0:0:0:
376,360,305687,5,2,1:2:0:0:
356,356,305797,1,0,3:0:0:0:
336,352,305906,1,2,1:2:0:0:
320,348,306016,1,0,3:0:0:0:
188,304,306125,5,10,3:2:0:0:
215,298,306235,1,0,3:0:0:0:
239,292,306344,1,2,1:2:0:0:
260,287,306454,1,0,3:0:0:0:
340,208,306563,5,2,1:2:0:0:
286,196,306673,1,0,3:0:0:0:
239,184,306782,1,10,1:2:0:0:
190,172,306892,1,8,3:2:0:0:
104,112,307001,5,10,3:2:0:0:
174,92,307110,1,8,3:2:0:0:
245,74,307220,1,10,1:2:0:0:
317,55,307330,1,8,3:2:0:0:
372,4,307439,6,0,P|340:40|356:128,1,120.000004577637,4|2,1:2|0:0,0:0:0:0:
472,252,307766,1,0,3:0:0:0:
472,252,307877,2,0,L|456:164,1,60.0000022888184,8|0,0:0|3:0,0:0:0:0:
508,36,308096,2,0,L|492:124,1,60.0000022888184,2|0,1:2|3:0,0:0:0:0:
372,4,308315,6,0,P|340:40|356:128,1,120.000004577637,0|2,1:0|0:0,0:0:0:0:
392,280,308642,1,0,3:0:0:0:
392,280,308753,2,0,L|376:192,1,60.0000022888184,8|0,0:0|3:0,0:0:0:0:
428,52,308972,2,0,L|412:140,1,60.0000022888184,2|0,1:2|3:0,0:0:0:0:
248,164,309191,5,0,1:0:0:0:
248,164,309299,1,0,3:0:0:0:
248,164,309410,2,0,L|336:180,1,60.0000022888184,2|0,3:2|0:0,0:0:0:0:
4,180,309629,1,8,0:0:0:0:
4,180,309737,1,0,3:0:0:0:
4,180,309848,2,0,L|92:196,1,60.0000022888184,2|0,1:2|0:0,0:0:0:0:
148,24,310067,5,0,3:0:0:0:
139,54,310175,1,0,3:0:0:0:
160,160,310286,1,2,1:2:0:0:
169,130,310394,1,0,3:0:0:0:
128,232,310505,5,8,3:2:0:0:
119,262,310614,1,0,3:0:0:0:
140,368,310724,1,2,1:2:0:0:
149,338,310832,1,0,3:0:0:0:
312,264,310942,6,0,P|260:228|208:240,1,120.000004577637,4|2,1:0|0:0,0:0:0:0:
272,344,311271,1,0,3:0:0:0:
272,344,311380,2,0,L|376:340,1,60.0000022888184,8|0,0:0|3:0,0:0:0:0:
428,200,311599,2,0,L|487:197,1,60.0000022888184,2|0,1:2|3:0,0:0:0:0:
412,364,311818,5,0,1:0:0:0:
487,197,312037,1,2,3:2:0:0:
500,120,312147,1,0,3:0:0:0:
487,197,312256,2,0,L|383:201,1,60.0000022888184,8|0,0:0|3:0,0:0:0:0:
324,48,312475,2,0,L|220:52,1,60.0000022888184,2|0,1:2|3:0,0:0:0:0:
184,168,312694,5,0,1:0:0:0:
191,137,312804,1,0,3:0:0:0:
356,152,312913,5,2,3:2:0:0:
349,183,313023,1,0,3:0:0:0:
108,136,313132,5,8,3:2:0:0:
115,105,313242,1,0,3:0:0:0:
280,120,313351,5,2,1:2:0:0:
273,151,313461,1,0,3:0:0:0:
240,220,313570,5,0,3:0:0:0:
228,256,313680,1,0,3:0:0:0:
240,292,313789,1,2,1:2:0:0:
304,256,313899,1,0,3:0:0:0:
368,296,314008,5,10,3:2:0:0:
380,332,314118,1,0,3:0:0:0:
368,368,314227,1,2,1:2:0:0:
304,332,314337,1,0,3:0:0:0:
240,292,314446,6,0,B|168:284|212:328|124:320,1,120.000004577637,4|2,1:0|0:0,0:0:0:0:
60,352,314775,1,0,3:0:0:0:
60,352,314884,2,0,L|-40:368,1,60.0000022888184,8|0,0:0|3:0,0:0:0:0:
60,168,315103,2,0,L|-40:184,1,60.0000022888184,2|0,1:2|3:0,0:0:0:0:
0,272,315322,6,0,B|72:280|28:236|116:244,1,120.000004577637,0|2,1:0|0:0,0:0:0:0:
176,204,315651,1,0,3:0:0:0:
176,204,315760,2,0,L|276:220,1,60.0000022888184,8|0,0:0|3:0,0:0:0:0:
135,21,315979,2,0,L|76:12,1,60.0000022888184,2|0,1:2|3:0,0:0:0:0:
212,128,316198,5,0,1:0:0:0:
212,128,316307,1,0,3:0:0:0:
212,128,316417,2,0,L|196:28,1,60.0000022888184,2|0,3:2|0:0,0:0:0:0:
316,256,316636,1,8,3:2:0:0:
316,256,316745,1,0,3:0:0:0:
316,256,316855,2,0,L|300:156,1,60.0000022888184,2|0,1:2|0:0,0:0:0:0:
412,8,317074,5,0,3:0:0:0:
443,15,317184,1,0,3:0:0:0:
332,52,317293,5,2,1:2:0:0:
301,45,317403,1,0,3:0:0:0:
412,84,317512,5,10,3:2:0:0:
443,91,317620,1,0,3:0:0:0:
332,128,317731,5,2,1:2:0:0:
301,121,317839,1,0,3:0:0:0:
256,192,317950,5,4,1:0:0:0:
245,306,318169,1,2,1:2:0:0:
245,306,318278,1,0,3:0:0:0:
245,306,318388,2,0,B|233:262|233:262|257:186,1,120.000004577637,8|0,0:0|1:0,0:0:0:0:
160,123,318826,2,0,B|204:134|204:134|257:193,1,120.000004577637,0|2,1:0|1:2,0:0:0:0:
360,142,319264,2,0,B|327:174|327:174|250:191,1,120.000004577637,8|2,0:0|1:2,0:0:0:0:
254,189,319702,5,0,1:0:0:0:
110,308,319921,1,2,1:2:0:0:
110,308,320030,1,0,3:0:0:0:
110,308,320140,2,0,B|117:263|117:263|171:204,1,120.000004577637,8|0,0:0|1:0,0:0:0:0:
228,7,320578,2,0,B|263:36|263:36|287:112,1,120.000004577637,0|2,1:0|1:2,0:0:0:0:
429,260,321015,2,0,B|386:276|386:276|308:258,1,120.000004577637,8|2,0:0|1:2,0:0:0:0:
254,189,321453,5,0,1:0:0:0:
64,156,321672,1,2,1:2:0:0:
64,156,321781,1,0,3:0:0:0:
64,156,321891,2,0,B|89:118|89:118|163:88,1,120.000004577637,8|0,0:0|1:0,0:0:0:0:
383,43,322329,2,0,B|402:84|402:84|392:163,1,120.000004577637,0|2,1:0|1:2,0:0:0:0:
320,376,322767,2,0,B|275:372|275:372|212:323,1,120.000004577637,8|2,0:0|1:2,0:0:0:0:
219,318,323096,5,0,3:0:0:0:
219,318,323205,2,0,B|278:364|278:364|324:368,1,120.000004577637,0|10,1:0|0:0,0:0:0:0:
328,360,323534,5,0,3:0:0:0:
328,360,323643,2,0,B|282:356|282:356|219:307,1,120.000004577637,0|10,1:0|0:0,0:0:0:0:
227,302,323972,5,0,3:0:0:0:
227,302,324081,2,0,B|286:348|286:348|332:352,1,120.000004577637,0|10,1:0|0:0,0:0:0:0:
336,344,324410,5,0,3:0:0:0:
336,344,324519,2,0,B|290:340|290:340|231:294,1,120.000004577637,0|10,1:0|0:0,0:0:0:0:
235,286,324848,5,0,3:0:0:0:
235,286,324957,2,0,B|294:332|294:332|340:336,1,120.000004577637,0|0,1:0|0:0,0:0:0:0:
448,176,327147,6,0,P|464:136|456:96,1,60.0000022888184,0|0,0:0|3:0,0:0:0:0:
256,16,327366,2,0,P|240:56|248:96,1,60.0000022888184,2|0,1:2|3:0,0:0:0:0:
384,104,327585,5,10,3:2:0:0:
384,26,327694,1,0,3:0:0:0:
317,65,327804,1,0,1:0:0:0:
362,65,327913,1,0,3:0:0:0:
362,65,328023,2,0,B|430:81|406:25|486:49,1,120.000004577637,10|10,3:2|1:2,0:0:0:0:
463,119,328351,5,8,0:0:0:0:
455,135,328461,1,10,1:2:0:0:
504,196,328570,1,8,0:0:0:0:
388,260,328680,1,10,1:2:0:0:
512,344,328789,1,8,0:0:0:0:
336,316,328899,6,0,L|212:328,1,120.000004577637,6|0,1:2|0:0,0:0:0:0:
328,328,329227,1,0,3:0:0:0:
328,328,329336,2,0,L|204:340,1,120.000004577637,10|0,0:0|1:0,0:0:0:0:
44,336,329774,5,0,1:0:0:0:
128,340,329993,1,2,3:2:0:0:
128,360,330103,1,2,3:2:0:0:
128,320,330212,2,0,P|152:264|116:204,1,120.000004577637,8|2,0:0|1:2,0:0:0:0:
1,61,330650,5,0,1:0:0:0:
52,160,330869,1,2,0:0:0:0:
100,10,331088,1,8,0:0:0:0:
150,109,331307,1,2,1:2:0:0:
76,84,331526,5,0,3:0:0:0:
212,56,331745,1,2,1:2:0:0:
212,56,331855,1,2,3:2:0:0:
212,56,331964,2,0,P|227:86|224:128,1,60.0000022888184,10|0,3:2|3:0,0:0:0:0:
145,269,332183,2,0,P|129:239|133:197,1,60.0000022888184,2|0,1:2|3:0,0:0:0:0:
208,192,332402,6,0,L|332:204,1,120.000004577637,4|0,1:0|0:0,0:0:0:0:
344,284,332730,1,0,3:0:0:0:
344,284,332840,2,0,L|224:272,1,120.000004577637,10|0,0:0|1:0,0:0:0:0:
288,356,333277,5,0,1:0:0:0:
436,336,333497,1,2,3:2:0:0:
432,356,333606,1,2,3:2:0:0:
476,272,333716,1,8,3:2:0:0:
495,265,333826,1,0,3:0:0:0:
400,268,333935,1,2,3:2:0:0:
384,255,334045,1,0,3:0:0:0:
420,184,334154,6,0,L|480:176,1,60.0000022888184,0|0,1:0|3:0,0:0:0:0:
316,112,334373,2,0,L|376:120,1,60.0000022888184,2|0,0:0|3:0,0:0:0:0:
208,192,334592,2,0,L|268:184,1,60.0000022888184,8|0,0:0|3:0,0:0:0:0:
84,48,334811,2,0,L|144:56,1,60.0000022888184,2|0,1:2|3:0,0:0:0:0:
28,160,335030,5,0,3:0:0:0:
11,130,335140,1,0,3:0:0:0:
61,160,335249,1,2,1:2:0:0:
11,189,335359,1,0,3:0:0:0:
120,204,335468,5,10,3:2:0:0:
142,242,335577,1,8,3:2:0:0:
151,288,335686,1,10,1:2:0:0:
140,333,335796,1,8,3:2:0:0:
92,368,335906,6,0,P|142:347|202:379,1,120.000004577637,4|0,1:0|0:0,0:0:0:0:
304,368,336234,1,0,3:0:0:0:
304,368,336344,2,0,P|260:335|258:267,1,120.000004577637,10|0,0:0|1:0,0:0:0:0:
252,116,336782,5,0,1:0:0:0:
216,196,337001,1,2,3:2:0:0:
216,196,337110,1,2,3:2:0:0:
216,196,337220,2,0,L|288:200,1,60.0000022888184,8|0,3:2|3:0,0:0:0:0:
452,260,337439,2,0,L|524:264,1,60.0000022888184,2|0,1:2|3:0,0:0:0:0:
368,332,337658,6,0,B|348:296|348:296|360:204,1,120.000004577637,2|0,1:2|0:0,0:0:0:0:
348,103,337986,1,0,3:0:0:0:
348,103,338096,2,0,B|368:139|368:139|356:231,1,120.000004577637,10|0,0:0|1:0,0:0:0:0:
276,224,338424,1,0,3:0:0:0:
276,224,338534,2,0,L|288:160,1,60.0000022888184,0|0,3:0|3:0,0:0:0:0:
444,188,338753,2,0,L|456:124,1,60.0000022888184,2|2,1:2|3:2,0:0:0:0:
420,24,338971,5,8,3:2:0:0:
437,23,339080,1,0,3:0:0:0:
455,22,339189,1,2,1:2:0:0:
473,21,339299,1,0,3:0:0:0:
488,20,339409,5,4,1:0:0:0:
464,104,339628,1,2,0:0:0:0:
376,168,339847,1,8,0:0:0:0:
256,192,340066,1,2,1:2:0:0:
256,192,340176,1,0,3:0:0:0:
256,192,340285,1,2,0:0:0:0:
112,160,340504,1,2,1:2:0:0:
24,24,340723,5,8,0:0:0:0:
67,8,340832,1,0,3:0:0:0:
102,37,340941,1,2,1:2:0:0:
95,83,341051,1,0,3:0:0:0:
24,96,341161,6,0,L|40:240,1,120.000004577637,2|8,0:0|1:2,0:0:0:0:
164,340,341490,5,8,3:2:0:0:
164,340,341599,2,0,L|180:196,1,120.000004577637,10|8,0:0|1:2,0:0:0:0:
312,56,341928,5,8,3:2:0:0:
312,56,342037,2,0,L|324:160,1,60.0000022888184,8|0,0:0|3:0,0:0:0:0:
344,268,342256,2,0,L|356:372,1,60.0000022888184,10|8,1:2|3:2,0:0:0:0:
296,196,342475,5,10,3:2:0:0:
372,188,342585,1,8,3:2:0:0:
287,211,342694,1,10,1:2:0:0:
387,201,342804,1,8,3:2:0:0:
448,256,342913,6,0,B|468:228|468:228|448:116,1,120.000004577637,6|0,1:2|0:0,0:0:0:0:
323,3,343242,1,0,3:0:0:0:
323,3,343351,2,0,B|303:31|303:31|323:143,1,120.000004577637,10|0,0:0|1:0,0:0:0:0:
224,252,343789,6,0,L|236:160,1,60.0000022888184,2|0,1:2|0:0,0:0:0:0:
152,216,344008,5,0,3:0:0:0:
228,260,344117,2,0,L|240:168,1,60.0000022888184,2|8,1:2|0:0,0:0:0:0:
152,216,344336,5,0,3:0:0:0:
232,268,344446,2,0,L|244:176,1,60.0000022888184,2|0,1:2|0:0,0:0:0:0:
152,216,344665,5,0,1:2:0:0:
0,204,344884,1,2,0:0:0:0:
76,168,345103,1,8,0:0:0:0:
76,252,345322,1,2,1:2:0:0:
76,252,345431,1,0,3:0:0:0:
76,252,345541,1,2,3:2:0:0:
32,364,345760,5,0,1:0:0:0:
96,324,345869,2,0,L|160:332,1,60.0000022888184,2|8,3:2|0:0,0:0:0:0:
32,364,346088,5,0,3:0:0:0:
104,316,346197,2,0,L|168:324,1,60.0000022888184,2|0,1:2|0:0,0:0:0:0:
268,380,346417,6,0,P|244:332|284:268,1,120.000004577637,4|0,1:0|0:0,0:0:0:0:
336,240,346745,1,0,3:0:0:0:
408,276,346855,2,0,P|434:327|410:380,1,120.000004577637,10|0,0:0|1:0,0:0:0:0:
372,168,347293,6,0,L|280:156,1,60.0000022888184,2|0,1:2|0:0,0:0:0:0:
336,240,347512,5,0,3:0:0:0:
380,164,347621,2,0,L|288:152,1,60.0000022888184,2|8,1:2|0:0,0:0:0:0:
336,240,347840,5,0,3:0:0:0:
388,160,347950,2,0,L|296:148,1,60.0000022888184,2|0,1:2|0:0,0:0:0:0:
184,96,348169,5,2,1:2:0:0:
240,36,348388,1,2,3:2:0:0:
240,36,348497,1,0,3:0:0:0:
240,36,348607,1,8,0:0:0:0:
207,174,348826,5,2,1:2:0:0:
207,174,348935,1,0,3:0:0:0:
207,174,349045,1,0,0:0:0:0:
104,76,349264,5,2,1:2:0:0:
104,76,349373,1,2,3:2:0:0:
104,76,349483,1,10,3:2:0:0:
112,112,349592,1,0,3:0:0:0:
116,148,349701,1,2,1:2:0:0:
120,184,349811,1,0,3:0:0:0:
108,256,349920,6,0,P|44:264|-4:228,1,120.000004577637,4|0,1:0|0:0,0:0:0:0:
192,256,350248,1,0,3:0:0:0:
192,256,350358,2,0,P|230:307|223:366,1,120.000004577637,10|0,0:0|1:0,0:0:0:0:
212,116,350796,6,0,L|200:208,1,60.0000022888184,2|0,1:2|0:0,0:0:0:0:
284,152,351015,5,0,3:0:0:0:
208,108,351124,2,0,L|196:200,1,60.0000022888184,2|8,1:2|0:0,0:0:0:0:
284,152,351343,5,0,3:0:0:0:
204,100,351453,2,0,L|192:192,1,60.0000022888184,2|0,1:2|0:0,0:0:0:0:
280,244,351671,5,2,1:2:0:0:
331,343,351890,1,2,0:0:0:0:
379,193,352109,1,8,0:0:0:0:
429,292,352328,1,2,1:2:0:0:
355,267,352547,5,2,3:2:0:0:
488,352,352766,5,2,1:2:0:0:
488,352,352876,1,2,3:2:0:0:
488,352,352985,2,0,P|503:322|500:280,1,60.0000022888184,8|0,3:2|3:0,0:0:0:0:
480,160,353204,2,0,P|464:190|468:232,1,60.0000022888184,2|0,1:2|3:0,0:0:0:0:
429,292,353424,6,0,L|305:280,1,120.000004577637,4|2,1:0|1:2,0:0:0:0:
160,344,353751,1,0,3:0:0:0:
160,344,353862,2,0,L|40:332,1,120.000004577637,8|2,0:0|1:2,0:0:0:0:
248,372,354300,5,2,1:2:0:0:
108,260,354519,5,0,1:0:0:0:
68,196,354628,2,0,L|76:132,1,60.0000022888184,2|8,3:2|0:0,0:0:0:0:
108,260,354847,5,0,3:0:0:0:
60,188,354956,2,0,L|68:124,1,60.0000022888184,2|0,1:2|3:0,0:0:0:0:
344,80,355176,6,0,L|336:16,1,60.0000022888184,0|0,1:0|3:0,0:0:0:0:
168,80,355395,1,2,1:2:0:0:
168,80,355504,1,0,3:0:0:0:
168,80,355614,2,0,L|176:16,1,60.0000022888184,8|0,3:2|3:2,0:0:0:0:
256,132,355833,2,0,L|256:192,1,60.0000022888184,2|0,1:2|3:0,0:0:0:0:
168,328,356052,5,10,3:2:0:0:
177,298,356162,1,8,3:2:0:0:
335,298,356271,5,10,1:2:0:0:
344,328,356381,1,8,3:2:0:0:
256,360,356490,5,10,1:2:0:0:
256,264,356599,1,8,3:2:0:0:
256,348,356708,1,10,1:2:0:0:
256,276,356818,1,8,3:2:0:0:
256,192,357366,12,4,358899,0:3:0:0:
0,196,365796,6,0,L|80:188,1,60.0000022888184,0|2,0:0|0:0,0:0:0:0:
60,191,366672,2,0,L|1:197,1,60.0000022888184,0|2,0:0|0:0,0:0:0:0:
132,216,367329,5,0,0:0:0:0:
132,216,367548,2,0,P|134:171|124:148,1,60.0000022888184,0|2,0:0|0:0,0:0:0:0:
200,120,367986,2,0,P|170:87|146:77,1,60.0000022888184,0|0,0:0|0:0,0:0:0:0:
56,24,368424,1,0,0:0:0:0:
56,24,368643,2,0,L|44:148,2,120.000004577637,2|0|2,0:0|0:0|0:0,0:0:0:0:
264,68,370175,5,0,0:0:0:0:
264,68,370394,2,0,P|304:40|376:48,1,120.000004577637,2|0,0:0|0:0,0:0:0:0:
444,72,371051,1,0,0:0:0:0:
444,72,371270,2,0,P|446:27|436:4,1,60.0000022888184,2|0,0:0|0:0,0:0:0:0:
372,45,371708,1,2,0:0:0:0:
384,124,371927,1,0,0:0:0:0:
512,120,372146,6,0,L|504:196,1,60.0000022888184,2|0,0:0|0:0,0:0:0:0:
504,196,372475,1,0,0:0:0:0:
500,212,372584,2,0,L|452:208,1,30.0000011444092,2|0,0:0|0:0,0:0:0:0:
384,224,372803,1,0,0:0:0:0:
384,224,372913,1,0,0:0:0:0:
384,224,373022,6,0,P|376:280|392:356,1,120.000004577637,2|0,0:0|0:0,0:0:0:0:
460,360,373679,1,2,0:0:0:0:
382,222,373898,2,0,P|374:278|390:354,1,120.000004577637,2|0,0:0|0:0,0:0:0:0:
460,360,374555,1,2,0:0:0:0:
380,220,374774,6,0,P|373:253|375:299,1,60.0000022888184,2|0,0:0|0:0,0:0:0:0:
256,355,375212,2,0,P|249:325|248:296,1,60.0000022888184,2|0,0:0|0:0,0:0:0:0:
148,264,375650,2,0,P|141:297|143:343,1,60.0000022888184,2|0,0:0|0:0,0:0:0:0:
62,357,376088,5,2,0:0:0:0:
58,339,376198,1,0,0:0:0:0:
56,321,376307,1,2,0:0:0:0:
56,304,376416,1,0,0:0:0:0:
80,356,378387,5,0,0:0:0:0:
75,351,378496,1,2,0:0:0:0:
80,347,378606,1,0,0:0:0:0:
84,351,378715,1,2,0:0:0:0:
77,354,378825,5,0,0:0:0:0:
77,348,378934,1,2,0:0:0:0:
83,348,379044,1,0,0:0:0:0:
83,354,379153,1,2,0:0:0:0:
75,351,379263,5,0,0:0:0:0:
80,347,379372,1,2,0:0:0:0:
84,351,379482,1,0,0:0:0:0:
79,356,379591,1,2,0:0:0:0:
68,328,379701,1,0,0:0:0:0:
56,304,379811,5,2,0:0:0:0:
8,240,380030,1,2,0:0:0:0:
64,148,380249,2,0,P|120:152|188:124,1,120.000004577637,2|2,0:0|0:0,0:0:0:0:
228,68,380905,1,2,0:0:0:0:
247,41,381124,1,0,0:0:0:0:
228,14,381343,1,2,0:0:0:0:
196,24,381562,1,0,0:0:0:0:
196,57,381781,5,2,0:0:0:0:
260,100,382000,1,0,0:0:0:0:
340,104,382219,1,2,0:0:0:0:
412,72,382438,1,0,0:0:0:0:
496,4,382657,5,2,0:0:0:0:
498,20,382766,1,0,0:0:0:0:
501,38,382875,1,0,0:0:0:0:
503,56,382985,1,0,0:0:0:0:
500,88,383095,5,2,0:0:0:0:
472,114,383204,1,0,0:0:0:0:
464,152,383313,1,2,0:0:0:0:
477,188,383423,1,0,0:0:0:0:
496,260,383533,5,4,0:3:0:0:
496,260,383971,2,0,P|508:288|508:324,1,60.0000022888184,0|2,0:0|0:0,0:0:0:0:
352,240,384409,5,2,0:0:0:0:
352,240,384847,2,0,P|380:251|405:276,1,60.0000022888184,0|2,0:0|0:0,0:0:0:0:
256,356,385285,5,2,0:0:0:0:
256,356,385723,1,2,0:0:0:0:
256,356,386161,2,0,P|284:344|336:352,1,80,2|0,0:0|0:0,0:0:0:0:
332,350,386818,1,2,0:0:0:0:
176,352,387037,5,4,0:3:0:0:
176,352,387475,2,0,P|164:324|164:288,1,60.0000022888184,0|2,0:0|0:0,0:0:0:0:
240,164,387913,2,0,P|252:192|252:228,1,60.0000022888184,2|0,0:0|0:0,0:0:0:0:
244,232,388241,1,0,0:0:0:0:
236,244,388351,2,0,L|244:320,1,60.0000022888184,0|2,0:0|0:0,0:0:0:0:
88,376,388789,6,0,L|80:300,1,60.0000022888184,2|0,0:0|0:0,0:0:0:0:
20,264,389227,1,2,0:0:0:0:
96,192,389446,1,0,0:0:0:0:
24,68,389665,6,0,L|32:160,1,80,2|0,0:0|0:0,0:0:0:0:
96,192,390322,1,2,0:0:0:0:
204,40,390541,5,4,0:3:0:0:
204,40,390979,2,0,P|192:68|192:104,1,60.0000022888184,0|2,0:0|0:0,0:0:0:0:
348,20,391417,5,2,0:0:0:0:
348,20,391855,2,0,P|319:31|294:56,1,60.0000022888184,0|2,0:0|0:0,0:0:0:0:
444,136,392293,5,2,0:0:0:0:
444,136,392731,1,2,0:0:0:0:
444,136,393169,2,0,P|416:124|364:132,1,80,2|0,0:0|0:0,0:0:0:0:
320,192,393825,1,2,0:0:0:0:
392,316,394044,6,0,B|460:312|428:356|516:344,1,120.000004577637,4|0,0:3|0:0,0:0:0:0:
392,316,394701,1,2,0:0:0:0:
280,356,394920,5,2,0:0:0:0:
262,320,395139,1,0,0:0:0:0:
297,303,395358,1,0,0:0:0:0:
315,338,395577,1,2,0:0:0:0:
280,356,395796,5,2,0:0:0:0:
244,284,396015,1,0,0:0:0:0:
314,250,396234,1,2,0:0:0:0:
350,320,396453,1,0,0:0:0:0:
196,352,396672,6,0,L|124:348,1,60.0000022888184,2|2,0:0|0:0,0:0:0:0:
4,200,397110,2,0,L|76:196,1,60.0000022888184,2|2,0:0|0:0,0:0:0:0:
196,28,397548,1,4,0:3:0:0:
