osu file format v14

[General]
AudioFilename: the song.mp3
AudioLeadIn: 0
PreviewTime: 361509
Countdown: 0
SampleSet: Soft
StackLeniency: 0.7
Mode: 0
LetterboxInBreaks: 0
EpilepsyWarning: 1
WidescreenStoryboard: 1

[Editor]
DistanceSpacing: 0.6
BeatDivisor: 16
GridSize: 4
TimelineZoom: 2.999999

[Metadata]
Title:Mad Party ~ A Magusnificent Plan
TitleUnicode:マッドパーティー ~ A Magusnificent Plan
Artist:Diao ye zong
ArtistUnicode:凋叶棕
Creator:EvilElvis
Version:Magician
Source:東方project
Tags:めらみぽっぷ meramipop RD-Sounds 魔女達の舞踏会 ~ Magus 改 ZUN Revision
BeatmapID:813446
BeatmapSetID:371245

[Difficulty]
HPDrainRate:7
CircleSize:4
OverallDifficulty:8
ApproachRate:9
SliderMultiplier:1.8
SliderTickRate:1

[Events]
//Background and Video events
0,0,"bg.jpg",0,0
//Break Periods
2,137191,140234
2,356491,360909
//Storyboard Layer 0 (Background)
//Storyboard Layer 1 (Fail)
//Storyboard Layer 2 (Pass)
//Storyboard Layer 3 (Foreground)
//Storyboard Sound Samples

[TimingPoints]
1491,500,4,2,1,40,1,0
1491,-133.333333333333,4,2,1,40,0,0
37491,-133.333333333333,4,2,1,40,0,0
56991,-76.9230769230769,4,2,1,40,0,0
57491,-100,4,2,1,40,0,0
100991,-200,4,2,1,40,0,0
101491,-100,4,2,1,40,0,0
103491,-95.2380952380952,4,2,1,40,0,0
103991,-90.9090909090909,4,2,1,40,0,0
104491,-86.9565217391304,4,2,1,40,0,0
104991,-83.3333333333333,4,2,1,40,0,0
105491,-100,4,2,1,40,0,0
113491,-133.333333333333,4,2,1,40,0,0
136991,-133.333333333333,4,2,1,50,0,1
137116,-133.333333333333,4,2,1,40,0,0
140834,500,4,2,1,40,1,0
147334,-133.333333333333,4,2,1,40,0,0
148084,-100,4,2,1,40,0,0
150857,434.782608695652,4,2,2,40,1,0
152270,-66.6666666666667,4,2,2,40,0,0
152596,-133.333333333333,4,2,2,40,0,0
153900,-66.6666666666667,4,2,2,40,0,0
154335,-66.6666666666667,4,2,2,40,0,0
164552,-50,4,2,2,40,0,0
164770,-66.6666666666667,4,2,2,40,0,0
167378,-50,4,2,2,40,0,0
168248,-66.6666666666667,4,2,2,40,0,0
174552,-50,4,2,2,40,0,0
175204,-50,4,2,2,40,0,0
175422,-66.6666666666667,4,2,2,40,0,0
185422,-50,4,2,2,40,0,0
185639,-66.6666666666667,4,2,2,40,0,0
188030,-50,4,2,2,40,0,0
189117,-66.6666666666667,4,2,2,40,0,0
195422,-50,4,2,2,40,0,0
195639,-55.5555555555556,4,2,2,40,0,0
195857,-66.6666666666667,4,2,2,40,0,0
205856,-50,4,2,2,40,0,0
206291,-66.6666666666667,4,2,2,40,0,0
209770,-100,4,2,2,40,0,0
209987,-50,4,2,2,40,0,0
210313,-66.6666666666667,4,2,2,40,0,0
215204,-50,4,2,2,40,0,0
215530,-55.5555555555556,4,2,2,40,0,0
215856,-66.6666666666667,4,2,2,40,0,0
216509,-200,4,2,2,40,0,0
216943,-55.5555555555556,4,2,2,50,0,1
223900,-50,4,2,2,50,0,1
224117,-55.5555555555556,4,2,2,50,0,1
229117,-100,4,2,2,50,0,0
229335,-66.6666666666667,4,2,2,50,0,0
229770,-50,4,2,2,50,0,0
230856,-50,4,2,2,50,0,1
231074,-55.5555555555556,4,2,2,50,0,1
237813,-50,4,2,2,50,0,1
238030,-55.5555555555556,4,2,2,50,0,1
241726,-66.6666666666667,4,2,2,50,0,1
242161,-100,4,2,2,50,0,1
242596,-133.333333333333,4,2,2,50,0,1
243900,-200,4,2,2,50,0,0
244770,-76.9230769230769,4,2,2,40,0,0
247704,-66.6666666666667,4,2,2,40,0,0
248139,-76.9230769230769,4,2,2,40,0,0
248465,-66.6666666666667,4,2,2,40,0,0
248683,-76.9230769230769,4,2,2,40,0,0
253610,-76.9230769230769,4,2,1,40,0,0
253900,-76.9230769230769,4,2,2,40,0,0
254045,-76.9230769230769,4,2,1,40,0,0
254335,-76.9230769230769,4,2,2,40,0,0
254480,-76.9230769230769,4,2,1,40,0,0
255204,-76.9230769230769,4,2,2,40,0,0
258683,-66.6666666666667,4,2,2,40,0,0
261726,-200,4,2,2,40,0,0
262161,-66.6666666666667,4,2,2,40,0,0
271943,-200,4,2,2,40,0,0
278030,-200,4,2,1,40,0,0
279770,434.782608695652,4,2,1,40,1,0
279770,-50,4,2,2,40,0,0
279987,-200,4,2,2,40,0,0
280856,-100,4,2,2,40,0,0
281074,-50,4,2,2,40,0,0
281726,-200,4,2,2,40,0,0
282596,-100,4,2,2,40,0,0
282813,-50,4,2,2,40,0,0
283248,-200,4,2,2,40,0,0
284987,-66.6666666666667,4,2,2,40,0,0
286726,-50,4,2,2,40,0,0
286943,-200,4,2,2,40,0,0
287813,-100,4,2,2,40,0,0
288030,-50,4,2,2,40,0,0
288683,-200,4,2,2,40,0,0
289552,-100,4,2,2,40,0,0
289770,-50,4,2,2,40,0,0
290204,-200,4,2,2,40,0,0
291943,-66.6666666666667,4,2,2,40,0,0
293683,-55.5555555555556,4,2,2,50,0,1
335422,-55.5555555555556,4,2,2,50,0,0
340639,-100,4,2,2,50,0,0
342378,-66.6666666666667,4,2,2,40,0,0
349117,-58.8235294117647,4,2,2,40,0,0
349770,-133.333333333333,4,2,2,40,0,0
350204,-58.8235294117647,4,2,2,40,0,0
351074,-76.9230769230769,4,2,2,40,0,0
351943,-100,4,2,2,40,0,0
355856,-100,4,2,2,10,0,0
356074,-100,4,2,2,5,0,0
361509,500,4,2,1,40,1,0
361509,-133.333333333333,4,2,1,40,0,0
385009,-133.333333333333,4,2,1,50,0,1
385134,-133.333333333333,4,2,1,50,0,0

[Colours]
Combo1 : 17,254,176
Combo2 : 173,255,95
Combo3 : 255,88,100
Combo4 : 255,94,55

[HitObjects]
37,178,1491,6,0,P|95:184|186:167,1,135.000005149842,8|0,0:3|0:0,0:0:0:0:
279,92,2491,2,0,P|299:166|288:255,1,135.000005149842,8|0,0:3|0:0,0:0:0:0:
232,342,3491,6,0,L|75:334,1,135.000005149842,8|0,0:3|0:0,0:0:0:0:
288,289,4491,2,0,L|448:283,1,135.000005149842,8|0,0:3|0:0,0:0:0:0:
486,164,5491,6,0,P|432:204|351:206,1,135.000005149842,8|0,0:3|0:0,0:0:0:0:
238,165,6491,2,0,L|72:189,1,135.000005149842,8|0,0:3|0:0,0:0:0:0:
6,50,7491,6,0,P|60:90|141:92,1,135.000005149842,8|0,0:3|0:0,0:0:0:0:
247,35,8491,2,0,L|413:59,1,135.000005149842,8|2,0:3|0:0,0:0:0:0:
436,125,9324,5,0,0:0:0:0:
436,125,9491,2,0,P|425:188|449:253,1,135.000005149842,8|0,0:3|1:0,0:0:0:0:
392,323,10324,1,2,0:0:0:0:
392,323,10491,2,0,L|288:337,1,90.0000034332277,8|0,0:3|0:0,0:0:0:0:
276,364,10991,1,0,1:0:0:0:
180,322,11324,5,0,0:0:0:0:
180,322,11491,2,0,P|171:264|182:202,1,90.0000034332277,8|0,0:3|0:0,0:0:0:0:
196,205,11991,1,0,1:0:0:0:
266,95,12324,1,2,0:0:0:0:
266,95,12491,2,0,L|158:91,1,90.0000034332277,8|2,0:3|0:0,0:0:0:0:
159,72,12991,1,0,1:0:0:0:
57,178,13324,5,2,0:0:0:0:
34,209,13491,2,0,P|89:224|185:197,1,135.000005149842,8|0,0:3|1:0,0:0:0:0:
281,153,14324,1,2,0:0:0:0:
281,153,14491,2,0,P|336:146|368:154,1,90.0000034332277,8|0,0:3|0:0,0:0:0:0:
399,138,14991,1,0,1:0:0:0:
472,256,15324,5,0,0:0:0:0:
490,229,15491,2,0,P|492:158|476:78,2,135.000005149842,8|0|8,0:3|1:0|0:3,0:0:0:0:
386,294,16824,1,2,0:0:0:0:
386,294,16991,1,0,1:0:0:0:
320,206,17324,5,2,0:0:0:0:
300,188,17491,2,0,P|246:180|161:206,1,135.000005149842,8|0,0:3|1:0,0:0:0:0:
34,141,18324,1,2,0:0:0:0:
34,141,18491,2,0,L|127:135,1,90.0000034332277,8|0,0:3|0:0,0:0:0:0:
141,96,18991,1,0,1:0:0:0:
70,217,19324,5,0,0:0:0:0:
63,249,19491,2,0,P|58:306|70:344,1,90.0000034332277,8|2,0:3|0:0,0:0:0:0:
99,357,19991,2,0,L|199:353,1,90.0000034332277,0|2,1:0|0:0,0:0:0:0:
221,331,20491,1,8,0:3:0:0:
327,278,20824,1,2,0:0:0:0:
327,278,20991,1,0,1:0:0:0:
439,333,21324,5,0,0:0:0:0:
472,317,21491,2,0,P|482:271|475:181,1,135.000005149842,8|0,0:3|1:0,0:0:0:0:
372,76,22324,1,2,0:0:0:0:
372,76,22491,2,0,L|366:180,1,90.0000034332277,0|0,1:0|0:0,0:0:0:0:
335,200,22991,2,0,P|281:205|235:189,1,90.0000034332277,0|0,1:0|0:0,0:0:0:0:
224,169,23491,5,8,0:3:0:0:
139,87,23824,1,0,0:0:0:0:
107,72,23991,2,0,L|116:181,1,90.0000034332277,0|2,1:0|0:0,0:0:0:0:
41,206,24491,2,0,P|116:218|145:286,1,135.000005149842,8|0,0:3|1:0,0:0:0:0:
253,356,25324,5,0,0:0:0:0:
253,356,25491,2,0,L|250:248,1,90.0000034332277,8|2,3:0|0:0,0:0:0:0:
326,237,25991,2,0,L|328:133,1,90.0000034332277,0|0,1:2|0:0,0:0:0:0:
399,107,26491,1,8,0:3:0:0:
254,37,26824,1,2,0:0:0:0:
254,37,26991,2,0,P|242:94|246:127,1,90.0000034332277,0|0,1:0|0:0,0:0:0:0:
219,161,27491,5,8,0:3:0:0:
119,252,27824,1,2,0:0:0:0:
119,252,27991,2,0,L|6:238,1,90.0000034332277,0|2,1:0|0:0,0:0:0:0:
170,308,28491,2,0,L|281:297,1,90.0000034332277,8|0,0:3|0:0,0:0:0:0:
287,324,28991,1,0,1:0:0:0:
412,251,29324,5,2,0:0:0:0:
412,251,29491,2,0,P|415:203|397:138,1,90.0000034332277,4|0,0:0|0:0,0:0:0:0:
343,113,29991,2,0,L|236:120,1,90.0000034332277,0|0,1:0|0:0,0:0:0:0:
186,209,30491,2,0,P|251:204|295:209,1,90.0000034332277,8|2,3:3|0:0,0:0:0:0:
300,228,30991,1,0,1:0:0:0:
176,340,31324,5,2,0:0:0:0:
176,340,31491,2,0,L|54:333,1,90.0000034332277,8|0,0:3|0:0,0:0:0:0:
253,315,31991,2,0,L|353:320,1,90.0000034332277,0|0,1:0|0:0,0:0:0:0:
449,291,32490,2,0,B|314:310|357:216|230:223,1,225.000008583069,8|0,3:0|0:0,0:0:0:0:
188,167,33491,6,0,L|183:111,2,45.0000017166138,8|0|2,3:3|0:0|0:0,0:0:0:0:
141,228,33991,1,0,1:0:0:0:
269,119,34324,1,2,0:0:0:0:
269,119,34491,2,0,P|262:64|248:17,1,90.0000034332277,8|0,0:3|0:0,0:0:0:0:
339,63,34991,2,0,L|381:58,5,22.5000008583069,0|0|2|2|2|2,1:0|0:0|0:0|0:0|0:0|0:0,0:0:0:0:
415,74,35491,6,0,P|370:100|353:159,1,90.0000034332277,8|0,3:0|0:0,0:0:0:0:
450,224,35991,2,0,P|495:198|512:139,1,90.0000034332277,0|0,1:0|0:0,0:0:0:0:
363,213,36491,2,0,L|366:249,5,22.5000008583069,8|0|0|0|2|2,0:3|0:0|0:0|0:0|0:0|0:0,0:0:0:0:
298,177,36991,2,0,L|301:144,5,22.5000008583069,0|0|2|2|2|0,1:0|0:0|0:0|0:0|0:0|0:0,0:0:0:0:
291,217,37491,6,0,P|241:249|165:257,1,135.000005149842,8|0,3:0|1:0,0:0:0:0:
27,98,38324,1,0,0:0:0:0:
27,98,38491,2,0,L|134:105,1,90.0000034332277,8|2,0:3|0:0,0:0:0:0:
256,45,38991,2,0,P|266:104|254:152,1,90.0000034332277,0|2,1:0|0:0,0:0:0:0:
174,184,39491,6,0,L|121:179,2,45.0000017166138,8|2|2,3:0|0:0|0:0,0:0:0:0:
325,212,39991,2,0,L|378:207,2,45.0000017166138,0|2|2,1:0|0:0|0:0,0:0:0:0:
245,312,40491,2,0,L|249:363,2,45.0000017166138,8|2|2,0:3|0:0|0:0,0:0:0:0:
241,237,40991,1,0,1:0:0:0:
354,85,41324,5,0,0:0:0:0:
372,63,41491,2,0,P|427:74|495:134,1,135.000005149842,8|0,3:0|1:0,0:0:0:0:
279,94,42324,1,2,0:0:0:0:
254,100,42491,2,0,L|219:108,5,22.5000008583069,8|0|0|0|2|2,0:3|0:0|0:0|0:0|0:0|0:0,0:0:0:0:
165,141,42991,2,0,L|143:135,5,22.5000008583069,0|2|2|0|2|2,1:0|0:0|0:0|0:0|0:0|0:0,0:0:0:0:
84,89,43491,6,0,P|68:129|79:180,1,90.0000034332277,8|0,3:0|0:0,0:0:0:0:
250,262,43991,2,0,P|257:218|241:176,1,90.0000034332277,0|2,1:0|0:0,0:0:0:0:
98,269,44491,2,0,L|103:299,5,22.5000008583069,8|0|2|2|2|0,0:3|0:0|0:0|0:0|0:0|0:0,0:0:0:0:
167,341,44991,2,0,L|170:318,5,22.5000008583069,0|0|2|2|2|0,1:0|0:0|0:0|0:0|0:0|0:0,0:0:0:0:
230,269,45491,6,0,P|282:278|333:268,1,90.0000034332277,8|0,3:0|0:0,0:0:0:0:
457,346,45991,2,0,L|353:344,1,90.0000034332277,0|2,1:0|0:0,0:0:0:0:
420,266,46491,2,0,P|425:232|411:168,1,90.0000034332277,8|2,0:3|0:0,0:0:0:0:
434,151,46991,1,0,1:0:0:0:
317,49,47324,5,2,0:0:0:0:
288,64,47491,2,0,L|294:113,2,45.0000017166138,8|2|2,3:0|0:0|0:0,0:0:0:0:
200,30,47991,2,0,L|194:74,2,45.0000017166138,0|2|2,1:0|0:0|0:0,0:0:0:0:
105,73,48491,2,0,L|117:122,2,45.0000017166138,8|2|2,3:0|0:0|0:0,0:0:0:0:
21,51,48991,1,0,1:0:0:0:
212,218,49324,5,0,0:0:0:0:
226,251,49491,2,0,P|180:262|121:252,1,90.0000034332277,4|2,0:0|0:0,0:0:0:0:
122,289,49991,1,0,1:0:0:0:
321,282,50324,1,2,0:0:0:0:
307,315,50491,2,0,P|353:326|412:316,1,90.0000034332277,8|2,3:0|0:0,0:0:0:0:
411,353,50991,1,0,1:0:0:0:
471,202,51324,5,2,0:0:0:0:
489,177,51491,2,0,P|482:134|479:79,1,90.0000034332277,8|2,3:0|0:0,0:0:0:0:
330,99,51991,2,0,P|361:80|424:22,1,90.0000034332277,0|2,1:0|0:0,0:0:0:0:
403,246,52491,2,0,P|367:215|327:195,1,90.0000034332277,8|2,3:0|0:0,0:0:0:0:
268,150,52991,1,0,1:0:0:0:
77,158,53324,5,0,0:0:0:0:
77,158,53491,2,0,P|71:212|80:249,1,90.0000034332277,8|2,3:0|0:0,0:0:0:0:
106,280,53991,1,0,1:0:0:0:
277,347,54324,1,2,0:0:0:0:
277,347,54491,2,0,L|371:336,1,90.0000034332277,8|2,3:0|0:0,0:0:0:0:
494,280,54991,2,0,L|399:271,1,90.0000034332277,0|2,1:0|0:0,0:0:0:0:
320,160,55491,6,0,P|367:191|448:189,2,135.000005149842,8|0|8,3:0|1:0|3:0,0:0:0:0:
186,35,56824,1,2,0:0:0:0:
186,35,56991,6,0,B|12:50,1,155.999992858887,4|0,0:0|0:0,0:0:0:0:
102,120,57491,5,4,1:0:0:0:
281,225,57824,1,8,0:0:0:0:
281,225,57991,2,0,P|286:162|274:97,1,120,0|8,1:0|0:0,0:0:0:0:
355,51,58491,1,8,1:3:0:0:
123,39,58824,1,8,0:0:0:0:
123,39,58991,2,0,P|118:102|130:167,1,120,0|8,1:0|0:0,0:0:0:0:
59,235,59491,5,8,1:3:0:0:
237,344,59824,1,8,0:0:0:0:
237,344,59991,2,0,P|307:340|366:346,1,120,0|8,1:0|0:0,0:0:0:0:
287,256,60491,1,8,1:3:0:0:
484,161,60824,1,8,0:0:0:0:
484,161,60991,2,0,P|414:157|355:163,1,120,8|8,1:3|0:0,0:0:0:0:
290,80,61491,5,8,1:3:0:0:
93,232,61824,1,8,0:0:0:0:
93,232,61991,2,0,P|157:220|230:227,1,120,0|8,1:0|0:0,0:0:0:0:
308,297,62491,1,8,1:3:0:0:
389,49,62824,1,8,0:0:0:0:
389,49,62991,2,0,P|325:37|252:44,1,120,0|8,1:0|0:0,0:0:0:0:
201,120,63491,5,8,1:3:0:0:
439,244,63824,1,8,0:0:0:0:
439,244,63991,2,0,P|439:180|430:123,1,120,0|8,1:0|0:0,0:0:0:0:
494,49,64490,1,8,1:3:0:0:
242,189,64824,1,8,0:0:0:0:
242,189,64991,2,0,P|242:253|251:310,1,120,8|8,1:3|0:0,0:0:0:0:
377,350,65490,6,0,L|446:339,2,60,8|2|8,1:3|0:0|0:0,0:0:0:0:
494,292,65991,2,0,P|436:300|373:273,1,120,0|8,1:0|0:0,0:0:0:0:
355,192,66491,1,8,1:3:0:0:
212,102,66824,1,8,0:0:0:0:
212,102,66991,2,0,L|161:109,5,30,8|0|2|2|10|2,1:3|0:0|0:0|0:0|0:0|0:0,0:0:0:0:
145,58,67491,6,0,P|160:113|152:188,1,120,8|8,1:3|0:0,0:0:0:0:
227,248,67991,1,0,1:0:0:0:
316,82,68324,1,8,0:0:0:0:
316,82,68491,2,0,L|453:72,1,120,8|8,1:3|0:0,0:0:0:0:
336,182,68991,2,0,L|378:186,5,30,8|0|2|2|8|0,1:3|0:0|0:0|0:0|0:0|0:0,0:0:0:0:
304,177,69491,6,0,P|290:236|312:308,1,120,8|8,1:3|0:0,0:0:0:0:
464,332,69991,2,0,P|477:274|463:216,1,120,0|8,1:0|0:0,0:0:0:0:
326,100,70491,2,0,L|205:112,1,120,8|8,1:3|0:0,0:0:0:0:
139,54,70991,1,8,1:3:0:0:
42,228,71324,5,10,0:0:0:0:
42,228,71491,2,0,P|37:262|56:350,1,120,8|8,1:3|0:0,0:0:0:0:
238,313,71991,2,0,P|187:319|162:319,2,60,0|2|10,1:0|0:0|0:0,0:0:0:0:
356,251,72491,2,0,P|407:257|432:257,2,60,8|2|10,1:3|0:0|0:0,0:0:0:0:
213,173,72991,2,0,L|203:42,1,120,8|8,1:3|0:0,0:0:0:0:
357,35,73491,6,0,P|308:67|290:128,1,120,4|8,1:0|0:0,0:0:0:0:
290,214,73991,1,0,1:0:0:0:
486,122,74324,1,8,0:0:0:0:
478,91,74491,2,0,L|474:55,5,30,8|0|2|2|10|2,1:3|0:0|0:0|0:0|0:0|0:0,0:0:0:0:
409,124,74991,2,0,L|405:160,5,30,8|0|2|2|10|2,1:3|0:0|0:0|0:0|0:0|0:0,0:0:0:0:
450,201,75491,6,0,L|315:174,1,120,8|8,1:3|0:0,0:0:0:0:
220,289,75991,2,0,L|355:262,1,120,0|8,1:0|0:0,0:0:0:0:
163,141,76491,2,0,L|152:99,5,30,8|0|2|2|10|2,1:3|0:0|0:0|0:0|0:0|0:0,0:0:0:0:
148,226,76991,2,0,L|129:250,5,30,8|2|2|2|10|2,1:3|0:0|0:0|0:0|0:0|0:0,0:0:0:0:
221,188,77491,6,0,L|93:171,1,120,4|8,1:2|0:0,0:0:0:0:
28,45,77991,2,0,P|14:93|30:162,1,120,0|8,1:0|0:0,0:0:0:0:
15,253,78491,1,8,1:3:0:0:
261,342,78824,1,8,0:0:0:0:
261,342,78991,2,0,L|258:216,1,120,8|8,1:3|0:0,0:0:0:0:
342,264,79491,6,0,P|390:272|468:267,1,120,4|8,1:2|0:0,0:0:0:0:
174,215,79991,2,0,P|126:223|48:218,1,120,0|8,1:0|0:0,0:0:0:0:
288,131,80491,2,0,L|291:68,2,60,8|2|10,1:3|0:0|0:0,0:0:0:0:
354,318,80991,1,8,1:3:0:0:
70,89,81324,5,2,0:0:0:0:
70,89,81491,2,0,P|125:75|206:102,1,120,4|2,1:0|0:0,0:0:0:0:
263,154,81991,1,8,1:3:0:0:
469,56,82324,1,2,0:0:0:0:
469,56,82491,2,0,L|483:183,1,120,8|2,1:3|0:0,0:0:0:0:
439,250,82991,1,8,1:3:0:0:
182,340,83324,5,2,0:0:0:0:
182,340,83491,2,0,P|172:284|186:215,1,120,8|2,1:3|0:0,0:0:0:0:
293,171,83991,2,0,L|357:165,2,60,8|2|2,1:3|0:0|0:0,0:0:0:0:
177,71,84491,2,0,P|135:73|41:58,1,120,8|2,1:3|0:0,0:0:0:0:
215,149,84991,2,0,L|213:287,1,120,8|2,1:3|0:0,0:0:0:0:
288,357,85491,5,8,1:3:0:0:
458,217,85824,1,2,0:0:0:0:
458,217,85991,2,0,L|390:211,2,60,2|2|2,0:1|0:0|0:1,0:0:0:0:
420,131,86491,2,0,P|366:138|316:194,1,120,2|2,1:1|0:1,0:0:0:0:
422,316,86991,2,0,P|363:306|322:264,1,120,2|2,0:1|0:1,0:0:0:0:
246,289,87491,5,2,1:1:0:0:
157,52,87824,1,2,0:1:0:0:
157,52,87991,2,0,L|225:40,2,60,2|2|2,0:1|0:0|0:1,0:0:0:0:
42,173,88491,2,0,P|24:131|42:47,1,120,2|2,1:0|0:0,0:0:0:0:
203,136,88991,2,0,P|215:193|195:249,1,120,2|2,1:0|0:0,0:0:0:0:
114,290,89491,5,4,1:0:0:0:
308,350,89824,1,2,0:0:0:0:
308,350,89991,2,0,L|451:336,1,120,4|8,1:3|0:0,0:0:0:0:
486,288,90491,1,8,1:3:0:0:
274,207,90824,1,2,0:0:0:0:
274,207,90991,2,0,P|255:151|269:80,1,120,8|8,1:3|0:0,0:0:0:0:
321,26,91491,5,8,1:3:0:0:
126,161,91824,1,2,0:0:0:0:
126,161,91991,2,0,L|49:154,2,60,8|2|8,1:3|0:0|0:0,0:0:0:0:
194,228,92491,2,0,P|156:234|91:296,1,120,8|2,1:3|0:0,0:0:0:0:
64,366,92991,1,8,1:3:0:0:
279,206,93324,5,2,0:0:0:0:
279,206,93491,2,0,P|283:160|262:75,1,120,4|0,1:0|0:0,0:0:0:0:
175,59,93991,2,2,B|283:79|253:31|360:42,1,180,2|0,0:1|1:0,0:1:0:0:
479,154,94824,1,2,0:1:0:0:
479,154,94991,2,0,P|441:161|359:143,1,120,2|2,0:1|0:1,0:0:0:0:
186,199,95491,6,0,L|66:212,1,120,2|0,1:0|0:0,0:0:0:0:
285,250,95991,2,0,L|405:263,1,120,2|2,0:1|0:1,0:0:0:0:
220,318,96491,1,2,1:0:0:0:
72,149,96824,1,2,0:1:0:0:
72,149,96991,2,0,P|61:95|77:23,1,120,2|0,1:1|0:0,0:0:0:0:
182,60,97491,5,4,1:0:0:0:
348,185,97824,1,8,0:0:0:0:
348,185,97991,1,0,1:0:0:0:
268,20,98324,1,8,0:0:0:0:
268,20,98491,1,8,1:3:0:0:
261,224,98824,1,8,0:0:0:0:
261,224,98991,1,8,1:3:0:0:
399,81,99324,5,8,0:0:0:0:
399,81,99491,2,0,P|441:123|453:185,1,120,8|8,1:3|0:0,0:0:0:0:
421,250,99991,1,2,1:0:0:0:
241,338,100324,6,0,L|99:328,1,120,4|2,0:0|0:0,0:0:0:0:
207,249,100824,5,10,0:0:0:0:
207,249,100991,2,0,L|272:254,1,60,4|8,1:2|0:0,0:0:0:0:
356,193,101491,6,0,P|368:134|348:63,1,120,4|2,1:0|0:1,0:0:0:0:
149,38,101991,2,0,P|136:96|148:154,1,120,2|2,0:1|0:1,0:0:0:0:
227,184,102491,1,2,1:0:0:0:
452,146,102824,1,2,0:1:0:0:
452,146,102991,2,0,L|442:280,1,120,2|2,0:1|0:1,0:0:0:0:
442,372,103491,6,0,L|312:275,1,125.999996154785,2|2,1:0|0:1,0:0:0:0:
219,226,103991,6,0,L|353:170,1,132.00000402832,2|2,1:0|0:1,0:0:0:0:
475,95,104491,6,0,L|491:239,1,138.000002632141,2|2,1:0|0:1,0:0:0:0:
257,358,104991,6,0,P|183:368|112:343,1,143.999995605469,2|2,1:0|0:1,0:0:0:0:
52,291,105491,5,4,1:0:0:0:
133,135,105824,1,8,0:0:0:0:
133,135,105991,2,0,P|201:120|268:134,1,120,4|8,1:2|0:0,0:0:0:0:
135,223,106491,2,0,P|76:202|11:205,1,120,8|8,1:3|0:0,0:0:0:0:
16,117,106991,1,8,1:3:0:0:
348,259,107324,5,8,0:0:0:0:
348,259,107491,2,0,P|355:185|340:136,1,120,8|8,1:3|0:0,0:0:0:0:
167,141,107991,2,0,P|153:199|161:258,1,120,0|8,1:0|0:0,0:0:0:0:
257,191,108491,2,0,B|237:80|286:120|263:4,1,180,8|8,1:3|1:3,0:0:0:0:
448,82,109324,5,0,0:0:0:0:
448,82,109491,2,0,P|411:131|402:193,1,120,4|2,0:0|0:0,0:0:0:0:
342,273,109991,2,0,L|461:267,1,120,8|2,1:3|0:0,0:0:0:0:
272,211,110491,2,0,L|131:225,1,120,8|2,1:3|0:0,0:0:0:0:
266,293,110991,2,0,L|270:325,5,30,8|0|2|2|2|0,1:3|0:0|0:0|0:0|0:0|0:0,0:0:0:0:
242,356,111491,5,4,0:0:0:0:
255,26,111991,5,8,0:3:0:0:
242,356,112491,5,4,1:0:0:0:
54,52,113491,6,0,P|48:122|57:193,1,135.000005149842,8|0,0:3|0:0,0:0:0:0:
113,260,114491,2,0,L|271:250,1,135.000005149842,8|0,0:3|0:0,0:0:0:0:
322,192,115491,6,0,P|403:208|475:195,1,135.000005149842,8|0,0:3|0:0,0:0:0:0:
492,287,116491,1,8,0:3:0:0:
492,287,116991,1,0,0:0:0:0:
326,318,117491,6,0,L|177:333,1,135.000005149842,8|0,0:3|0:0,0:0:0:0:
97,340,118491,1,8,0:3:0:0:
97,340,118991,1,0,0:0:0:0:
33,218,119491,6,0,P|72:235|177:222,1,135.000005149842,8|0,0:3|0:0,0:0:0:0:
273,264,120491,2,0,L|264:115,1,135.000005149842,8|2,0:3|0:0,0:0:0:0:
347,39,121324,5,0,0:0:0:0:
347,39,121491,2,0,P|337:88|339:131,1,90.0000034332277,8|2,0:3|0:0,0:0:0:0:
358,152,121991,2,0,L|463:158,1,90.0000034332277,0|0,1:0|0:0,0:0:0:0:
460,185,122491,1,8,0:3:0:0:
282,218,122824,1,2,0:0:0:0:
282,218,122991,2,0,P|275:273|280:317,1,90.0000034332277,0|0,1:0|0:0,0:0:0:0:
283,338,123491,5,8,0:3:0:0:
199,202,123824,1,2,0:0:0:0:
199,202,123991,2,0,L|72:207,1,90.0000034332277,0|0,1:0|0:0,0:0:0:0:
90,180,124491,2,0,P|79:237|108:338,1,135.000005149842,8|0,0:3|1:0,0:0:0:0:
246,348,125324,5,2,0:0:0:0:
246,348,125491,2,0,B|319:334|299:362|397:345,1,135.000005149842,8|0,0:3|1:0,0:0:0:0:
461,258,126324,1,2,0:0:0:0:
461,258,126491,2,0,P|408:267|355:260,1,90.0000034332277,8|0,0:3|0:0,0:0:0:0:
346,246,126991,1,0,1:0:0:0:
261,166,127324,5,2,0:0:0:0:
261,166,127491,2,0,P|210:166|142:182,1,90.0000034332277,8|0,0:3|0:0,0:0:0:0:
155,199,127991,2,0,P|105:205|52:194,1,90.0000034332277,0|0,1:0|0:0,0:0:0:0:
36,187,128490,1,8,0:3:0:0:
50,62,128824,1,2,0:0:0:0:
50,62,128990,1,0,1:0:0:0:
203,36,129324,5,2,0:0:0:0:
203,36,129490,2,0,P|196:96|211:198,1,135.000005149842,8|0,0:3|1:0,0:0:0:0:
301,222,130324,1,2,0:0:0:0:
301,222,130490,2,0,L|403:213,1,90.0000034332277,8|0,0:3|0:0,0:0:0:0:
417,240,130990,2,0,P|417:187|406:141,1,90.0000034332277,0|2,1:0|0:0,0:0:0:0:
435,133,131491,5,8,0:3:0:0:
337,38,131824,1,0,0:0:0:0:
337,38,131991,2,0,L|443:26,1,90.0000034332277,0|2,1:0|0:0,0:0:0:0:
451,47,132491,1,8,0:3:0:0:
292,115,132824,1,2,0:0:0:0:
292,115,132991,2,0,L|168:100,1,90.0000034332277,0|2,1:0|0:0,0:0:0:0:
140,167,133491,6,0,P|94:169|12:219,1,135.000005149842,4|0,1:0|1:0,0:0:0:0:
173,318,134324,1,2,0:0:0:0:
173,318,134491,2,0,L|273:326,1,90.0000034332277,8|2,0:3|0:0,0:0:0:0:
284,302,134991,1,0,1:0:0:0:
442,268,135324,5,2,0:0:0:0:
442,268,135491,2,0,P|455:210|445:175,1,90.0000034332277,8|0,0:3|0:0,0:0:0:0:
407,113,135991,5,4,0:2:0:0:
334,75,136157,1,2,0:0:0:0:
237,78,136324,1,2,0:0:0:0:
169,152,136491,1,8,1:3:0:0:
169,152,136991,1,4,1:0:0:0:
35,199,140834,5,2,0:0:0:0:
52,197,141334,1,0,0:0:0:0:
125,224,141834,5,2,0:0:0:0:
160,218,142334,1,0,0:0:0:0:
236,235,142834,5,2,0:0:0:0:
287,220,143334,1,0,0:0:0:0:
363,242,143834,5,2,0:0:0:0:
433,225,144334,1,0,0:0:0:0:
492,113,144834,5,2,0:0:0:0:
405,139,145334,1,0,0:0:0:0:
345,191,145834,5,2,0:0:0:0:
240,163,146334,1,0,0:0:0:0:
176,209,146834,5,4,0:0:0:0:
62,248,147334,2,0,P|48:192|63:109,1,135.000005149842,2|0,0:0|0:0,0:0:0:0:
258,47,148084,2,0,P|289:99|286:229,1,180,2|2,0:0|0:0,0:0:0:0:
140,308,148834,5,4,0:0:0:0:
256,192,148896,12,0,150584,0:0:0:0:
19,162,150857,5,0,1:0:0:0:
136,298,151074,2,0,L|130:231,1,60,2|0,0:3|0:0,0:0:0:0:
183,183,151291,1,2,0:0:0:0:
328,80,151509,6,0,L|329:150,1,60,2|0,0:3|0:0,0:0:0:0:
281,199,151726,1,2,0:0:0:0:
418,332,151943,6,0,L|427:266,1,60,2|0,0:3|0:0,0:0:0:0:
379,214,152160,1,2,0:0:0:0:
273,286,152297,6,0,L|336:292,1,50.6250019311906,8|8,1:0|1:0,0:0:0:0:
479,67,152596,6,0,P|435:66|397:82,1,67.5000025749208,4|0,1:2|0:0,0:0:0:0:
323,153,152922,2,0,P|266:153|241:146,1,67.5000025749208,4|0,1:2|0:0,0:0:0:0:
179,71,153248,2,0,L|121:68,1,33.7500012874604,4|0,1:2|0:0,0:0:0:0:
49,38,153465,5,10,1:0:0:0:
49,38,153610,1,8,1:0:0:0:
49,38,153755,1,8,1:0:0:0:
49,38,153900,6,0,P|41:85|53:128,1,67.5000025749208,4|8,1:0|0:0,0:0:0:0:
19,120,154117,1,8,0:0:0:0:
249,233,154335,6,0,L|320:241,1,67.5000025749208,4|0,1:2|0:0,0:0:0:0:
217,364,154552,2,0,L|196:295,1,67.5000025749208,8|0,0:0|0:0,0:0:0:0:
352,309,154770,2,0,L|370:147,1,135.000005149842,0|8,1:0|0:0,0:0:0:0:
502,221,155096,2,0,L|421:212,1,67.5000025749208,8|0,0:0|1:0,0:0:0:0:
294,162,155313,1,0,0:0:0:0:
270,137,155422,2,0,P|205:129|185:130,1,67.5000025749208,8|0,0:0|0:0,0:0:0:0:
40,243,155639,2,0,P|96:228|190:229,1,135.000005149842,0|8,1:0|0:0,0:0:0:0:
79,154,155965,5,0,0:0:0:0:
49,146,156074,2,0,P|33:115|18:70,1,67.5000025749208,0|0,1:0|0:0,0:0:0:0:
155,50,156291,2,0,P|107:21|80:12,1,67.5000025749208,8|0,0:0|0:0,0:0:0:0:
228,31,156509,2,0,P|171:75|157:144,1,135.000005149842,0|8,1:0|0:0,0:0:0:0:
249,176,156835,1,8,0:0:0:0:
269,198,156943,2,0,L|263:115,1,67.5000025749208,0|0,1:0|0:0,0:0:0:0:
271,267,157161,2,0,L|266:334,1,67.5000025749208,8|0,0:0|0:0,0:0:0:0:
338,231,157378,2,0,L|155:224,1,135.000005149842,0|8,1:0|0:0,0:0:0:0:
50,335,157704,5,0,0:0:0:0:
32,358,157813,2,0,P|26:334|35:271,1,67.5000025749208,0|0,1:0|0:0,0:0:0:0:
173,297,158030,2,0,P|175:330|169:363,1,67.5000025749208,8|0,0:0|0:0,0:0:0:0:
103,258,158248,2,0,L|82:107,1,135.000005149842,0|8,1:0|0:0,0:0:0:0:
166,22,158574,2,0,L|90:31,1,67.5000025749208,8|0,0:0|1:0,0:0:0:0:
186,96,158791,1,0,0:0:0:0:
215,107,158900,2,0,L|291:98,1,67.5000025749208,8|0,0:0|0:0,0:0:0:0:
414,42,159117,2,0,P|445:91|442:185,1,135.000005149842,0|8,1:0|0:0,0:0:0:0:
477,189,159443,1,8,0:0:0:0:
415,247,159552,5,4,1:2:0:0:
370,263,159661,1,0,0:0:0:0:
322,257,159770,1,8,0:0:0:0:
284,228,159878,1,0,0:0:0:0:
228,171,159987,5,0,1:0:0:0:
189,159,160096,1,0,0:0:0:0:
149,163,160204,1,8,0:0:0:0:
115,185,160313,1,0,1:0:0:0:
61,245,160422,5,10,1:0:0:0:
41,239,160530,1,10,1:0:0:0:
353,62,160748,5,8,0:0:0:0:
371,53,160857,2,0,L|458:64,1,67.5000025749208,0|8,0:0|1:0,0:0:0:0:
512,131,161074,2,0,L|425:142,1,67.5000025749208,8|0,1:0|0:0,0:0:0:0:
382,210,161291,6,0,L|237:222,1,135.000005149842,4|8,0:0|0:0,0:0:0:0:
161,299,161617,1,0,0:0:0:0:
151,326,161726,2,0,P|184:331|224:326,1,67.5000025749208,0|0,1:0|0:0,0:0:0:0:
215,126,161943,2,0,P|181:122|148:127,1,67.5000025749208,8|0,0:0|0:0,0:0:0:0:
67,60,162161,2,0,P|56:134|77:215,1,135.000005149842,0|8,1:0|0:0,0:0:0:0:
0,237,162487,2,0,P|72:226|166:233,1,135.000005149842,0|2,1:0|0:0,0:0:0:0:
226,207,162813,2,0,P|225:246|230:284,1,67.5000025749208,8|0,1:2|0:0,0:0:0:0:
292,345,163030,6,0,L|360:338,1,67.5000025749208,0|0,1:0|0:0,0:0:0:0:
445,366,163248,2,0,P|445:331|439:276,1,67.5000025749208,8|0,0:0|0:0,0:0:0:0:
493,206,163465,2,0,L|416:215,1,67.5000025749208,0|0,1:0|0:0,0:0:0:0:
343,158,163683,2,0,P|339:115|341:84,1,67.5000025749208,8|0,0:0|0:0,0:0:0:0:
219,30,163900,2,0,P|240:100|234:181,1,135.000005149842,0|8,1:0|0:0,0:0:0:0:
156,215,164226,1,8,0:0:0:0:
156,244,164335,2,0,P|202:240|252:237,1,67.5000025749208,0|0,1:0|0:0,0:0:0:0:
423,133,164552,6,0,P|425:95|416:29,1,90,4|0,0:3|0:0,0:0:0:0:
423,133,164770,6,0,P|404:191|337:233,1,135.000005149842,0|8,1:0|0:0,0:0:0:0:
300,327,165096,1,0,0:0:0:0:
283,308,165204,2,0,P|243:302|203:304,1,67.5000025749208,0|0,1:0|0:0,0:0:0:0:
130,277,165422,2,0,L|51:293,1,67.5000025749208,8|0,0:0|0:0,0:0:0:0:
38,144,165639,6,0,P|31:173|38:216,1,67.5000025749208,0|0,1:0|0:0,0:0:0:0:
223,216,165857,2,0,P|229:186|222:143,1,67.5000025749208,8|0,0:0|0:0,0:0:0:0:
273,69,166074,2,0,L|199:66,1,67.5000025749208,0|0,1:0|0:0,0:0:0:0:
119,26,166291,5,8,0:0:0:0:
100,45,166400,2,0,P|118:120|114:198,1,135.000005149842,4|0,1:2|0:0,0:0:0:0:
208,291,166726,2,0,L|276:282,1,67.5000025749208,8|0,0:0|0:0,0:0:0:0:
332,354,166943,2,0,P|319:272|345:191,1,135.000005149842,0|8,1:2|0:0,0:0:0:0:
447,158,167270,1,0,0:0:0:0:
480,132,167378,6,0,P|486:80|477:38,1,90,6|0,1:0|0:0,0:0:0:0:
464,240,167596,2,0,P|457:289|467:335,1,90,2|0,1:0|0:0,0:0:0:0:
372,174,167813,1,2,1:0:0:0:
342,144,167922,2,0,B|241:167|263:103|168:117,1,180,2|0,1:0|0:0,0:0:0:0:
61,166,168248,6,0,P|56:252|77:308,1,135.000005149842,4|8,1:2|0:0,0:0:0:0:
137,229,168574,1,0,0:0:0:0:
147,203,168683,2,0,P|181:202|230:209,1,67.5000025749208,0|0,1:0|0:0,0:0:0:0:
280,339,168900,2,0,P|266:305|258:273,1,67.5000025749208,8|0,0:0|0:0,0:0:0:0:
352,174,169117,2,0,P|302:185|277:196,1,67.5000025749208,0|0,1:0|0:0,0:0:0:0:
180,289,169335,1,8,0:0:0:0:
165,308,169443,2,0,L|9:284,1,135.000005149842,0|0,1:0|0:0,0:0:0:0:
15,191,169770,2,0,L|88:202,1,67.5000025749208,8|0,0:0|0:0,0:0:0:0:
112,52,169987,6,0,L|105:123,1,67.5000025749208,0|0,1:0|0:0,0:0:0:0:
281,46,170204,2,0,L|288:117,1,67.5000025749208,8|0,0:0|0:0,0:0:0:0:
428,101,170422,2,0,P|390:91|345:85,1,67.5000025749208,0|0,1:0|0:0,0:0:0:0:
163,183,170639,2,0,P|201:173|246:167,1,67.5000025749208,8|0,0:0|0:0,0:0:0:0:
456,218,170857,2,0,P|385:196|310:200,1,135.000005149842,0|8,1:0|0:0,0:0:0:0:
248,264,171183,1,0,0:0:0:0:
272,285,171291,2,0,P|303:274|352:271,1,67.5000025749208,0|0,1:0|0:0,0:0:0:0:
463,330,171509,2,0,P|428:297|402:282,1,67.5000025749208,8|0,0:0|0:0,0:0:0:0:
161,216,171726,6,0,L|176:352,1,135.000005149842,4|8,1:3|0:0,0:0:0:0:
241,184,172052,1,8,0:0:0:0:
259,161,172161,2,0,L|246:78,1,67.5000025749208,0|0,1:0|0:0,0:0:0:0:
167,32,172378,2,0,P|119:42|90:47,1,67.5000025749208,8|0,0:0|0:0,0:0:0:0:
7,139,172596,6,0,L|75:122,1,67.5000025749208,4|0,1:3|0:0,0:0:0:0:
233,359,172813,2,0,L|253:293,1,67.5000025749208,8|8,0:0|0:0,0:0:0:0:
112,183,173030,2,0,L|175:142,1,67.5000025749208,0|0,1:0|0:0,0:0:0:0:
188,254,173248,2,0,L|227:184,1,67.5000025749208,8|0,0:0|0:0,0:0:0:0:
48,249,173465,6,0,P|111:279|140:350,1,135.000005149842,4|8,0:0|0:0,0:0:0:0:
325,298,173791,1,0,0:0:0:0:
334,265,173900,2,0,P|263:300|236:369,1,135.000005149842,4|8,0:0|0:0,0:0:0:0:
425,311,174226,1,0,0:0:0:0:
445,297,174335,2,0,L|437:222,1,67.5000025749208,4|0,0:0|0:0,0:0:0:0:
272,45,174552,6,0,L|283:153,1,90,8|8,0:0|1:0,0:0:0:0:
477,147,174770,2,0,P|453:87|335:64,1,180,2|8,1:0|0:0,1:0:0:0:
31,267,175204,6,0,B|98:286|98:286|125:323|125:323|201:343,1,180,4|8,1:2|0:0,0:0:0:0:
291,264,175530,5,0,0:0:0:0:
316,253,175639,2,0,P|317:209|307:97,1,135.000005149842,0|8,1:0|0:0,0:0:0:0:
439,93,175965,2,0,P|413:79|373:66,1,67.5000025749208,8|0,0:0|1:0,0:0:0:0:
247,71,176183,1,0,0:0:0:0:
221,58,176291,2,0,P|264:39|298:34,1,67.5000025749208,8|0,0:0|0:0,0:0:0:0:
206,169,176509,2,0,P|146:176|49:142,1,135.000005149842,0|8,1:0|0:0,0:0:0:0:
179,251,176835,5,0,0:0:0:0:
194,272,176943,2,0,P|201:301|206:348,1,67.5000025749208,0|0,1:0|0:0,0:0:0:0:
333,225,177161,2,0,P|301:226|260:222,1,67.5000025749208,8|0,0:0|0:0,0:0:0:0:
366,155,177378,2,0,P|356:239|370:299,1,135.000005149842,0|8,1:0|0:0,0:0:0:0:
440,192,177704,1,8,0:0:0:0:
450,166,177813,2,0,P|483:165|523:168,1,67.5000025749208,0|0,0:0|1:0,0:0:0:0:
275,78,178030,2,0,P|279:111|278:145,1,67.5000025749208,8|0,0:0|0:0,0:0:0:0:
512,41,178248,2,0,P|443:44|366:39,1,135.000005149842,0|8,1:0|0:0,0:0:0:0:
163,42,178574,5,0,0:0:0:0:
190,22,178683,2,0,L|198:111,1,67.5000025749208,0|0,1:2|0:0,0:0:0:0:
88,202,178900,2,0,P|132:183|163:166,1,67.5000025749208,8|0,0:0|0:0,0:0:0:0:
311,209,179117,2,0,P|263:184|239:168,1,67.5000025749208,0|0,1:0|0:0,0:0:0:0:
31,87,179335,1,8,0:0:0:0:
6,67,179443,2,0,P|13:146|10:218,1,135.000005149842,0|0,1:0|1:0,0:0:0:0:
163,348,179770,2,0,P|163:301|165:267,1,67.5000025749208,8|0,0:0|0:0,0:0:0:0:
419,281,179987,2,0,P|346:280|290:315,1,135.000005149842,0|8,1:0|0:0,0:0:0:0:
260,300,180313,1,8,0:0:0:0:
211,228,180422,5,4,1:2:0:0:
196,197,180530,1,0,0:0:0:0:
195,163,180639,1,8,0:0:0:0:
208,131,180748,1,0,0:0:0:0:
297,80,180857,5,4,1:2:0:0:
335,106,180965,1,0,0:0:0:0:
353,149,181074,1,8,0:0:0:0:
344,195,181183,1,0,1:0:0:0:
313,286,181291,5,8,1:0:0:0:
286,280,181400,1,8,1:0:0:0:
33,42,181617,1,8,0:0:0:0:
60,36,181726,2,0,L|143:46,1,67.5000025749208,8|0,1:0|0:0,0:0:0:0:
290,99,181943,2,0,L|206:116,1,67.5000025749208,8|0,0:0|0:0,0:0:0:0:
37,299,182161,6,0,P|28:243|40:161,1,135.000005149842,4|8,1:2|0:0,0:0:0:0:
172,208,182487,1,0,0:0:0:0:
173,234,182596,2,0,L|95:244,1,67.5000025749208,0|0,1:0|0:0,0:0:0:0:
246,186,182813,2,0,L|325:196,1,67.5000025749208,8|0,0:0|0:0,0:0:0:0:
432,303,183030,2,0,P|363:324|278:304,1,135.000005149842,0|8,1:0|0:0,0:0:0:0:
298,80,183357,2,0,P|365:68|431:85,1,135.000005149842,0|0,1:0|0:0,0:0:0:0:
219,103,183683,6,0,L|228:27,1,67.5000025749208,8|0,0:0|0:0,0:0:0:0:
153,158,183900,2,0,L|69:169,1,67.5000025749208,0|0,1:0|0:0,0:0:0:0:
232,259,184117,2,0,L|218:186,1,67.5000025749208,8|0,0:0|0:0,0:0:0:0:
295,322,184335,2,0,L|376:328,1,67.5000025749208,0|0,1:0|0:0,0:0:0:0:
206,340,184552,2,0,L|134:366,1,67.5000025749208,8|0,0:0|0:0,0:0:0:0:
326,188,184770,6,0,P|327:155|338:111,1,67.5000025749208,0|0,1:0|0:0,0:0:0:0:
459,239,184987,2,0,P|427:253|365:249,1,67.5000025749208,8|8,0:0|0:0,0:0:0:0:
450,85,185204,2,0,P|472:108|490:143,1,67.5000025749208,0|0,1:0|0:0,0:0:0:0:
235,109,185422,6,0,L|240:19,1,90,4|0,0:3|0:0,0:0:0:0:
235,109,185639,6,0,P|183:162|110:169,1,135.000005149842,4|8,1:0|0:0,0:0:0:0:
15,300,185965,1,0,0:0:0:0:
12,268,186074,2,0,P|62:260|101:268,1,67.5000025749208,0|0,1:0|0:0,0:0:0:0:
220,287,186291,2,0,P|180:298|150:316,1,67.5000025749208,8|0,0:0|0:0,0:0:0:0:
306,248,186509,2,0,P|302:224|298:179,1,67.5000025749208,12|0,1:0|0:0,0:0:0:0:
395,268,186726,2,0,P|435:277|467:293,1,67.5000025749208,8|8,0:0|0:0,0:0:0:0:
211,197,186943,2,0,L|139:212,1,67.5000025749208,0|0,1:0|0:0,0:0:0:0:
365,142,187161,2,0,L|438:153,1,67.5000025749208,8|0,0:0|0:0,0:0:0:0:
498,84,187378,6,0,P|463:151|485:215,1,135.000005149842,0|8,1:0|0:0,0:0:0:0:
332,325,187704,1,0,0:0:0:0:
360,349,187813,2,0,P|373:284|339:227,1,135.000005149842,0|8,1:0|0:0,0:0:0:0:
193,87,188139,5,0,0:0:0:0:
167,73,188248,2,0,B|152:120|152:120|172:172,1,90,6|0,1:0|0:0,0:0:0:0:
341,134,188465,2,0,B|355:96|355:96|340:49,1,90,2|0,1:0|0:0,0:0:0:0:
101,22,188683,1,2,1:0:0:0:
85,42,188791,2,0,B|62:118|62:118|101:214,1,180,2|0,1:0|0:0,0:0:0:0:
283,276,189117,6,0,B|357:283|341:255|415:259,1,135.000005149842,4|8,1:2|0:0,0:0:0:0:
265,174,189443,1,0,0:0:0:0:
238,180,189552,2,0,P|214:224|214:270,1,67.5000025749208,0|0,1:0|0:0,0:0:0:0:
173,356,189770,2,0,P|159:325|157:275,1,67.5000025749208,8|0,0:0|0:0,0:0:0:0:
14,228,189987,2,0,P|86:231|151:199,1,135.000005149842,2|8,1:2|0:0,0:0:0:0:
239,83,190313,2,0,P|305:79|367:105,1,135.000005149842,2|0,1:2|0:0,0:0:0:0:
496,184,190639,2,0,L|425:201,1,67.5000025749208,8|0,1:2|0:0,0:0:0:0:
296,343,190857,6,0,P|295:302|306:262,1,67.5000025749208,4|0,1:2|0:0,0:0:0:0:
446,288,191074,2,0,P|447:321|440:354,1,67.5000025749208,8|0,0:0|0:0,0:0:0:0:
212,191,191291,2,0,L|129:206,1,67.5000025749208,0|0,1:0|0:0,0:0:0:0:
50,111,191509,2,0,P|103:117|132:129,1,67.5000025749208,8|0,0:0|0:0,0:0:0:0:
132,289,191726,2,0,P|99:297|65:299,1,67.5000025749208,0|0,1:0|0:0,0:0:0:0:
199,118,191943,2,0,L|204:46,1,67.5000025749208,8|8,0:0|0:0,0:0:0:0:
209,270,192161,2,0,L|206:361,1,67.5000025749208,0|0,1:0|0:0,0:0:0:0:
348,198,192378,6,0,P|308:190|269:195,1,67.5000025749208,8|0,0:0|0:0,0:0:0:0:
401,131,192596,2,0,P|457:191|461:256,1,135.000005149842,4|8,1:3|0:0,0:0:0:0:
286,113,192922,1,0,0:0:0:0:
271,89,193030,2,0,L|281:14,1,67.5000025749208,0|0,1:0|0:0,0:0:0:0:
164,193,193248,2,0,L|83:203,1,67.5000025749208,8|0,0:0|0:0,0:0:0:0:
346,349,193465,6,0,P|351:312|331:260,1,67.5000025749208,4|0,1:2|0:0,0:0:0:0:
178,278,193683,2,0,P|171:310|174:344,1,67.5000025749208,8|8,0:0|0:0,0:0:0:0:
261,252,193900,2,0,L|265:160,1,67.5000025749208,0|0,1:0|0:0,0:0:0:0:
195,77,194117,2,0,P|166:75|114:80,1,67.5000025749208,8|0,0:0|0:0,0:0:0:0:
3,220,194335,6,0,P|41:177|135:154,1,135.000005149842,4|8,1:2|0:0,0:0:0:0:
376,124,194661,1,0,0:0:0:0:
376,93,194770,2,0,P|336:47|244:27,1,135.000005149842,4|8,1:2|0:0,0:0:0:0:
212,202,195096,1,0,0:0:0:0:
219,238,195204,2,0,L|230:326,1,67.5000025749208,8|0,1:0|0:0,0:0:0:0:
349,231,195422,6,0,L|323:331,1,90,8|0,1:0|0:0,0:0:0:0:
97,266,195639,6,0,L|129:350,1,80.9999975280763,8|0,1:0|0:0,0:0:0:0:
453,304,195857,6,0,L|404:372,1,67.5000025749208,8|0,1:0|0:0,0:0:0:0:
376,165,196074,6,0,P|443:169|515:202,1,135.000005149842,4|8,1:0|0:0,0:0:0:0:
289,215,196400,1,0,0:0:0:0:
266,198,196509,2,0,P|252:133|259:60,1,135.000005149842,0|8,1:0|0:0,0:0:0:0:
156,109,196835,1,0,0:0:0:0:
161,78,196943,2,0,L|153:5,1,67.5000025749208,0|0,1:0|0:0,0:0:0:0:
19,157,197161,1,8,1:2:0:0:
4,191,197270,2,0,L|154:183,1,135.000005149842,0|0,1:0|0:0,0:0:0:0:
134,262,197596,2,0,L|216:267,1,67.5000025749208,8|0,0:0|0:0,0:0:0:0:
334,342,197813,6,0,P|266:358|203:346,1,135.000005149842,0|8,1:0|0:0,0:0:0:0:
216,184,198139,1,0,0:0:0:0:
243,165,198248,2,0,P|309:163|371:189,1,135.000005149842,0|8,1:0|0:0,0:0:0:0:
359,103,198574,1,0,0:0:0:0:
342,81,198683,2,0,L|346:0,1,67.5000025749208,0|0,1:0|0:0,0:0:0:0:
489,209,198900,1,8,1:2:0:0:
477,174,199009,2,0,P|416:204|384:266,1,135.000005149842,0|0,1:0|0:0,0:0:0:0:
249,329,199335,2,0,P|288:314|316:311,1,67.5000025749208,8|0,0:0|0:0,0:0:0:0:
305,218,199552,2,0,L|255:165,1,67.5000025749208,0|0,1:0|0:0,0:0:0:0:
177,38,199770,6,0,P|171:73|179:115,1,67.5000025749208,2|0,1:0|0:0,0:0:0:0:
346,118,199987,2,0,P|350:84|344:51,1,67.5000025749208,2|0,1:0|0:0,0:0:0:0:
135,175,200204,2,0,L|55:168,1,67.5000025749208,2|0,1:0|0:0,0:0:0:0:
190,238,200422,2,0,P|138:256|104:340,1,135.000005149842,2|0,1:0|0:0,0:0:0:0:
276,275,200748,2,0,P|264:196|199:153,1,135.000005149842,2|0,1:0|0:0,0:0:0:0:
208,329,201074,2,0,P|246:353|276:360,1,67.5000025749208,2|0,1:0|0:0,0:0:0:0:
397,190,201291,6,0,P|368:253|375:323,1,135.000005149842,2|0,1:0|0:0,0:0:0:0:
503,174,201617,1,0,0:0:0:0:
502,147,201726,2,0,P|499:98|461:6,1,135.000005149842,2|0,1:0|0:0,0:0:0:0:
259,67,202052,1,0,0:0:0:0:
280,80,202161,2,0,P|350:87|417:74,1,135.000005149842,2|8,1:0|0:0,0:0:0:0:
223,142,202487,2,0,L|221:230,1,67.5000025749208,10|0,1:0|0:0,0:0:0:0:
206,344,202704,1,0,0:0:0:0:
223,362,202813,2,0,L|212:272,1,67.5000025749208,4|0,0:3|0:0,0:0:0:0:
116,180,203030,6,0,P|96:247|117:324,1,135.000005149842,4|8,1:2|0:0,0:0:0:0:
313,329,203356,1,0,0:0:0:0:
331,316,203465,2,0,P|343:250|323:186,1,135.000005149842,0|8,1:0|0:0,0:0:0:0:
140,102,203791,1,0,0:0:0:0:
106,92,203900,2,0,P|157:82|190:69,1,67.5000025749208,0|0,1:0|0:0,0:0:0:0:
225,180,204117,1,8,1:2:0:0:
221,155,204226,2,0,P|214:95|223:13,1,135.000005149842,0|0,1:0|0:0,0:0:0:0:
121,186,204552,6,0,P|88:177|54:174,1,67.5000025749208,8|0,0:0|0:0,0:0:0:0:
185,257,204770,2,0,P|196:284|203:340,1,67.5000025749208,0|0,1:0|0:0,0:0:0:0:
44,307,204987,2,0,L|129:299,1,67.5000025749208,8|0,0:0|0:0,0:0:0:0:
326,248,205204,2,0,L|241:240,1,67.5000025749208,0|0,1:0|0:0,0:0:0:0:
395,356,205422,2,0,B|389:322|389:322|398:267,1,67.5000025749208,8|0,0:0|0:0,0:0:0:0:
512,290,205639,2,0,B|517:322|517:322|511:356,1,67.5000025749208,0|0,1:0|0:0,0:0:0:0:
490,157,205856,5,8,1:2:0:0:
478,182,205965,2,0,P|384:191|340:124,1,180,0|0,1:0|0:0,0:0:0:0:
257,118,206291,6,0,L|265:32,1,67.5000025749208,8|0,0:0|0:0,0:0:0:0:
159,102,206509,2,0,P|219:139|243:220,1,135.000005149842,0|2,1:0|1:0,0:0:0:0:
113,167,206835,1,0,0:0:0:0:
89,162,206943,2,0,P|55:166|1:182,1,67.5000025749208,2|0,1:0|0:0,0:0:0:0:
122,23,207161,2,0,P|155:25|188:31,1,67.5000025749208,2|0,1:0|0:0,0:0:0:0:
323,75,207378,2,0,L|330:5,1,67.5000025749208,2|0,1:0|0:0,0:0:0:0:
491,219,207596,1,0,0:0:0:0:
487,188,207704,2,0,P|419:145|353:153,1,135.000005149842,2|0,1:0|0:0,0:0:0:0:
271,201,208030,2,0,L|279:275,1,67.5000025749208,2|0,1:0|0:0,0:0:0:0:
79,320,208248,6,0,P|128:272|199:256,1,135.000005149842,2|0,1:0|0:0,0:0:0:0:
442,352,208574,1,0,0:0:0:0:
477,345,208683,2,0,P|428:297|357:281,1,135.000005149842,2|0,1:0|0:0,0:0:0:0:
200,368,209009,1,0,0:0:0:0:
207,345,209117,2,0,P|243:320|285:308,1,67.5000025749208,2|0,1:0|0:0,0:0:0:0:
255,212,209335,1,8,1:2:0:0:
247,180,209443,2,0,L|254:15,1,135.000005149842,2|8,1:0|0:0,0:0:0:0:
121,28,209770,6,0,L|43:11,1,45,8|0,1:0|0:0,0:0:0:0:
177,97,209987,6,0,P|99:114|43:210,1,180,4|8,1:2|0:0,0:0:0:0:
132,352,210313,5,0,0:0:0:0:
112,326,210422,2,0,P|110:244|148:186,1,135.000005149842,0|8,1:0|1:2,0:0:0:0:
337,251,210748,2,0,P|300:191|226:156,1,135.000005149842,0|0,1:0|0:0,0:0:0:0:
189,291,211074,2,0,L|262:248,1,67.5000025749208,8|0,0:0|0:0,0:0:0:0:
158,110,211291,2,0,L|113:35,1,67.5000025749208,0|0,1:0|0:0,0:0:0:0:
100,177,211509,5,8,1:2:0:0:
125,196,211617,2,0,P|196:186|244:130,1,135.000005149842,0|0,1:0|0:0,0:0:0:0:
352,139,211943,2,0,P|386:147|441:146,1,67.5000025749208,8|0,0:0|0:0,0:0:0:0:
486,54,212161,2,0,P|452:65|418:67,1,67.5000025749208,0|0,1:0|0:0,0:0:0:0:
323,212,212378,2,0,P|392:229|472:223,1,135.000005149842,8|0,0:0|1:0,0:0:0:0:
205,256,212704,1,0,0:0:0:0:
175,268,212813,2,0,P|169:318|172:352,1,67.5000025749208,8|0,0:0|0:0,0:0:0:0:
312,368,213030,2,0,P|312:334|306:301,1,67.5000025749208,0|0,1:0|1:0,0:0:0:0:
159,186,213248,2,0,B|123:193|123:193|70:184,1,67.5000025749208,8|0,0:0|0:0,0:0:0:0:
22,44,213465,6,0,P|81:78|153:82,1,135.000005149842,4|8,1:0|1:2,0:0:0:0:
253,31,213791,1,0,0:0:0:0:
288,31,213900,2,0,P|287:80|282:115,1,67.5000025749208,0|0,1:0|0:0,0:0:0:0:
445,147,214117,2,0,P|441:113|441:79,1,67.5000025749208,8|0,1:2|0:0,0:0:0:0:
367,208,214335,2,0,L|217:203,1,135.000005149842,0|8,1:0|0:2,0:0:0:0:
113,243,214661,1,0,1:0:0:0:
76,236,214770,2,0,P|70:276|81:315,1,67.5000025749208,0|0,1:0|0:0,0:0:0:0:
223,355,214987,2,0,P|227:315|218:271,1,67.5000025749208,8|0,1:2|0:0,0:0:0:0:
145,122,215204,6,0,P|113:171|-4:196,1,180,4|0,1:2|0:0,0:0:0:0:
239,200,215530,6,0,P|271:249|367:275,1,161.999995056153,4|0,1:2|0:0,0:0:0:0:
438,110,215856,6,0,L|428:28,1,67.5000025749208,4|0,1:2|0:0,0:0:0:0:
236,106,216074,5,4,1:3:0:0:
236,106,216509,6,0,L|305:102,1,67.5,4|0,0:0|0:0,0:0:0:0:
184,33,216943,6,0,P|153:120|198:193,1,161.999995056153,6|8,1:0|1:0,0:0:0:0:
150,326,217270,1,8,1:0:0:0:
147,297,217378,2,0,P|182:268|251:255,1,80.9999975280763,0|0,1:0|0:0,0:0:0:0:
99,211,217596,2,0,L|-3:206,1,80.9999975280763,10|0,1:0|0:0,0:0:0:0:
296,198,217813,2,0,B|379:211|370:163|456:178,1,161.999995056153,2|8,1:0|1:0,0:0:0:0:
471,348,218139,2,0,P|404:343|332:258,1,161.999995056153,10|0,1:0|0:0,0:0:0:0:
225,129,218465,6,0,L|132:140,1,80.9999975280763,10|0,1:0|0:0,0:0:0:0:
299,99,218683,2,0,B|290:65|290:65|300:12,1,80.9999975280763,0|0,1:0|0:0,0:0:0:0:
461,53,218900,2,0,B|469:98|469:98|460:132,1,80.9999975280763,10|8,1:0|1:0,0:0:0:0:
275,200,219117,2,0,L|365:212,1,80.9999975280763,2|0,1:0|0:0,0:0:0:0:
391,351,219335,2,0,P|351:309|298:293,1,80.9999975280763,10|0,1:0|0:0,0:0:0:0:
87,278,219552,2,0,P|113:220|204:177,1,161.999995056153,2|8,1:0|1:0,0:0:0:0:
233,90,219878,2,0,L|254:291,1,161.999995056153,10|0,1:0|0:0,0:0:0:0:
307,367,220204,1,4,1:3:0:0:
410,285,220313,1,4,0:3:0:0:
390,169,220422,6,0,P|323:237|335:313,1,161.999995056153,2|8,1:0|1:0,0:0:0:0:
484,300,220748,1,8,1:0:0:0:
503,266,220856,2,0,P|498:227|464:182,1,80.9999975280763,0|0,1:0|0:0,0:0:0:0:
311,111,221074,6,0,L|216:128,1,80.9999975280763,10|0,1:0|0:0,0:0:0:0:
358,40,221291,2,0,L|453:57,1,80.9999975280763,0|0,1:0|0:0,0:0:0:0:
263,204,221509,2,0,P|246:248|252:298,1,80.9999975280763,10|0,1:0|0:0,0:0:0:0:
421,351,221726,2,0,P|420:310|405:273,1,80.9999975280763,2|0,1:0|0:0,0:0:0:0:
269,360,221943,6,0,B|173:366|209:319|104:326,1,161.999995056153,10|0,1:0|1:0,0:0:0:0:
32,260,222270,1,0,0:0:0:0:
24,230,222378,2,0,B|12:194|12:194|26:130,1,80.9999975280763,10|0,1:0|1:0,0:0:0:0:
110,26,222596,2,0,B|120:69|120:69|108:105,1,80.9999975280763,2|0,1:0|0:0,0:0:0:0:
199,185,222813,2,0,L|108:199,1,80.9999975280763,8|0,1:0|0:0,0:0:0:0:
233,272,223030,2,0,P|231:190|299:135,1,161.999995056153,2|8,1:0|1:0,0:0:0:0:
324,48,223356,2,0,P|380:102|377:181,1,161.999995056153,2|0,1:0|0:0,0:0:0:0:
509,322,223683,2,0,B|468:333|468:333|402:320,1,80.9999975280763,8|8,1:0|1:0,0:0:0:0:
287,362,223900,6,0,L|88:333,1,180,4|8,1:2|1:0,0:0:0:0:
73,192,224226,5,8,1:0:0:0:
39,175,224335,2,0,P|37:220|53:267,1,80.9999975280763,0|0,1:0|0:0,0:0:0:0:
217,211,224552,2,0,P|215:170|202:132,1,80.9999975280763,10|0,1:0|0:0,0:0:0:0:
250,40,224770,2,0,L|169:50,1,80.9999975280763,0|0,1:0|0:0,0:0:0:0:
305,149,224987,2,0,P|339:66|407:42,1,161.999995056153,10|0,1:0|1:0,0:0:0:0:
485,184,225313,1,0,0:0:0:0:
464,153,225422,2,0,P|436:133|389:124,1,80.9999975280763,8|0,1:0|0:0,0:0:0:0:
279,267,225639,6,0,B|374:248|338:300|467:269,1,161.999995056153,2|8,1:0|1:0,0:0:0:0:
242,179,225965,1,8,1:0:0:0:
233,152,226074,2,0,P|227:100|236:59,1,80.9999975280763,0|0,1:0|0:0,0:0:0:0:
156,215,226291,2,0,L|55:211,1,80.9999975280763,8|0,1:0|0:0,0:0:0:0:
7,48,226509,2,0,P|63:121|143:129,1,161.999995056153,2|8,1:0|0:0,0:0:0:0:
312,50,226835,1,8,1:0:0:0:
344,27,226943,2,0,P|336:76|307:109,1,80.9999975280763,0|0,1:0|0:0,0:0:0:0:
413,192,227161,6,0,L|308:209,1,80.9999975280763,8|0,1:0|0:0,0:0:0:0:
216,344,227378,1,2,1:0:0:0:
177,327,227487,2,0,P|162:238|225:169,1,161.999995056153,4|8,1:3|1:0,0:0:0:0:
325,325,227813,2,0,L|429:332,1,80.9999975280763,0|0,1:0|0:0,0:0:0:0:
488,256,228030,5,8,1:0:0:0:
508,229,228139,2,0,P|523:140|460:71,1,161.999995056153,4|8,1:3|1:0,0:0:0:0:
354,33,228465,2,0,L|275:49,1,80.9999975280763,0|0,0:0|1:0,0:0:0:0:
187,151,228683,2,0,L|99:136,1,80.9999975280763,8|0,1:0|0:0,0:0:0:0:
28,49,228900,2,0,B|19:90|19:90|27:130,1,80.9999975280763,8|0,1:0|0:0,0:0:0:0:
236,267,229117,6,0,P|276:271|342:254,1,90,4|0,1:2|0:0,0:0:0:0:
127,306,229443,6,0,P|57:289|3:227,1,135.000005149842,4|0,1:2|0:0,0:0:0:0:
294,364,229770,6,0,P|386:353|514:235,1,270,4|0,1:2|0:0,0:0:0:0:
421,97,230204,6,0,L|323:107,1,90,8|8,1:0|0:0,0:0:0:0:
142,190,230422,1,4,0:3:0:0:
116,182,230530,1,0,1:0:0:0:
89,175,230639,2,0,L|207:153,1,90,8|8,0:0|0:0,0:0:0:0:
253,61,230856,6,0,B|225:162|302:137|271:254,1,180,6|8,1:0|1:0,0:0:0:0:
190,361,231183,5,8,1:0:0:0:
175,338,231291,2,0,B|164:299|164:299|179:248,1,80.9999975280763,0|0,1:0|0:0,0:0:0:0:
337,134,231509,1,10,1:0:0:0:
411,102,231617,1,0,0:0:0:0:
464,168,231726,2,0,B|475:206|475:206|464:245,1,80.9999975280763,0|0,1:0|0:0,0:0:0:0:
489,335,231943,2,0,L|396:327,1,80.9999975280763,10|0,1:0|0:0,0:0:0:0:
305,238,232161,2,0,L|399:252,1,80.9999975280763,0|0,1:0|0:0,0:0:0:0:
103,82,232378,6,0,P|96:126|110:176,1,80.9999975280763,14|0,1:0|0:0,0:0:0:0:
258,160,232596,2,0,P|265:120|258:80,1,80.9999975280763,0|0,1:0|0:0,0:0:0:0:
141,22,232813,2,0,L|42:31,1,80.9999975280763,8|8,1:0|1:0,0:0:0:0:
21,253,233030,6,0,B|63:262|63:262|124:245,1,80.9999975280763,2|0,1:0|0:0,0:0:0:0:
295,327,233248,2,0,L|192:319,1,80.9999975280763,8|0,1:0|0:0,0:0:0:0:
354,159,233465,2,0,P|414:217|406:307,1,161.999995056153,2|8,1:0|1:0,0:0:0:0:
244,223,233791,2,0,L|252:55,1,161.999995056153,2|0,1:0|0:0,0:0:0:0:
185,20,234117,1,4,0:3:0:0:
112,99,234226,1,4,0:3:0:0:
37,30,234335,6,0,P|15:134|60:183,1,161.999995056153,6|8,1:0|1:0,0:0:0:0:
86,288,234661,1,8,1:0:0:0:
116,306,234770,2,0,L|206:298,1,80.9999975280763,0|0,1:0|0:0,0:0:0:0:
297,363,234987,2,0,P|299:309|286:263,1,80.9999975280763,10|0,1:0|0:0,0:0:0:0:
445,245,235204,2,0,L|359:241,1,80.9999975280763,2|0,1:0|0:0,0:0:0:0:
241,209,235422,2,0,P|236:152|246:113,1,80.9999975280763,10|0,1:0|0:0,0:0:0:0:
419,50,235639,2,0,P|424:90|418:129,1,80.9999975280763,2|0,1:0|0:0,0:0:0:0:
259,35,235856,6,0,L|168:40,1,80.9999975280763,8|0,1:0|0:0,0:0:0:0:
16,79,236074,2,0,L|96:89,1,80.9999975280763,2|0,1:0|0:0,0:0:0:0:
137,175,236291,2,0,B|130:214|130:214|139:263,1,80.9999975280763,8|10,1:0|1:0,0:0:0:0:
339,310,236509,2,0,B|346:271|346:271|337:222,1,80.9999975280763,0|0,1:0|0:0,0:0:0:0:
234,295,236726,2,0,L|241:380,1,80.9999975280763,8|0,1:0|0:0,0:0:0:0:
407,170,236943,2,0,P|316:183|247:124,1,161.999995056153,2|8,1:0|1:0,0:0:0:0:
74,74,237270,2,0,P|165:87|234:28,1,161.999995056153,2|8,1:0|0:0,0:0:0:0:
314,87,237596,1,10,1:0:0:0:
399,25,237704,1,8,1:0:0:0:
505,91,237813,6,0,B|492:156|492:156|448:177|448:177|427:262,1,180,6|8,1:0|1:0,0:0:0:0:
414,345,238139,5,8,1:0:0:0:
383,362,238248,2,0,P|330:373|279:357,1,80.9999975280763,0|0,1:0|0:0,0:0:0:0:
290,185,238465,2,0,P|330:180|368:191,1,80.9999975280763,8|0,1:0|0:0,0:0:0:0:
257,275,238683,2,0,L|150:267,1,80.9999975280763,0|0,1:0|0:0,0:0:0:0:
75,362,238900,2,0,L|81:278,1,80.9999975280763,8|0,1:0|0:0,0:0:0:0:
6,181,239117,2,0,L|103:189,1,80.9999975280763,0|0,1:0|0:0,0:0:0:0:
192,114,239335,2,0,L|182:205,1,80.9999975280763,8|0,1:0|0:0,0:0:0:0:
93,64,239552,6,0,P|180:84|258:51,1,161.999995056153,4|8,1:3|1:0,0:0:0:0:
368,197,239878,1,8,1:0:0:0:
358,167,239987,2,0,P|348:127|345:76,1,80.9999975280763,0|0,1:0|0:0,0:0:0:0:
296,248,240204,2,0,P|376:229|472:257,1,161.999995056153,8|0,1:0|1:0,0:0:0:0:
199,366,240530,1,0,0:0:0:0:
155,354,240639,2,0,L|148:254,1,80.9999975280763,8|0,1:0|0:0,0:0:0:0:
73,176,240856,2,0,B|63:216|63:216|75:259,1,80.9999975280763,4|0,1:0|0:0,0:0:0:0:
221,249,241074,2,0,B|231:210|231:210|221:170,1,80.9999975280763,8|0,1:0|0:0,0:0:0:0:
369,45,241291,6,0,P|325:44|264:59,1,80.9999975280763,4|0,1:2|0:0,0:0:0:0:
380,187,241509,2,0,P|339:188|299:181,1,80.9999975280763,8|8,1:0|1:0,0:0:0:0:
461,85,241726,6,0,P|460:47|449:2,1,67.5000025749208,4|0,1:2|0:0,0:0:0:0:
499,165,241943,2,0,P|491:202|477:238,1,67.5000025749208,8|8,1:0|1:0,0:0:0:0:
433,323,242161,6,0,L|495:338,1,45,4|0,1:2|0:0,0:0:0:0:
350,268,242378,2,0,L|288:283,1,45,8|0,1:0|0:0,0:0:0:0:
214,362,242596,6,0,L|220:322,1,33.7500012874604,0|8,1:0|1:0,0:0:0:0:
215,215,242813,2,0,L|220:248,1,33.7500012874604,8|8,1:0|1:0,0:0:0:0:
139,181,243030,5,4,1:3:0:0:
155,159,243139,1,0,0:0:0:0:
176,142,243248,1,8,1:0:0:0:
201,134,243356,1,0,0:0:0:0:
234,59,243465,5,4,1:3:0:0:
274,53,243574,1,8,1:0:0:0:
313,63,243683,1,8,1:0:0:0:
345,87,243791,1,8,1:0:0:0:
487,51,243900,6,0,P|502:100|488:223,1,157.5,4|0,1:0|0:0,0:0:0:0:
405,228,244770,6,0,L|270:222,1,116.999994644165,0|2,1:0|0:3,0:0:0:0:
215,278,245096,1,2,0:0:0:0:
185,283,245204,2,0,P|122:283|49:260,1,116.999994644165,0|2,1:0|0:3,0:0:0:0:
54,134,245530,1,2,0:0:0:0:
82,123,245638,2,0,P|143:110|219:119,1,116.999994644165,0|2,1:0|0:3,0:0:0:0:
304,19,245965,2,0,L|319:158,1,116.999994644165,2|0,0:0|0:0,0:0:0:0:
274,201,246291,5,2,0:3:0:0:
311,217,246400,1,2,0:0:0:0:
352,212,246509,1,0,1:3:0:0:
386,189,246617,1,0,0:0:0:0:
423,172,246726,1,2,0:3:0:0:
462,179,246835,1,2,0:0:0:0:
489,208,246943,1,0,1:0:0:0:
494,249,247052,2,0,L|473:370,1,116.999994644165,2|2,0:0|0:3,0:0:0:0:
402,295,247378,1,0,1:0:0:0:
360,293,247487,1,0,0:3:0:0:
321,308,247596,1,2,0:3:0:0:
235,359,247704,6,0,B|117:370|155:290|34:305,1,202.500007724762,4|2,0:0|0:3,0:0:0:0:
19,217,248139,5,2,0:0:0:0:
14,186,248248,2,0,L|27:92,1,58.4999973220826,0|0,1:0|0:0,0:0:0:0:
174,212,248465,6,0,P|135:205|96:208,1,67.5000025749208,2|2,0:3|0:0,0:0:0:0:
240,153,248683,5,0,1:0:0:0:
270,178,248791,2,0,P|297:245|292:313,1,116.999994644165,2|2,0:0|0:0,0:0:0:0:
393,355,249117,1,0,1:0:0:0:
395,315,249225,2,0,P|433:253|491:217,1,116.999994644165,2|2,0:0|0:0,0:0:0:0:
490,152,249552,2,0,L|407:165,1,58.4999973220826,0|0,1:3|0:0,0:0:0:0:
363,97,249770,2,0,L|305:92,1,58.4999973220826,2|2,0:3|0:0,0:0:0:0:
216,27,249987,1,0,1:0:0:0:
224,55,250096,1,2,0:0:0:0:
222,84,250204,1,2,0:3:0:0:
210,110,250313,1,2,0:0:0:0:
185,126,250422,5,0,1:3:0:0:
151,136,250530,1,0,0:0:0:0:
121,155,250639,1,2,0:3:0:0:
106,187,250748,1,2,0:0:0:0:
43,228,250856,6,0,L|162:239,1,116.999994644165,4|2,1:3|0:3,0:0:0:0:
181,319,251183,2,0,P|232:327|324:301,1,116.999994644165,4|0,0:3|0:0,0:0:0:0:
382,284,251509,2,0,L|385:345,1,58.4999973220826,2|2,0:3|0:0,0:0:0:0:
505,228,251726,6,0,P|468:231|443:229,1,58.4999973220826,0|0,1:2|0:0,0:0:0:0:
374,184,251943,2,0,L|378:108,1,58.4999973220826,2|2,0:3|0:0,0:0:0:0:
314,49,252161,1,0,1:0:0:0:
280,59,252270,1,0,1:0:0:0:
245,53,252378,1,2,0:3:0:0:
216,32,252487,1,2,1:2:0:0:
180,29,252596,1,0,1:0:0:0:
147,41,252704,2,0,P|130:87|155:163,1,116.999994644165,0|4,1:3|0:3,0:0:0:0:
46,266,253030,1,0,1:0:0:0:
72,288,253139,2,0,P|75:246|61:191,1,58.4999973220826,4|2,0:3|0:3,0:0:0:0:
23,161,253356,1,2,0:0:0:0:
18,130,253465,6,0,P|14:94|26:30,2,77.9999964294435,4|2|2,0:0|0:0|0:0,0:0:0:0:
158,270,253900,2,0,P|162:306|150:370,2,77.9999964294435,4|2|2,1:2|0:0|0:0,0:0:0:0:
319,207,254335,2,0,L|217:202,2,77.9999964294435,0|2|2,1:3|0:0|0:0,0:0:0:0:
390,146,254770,2,0,L|484:141,2,77.9999964294435,0|2|2,1:0|0:0|0:0,0:0:0:0:
255,39,255204,6,0,P|185:56|134:46,1,116.999994644165,4|2,1:2|0:3,0:0:0:0:
60,92,255530,2,0,L|69:229,1,116.999994644165,2|0,0:0|0:0,0:0:0:0:
149,151,255856,2,0,L|232:144,1,58.4999973220826,2|2,1:3|0:0,0:0:0:0:
328,277,256074,2,0,P|330:247|322:209,1,58.4999973220826,0|0,1:0|0:0,0:0:0:0:
188,226,256291,2,0,P|183:254|185:283,1,58.4999973220826,2|2,0:3|0:0,0:0:0:0:
323,357,256509,2,0,L|410:349,1,58.4999973220826,0|0,1:0|0:0,0:0:0:0:
508,189,256726,6,0,P|446:182|384:195,1,116.999994644165,4|0,1:3|1:0,0:0:0:0:
323,117,257052,1,2,0:0:0:0:
291,132,257161,1,2,0:3:0:0:
255,134,257270,1,2,0:0:0:0:
185,91,257378,1,0,1:0:0:0:
138,84,257487,1,2,0:0:0:0:
94,102,257596,1,2,0:3:0:0:
67,140,257704,1,2,0:0:0:0:
65,186,257813,6,0,L|71:263,1,58.4999973220826,4|0,1:0|0:0,0:0:0:0:
250,212,258030,2,0,L|245:270,1,58.4999973220826,0|8,1:0|1:0,0:0:0:0:
422,203,258248,2,0,L|426:261,1,58.4999973220826,4|0,1:2|0:0,0:0:0:0:
351,148,258465,6,0,L|355:104,1,29.2499986610413,8|0,1:0|1:0,0:0:0:0:
337,147,258574,2,0,L|347:103,1,29.2499986610413,0|0,1:0|1:0,0:0:0:0:
323,144,258683,6,0,P|319:85|341:0,1,135.000005149842,4|10,1:2|0:3,0:0:0:0:
459,33,259009,1,2,0:0:0:0:
491,48,259117,2,0,P|507:113|503:180,1,135.000005149842,0|10,1:0|0:3,0:0:0:0:
443,273,259443,1,2,0:0:0:0:
421,298,259552,2,0,P|383:298|341:306,1,67.5000025749208,0|0,1:0|0:0,0:0:0:0:
286,219,259770,2,0,P|321:219|358:223,1,67.5000025749208,10|2,0:3|0:0,0:0:0:0:
246,289,259987,2,0,P|244:219|246:140,1,135.000005149842,0|10,1:2|0:3,0:0:0:0:
170,185,260313,5,2,0:0:0:0:
144,195,260422,2,0,L|70:189,1,67.5000025749208,0|0,1:0|0:0,0:0:0:0:
323,144,260639,2,0,L|397:138,1,67.5000025749208,10|2,0:3|0:0,0:0:0:0:
197,73,260856,2,0,L|37:59,1,135.000005149842,0|10,1:0|0:3,0:0:0:0:
252,23,261183,2,0,P|227:91|248:158,1,135.000005149842,0|2,1:0|0:0,0:0:0:0:
451,181,261509,2,0,P|457:141|445:85,1,67.5000025749208,10|0,1:3|0:0,0:0:0:0:
242,288,261726,6,0,L|318:282,1,67.5,4|0,1:0|0:0,0:0:0:0:
279,364,262161,6,0,P|223:320|144:314,1,135.000005149842,0|10,1:0|0:3,0:0:0:0:
59,213,262487,1,2,0:0:0:0:
30,232,262596,2,0,P|26:264|40:309,1,67.5000025749208,0|0,1:0|0:0,0:0:0:0:
144,129,262813,1,10,1:3:0:0:
174,111,262922,2,0,L|335:120,1,135.000005149842,2|0,1:2|0:0,0:0:0:0:
432,188,263248,2,0,L|327:198,1,67.5000025749208,10|2,0:3|0:0,0:0:0:0:
370,59,263465,2,0,L|437:65,1,67.5000025749208,0|0,1:0|0:0,0:0:0:0:
256,201,263683,5,10,1:3:0:0:
221,216,263791,2,0,P|208:296|234:357,1,135.000005149842,2|2,1:2|0:0,0:0:0:0:
333,323,264117,1,10,0:3:0:0:
355,308,264226,1,0,1:0:0:0:
381,304,264335,5,0,1:0:0:0:
421,306,264443,1,0,1:0:0:0:
454,328,264552,1,10,1:3:0:0:
495,255,264661,5,0,1:0:0:0:
456,227,264770,1,0,1:0:0:0:
409,221,264878,1,0,1:0:0:0:
354,221,264987,5,10,1:3:0:0:
303,241,265096,1,8,1:0:0:0:
265,279,265204,1,0,0:0:0:0:
217,209,265313,5,8,1:0:0:0:
263,169,265422,1,10,1:3:0:0:
320,151,265530,1,0,0:0:0:0:
354,73,265639,6,0,B|333:208|404:142|383:275,1,202.500007724762,2|2,1:0|0:0,0:0:0:0:
497,349,266074,1,2,1:0:0:0:
509,315,266183,2,0,P|501:231|455:187,1,135.000005149842,2|2,0:1|0:1,0:0:0:0:
294,206,266509,2,0,P|254:259|254:325,1,135.000005149842,2|2,1:0|0:3,0:0:0:0:
384,266,266835,2,0,L|369:122,1,135.000005149842,2|2,0:1|0:0,0:0:0:0:
502,86,267161,2,0,B|466:87|466:87|427:76,1,67.5000025749208,2|2,1:0|0:0,0:0:0:0:
309,49,267378,6,0,L|90:70,1,202.500007724762,2|2,1:0|0:0,0:0:0:0:
34,152,267813,2,0,L|124:146,1,67.5000025749208,2|0,1:0|0:0,0:0:0:0:
223,234,268030,2,0,P|127:218|73:238,1,135.000005149842,2|0,0:1|1:0,0:0:0:0:
126,339,268356,1,0,1:0:0:0:
152,365,268465,2,0,L|155:282,1,67.5000025749208,8|0,1:0|0:0,0:0:0:0:
260,156,268683,2,0,P|318:237|267:334,1,202.500007724762,10|0,1:0|0:0,0:0:0:0:
98,90,269117,6,0,B|216:109|182:53|303:72,1,202.500007724762,2|2,1:0|0:0,0:0:0:0:
427,16,269552,2,0,L|413:225,1,202.500007724762,2|0,1:0|0:0,0:0:0:0:
357,351,269987,1,2,1:0:0:0:
334,333,270096,2,0,P|308:248|341:197,1,135.000005149842,0|0,0:1|0:0,0:0:0:0:
226,290,270422,2,0,L|153:284,1,67.5000025749208,2|2,1:0|0:0,0:0:0:0:
36,191,270639,2,0,L|123:185,1,67.5000025749208,2|4,1:0|0:3,0:0:0:0:
125,195,270802,1,0,1:0:0:0:
145,206,270856,6,0,P|152:144|148:117,1,67.5000025749208,2|0,1:0|0:0,0:0:0:0:
221,30,271074,2,0,P|185:60|161:69,1,67.5000025749208,2|0,1:0|0:0,0:0:0:0:
250,129,271291,2,0,L|340:138,1,67.5000025749208,2|0,1:0|0:0,0:0:0:0:
412,213,271509,5,4,0:3:0:0:
507,148,271617,1,4,0:3:0:0:
442,56,271726,2,0,L|292:43,1,135.000005149842,2|8,1:0|1:0,0:0:0:0:
223,261,272052,5,0,1:0:0:0:
214,286,272161,2,0,L|301:297,1,67.5,4|0,1:3|0:0,0:0:0:0:
331,354,272596,5,0,0:0:0:0:
256,192,272650,12,0,278030,1:0:0:0:
225,197,278465,5,2,0:0:0:0:
366,295,278900,1,0,1:0:0:0:
366,295,279335,1,2,0:0:0:0:
430,256,279552,1,0,1:0:0:0:
94,160,279770,6,0,B|83:206|83:206|108:265,1,90,4|0,0:0|0:0,0:0:0:0:
65,331,279987,6,0,L|162:325,1,90
154,325,280639,1,0,0:0:0:0:
290,185,280856,6,0,L|252:188,1,22.5,0|0,1:0|1:0,0:0:0:0:
289,162,280965,2,0,L|254:171,1,22.5,0|0,1:0|1:0,0:0:0:0:
271,136,281074,6,0,B|300:244|238:205|273:334,1,180,4|0,1:0|0:0,0:0:0:0:
325,33,281509,2,0,P|338:78|375:120,1,90,4|0,1:2|0:0,0:0:0:0:
373,191,281726,6,0,P|415:188|463:198,1,90
461,197,282378,1,0,0:0:0:0:
212,107,282596,6,0,L|216:75,1,22.5,0|0,1:0|1:0,0:0:0:0:
192,104,282704,2,0,L|189:63,1,22.5,0|0,1:0|1:0,0:0:0:0:
173,113,282813,6,0,P|123:113|37:208,1,180,4|0,1:0|0:0,0:0:0:0:
328,328,283248,6,0,L|403:321,2,67.5,4|0|0,1:2|0:0|0:0,0:0:0:0:
199,273,284117,2,0,L|124:266,2,67.5,4|0|0,0:0|0:0|0:0,0:0:0:0:
345,219,284987,6,0,P|351:187|325:83,1,135.000005149842,4|2,1:0|0:3,0:0:0:0:
208,46,285313,1,2,0:0:0:0:
177,53,285422,2,0,P|155:116|160:183,1,135.000005149842,4|2,0:0|0:3,0:0:0:0:
85,276,285748,1,0,1:0:0:0:
114,300,285856,2,0,B|260:290,1,135.000005149842,4|0,1:0|0:0,0:0:0:0:
321,337,286183,2,0,P|356:331|406:330,1,67.5000025749208
461,287,286400,1,8,1:0:0:0:
490,271,286509,1,8,1:0:0:0:
137,172,286726,6,0,B|94:180|94:180|34:169,1,90,4|0,1:2|0:0,0:0:0:0:
217,227,286943,6,0,P|214:187|222:135,1,90
221,137,287596,1,0,0:0:0:0:
435,37,287813,6,0,L|394:34,1,22.5,0|0,1:0|1:0,0:0:0:0:
443,73,287922,2,0,L|481:77,1,22.5,0|0,1:0|1:0,0:0:0:0:
431,104,288030,6,0,B|332:119|356:54|249:68,1,180,4|0,1:0|0:0,0:0:0:0:
51,315,288465,2,0,P|100:322|144:312,1,90,4|0,1:2|0:0,0:0:0:0:
220,262,288683,6,0,P|260:258|316:271,1,90
308,267,289335,1,0,0:0:0:0:
106,86,289552,6,0,L|100:46,1,22.5,0|0,1:0|1:0,0:0:0:0:
82,88,289661,2,0,L|80:51,1,22.5,0|0,1:0|1:0,0:0:0:0:
54,102,289770,6,0,L|236:89,1,180,4|0,1:0|0:0,0:0:0:0:
438,238,290204,6,0,P|441:273|437:314,2,67.5,4|0|0,1:2|0:0|0:0,0:0:0:0:
393,142,291074,2,0,P|390:107|394:66,2,67.5,4|0|0,1:2|0:0|0:0,0:0:0:0:
314,331,291943,6,0,P|247:349|166:329,1,135.000005149842,4|2,0:0|0:3,0:0:0:0:
163,191,292270,1,2,0:0:0:0:
178,157,292378,2,0,P|243:147|309:168,1,135.000005149842,4|2,1:0|0:3,0:0:0:0:
225,253,292704,1,0,1:0:0:0:
182,264,292813,2,0,L|45:249,1,135.000005149842,4|0,1:0|0:0,0:0:0:0:
17,162,293139,2,0,L|88:168,1,67.5000025749208,0|0,0:0|1:0,0:0:0:0:
127,97,293356,1,8,1:0:0:0:
150,67,293465,1,8,1:0:0:0:
453,260,293683,6,0,P|461:292|448:360,1,80.9999975280763,4|0,1:0|0:0,0:0:0:0:
279,347,293900,2,0,P|271:315|276:263,1,80.9999975280763,8|8,1:0|1:0,0:0:0:0:
325,201,294117,2,0,P|258:248|171:242,1,161.999995056153,0|8,1:0|1:0,0:0:0:0:
243,139,294443,1,2,0:0:0:0:
249,109,294552,2,0,L|236:18,1,80.9999975280763,0|0,1:0|0:0,0:0:0:0:
431,85,294770,2,0,B|397:92|397:92|322:80,1,80.9999975280763,8|2,1:0|0:0,0:0:0:0:
498,160,294987,2,0,P|426:182|391:275,1,161.999995056153,0|8,1:0|1:0,0:0:0:0:
279,308,295313,5,2,0:0:0:0:
303,337,295422,2,0,L|412:327,1,80.9999975280763
215,262,295639,2,0,L|113:250,1,80.9999975280763,8|8,1:0|1:0,0:0:0:0:
163,168,295856,2,0,P|107:236|11:240,1,161.999995056153,0|8,1:0|1:0,0:0:0:0:
134,41,296183,1,2,0:0:0:0:
174,12,296291,2,0,P|185:50|182:110,1,80.9999975280763,0|0,1:0|0:0,0:0:0:0:
90,121,296509,2,0,P|54:124|-14:148,1,80.9999975280763,8|2,1:0|0:0,0:0:0:0:
251,155,296726,2,0,P|310:187|360:283,1,161.999995056153,0|8,1:0|1:0,0:0:0:0:
201,360,297052,5,2,0:0:0:0:
177,333,297161,2,0,L|243:264,1,80.9999975280763,4|0,1:2|0:0,0:0:0:0:
149,174,297378,2,0,P|146:209|157:258,1,80.9999975280763,8|8,1:0|1:0,0:0:0:0:
354,344,297596,2,0,P|301:354|266:355,1,80.9999975280763,0|0,1:0|0:0,0:0:0:0:
403,271,297813,6,0,P|432:278|483:282,1,80.9999975280763,8|2,1:0|0:0,0:0:0:0:
339,206,298030,2,0,P|336:180|334:115,1,80.9999975280763,4|0,1:2|0:0,0:0:0:0:
263,35,298248,1,8,0:0:0:0:
226,26,298356,2,0,P|205:90|243:178,1,161.999995056153,6|0,1:2|0:0,0:0:0:0:
408,85,298683,2,0,P|408:57|415:0,1,80.9999975280763,8|2,1:0|0:0,0:0:0:0:
501,195,298900,6,0,B|407:205,1,80.9999975280763,4|0,1:3|0:0,0:0:0:0:
250,322,299117,2,0,B|335:331,1,80.9999975280763,8|2,1:0|0:0,0:0:0:0:
265,237,299335,2,0,P|269:206|258:131,1,80.9999975280763,4|0,1:2|0:0,0:0:0:0:
129,75,299552,1,8,1:0:0:0:
100,98,299661,2,0,P|90:182|115:266,1,161.999995056153,6|0,1:2|0:0,0:0:0:0:
269,86,299987,2,0,L|352:74,1,80.9999975280763,8|2,1:0|0:0,0:0:0:0:
493,163,300204,1,2,1:0:0:0:
449,180,300313,1,2,1:0:0:0:
409,187,300422,1,10,1:0:0:0:
375,182,300530,1,2,0:0:0:0:
335,170,300639,6,0,P|287:161|231:174,1,80.9999975280763,4|0,1:2|0:0,0:0:0:0:
282,341,300856,2,0,P|315:341|367:333,1,80.9999975280763,8|8,1:0|1:0,0:0:0:0:
248,253,301074,2,0,L|84:263,1,161.999995056153,0|8,1:0|1:0,0:0:0:0:
7,202,301400,1,2,0:0:0:0:
27,182,301509,2,0,P|62:179|116:191,1,80.9999975280763,0|0,1:0|0:0,0:0:0:0:
34,342,301726,2,0,P|67:345|117:335,1,80.9999975280763,8|2,1:0|0:0,0:0:0:0:
248,253,301943,2,0,B|229:170|270:200|246:79,1,161.999995056153,0|8,1:0|1:0,0:0:0:0:
383,52,302270,5,2,0:0:0:0:
405,77,302378,2,0,B|365:87|365:87|316:77,1,80.9999975280763,4|0,1:2|0:0,0:0:0:0:
89,102,302596,2,0,B|127:111|127:111|178:101,1,80.9999975280763,8|8,1:0|1:0,0:0:0:0:
14,155,302813,2,0,P|88:193|103:278,1,161.999995056153,0|8,1:0|0:0,0:0:0:0:
227,334,303139,1,2,0:0:0:0:
256,354,303248,2,0,L|156:361,1,80.9999975280763,0|0,1:2|0:0,0:0:0:0:
331,317,303465,2,0,P|363:317|418:304,1,80.9999975280763,8|2,1:0|0:0,0:0:0:0:
492,169,303683,2,0,P|442:218|344:231,1,161.999995056153,0|8,1:2|1:0,0:0:0:0:
254,72,304009,5,2,0:0:0:0:
226,44,304117,2,0,P|218:97|237:149,1,80.9999975280763,4|0,1:2|0:0,0:0:0:0:
390,147,304335,2,0,P|396:107|387:67,1,80.9999975280763,8|8,1:0|2:0,0:0:0:0:
161,188,304552,2,0,L|65:198,1,80.9999975280763,0|0,1:0|0:0,0:0:0:0:
220,336,304770,2,0,B|228:294|228:294|206:229,1,80.9999975280763,8|2,1:0|0:0,0:0:0:0:
49,265,304987,2,0,B|35:304|35:304|50:342,1,80.9999975280763,4|0,1:2|0:0,0:0:0:0:
276,197,305204,1,8,1:0:0:0:
301,169,305313,2,0,L|286:6,1,161.999995056153,6|0,1:0|0:0,0:0:0:0:
134,91,305639,2,0,P|175:91|225:80,1,80.9999975280763,8|2,0:0|0:0,0:0:0:0:
452,124,305856,6,0,L|432:214,1,80.9999975280763,14|0,1:0|0:0,0:0:0:0:
288,284,306074,2,0,P|334:257|365:250,1,80.9999975280763,10|2,1:0|0:0,0:0:0:0:
512,352,306291,2,0,P|497:312|469:274,1,80.9999975280763,10|0,1:0|0:0,0:0:0:0:
322,176,306509,6,0,P|279:168|228:152,1,80.9999975280763,10|2,0:0|0:0,0:0:0:0:
136,26,306726,2,0,P|148:68|165:107,1,80.9999975280763,4|0,1:2|0:0,0:0:0:0:
75,238,306943,2,0,P|102:222|151:178,1,80.9999975280763,10|2,1:0|0:0,0:0:0:0:
339,291,307161,5,4,1:3:0:0:
263,339,307270,1,2,0:0:0:0:
194,271,307378,1,8,1:0:0:0:
271,237,307487,1,8,1:0:0:0:
339,291,307596,6,0,B|435:276|400:319|510:300,1,161.999995056153,4|8,1:0|1:0,0:0:0:0:
377,215,307922,2,0,P|370:142|381:38,1,161.999995056153,8|0,1:0|0:0,0:0:0:0:
285,92,308248,2,0,L|279:4,1,80.9999975280763,8|2,1:0|0:0,0:0:0:0:
235,183,308465,2,0,P|197:143|81:124,1,161.999995056153,4|8,1:2|1:0,0:0:0:0:
137,207,308791,2,0,P|79:227|19:334,1,161.999995056153,0|0,1:0|0:0,0:0:0:0:
127,302,309117,2,0,P|167:302|205:315,1,80.9999975280763,8|0,0:0|0:0,0:0:0:0:
417,219,309335,6,0,P|332:237|277:307,1,161.999995056153,4|8,1:2|0:0,0:0:0:0:
385,129,309661,1,8,1:0:0:0:
418,136,309770,2,0,L|497:149,1,80.9999975280763,0|0,1:0|0:0,0:0:0:0:
345,23,309987,5,8,1:0:0:0:
289,129,310096,1,2,0:0:0:0:
189,24,310204,2,0,P|185:57|192:109,1,80.9999975280763,2|0,1:0|0:0,0:0:0:0:
346,236,310422,2,0,L|231:242,1,80.9999975280763,10|0,1:0|0:0,0:0:0:0:
179,334,310639,2,0,B|169:293|169:293|181:239,1,80.9999975280763,2|0,1:0|0:0,0:0:0:0:
130,193,310856,2,0,L|43:203,1,80.9999975280763,8|2,0:0|0:0,0:0:0:0:
78,57,311074,6,0,P|170:91|197:164,1,161.999995056153,4|8,1:2|1:0,0:0:0:0:
354,107,311400,2,0,P|268:180|257:238,1,161.999995056153,8|0,1:0|0:0,0:0:0:0:
249,84,311726,2,0,L|257:3,1,80.9999975280763,8|0,1:0|0:0,0:0:0:0:
453,121,311943,2,0,P|398:35|319:26,1,161.999995056153,4|8,1:2|1:0,0:0:0:0:
54,151,312270,2,0,P|99:82|174:53,1,161.999995056153,0|0,1:0|0:0,0:0:0:0:
395,188,312596,6,0,P|345:176|292:176,1,80.9999975280763,10|0,1:0|0:0,0:0:0:0:
130,234,312813,2,0,P|180:222|233:222,1,80.9999975280763,4|0,1:2|0:0,0:0:0:0:
461,275,313030,6,0,P|411:263|358:263,1,80.9999975280763,10|8,1:0|1:0,0:0:0:0:
25,169,313247,2,0,P|55:161|128:157,1,80.9999975280763,4|0,1:2|0:0,0:0:0:0:
495,119,313465,2,0,P|465:111|392:107,1,80.9999975280763,10|0,1:0|0:0,0:0:0:0:
169,22,313683,6,0,P|160:66|166:118,1,80.9999975280763,4|0,1:2|0:0,0:0:0:0:
327,130,313900,1,8,1:0:0:0:
342,108,314009,2,0,P|343:67|335:28,1,80.9999975280763,2|0,1:0|1:0,0:0:0:0:
225,179,314226,1,0,1:0:0:0:
245,214,314335,1,8,1:0:0:0:
224,248,314443,1,8,1:2:0:0:
251,278,314552,6,0,L|255:95,1,161.999995056153,4|8,1:0|1:0,0:0:0:0:
180,336,314878,2,0,P|259:358|347:321,1,161.999995056153,8|0,1:0|0:0,0:0:0:0:
132,229,315204,2,0,L|17:237,1,80.9999975280763,8|0,1:0|0:0,0:0:0:0:
73,34,315422,2,0,P|90:113|174:151,1,161.999995056153,4|8,1:2|1:0,0:0:0:0:
320,238,315748,2,0,B|418:250|389:215|478:219,1,161.999995056153,0|0,1:0|0:0,0:0:0:0:
295,158,316074,2,0,L|286:67,1,80.9999975280763,8|0,1:0|0:0,0:0:0:0:
362,19,316291,6,0,P|274:48|212:14,1,161.999995056153,6|8,1:0|1:0,0:0:0:0:
391,116,316617,1,8,1:0:0:0:
426,133,316726,2,0,L|512:133,1,80.9999975280763,0|0,1:0|0:0,0:0:0:0:
375,200,316943,5,8,1:0:0:0:
334,287,317052,1,2,0:0:0:0:
408,347,317161,2,0,P|454:351|494:338,1,80.9999975280763,2|0,1:0|0:0,0:0:0:0:
277,219,317378,2,0,P|237:208|197:213,1,80.9999975280763,8|0,1:0|0:0,0:0:0:0:
237,52,317596,2,0,B|229:91|229:91|237:140,1,80.9999975280763,2|0,1:0|0:0,0:0:0:0:
241,367,317813,2,0,B|233:328|233:328|241:279,1,80.9999975280763,8|0,1:0|0:0,0:0:0:0:
63,144,318030,6,0,P|114:209|108:298,1,161.999995056153,4|8,1:2|1:0,0:0:0:0:
415,188,318356,2,0,P|364:253|370:342,1,161.999995056153,8|0,1:0|0:0,0:0:0:0:
200,184,318683,2,0,L|190:91,1,80.9999975280763,8|0,1:0|0:0,0:0:0:0:
276,235,318900,2,0,L|300:46,1,161.999995056153,4|8,1:2|1:0,0:0:0:0:
512,60,319226,2,0,P|455:107|365:113,1,161.999995056153,0|0,1:0|0:0,0:0:0:0:
133,144,319552,6,0,L|31:122,1,80.9999975280763,8|0,1:0|0:0,0:0:0:0:
223,246,319770,2,0,L|245:337,1,80.9999975280763,4|0,1:2|0:0,0:0:0:0:
266,116,319987,2,0,L|332:52,1,80.9999975280763,10|8,1:0|1:0,0:0:0:0:
359,268,320204,6,0,P|316:221|280:207,1,80.9999975280763,4|0,1:2|0:0,0:0:0:0:
211,1,320422,2,0,P|187:52|185:84,1,80.9999975280763,8|0,1:0|0:0,0:0:0:0:
71,264,320639,2,0,P|131:242|156:219,1,80.9999975280763,4|0,1:2|0:0,0:0:0:0:
126,136,320856,1,8,1:0:0:0:
96,144,320965,2,0,L|2:154,1,80.9999975280763,2|0,1:0|1:0,0:0:0:0:
205,168,321183,5,0,1:0:0:0:
233,206,321291,1,8,1:0:0:0:
235,254,321400,1,8,1:2:0:0:
215,298,321509,2,0,P|159:339|48:333,1,161.999995056153,4|8,1:2|1:0,0:0:0:0:
315,236,321835,2,0,P|371:277|482:271,1,161.999995056153,8|0,1:0|0:0,0:0:0:0:
401,123,322161,2,0,B|393:164|393:164|401:210,1,80.9999975280763,8|0,1:0|0:0,0:0:0:0:
342,52,322378,2,0,L|167:56,1,161.999995056153,4|8,1:2|1:0,0:0:0:0:
18,161,322704,2,0,P|112:204|173:179,1,161.999995056153,0|0,1:0|0:0,0:0:0:0:
271,305,323030,2,0,P|230:301|174:308,1,80.9999975280763,8|0,1:0|0:0,0:0:0:0:
314,366,323248,6,0,B|294:280|343:301|308:178,1,161.999995056153,6|8,1:0|1:0,0:0:0:0:
399,87,323574,1,8,1:0:0:0:
425,55,323683,2,0,L|421:149,1,80.9999975280763,0|0,1:0|0:0,0:0:0:0:
258,21,323900,1,8,1:0:0:0:
165,60,324009,1,2,0:1:0:0:
230,146,324117,2,0,P|274:145|327:124,1,80.9999975280763,2|0,1:0|0:0,0:0:0:0:
482,233,324335,2,0,P|443:221|402:220,1,80.9999975280763,10|0,1:0|0:0,0:0:0:0:
251,239,324552,2,0,L|256:335,1,80.9999975280763,2|0,1:0|0:0,0:0:0:0:
101,228,324770,2,0,B|143:218|143:218|195:228,1,80.9999975280763,10|0,1:0|0:0,0:0:0:0:
17,76,324987,6,0,P|123:133|174:122,1,161.999995056153,4|8,1:2|1:0,0:0:0:0:
431,34,325313,2,0,P|325:91|274:80,1,161.999995056153,8|0,1:0|0:0,0:0:0:0:
27,194,325639,2,0,L|37:286,1,80.9999975280763,8|0,1:0|0:0,0:0:0:0:
147,266,325856,2,0,P|57:297|20:366,1,161.999995056153,4|8,1:2|1:0,0:0:0:0:
188,197,326183,2,0,P|232:206|307:309,1,161.999995056153,0|0,1:0|0:0,0:0:0:0:
107,177,326509,6,0,L|101:88,1,80.9999975280763,8|0,1:0|0:0,0:0:0:0:
322,130,326726,2,0,L|328:41,1,80.9999975280763,4|0,1:2|0:0,0:0:0:0:
506,182,326943,6,0,P|476:185|420:178,1,80.9999975280763,10|8,1:0|1:0,0:0:0:0:
273,330,327161,2,0,P|276:289|270:249,1,80.9999975280763,4|0,1:2|0:0,0:0:0:0:
415,289,327378,2,0,L|466:360,1,80.9999975280763,10|0,1:0|0:0,0:0:0:0:
175,161,327596,6,0,P|133:163|74:177,1,80.9999975280763,4|0,1:2|0:0,0:0:0:0:
329,75,327813,1,8,1:0:0:0:
362,73,327922,2,0,P|406:77|463:89,1,80.9999975280763,2|0,1:0|1:0,0:0:0:0:
248,26,328139,5,0,1:0:0:0:
251,74,328248,1,8,1:0:0:0:
251,122,328356,1,8,1:2:0:0:
249,170,328465,6,0,B|221:264|294:237|257:355,1,161.999995056153,4|8,1:2|1:0,0:0:0:0:
479,237,328791,2,0,P|384:233|332:182,1,161.999995056153,8|0,1:0|0:0,0:0:0:0:
54,224,329117,2,0,L|152:234,1,80.9999975280763,8|0,1:0|0:0,0:0:0:0:
6,293,329335,2,0,P|87:340|168:311,1,161.999995056153,4|8,1:2|1:0,0:0:0:0:
144,129,329661,2,0,P|65:116|0:161,1,161.999995056153,0|0,1:0|0:0,0:0:0:0:
232,174,329987,2,0,L|225:86,1,80.9999975280763,8|0,1:0|0:0,0:0:0:0:
263,284,330204,6,0,P|290:215|381:168,1,161.999995056153,6|8,1:0|1:0,0:0:0:0:
392,36,330530,1,8,1:0:0:0:
364,15,330639,2,0,P|356:75|364:120,1,80.9999975280763,0|0,1:0|0:0,0:0:0:0:
127,110,330856,5,8,1:0:0:0:
133,11,330965,1,2,0:1:0:0:
240,58,331074,2,0,P|253:103|247:165,1,80.9999975280763,2|0,1:0|0:0,0:0:0:0:
135,209,331291,2,0,P|96:211|46:194,1,80.9999975280763,10|0,1:0|0:0,0:0:0:0:
286,215,331509,2,0,P|325:213|390:191,1,80.9999975280763,2|0,1:0|0:0,0:0:0:0:
479,282,331726,2,0,L|389:278,1,80.9999975280763,10|0,1:0|0:0,0:0:0:0:
367,63,331943,6,0,P|400:134|485:155,1,161.999995056153,4|8,1:0|1:0,0:0:0:0:
240,11,332270,2,0,P|207:82|122:103,1,161.999995056153,8|0,1:0|0:0,0:0:0:0:
241,193,332596,2,0,L|130:174,1,80.9999975280763,8|0,1:0|0:0,0:0:0:0:
333,280,332813,2,0,P|343:200|300:119,1,161.999995056153,4|8,1:2|1:0,0:0:0:0:
49,98,333139,2,0,P|14:170|25:249,1,161.999995056153,0|0,1:0|0:0,0:0:0:0:
150,341,333465,6,0,L|240:332,1,80.9999975280763,12|0,1:3|1:0,0:0:0:0:
445,242,333683,2,0,L|528:230,1,80.9999975280763,4|0,1:2|0:0,0:0:0:0:
110,240,333900,6,0,L|200:231,1,80.9999975280763,8|8,1:0|1:0,0:0:0:0:
405,141,334118,2,0,L|488:129,1,80.9999975280763,4|0,1:2|0:0,0:0:0:0:
351,329,334335,6,0,L|261:320,1,80.9999975280763,10|0,1:0|0:0,0:0:0:0:
89,160,334553,2,0,L|6:148,1,80.9999975280763,4|0,1:2|0:0,0:0:0:0:
167,44,334770,1,8,1:0:0:0:
203,42,334878,2,0,B|212:88|212:88|202:148,1,80.9999975280763,2|0,1:0|1:0,0:0:0:0:
317,207,335096,1,0,1:0:0:0:
268,207,335204,1,8,1:0:0:0:
228,235,335313,1,8,1:2:0:0:
211,281,335422,5,4,1:0:0:0:
239,358,335712,1,2,0:0:0:0:
316,364,336001,1,2,0:3:0:0:
474,269,336291,5,0,1:0:0:0:
407,201,336581,1,2,0:0:0:0:
328,245,336871,1,2,0:3:0:0:
46,321,337161,5,0,1:0:0:0:
165,354,337451,1,2,0:0:0:0:
235,251,337741,1,2,0:3:0:0:
124,57,338030,5,0,1:0:0:0:
10,126,338320,1,2,0:0:0:0:
84,234,338610,1,2,0:3:0:0:
269,87,338900,5,4,1:0:0:0:
368,63,339117,1,4,1:2:0:0:
368,63,339226,1,0,0:0:0:0:
368,63,339335,1,0,1:0:0:0:
438,139,339552,1,0,1:0:0:0:
326,183,339770,1,4,1:2:0:0:
277,181,339878,1,0,1:0:0:0:
236,208,339987,1,0,1:0:0:0:
218,253,340096,1,0,1:0:0:0:
140,310,340204,5,4,1:2:0:0:
182,347,340313,1,0,1:0:0:0:
238,355,340422,1,0,1:0:0:0:
289,331,340530,1,0,0:0:0:0:
374,349,340639,5,4,1:0:0:0:
374,349,341074,1,4,1:2:0:0:
138,35,341509,5,4,1:0:0:0:
138,35,341944,1,4,1:2:0:0:
49,257,342378,6,0,L|126:247,1,67.5000025749208,4|0,1:0|0:0,0:0:0:0:
192,354,342596,2,0,B|196:321|196:321|187:273,1,67.5000025749208,8|0,0:0|0:0,0:0:0:0:
332,220,342813,2,0,L|175:210,1,135.000005149842,0|8,1:0|0:0,0:0:0:0:
88,101,343139,1,8,0:0:0:0:
61,76,343248,2,0,P|57:129|63:161,1,67.5000025749208,0|0,1:0|0:0,0:0:0:0:
221,81,343465,2,0,P|223:47|218:13,1,67.5000025749208,8|0,0:0|1:0,0:0:0:0:
311,38,343683,2,0,P|249:102|241:146,1,135.000005149842,0|8,1:0|0:0,0:0:0:0:
287,297,344009,5,0,0:0:0:0:
318,312,344117,2,0,P|356:307|401:306,1,67.5000025749208,0|0,1:0|0:0,0:0:0:0:
512,253,344335,2,0,P|474:248|429:247,1,67.5000025749208,8|0,0:0|0:0,0:0:0:0:
224,357,344552,2,0,P|198:298|226:200,1,135.000005149842,0|8,1:0|0:0,0:0:0:0:
363,84,344878,2,0,P|389:145|379:211,1,135.000005149842,0|0,1:0|0:0,0:0:0:0:
239,144,345204,2,0,L|154:135,1,67.5000025749208,8|0,0:0|0:0,0:0:0:0:
23,242,345422,2,0,L|34:78,1,135.000005149842,0|8,1:0|1:0,0:0:0:0:
142,37,345748,5,0,0:0:0:0:
111,24,345856,2,0,P|105:60|117:109,1,67.5000025749208,0|0,1:0|0:0,0:0:0:0:
317,116,346074,2,0,P|323:80|311:31,1,67.5000025749208,8|0,0:0|0:0,0:0:0:0:
121,215,346291,2,0,P|200:212|259:270,1,135.000005149842,0|8,1:0|0:0,0:0:0:0:
318,352,346617,1,8,0:0:0:0:
336,320,346726,2,0,L|328:226,1,67.5000025749208,0|0,1:0|0:0,0:0:0:0:
468,197,346943,2,0,L|462:264,1,67.5000025749208,8|0,1:0|0:0,0:0:0:0:
392,99,347161,2,0,P|343:155|273:164,1,135.000005149842,0|8,1:0|1:0,0:0:0:0:
251,146,347487,1,8,0:0:0:0:
192,68,347596,5,4,1:2:0:0:
151,68,347704,1,0,0:0:0:0:
113,82,347813,1,8,1:0:0:0:
86,112,347922,1,8,1:0:0:0:
39,189,348030,5,0,1:2:0:0:
84,201,348139,1,8,1:0:0:0:
117,234,348248,1,8,1:0:0:0:
133,277,348356,1,0,1:0:0:0:
208,324,348465,5,8,1:0:0:0:
208,292,348574,1,8,1:0:0:0:
313,33,348791,1,8,1:0:0:0:
317,69,348900,2,0,L|327:139,1,67.5000025749208,0|8,1:0|1:0,0:0:0:0:
486,180,349117,6,0,B|445:185|445:185|396:171,1,76.5000014591217,8|0,1:0|1:0,0:0:0:0:
474,263,349335,6,0,P|394:287|358:347,1,153.000002918243,4|0,1:2|0:0,0:0:0:0:
358,343,349770,6,0,L|272:350,1,67.5000025749208,0|0,1:0|0:0,0:0:0:0:
38,263,350204,6,0,P|118:287|154:347,1,153.000002918243,4|0,1:2|0:0,0:0:0:0:
153,343,350639,1,0,1:0:0:0:
412,79,351074,6,0,P|450:78|502:72,2,77.9999964294435,0|0|0,1:0|1:0|1:0,0:0:0:0:
215,139,351509,2,0,P|177:138|125:132,2,77.9999964294435,0|0|0,1:0|1:0|1:0,0:0:0:0:
363,222,351943,6,0,P|401:221|439:217,2,60,0|0|0,1:0|1:0|1:0,0:0:0:0:
268,277,352378,2,0,P|230:276|192:272,2,60,0|0|0,1:0|1:0|1:0,0:0:0:0:
486,338,352813,5,4,1:0:0:0:
486,338,353683,5,4,1:0:0:0:
256,192,353737,12,0,356291,0:0:0:0:
64,111,361509,6,0,P|136:119|216:111,1,135.000005149842,8|0,0:3|0:0,0:0:0:0:
267,179,362509,2,0,L|419:172,1,135.000005149842,8|0,0:3|0:0,0:0:0:0:
475,100,363509,6,0,P|501:143|489:229,1,135.000005149842,8|0,0:3|0:0,0:0:0:0:
416,282,364509,2,0,L|276:276,1,135.000005149842,8|0,0:3|0:0,0:0:0:0:
55,216,365509,5,8,0:3:0:0:
158,185,366009,1,0,0:0:0:0:
189,288,366509,1,8,0:3:0:0:
84,314,367009,1,0,0:0:0:0:
255,206,367509,6,0,B|327:197|309:224|407:211,1,135.000005149842,8|0,0:3|0:0,0:0:0:0:
506,116,368509,2,0,P|444:140|360:132,1,135.000005149842,8|2,0:3|0:0,0:0:0:0:
284,50,369342,5,0,0:0:0:0:
284,50,369509,2,0,P|234:62|139:41,1,135.000005149842,8|0,0:3|1:0,0:0:0:0:
58,120,370342,1,2,0:0:0:0:
58,120,370509,2,0,P|59:168|65:224,1,90.0000034332277,8|0,0:3|0:0,0:0:0:0:
91,236,371009,1,0,1:0:0:0:
222,270,371342,5,2,0:0:0:0:
222,270,371509,2,0,L|346:260,1,90.0000034332277,8|0,0:3|0:0,0:0:0:0:
341,232,372009,2,0,P|352:291|349:321,1,90.0000034332277,0|2,1:0|0:0,0:0:0:0:
337,346,372509,1,8,0:3:0:0:
182,360,372842,1,2,0:0:0:0:
182,360,373009,1,0,1:0:0:0:
54,253,373509,6,0,P|46:203|67:117,1,135.000005149842,8|0,0:3|1:0,0:0:0:0:
131,61,374342,1,2,0:0:0:0:
131,61,374509,2,0,L|226:56,1,90.0000034332277,8|0,0:3|0:0,0:0:0:0:
287,27,375009,2,0,L|393:36,1,90.0000034332277,0|2,1:0|0:0,0:0:0:0:
453,26,375509,6,0,P|466:74|450:162,2,135.000005149842,4|0|8,1:0|1:0|0:3,0:0:0:0:
299,108,377009,1,0,1:0:0:0:
236,203,377342,5,2,0:0:0:0:
236,203,377509,2,0,P|232:255|241:310,1,90.0000034332277,8|0,0:3|0:0,0:0:0:0:
264,324,378009,2,0,L|368:318,1,90.0000034332277,0|2,1:0|0:0,0:0:0:0:
385,338,378509,2,0,P|390:286|382:227,1,90.0000034332277,8|0,0:3|0:0,0:0:0:0:
418,220,379009,1,0,1:0:0:0:
474,103,379342,5,2,0:0:0:0:
474,103,379509,2,0,L|364:108,1,90.0000034332277,8|0,0:3|0:0,0:0:0:0:
354,129,380009,1,0,1:0:0:0:
238,197,380342,1,2,0:0:0:0:
238,197,380509,2,0,P|229:133|243:47,1,135.000005149842,8|0,0:3|1:0,0:0:0:0:
18,156,381342,5,2,0:0:0:0:
18,156,381509,2,0,L|126:150,1,90.0000034332277,8|2,0:3|0:0,0:0:0:0:
136,138,382009,2,0,P|147:200|140:239,1,90.0000034332277,0|2,1:0|0:0,0:0:0:0:
163,252,382509,1,8,0:3:0:0:
309,347,382842,1,2,0:0:0:0:
309,347,383009,1,0,1:0:0:0:
415,240,383342,5,2,0:0:0:0:
415,240,383509,2,0,P|365:244|317:242,1,90.0000034332277,8|0,0:3|0:0,0:0:0:0:
248,205,384009,5,4,1:0:0:0:
86,160,384175,1,2,0:0:0:0:
208,276,384342,1,2,0:0:0:0:
161,120,384509,1,4,1:2:0:0:
161,120,385009,5,4,1:0:0:0:
