osu file format v14

[General]
AudioFilename: audio.mp3
AudioLeadIn: 0
PreviewTime: 32918
Countdown: 0
SampleSet: Normal
StackLeniency: 0.2
Mode: 0
LetterboxInBreaks: 0
WidescreenStoryboard: 0

[Editor]
Bookmarks: 60920,109920,114170,126670
DistanceSpacing: 1.4
BeatDivisor: 4
GridSize: 16
TimelineZoom: 1.2

[Metadata]
Title:Tori yo
TitleUnicode:鳥よ
Artist:Diao Ye Zong feat. nayuta
ArtistUnicode:凋叶棕 feat. nayuta
Creator:SDpeople
Version:Stray birds come to my window and I will fly with her forever
Source:東方文花帖 ~ Shoot the Bullet.
Tags:娶 metori rd-sounds c95 zun touhou 東方project 風神少女 風の循環 ~ wind tour
BeatmapID:2018953
BeatmapSetID:964372

[Difficulty]
HPDrainRate:4
CircleSize:4
OverallDifficulty:7
ApproachRate:9
SliderMultiplier:1.4
SliderTickRate:1

[Events]
//Background and Video events
0,0,"BG.jpg",0,0
//Break Periods
2,21369,31718
2,129370,140159
2,237370,248400
2,273369,278398
//Storyboard Layer 0 (Background)
//Storyboard Layer 1 (Fail)
//Storyboard Layer 2 (Pass)
//Storyboard Layer 3 (Foreground)
//Storyboard Layer 4 (Overlay)
//Storyboard Sound Samples

[TimingPoints]
15170,500,3,1,0,30,1,0
16670,-133.333333333333,3,1,0,35,0,0
18170,-133.333333333333,3,1,0,40,0,0
19670,-133.333333333333,3,1,0,50,0,0
32920,-100,3,1,0,45,0,0
48170,-66.6666666666667,3,1,0,45,0,0
51170,-100,3,1,0,45,0,0
56920,-100,3,1,0,55,0,0
79420,-80,3,1,0,55,0,0
81170,-66.6666666666667,3,1,0,57,0,0
84170,-66.6666666666667,3,1,0,60,0,0
87170,-44.4444444444445,3,1,0,60,0,0
91670,-66.6666666666667,3,1,0,62,0,0
93170,-66.6666666666667,3,1,0,62,0,1
117170,-57.1428571428571,3,1,0,63,0,1
126670,-76.9230769230769,3,1,0,60,0,1
126795,-76.9230769230769,3,1,0,30,0,1
129170,-57.1428571428571,3,1,0,100,0,0
140920,-133.333333333333,3,1,0,25,0,0
143920,-100,3,1,0,27,0,0
146920,-133.333333333333,3,1,0,25,0,0
149920,-100,3,1,0,27,0,0
153170,-100,3,1,0,55,0,0
161920,-66.6666666666667,3,1,0,60,0,0
164295,-66.6666666666667,3,1,0,65,0,0
185920,-100,3,1,0,65,0,0
188295,-66.6666666666667,3,1,0,70,0,0
194170,-50,3,1,0,70,0,0
195170,-44.4444444444445,3,1,0,70,0,0
199670,-66.6666666666667,3,1,0,70,0,0
201170,-66.6666666666667,3,1,0,70,0,1
225170,-57.1428571428571,3,1,0,70,0,1
237170,-44.4444444444445,3,1,0,80,0,0
249170,-66.6666666666667,3,1,0,85,0,0
271795,-66.6666666666667,3,1,0,30,0,0
279170,-66.6666666666667,3,1,0,50,0,0
285170,-66.6666666666667,3,1,0,55,0,0
288170,-66.6666666666667,3,1,0,65,0,0
288920,-100,3,1,0,65,0,0
289670,-66.6666666666667,3,1,0,70,0,0
291170,-62.5,3,1,0,60,0,0
295670,-62.5,3,1,0,58,0,0
296420,-62.5,3,1,0,59,0,0
297170,-62.5,3,1,0,50,0,0
300170,-62.5,3,1,0,60,0,0
304670,-400,3,1,0,50,0,0
306170,-200,3,1,0,50,0,0
318170,-100,3,1,0,55,0,0
319670,-133.333333333333,3,1,0,57,0,0
322670,-66.6666666666667,3,1,0,60,0,0
324170,-44.4444444444445,3,1,0,65,0,1
342170,-57.1428571428571,3,1,0,70,0,1
357545,-66.6666666666667,3,1,0,70,0,1
360170,-57.1428571428571,3,1,0,70,0,1
363170,-66.6666666666667,3,1,0,70,0,1
371420,-66.6666666666667,3,1,0,85,0,0
378170,-44.4444444444445,3,1,0,85,0,0
384170,-44.4444444444445,3,1,0,75,0,0
387170,-50,3,1,0,65,0,0
390170,-57.1428571428571,3,1,0,55,0,0
393170,-105.263157894737,3,1,0,50,0,0
404920,-133.333333333333,3,1,0,10,0,0

[Colours]
Combo1 : 128,0,0
Combo2 : 223,223,223
Combo3 : 95,95,95
Combo4 : 255,0,0

[HitObjects]
96,208,15170,6,0,P|154:171|219:188,1,140
246,302,15920,1,0,0:0:0:0:
428,187,16670,2,0,P|325:183|255:108,1,210.000008010865
153,271,18170,2,0,P|235:210|255:109,1,210.000008010865
255,337,19670,2,0,L|256:8,1,315.000012016297
118,140,32920,5,0,0:0:0:0:
178,198,33170,1,0,0:0:0:0:
272,95,33670,1,0,0:0:0:0:
352,70,33920,1,0,0:0:0:0:
335,152,34170,1,0,0:0:0:0:
255,178,34420,1,0,0:0:0:0:
414,124,34670,1,0,0:0:0:0:
178,198,35170,2,0,L|163:266,1,70
311,246,35920,37,0,0:0:0:0:
319,209,36170,2,0,L|336:126,1,70
390,46,36670,1,0,0:0:0:0:
453,181,36920,2,0,B|458:225|458:225|440:243,1,70
375,298,37420,1,0,0:0:0:0:
374,298,37670,2,0,P|331:326|280:324,2,105
58,131,38920,5,0,0:0:0:0:
49,214,39170,1,0,0:0:0:0:
192,83,39670,1,0,0:0:0:0:
267,45,39920,1,0,0:0:0:0:
262,127,40170,1,0,0:0:0:0:
188,165,40420,1,0,0:0:0:0:
336,93,40670,2,0,L|370:89,2,35
353,131,41045,1,0,0:0:0:0:
342,173,41170,2,0,L|349:239,1,35
352,242,41420,1,0,0:0:0:0:
237,164,41920,37,0,0:0:0:0:
193,236,42170,1,0,0:0:0:0:
255,342,42420,1,0,0:0:0:0:
280,262,42670,1,0,0:0:0:0:
280,262,42920,2,0,L|363:252,1,70
433,244,43420,1,0,0:0:0:0:
280,261,43670,2,0,P|294:212|337:184,2,105
214,315,45170,6,0,P|179:307|145:312,1,70
301,320,45670,1,0,0:0:0:0:
384,317,45920,2,0,L|399:234,1,70
419,91,46420,1,0,0:0:0:0:
454,172,46670,2,0,P|385:174|337:126,1,140
454,12,47420,1,4,0:0:0:0:
300,242,48170,38,0,B|359:227|392:297|436:230|540:218|540:218|478:107|300:110|284:206,1,525.000020027161
210,243,49670,2,0,B|151:228|118:298|74:231|-30:219|-30:219|32:108|210:111|226:207,1,525.000020027161
299,200,51170,6,0,L|321:113,1,70
245,85,51670,1,0,0:0:0:0:
321,49,51920,2,0,P|380:81|397:147,1,140
378,229,52670,2,0,P|444:216|480:158,1,140
471,75,53420,1,4,0:0:0:0:
173,53,54170,38,0,P|206:61|240:52,1,70
91,29,54670,1,0,0:0:0:0:
18,71,54920,2,0,B|-6:122|44:158|19:207,1,140
55,282,55670,1,0,0:0:0:0:
95,112,55920,1,4,0:0:0:0:
258,168,56420,21,0,0:0:0:0:
306,108,56545,1,0,0:0:0:0:
358,51,56670,1,0,0:0:0:0:
332,182,56920,5,0,0:0:0:0:
365,350,57170,1,0,0:0:0:0:
407,217,57670,21,0,0:0:0:0:
490,220,57920,1,0,0:0:0:0:
291,316,58170,1,0,0:0:0:0:
444,138,58420,1,0,0:0:0:0:
323,217,58670,37,0,0:0:0:0:
324,199,58795,1,0,0:0:0:0:
326,181,58920,1,0,0:0:0:0:
331,97,59170,5,0,0:0:0:0:
318,300,59420,1,0,0:0:0:0:
197,214,59920,37,0,0:0:0:0:
115,231,60170,2,0,P|114:196|128:165,1,70
207,128,60670,1,0,0:0:0:0:
195,299,60920,2,0,B|260:307|266:259|318:247|318:247|269:241|241:259,1,210.000008010865
425,269,62920,5,0,0:0:0:0:
424,269,63170,2,0,P|456:208|433:145,1,140
373,204,63920,2,0,B|306:225,2,70
288,306,64670,2,0,P|234:265|227:198,1,140
227,198,65420,1,0,0:0:0:0:
290,146,65920,37,0,0:0:0:0:
149,197,66170,2,0,B|82:218,2,70
290,146,66920,1,0,0:0:0:0:
149,197,67420,5,0,0:0:0:0:
205,128,67670,1,0,0:0:0:0:
104,26,67920,1,0,0:0:0:0:
149,197,68170,1,0,0:0:0:0:
104,26,68420,1,0,0:0:0:0:
116,334,69170,38,0,P|147:349|181:353,1,70
205,128,69670,1,0,0:0:0:0:
249,299,69920,2,0,L|259:223,1,70
275,75,70420,5,0,0:0:0:0:
249,299,70670,1,0,0:0:0:0:
249,299,71170,37,0,0:0:0:0:
275,75,71420,1,4,0:0:0:0:
408,40,72170,6,0,P|376:24|342:20,1,70
319,246,72670,1,0,0:0:0:0:
275,75,72920,2,0,L|265:151,1,70
249,299,73420,37,0,0:0:0:0:
275,75,73670,1,0,0:0:0:0:
275,75,74170,5,0,0:0:0:0:
249,299,74420,1,4,0:0:0:0:
137,135,75170,37,0,0:0:0:0:
330,33,75420,1,0,0:0:0:0:
137,135,75670,1,0,0:0:0:0:
330,33,75920,1,0,0:0:0:0:
137,135,76420,5,0,0:0:0:0:
264,65,76670,1,0,0:0:0:0:
397,103,76920,1,0,0:0:0:0:
479,216,77170,1,0,0:0:0:0:
457,347,77420,1,4,0:0:0:0:
137,135,77920,37,0,0:0:0:0:
137,135,78170,2,0,L|163:211,1,70
235,239,78670,1,0,0:0:0:0:
318,236,78920,2,0,P|371:230|405:214,1,70
235,239,79420,5,0,0:0:0:0:
234,239,79670,2,0,P|248:153|220:71,1,175
151,162,80420,5,0,0:0:0:0:
133,88,80545,1,0,0:0:0:0:
115,15,80670,1,4,0:0:0:0:
85,209,80920,5,0,0:0:0:0:
132,290,81170,6,0,P|230:261|279:172,1,210.000008010865
311,51,81920,1,0,0:0:0:0:
360,166,82170,1,0,0:0:0:0:
427,64,82420,1,0,0:0:0:0:
345,245,82670,2,0,P|300:218|279:172,1,105.000004005432
256,323,83170,1,0,0:0:0:0:
183,219,83420,1,0,0:0:0:0:
60,250,83670,1,0,0:0:0:0:
139,347,83920,1,0,0:0:0:0:
256,323,84170,6,0,P|354:294|402:204,1,210.000008010865
337,95,84920,1,0,0:0:0:0:
287,210,85170,1,0,0:0:0:0:
253,88,85420,1,0,0:0:0:0:
205,241,85670,2,0,B|70:240|96:184|30:146|30:146|114:153|125:186,1,315.000012016297
149,315,87170,6,0,P|100:254|136:179,1,157.500006008148
252,278,87545,1,0,0:0:0:0:
362,227,87670,2,0,P|437:189|469:120,1,157.500006008148
370,58,88170,2,0,P|295:96|262:164,1,157.500006008148
244,348,88670,6,0,P|312:386|388:371,1,157.500006008148
428,262,89045,1,0,0:0:0:0:
354,155,89170,2,0,P|287:116|212:135,1,157.500006008148
142,272,89670,2,0,P|219:272|275:219,1,157.500006008148
256,192,90170,12,0,91170,0:0:0:0:
303,246,91670,6,0,B|348:197|383:230|431:206|431:206|397:242|364:246,1,210.000008010865
209,246,92420,2,0,B|164:197|129:230|81:206|81:206|115:242|148:246,1,210.000008010865
225,336,93170,6,0,P|271:313|298:269,1,105.000004005432
334,148,93670,1,0,0:0:0:0:
375,312,93920,5,0,0:0:0:0:
393,240,94045,1,0,0:0:0:0:
414,169,94170,1,0,0:0:0:0:
297,269,94420,1,0,0:0:0:0:
296,269,94670,38,0,P|254:299|203:306,1,105.000004005432
80,261,95170,1,0,0:0:0:0:
213,198,95420,5,0,0:0:0:0:
239,129,95545,1,0,0:0:0:0:
266,57,95670,1,0,0:0:0:0:
266,57,95920,5,0,0:0:0:0:
240,307,96170,1,0,0:0:0:0:
449,170,96420,1,0,0:0:0:0:
184,88,96670,1,0,0:0:0:0:
327,306,96920,1,0,0:0:0:0:
362,60,97170,1,0,0:0:0:0:
168,238,97420,1,0,0:0:0:0:
412,282,97670,6,0,B|479:239|462:198|499:143|499:143|428:176|431:203,1,262.500010013581
431,203,98420,1,0,0:0:0:0:
300,81,98670,1,0,0:0:0:0:
338,293,98920,1,0,0:0:0:0:
387,132,99170,6,0,P|352:95|302:82,1,105.000004005432
272,243,99670,1,0,0:0:0:0:
225,110,99920,1,0,0:0:0:0:
78,94,100170,1,0,0:0:0:0:
206,190,100420,1,0,0:0:0:0:
381,110,100670,2,0,B|306:95|225:110,2,157.500006008148
503,56,101670,37,0,0:0:0:0:
430,202,101920,1,0,0:0:0:0:
463,130,102170,2,0,B|395:103|378:165|310:130,1,157.500006008148
357,59,102670,1,0,0:0:0:0:
234,22,102920,2,0,L|228:126,1,105.000004005432
221,253,103420,1,0,0:0:0:0:
228,126,103670,6,0,L|234:22,1,105.000004005432
234,22,104045,1,0,0:0:0:0:
124,84,104295,1,0,0:0:0:0:
123,104,104420,1,0,0:0:0:0:
122,125,104545,1,0,0:0:0:0:
121,146,104670,1,0,0:0:0:0:
120,167,104795,1,0,0:0:0:0:
120,188,104920,1,0,0:0:0:0:
228,126,105170,38,0,P|275:105|326:113,1,105.000004005432
442,163,105670,1,0,0:0:0:0:
342,26,105920,21,0,0:0:0:0:
409,59,106045,1,0,0:0:0:0:
477,88,106170,1,0,0:0:0:0:
325,113,106420,1,0,0:0:0:0:
325,113,106670,38,0,P|274:125|236:161,1,105.000004005432
192,285,107170,1,0,0:0:0:0:
326,223,107420,5,0,0:0:0:0:
395,248,107545,1,0,0:0:0:0:
468,273,107670,1,0,0:0:0:0:
252,331,107920,5,0,0:0:0:0:
437,93,108170,1,0,0:0:0:0:
157,43,108420,1,0,0:0:0:0:
327,313,108670,1,0,0:0:0:0:
380,37,108920,1,0,0:0:0:0:
168,244,109170,1,0,0:0:0:0:
455,161,109420,1,0,0:0:0:0:
226,0,109670,6,0,B|148:-16|131:24|66:36|66:36|139:63|156:42,1,262.500010013581
156,42,110420,1,0,0:0:0:0:
207,198,110670,1,0,0:0:0:0:
311,21,110920,1,0,0:0:0:0:
431,196,111170,6,0,P|442:73|374:19,1,210.000008010865
345,220,111920,1,0,0:0:0:0:
311,21,112170,1,0,0:0:0:0:
207,198,112420,1,0,0:0:0:0:
249,333,112670,38,0,P|312:288|344:217,1,157.500006008148
344,217,113170,1,0,0:0:0:0:
83,99,113420,21,0,0:0:0:0:
386,118,113670,1,0,0:0:0:0:
87,183,113920,1,0,0:0:0:0:
94,321,114170,2,0,L|88:212,1,105.000004005432
88,199,114545,5,0,0:0:0:0:
87,183,114670,1,0,0:0:0:0:
205,20,114920,1,0,0:0:0:0:
418,85,115170,1,0,0:0:0:0:
409,294,115420,1,0,0:0:0:0:
223,360,115670,2,0,B|157:310|163:251|87:184|87:184|174:210|195:270,1,367.500014019013
220,276,116670,1,0,0:0:0:0:
246,279,116795,1,0,0:0:0:0:
271,274,116920,1,0,0:0:0:0:
295,264,117045,1,0,0:0:0:0:
112,299,117170,38,0,P|222:350|338:320,1,245.000002336502
446,217,117920,1,0,0:0:0:0:
399,60,118170,1,0,0:0:0:0:
366,241,118420,1,0,0:0:0:0:
438,383,118670,2,0,L|448:138,1,245.000002336502
452,53,119420,1,0,0:0:0:0:
366,241,119670,1,0,0:0:0:0:
347,33,119920,1,0,0:0:0:0:
165,33,120170,5,0,0:0:0:0:
152,104,120295,1,0,0:0:0:0:
139,176,120420,1,0,0:0:0:0:
256,80,120920,37,0,0:0:0:0:
256,153,121045,1,0,0:0:0:0:
256,226,121170,1,0,0:0:0:0:
347,33,121670,5,0,0:0:0:0:
360,104,121795,1,0,0:0:0:0:
373,176,121920,1,0,0:0:0:0:
253,162,122420,5,0,0:0:0:0:
219,18,122670,1,0,0:0:0:0:
104,110,122920,1,0,0:0:0:0:
142,277,123170,22,0,P|262:294|382:270,1,245.000002336502
439,74,123920,1,0,0:0:0:0:
178,143,124170,1,0,0:0:0:0:
227,384,124420,1,0,0:0:0:0:
308,173,124670,2,0,L|310:50,1,122.500001168251
154,68,125170,5,0,0:0:0:0:
149,239,125420,1,0,0:0:0:0:
288,337,125670,5,0,0:0:0:0:
149,239,125920,1,0,0:0:0:0:
288,337,126170,6,0,B|338:330|348:368|406:359,1,122.500001168251
424,356,126545,1,0,0:0:0:0:
444,343,126670,2,0,B|393:281|199:288|125:211|116:33|116:33|330:76|439:169|432:287,1,909.999958343508
76,172,140920,38,0,L|125:155,1,52.5000020027161
379,68,141670,2,0,L|331:89,1,52.5000020027161
223,124,142170,1,0,0:0:0:0:
195,220,142420,2,0,L|214:268,1,52.5000020027161
491,248,143170,1,0,0:0:0:0:
478,153,143420,1,0,0:0:0:0:
214,268,143920,2,0,L|144:257,2,70
199,181,144670,5,0,0:0:0:0:
270,142,144920,2,0,P|280:175|277:210,1,70
199,181,145420,1,0,0:0:0:0:
202,94,145670,2,0,P|295:64|351:144,1,210
366,339,146920,38,0,L|319:314,1,52.5000020027161
83,188,147670,2,0,L|127:216,1,52.5000020027161
229,267,148170,1,0,0:0:0:0:
216,165,148420,2,0,L|240:118,1,52.5000020027161
140,314,149170,1,0,0:0:0:0:
242,323,149420,1,0,0:0:0:0:
456,208,149920,2,0,L|475:140,2,70
406,113,150670,5,0,0:0:0:0:
323,140,150920,2,0,P|341:171|370:190,1,70
406,113,151420,1,0,0:0:0:0:
339,59,151670,2,0,P|273:74|240:133,1,140
238,217,152420,1,0,0:0:0:0:
72,11,153170,37,0,0:0:0:0:
84,94,153420,1,0,0:0:0:0:
95,175,153670,1,0,0:0:0:0:
121,378,153920,1,4,0:0:0:0:
370,332,154420,21,0,0:0:0:0:
403,74,154670,1,0,0:0:0:0:
403,74,155170,5,0,0:0:0:0:
370,332,155420,1,4,0:0:0:0:
130,379,156170,5,0,0:0:0:0:
118,296,156420,1,0,0:0:0:0:
107,215,156670,1,0,0:0:0:0:
81,12,156920,1,4,0:0:0:0:
370,332,157420,21,0,0:0:0:0:
403,74,157670,1,4,0:0:0:0:
403,74,158170,5,4,0:0:0:0:
370,332,158420,1,0,0:0:0:0:
81,12,159170,5,0,0:0:0:0:
93,95,159420,1,0,0:0:0:0:
104,176,159670,1,0,0:0:0:0:
130,379,159920,1,4,0:0:0:0:
311,320,160420,21,0,0:0:0:0:
407,182,160670,1,0,0:0:0:0:
310,44,160920,1,0,0:0:0:0:
150,95,161170,1,0,0:0:0:0:
148,262,161420,1,4,0:0:0:0:
110,181,161920,21,0,0:0:0:0:
110,181,162170,1,0,0:0:0:0:
403,88,162670,5,0,0:0:0:0:
403,88,162920,1,0,0:0:0:0:
228,327,163420,37,0,0:0:0:0:
329,304,163670,2,0,B|392:290|396:244|440:230|440:230|398:229|371:250,1,210.000008010865
228,327,164420,21,0,0:0:0:0:
255,258,164545,1,0,0:0:0:0:
292,194,164670,1,4,0:0:0:0:
78,265,164920,6,0,P|128:278|179:270,1,105.000004005432
353,91,165670,5,0,0:0:0:0:
351,227,165920,1,0,0:0:0:0:
280,110,166170,1,0,0:0:0:0:
406,170,166420,2,0,P|458:169|509:157,1,105.000004005432
298,40,167170,1,0,0:0:0:0:
230,260,167420,1,4,0:0:0:0:
146,204,167920,5,0,0:0:0:0:
240,158,168170,1,0,0:0:0:0:
344,9,168420,1,0,0:0:0:0:
249,54,168670,1,0,0:0:0:0:
325,216,168920,1,0,0:0:0:0:
334,112,169170,1,0,0:0:0:0:
155,100,169420,1,0,0:0:0:0:
240,158,169670,2,0,L|222:314,2,157.500006008148
168,3,170920,37,0,0:0:0:0:
153,263,171170,1,0,0:0:0:0:
221,314,171670,5,0,0:0:0:0:
240,158,171920,1,0,0:0:0:0:
153,263,172170,1,0,0:0:0:0:
307,209,172420,2,0,L|411:198,1,105.000004005432
221,314,173170,1,0,0:0:0:0:
136,135,173420,1,4,0:0:0:0:
143,28,173920,37,0,0:0:0:0:
236,187,174170,1,0,0:0:0:0:
366,120,174420,1,0,0:0:0:0:
361,198,174545,1,0,0:0:0:0:
409,347,174795,1,0,0:0:0:0:
414,269,174920,1,0,0:0:0:0:
366,120,175420,1,0,0:0:0:0:
264,125,175670,2,0,L|106:128,2,157.500006008148
81,12,177170,5,0,0:0:0:0:
93,95,177420,1,0,0:0:0:0:
104,176,177670,1,0,0:0:0:0:
130,379,177920,1,4,0:0:0:0:
370,332,178420,5,0,0:0:0:0:
403,74,178670,1,0,0:0:0:0:
403,74,179170,5,0,0:0:0:0:
370,332,179420,1,4,0:0:0:0:
130,379,180170,5,0,0:0:0:0:
118,296,180420,1,0,0:0:0:0:
107,215,180670,1,0,0:0:0:0:
81,12,180920,1,4,0:0:0:0:
370,332,181420,21,0,0:0:0:0:
403,74,181670,1,0,0:0:0:0:
403,74,182170,5,0,0:0:0:0:
370,332,182420,1,4,0:0:0:0:
137,135,183170,5,0,0:0:0:0:
330,33,183420,1,0,0:0:0:0:
137,135,183670,1,0,0:0:0:0:
330,33,183920,1,0,0:0:0:0:
137,135,184420,5,0,0:0:0:0:
264,65,184670,1,0,0:0:0:0:
397,103,184920,1,0,0:0:0:0:
479,216,185170,1,0,0:0:0:0:
457,347,185420,1,0,0:0:0:0:
137,135,185920,37,0,0:0:0:0:
137,135,186170,2,0,L|163:211,1,70
235,239,186670,1,0,0:0:0:0:
318,236,186920,2,0,P|371:230|405:214,1,70
235,239,187420,5,0,0:0:0:0:
234,239,187670,2,0,P|248:153|220:71,1,175
151,162,188420,5,0,0:0:0:0:
133,88,188545,1,0,0:0:0:0:
115,15,188670,1,4,0:0:0:0:
85,209,188920,1,0,0:0:0:0:
133,88,189170,5,0,0:0:0:0:
427,160,189920,5,0,0:0:0:0:
424,113,190170,1,0,0:0:0:0:
421,70,190420,1,0,0:0:0:0:
441,341,190670,1,4,0:0:0:0:
221,159,191170,5,0,0:0:0:0:
218,112,191420,1,0,0:0:0:0:
215,65,191670,1,0,0:0:0:0:
212,18,191920,1,0,0:0:0:0:
235,340,192170,1,4,0:0:0:0:
227,249,192670,37,0,0:0:0:0:
104,218,192920,1,0,0:0:0:0:
86,93,193170,1,0,0:0:0:0:
189,21,193420,1,0,0:0:0:0:
227,249,193670,2,0,B|340:271|329:218|414:191|414:191|357:181|307:211,1,315.000012016297
160,325,195170,22,0,P|111:264|147:189,1,157.500006008148
263,288,195545,1,0,0:0:0:0:
373,237,195670,2,0,P|447:198|480:130,1,157.500006008148
381,68,196170,2,0,P|306:106|273:174,1,157.500006008148
255,358,196670,6,0,P|322:395|398:380,1,157.500006008148
439,272,197045,1,0,0:0:0:0:
365,165,197170,2,0,P|298:126|223:145,1,157.500006008148
153,282,197670,2,0,P|229:281|285:228,1,157.500006008148
256,192,198170,12,0,199170,0:0:0:0:
303,246,199670,22,0,B|348:197|383:230|431:206|431:206|397:242|364:246,1,210.000008010865
209,246,200420,2,0,B|164:197|129:230|81:206|81:206|115:242|148:246,1,210.000008010865
282,313,201170,6,0,P|236:290|209:246,1,105.000004005432
173,125,201670,1,0,0:0:0:0:
132,289,201920,1,0,0:0:0:0:
114,217,202045,1,0,0:0:0:0:
93,146,202170,1,0,0:0:0:0:
210,246,202420,1,0,0:0:0:0:
210,246,202670,38,0,P|252:276|303:283,1,105.000004005432
427,238,203170,1,0,0:0:0:0:
294,175,203420,1,0,0:0:0:0:
268,106,203545,1,0,0:0:0:0:
241,34,203670,1,0,0:0:0:0:
241,34,203920,21,0,0:0:0:0:
267,285,204170,1,0,0:0:0:0:
58,148,204420,1,0,0:0:0:0:
323,66,204670,1,0,0:0:0:0:
180,284,204920,1,0,0:0:0:0:
145,38,205170,1,0,0:0:0:0:
339,216,205420,1,0,0:0:0:0:
95,260,205670,6,0,B|28:217|45:176|8:121|8:121|79:154|76:181,1,262.500010013581
76,181,206420,1,0,0:0:0:0:
214,47,206670,1,0,0:0:0:0:
169,271,206920,1,0,0:0:0:0:
140,96,207170,6,0,P|201:176|169:271,1,210.000008010865
282,88,207920,1,0,0:0:0:0:
429,72,208170,1,0,0:0:0:0:
301,168,208420,1,0,0:0:0:0:
125,87,208670,2,0,B|206:72|281:87,2,157.500006008148
6,31,209670,37,0,0:0:0:0:
77,180,209920,1,0,0:0:0:0:
44,108,210170,2,0,B|112:81|129:143|197:108,1,157.500006008148
150,37,210670,1,0,0:0:0:0:
273,0,210920,2,0,L|279:104,1,105.000004005432
288,224,211420,1,0,0:0:0:0:
279,104,211670,6,0,L|273:0,1,105.000004005432
273,0,212045,1,0,0:0:0:0:
383,62,212295,1,0,0:0:0:0:
384,82,212420,1,0,0:0:0:0:
385,103,212545,1,0,0:0:0:0:
386,124,212670,1,0,0:0:0:0:
387,145,212795,1,0,0:0:0:0:
387,166,212920,1,0,0:0:0:0:
279,104,213170,38,0,P|231:83|180:91,1,105.000004005432
65,141,213670,1,0,0:0:0:0:
165,4,213920,21,0,0:0:0:0:
98,37,214045,1,0,0:0:0:0:
30,66,214170,1,0,0:0:0:0:
182,91,214420,1,0,0:0:0:0:
182,91,214670,38,0,P|232:103|270:139,1,105.000004005432
315,263,215170,1,0,0:0:0:0:
181,201,215420,5,0,0:0:0:0:
112,226,215545,1,0,0:0:0:0:
39,251,215670,1,0,0:0:0:0:
241,305,215920,5,0,0:0:0:0:
75,93,216170,1,0,0:0:0:0:
355,43,216420,1,0,0:0:0:0:
185,313,216670,1,0,0:0:0:0:
132,37,216920,1,0,0:0:0:0:
344,244,217170,1,0,0:0:0:0:
57,161,217420,1,0,0:0:0:0:
286,0,217670,6,0,B|364:-16|381:24|446:36|446:36|373:63|356:42,1,262.500010013581
356,42,218420,1,0,0:0:0:0:
305,198,218670,1,0,0:0:0:0:
201,21,218920,1,0,0:0:0:0:
81,196,219170,6,0,P|70:73|138:19,1,210.000008010865
167,220,219920,1,0,0:0:0:0:
201,21,220170,1,0,0:0:0:0:
305,198,220420,1,0,0:0:0:0:
263,333,220670,38,0,P|200:288|168:217,1,157.500006008148
168,217,221170,1,0,0:0:0:0:
429,99,221420,21,0,0:0:0:0:
130,141,221670,1,0,0:0:0:0:
424,184,221920,1,0,0:0:0:0:
420,328,222170,2,0,L|423:194,1,105.000004005432
423,201,222545,5,0,0:0:0:0:
424,184,222670,1,0,0:0:0:0:
254,22,222920,1,0,0:0:0:0:
66,130,223170,1,0,0:0:0:0:
113,342,223420,1,0,0:0:0:0:
289,360,223670,2,0,B|355:310|349:251|425:184|425:184|338:210|317:270,1,367.500014019013
292,276,224670,37,0,0:0:0:0:
266,279,224795,1,0,0:0:0:0:
241,274,224920,1,0,0:0:0:0:
217,264,225045,1,0,0:0:0:0:
400,299,225170,6,0,P|290:350|174:320,1,245.000002336502
66,216,225920,1,0,0:0:0:0:
113,59,226170,1,0,0:0:0:0:
146,240,226420,1,0,0:0:0:0:
74,382,226670,2,0,L|64:137,1,245.000002336502
60,52,227420,1,0,0:0:0:0:
146,240,227670,1,0,0:0:0:0:
165,32,227920,1,0,0:0:0:0:
347,32,228170,37,0,0:0:0:0:
360,103,228295,1,0,0:0:0:0:
373,175,228420,1,0,0:0:0:0:
256,79,228920,5,0,0:0:0:0:
256,152,229045,1,0,0:0:0:0:
256,225,229170,1,0,0:0:0:0:
165,32,229670,37,0,0:0:0:0:
152,103,229795,1,0,0:0:0:0:
139,175,229920,1,0,0:0:0:0:
259,162,230420,21,0,0:0:0:0:
293,18,230670,1,0,0:0:0:0:
408,110,230920,1,0,0:0:0:0:
370,277,231170,22,0,P|249:294|129:270,1,245.000002336502
73,74,231920,1,0,0:0:0:0:
334,143,232170,1,0,0:0:0:0:
285,384,232420,1,0,0:0:0:0:
204,173,232670,2,0,L|201:50,1,122.500001168251
358,68,233170,5,0,0:0:0:0:
363,239,233420,1,0,0:0:0:0:
224,337,233670,1,0,0:0:0:0:
90,271,233920,1,0,0:0:0:0:
324,323,234170,38,0,P|385:327|435:295,1,122.500001168251
450,263,234545,1,0,0:0:0:0:
468,237,234670,2,0,L|472:175,1,61.2500005841255
386,130,234920,2,0,L|381:191,1,61.2500005841255
478,232,235170,2,0,L|482:170,1,61.2500005841255
396,125,235420,2,0,L|391:186,1,61.2500005841255
488,227,235670,5,0,0:0:0:0:
474,94,235920,5,0,0:0:0:0:
474,94,236045,1,0,0:0:0:0:
391,315,236295,5,0,0:0:0:0:
391,315,236420,1,0,0:0:0:0:
256,192,236545,12,0,237170,0:0:0:0:
115,24,249170,37,0,0:0:0:0:
173,334,249920,1,0,0:0:0:0:
173,334,250170,1,0,0:0:0:0:
173,334,250420,1,0,0:0:0:0:
240,157,250670,1,0,0:0:0:0:
240,157,251170,2,0,L|345:158,1,105.000004005432,0|4,0:0|0:0,0:0:0:0:
344,157,252170,5,0,0:0:0:0:
344,157,252670,2,0,L|396:156,2,52.5000020027161
160,159,253420,37,0,0:0:0:0:
169,128,253545,1,0,0:0:0:0:
190,107,253670,2,0,L|234:79,1,52.5000020027161
277,147,253920,2,0,L|232:174,1,52.5000020027161
204,83,254170,2,0,L|248:55,1,52.5000020027161
291,123,254420,1,0,0:0:0:0:
397,24,255170,5,0,0:0:0:0:
339,334,255920,1,0,0:0:0:0:
339,334,256170,1,0,0:0:0:0:
339,334,256420,1,0,0:0:0:0:
272,157,256670,1,0,0:0:0:0:
272,157,257170,2,0,L|167:158,1,105.000004005432,0|4,0:0|0:0,0:0:0:0:
349,96,257920,37,0,0:0:0:0:
347,218,258170,1,0,0:0:0:0:
347,218,258670,5,0,0:0:0:0:
347,26,258920,1,0,0:0:0:0:
347,26,259420,37,0,0:0:0:0:
348,289,259670,1,4,0:0:0:0:
256,192,259920,12,0,260920,0:0:0:0:
343,43,261170,5,0,0:0:0:0:
343,120,261920,2,0,L|343:264,1,105.000004005432
343,226,262420,1,0,0:0:0:0:
344,329,262670,2,0,L|342:100,1,210.000008010865
343,43,263420,1,4,0:0:0:0:
201,71,264170,37,0,0:0:0:0:
130,177,264670,2,0,L|69:175,2,52.5000020027161
271,183,265420,5,0,0:0:0:0:
298,195,265545,1,0,0:0:0:0:
333,198,265670,2,0,L|436:179,1,105.000004005432
388,82,266170,37,0,0:0:0:0:
361,70,266295,1,0,0:0:0:0:
326,67,266420,2,0,L|222:85,1,105.000004005432
388,82,267170,5,0,0:0:0:0:
294,276,267670,1,0,0:0:0:0:
293,163,267920,37,0,0:0:0:0:
252,89,268170,1,0,0:0:0:0:
211,162,268420,1,0,0:0:0:0:
392,184,268670,5,0,0:0:0:0:
294,276,268920,1,0,0:0:0:0:
385,79,269170,2,0,L|391:183,1,105.000004005432
218,50,270170,37,0,0:0:0:0:
218,50,270670,1,0,0:0:0:0:
159,288,270920,1,0,0:0:0:0:
159,288,271420,5,0,0:0:0:0:
178,284,271670,2,0,B|214:240|354:245|407:189|414:61|414:61|260:92|181:159|186:244,1,630.000024032594
184,91,279170,37,0,0:0:0:0:
218,307,279670,1,0,0:0:0:0:
115,254,279920,1,0,0:0:0:0:
133,140,280170,1,0,0:0:0:0:
247,122,280420,1,0,0:0:0:0:
299,225,280670,1,0,0:0:0:0:
398,66,281170,5,0,0:0:0:0:
449,142,281420,1,0,0:0:0:0:
382,207,281670,1,0,0:0:0:0:
446,280,281920,1,0,0:0:0:0:
375,340,282170,1,0,0:0:0:0:
224,224,282670,37,0,0:0:0:0:
118,175,282920,1,0,0:0:0:0:
130,61,283170,1,0,0:0:0:0:
243,37,283420,1,0,0:0:0:0:
300,137,283670,1,0,0:0:0:0:
256,192,283920,12,0,284920,0:0:0:0:
148,155,285170,6,0,P|158:254|251:292,1,210.000008010865
236,195,285920,2,0,P|256:149|305:132,2,105.000004005432
401,170,286670,37,0,0:0:0:0:
328,235,287170,2,0,B|360:290|335:335,2,105.000004005432
251,292,287920,1,0,0:0:0:0:
59,239,288170,6,0,P|135:173|235:195,1,210.000008010865
401,170,288920,2,0,L|470:167,2,70
224,86,289670,38,0,B|269:37|304:70|352:46|352:46|318:82|285:86,1,210.000008010865
292,84,290420,1,0,0:0:0:0:
229,261,291170,6,0,P|191:223|186:168,1,112
265,188,291545,1,0,0:0:0:0:
342,230,291670,2,0,P|386:198|409:147,1,112
343,43,292170,2,0,P|291:25|235:25,1,112
111,179,292670,38,0,P|115:233|154:272,1,112
189,199,293045,1,0,0:0:0:0:
206,113,293170,2,0,P|259:99|312:114,1,112
350,231,293670,2,0,P|330:283|294:325,1,112
256,192,294170,12,0,295170,0:0:0:0:
214,205,295670,6,0,B|220:205|131:253|170:195|72:186|72:186|112:168|142:182,1,224
298,205,296420,2,0,B|291:205|380:253|341:195|439:186|439:186|399:168|369:182,1,224
256,192,297170,12,0,298420,0:0:0:0:
256,192,298670,12,0,299920,0:0:0:0:
206,48,300170,37,0,0:0:0:0:
188,268,300670,1,0,0:0:0:0:
188,268,300920,1,0,0:0:0:0:
331,11,301670,5,0,0:0:0:0:
313,231,302170,1,0,0:0:0:0:
313,231,302420,1,0,0:0:0:0:
364,113,302920,37,0,0:0:0:0:
238,206,303170,1,0,0:0:0:0:
246,49,303420,1,0,0:0:0:0:
313,190,303670,1,0,0:0:0:0:
188,94,303920,1,0,0:0:0:0:
334,69,304170,1,0,0:0:0:0:
238,206,304420,1,0,0:0:0:0:
163,63,304670,2,0,L|158:115,1,52.5
155,284,306170,6,0,L|189:282,1,35
431,160,306920,2,0,L|431:116,1,35
428,47,307420,1,0,0:0:0:0:
271,279,307670,2,0,L|327:276,1,52.5
206,53,308670,38,0,L|202:87,1,35
309,95,309170,2,0,L|305:129,1,35
302,158,309545,1,0,0:0:0:0:
300,184,309670,1,0,0:0:0:0:
178,225,309920,6,0,L|181:190,1,35
75,183,310420,1,0,0:0:0:0:
75,183,310670,2,0,L|87:68,1,105
345,77,312170,37,0,0:0:0:0:
345,77,312670,2,0,L|342:120,1,35
162,133,313670,5,0,0:0:0:0:
162,133,314170,2,0,L|159:176,1,35
191,307,314920,37,0,0:0:0:0:
244,145,315170,1,0,0:0:0:0:
349,282,315420,1,0,0:0:0:0:
168,221,315670,1,0,0:0:0:0:
327,201,315920,1,0,0:0:0:0:
266,340,316170,1,0,0:0:0:0:
244,145,316420,1,0,0:0:0:0:
37,128,316670,2,0,L|142:127,1,105
142,127,318170,6,0,P|215:133|286:125,1,140
371,91,318920,1,0,0:0:0:0:
464,57,319170,1,0,0:0:0:0:
299,42,319420,1,0,0:0:0:0:
281,126,319670,2,0,L|274:204,1,78.7500030040742
273,227,320170,1,0,0:0:0:0:
202,76,320420,5,0,0:0:0:0:
149,263,320670,1,0,0:0:0:0:
133,129,320920,1,0,0:0:0:0:
271,230,321170,6,0,L|338:234,1,52.5000020027161
352,235,321545,1,0,0:0:0:0:
385,238,321670,1,0,0:0:0:0:
371,126,321920,1,0,0:0:0:0:
283,324,322170,1,0,0:0:0:0:
260,121,322420,1,0,0:0:0:0:
171,322,322670,2,0,L|149:113,1,210.000008010865
133,77,323295,2,0,L|106:78,2,26.2500010013581
177,170,323670,1,0,0:0:0:0:
195,0,323920,37,0,0:0:0:0:
302,12,324170,6,0,P|374:40|381:123,1,157.500006008148
225,85,324545,1,0,0:0:0:0:
177,170,324670,2,0,P|131:240|137:316,1,157.500006008148
276,206,325170,1,0,0:0:0:0:
276,206,325420,1,0,0:0:0:0:
203,30,325670,38,0,P|123:30|66:82,1,157.500006008148
83,184,326045,1,0,0:0:0:0:
164,127,326170,2,0,P|241:139|318:126,2,157.500006008148
203,30,326920,5,0,0:0:0:0:
170,230,327170,1,0,0:0:0:0:
67,79,327420,1,0,0:0:0:0:
318,125,327670,1,0,0:0:0:0:
170,230,327920,2,0,L|327:230,1,157.500006008148
413,82,328420,1,0,0:0:0:0:
408,187,328670,2,0,L|407:344,1,157.500006008148
407,344,329045,1,0,0:0:0:0:
318,125,329420,37,0,0:0:0:0:
175,306,329670,1,0,0:0:0:0:
407,344,329920,1,0,0:0:0:0:
175,306,330170,2,0,B|92:280|109:218|18:193|18:193|92:191|125:229,1,315.000012016297
143,384,330920,5,0,0:0:0:0:
206,221,331170,1,0,0:0:0:0:
384,174,331420,1,0,0:0:0:0:
257,66,331670,2,0,P|154:117|119:227,2,236.250009012223
502,161,332670,37,0,0:0:0:0:
375,53,332920,1,0,0:0:0:0:
301,245,333170,2,0,B|364:264|378:218|431:215|431:215|384:201|353:214,1,210.000008010865
361,211,333671,1,0,0:0:0:0:
257,66,333920,1,0,0:0:0:0:
234,246,334170,1,0,0:0:0:0:
182,95,334420,1,0,0:0:0:0:
234,246,334670,5,0,0:0:0:0:
255,268,334795,1,0,0:0:0:0:
283,282,334920,1,0,0:0:0:0:
310,292,335045,1,0,0:0:0:0:
340,295,335170,38,0,L|423:294,1,78.7500030040742
456,213,335420,2,0,L|373:214,1,78.7500030040742
349,305,335670,6,0,L|431:303,1,78.7500030040742
464,222,335920,2,0,L|381:223,1,78.7500030040742
290,232,336170,2,0,P|257:301|285:372,1,157.500006008148
329,144,336545,1,0,0:0:0:0:
342,50,336670,2,0,P|406:92|419:167,1,157.500006008148
389,304,337170,37,0,0:0:0:0:
389,304,337420,1,0,0:0:0:0:
222,152,337670,6,0,P|255:83|227:12,1,157.500006008148
183,240,338045,1,0,0:0:0:0:
183,240,338170,1,0,0:0:0:0:
127,163,338420,37,0,0:0:0:0:
117,83,338670,1,0,0:0:0:0:
107,5,338920,1,0,0:0:0:0:
189,114,339170,5,0,0:0:0:0:
230,297,339420,1,0,0:0:0:0:
258,76,339670,1,0,0:0:0:0:
305,297,339920,1,0,0:0:0:0:
326,37,340170,1,0,0:0:0:0:
380,297,340420,1,0,0:0:0:0:
394,0,340670,1,0,0:0:0:0:
118,384,341420,1,0,0:0:0:0:
383,296,342170,6,0,B|421:199|346:145|388:55,1,245.000002336502
476,20,342920,5,0,0:0:0:0:
384,176,343170,1,0,0:0:0:0:
467,116,343420,1,0,0:0:0:0:
301,118,343670,2,0,B|233:161|172:86|124:121,1,183.750001752377
124,121,344170,1,0,0:0:0:0:
208,39,344420,38,0,L|207:161,1,122.500001168251
294,28,344920,1,0,0:0:0:0:
207,161,345170,5,0,0:0:0:0:
272,291,345545,1,0,0:0:0:0:
305,283,345670,2,0,L|424:255,1,122.500001168251
207,161,346170,1,0,0:0:0:0:
243,303,346420,1,0,0:0:0:0:
423,255,346670,2,0,P|477:181|485:91,1,183.750001752377
469,65,347170,6,0,L|453:1,1,61.2500005841255
372,9,347420,2,0,L|388:73,1,61.2500005841255
461,59,347670,2,0,L|445:-5,1,61.2500005841255
364,3,347920,2,0,L|380:67,1,61.2500005841255
422,132,348170,6,0,P|332:150|242:136,1,183.750001752377
219,117,348670,1,0,0:0:0:0:
97,26,348920,2,0,L|87:148,1,122.500001168251
185,31,349420,1,0,0:0:0:0:
86,147,349670,2,0,P|141:220|224:258,1,183.750001752377
250,237,350170,2,0,L|397:217,1,122.500001168251
86,147,350670,1,0,0:0:0:0:
98,331,350920,1,0,0:0:0:0:
250,237,351170,37,0,0:0:0:0:
253,145,351295,1,0,0:0:0:0:
256,53,351420,1,0,0:0:0:0:
89,55,351920,5,0,0:0:0:0:
86,147,352045,1,0,0:0:0:0:
83,239,352170,1,0,0:0:0:0:
417,235,352670,37,0,0:0:0:0:
420,143,352795,1,0,0:0:0:0:
423,51,352920,1,0,0:0:0:0:
345,302,353420,5,0,0:0:0:0:
163,255,353670,2,0,L|281:223,1,122.500001168251
360,159,354170,38,0,P|278:122|199:162,1,183.750001752377
189,190,354670,1,0,0:0:0:0:
202,343,354920,5,0,0:0:0:0:
281,223,355170,1,0,0:0:0:0:
115,302,355420,1,0,0:0:0:0:
294,320,355670,2,0,P|366:268|368:179,1,183.750001752377
358,159,356170,1,0,0:0:0:0:
204,68,356420,2,0,L|188:189,1,122.500001168251
132,25,356920,1,0,0:0:0:0:
38,219,357170,5,0,0:0:0:0:
306,131,357545,6,0,B|386:83|466:99|466:99|402:179|434:243|306:227|306:227|258:291|258:291|210:227|210:227|82:243|130:179|50:99|50:99|130:83|255:143,1,997.500038051607
344,311,360170,2,0,P|433:290|497:226,1,183.750001752377
505,198,360670,1,0,0:0:0:0:
255,143,360920,5,0,0:0:0:0:
344,311,361170,2,0,L|371:182,1,122.500001168251
258,330,361670,2,0,P|168:335|98:278,1,183.750001752377
90,254,362170,1,0,0:0:0:0:
258,330,362420,5,0,0:0:0:0:
229,157,362670,2,0,P|254:100|301:62,1,122.500001168251
302,237,363170,6,0,B|365:256|379:210|432:207|432:207|385:193|354:206,1,210.000008010865
196,262,363920,2,0,B|148:307|180:342|156:389|156:389|192:355|196:322,1,210.000008010865
229,157,364670,2,0,B|213:92|167:103|138:59|138:59|149:107|176:127,1,210.000008010865
302,237,365420,5,0,0:0:0:0:
343,142,365670,1,0,0:0:0:0:
460,122,365920,1,0,0:0:0:0:
302,237,366170,6,0,P|247:182|246:106,1,157.500006008148
259,81,366670,1,0,0:0:0:0:
302,237,366920,2,0,L|306:341,1,105.000004005432
224,185,367420,5,0,0:0:0:0:
306,340,367670,38,0,P|232:365|161:336,1,157.500006008148
146,314,368170,1,0,0:0:0:0:
306,340,368420,2,0,L|410:330,1,105.000004005432
237,251,368920,1,0,0:0:0:0:
264,130,369170,1,0,0:0:0:0:
306,340,369545,2,0,B|437:353|413:292|528:266|528:266|460:250|404:284,1,367.500014019013
264,130,370670,5,0,0:0:0:0:
405,284,370920,5,0,0:0:0:0:
405,284,371045,1,0,0:0:0:0:
206,320,371295,5,0,0:0:0:0:
206,320,371420,1,0,0:0:0:0:
405,284,371670,37,0,0:0:0:0:
494,241,371920,1,0,0:0:0:0:
392,368,372170,2,0,B|296:371|206:318|206:318|144:289|59:292|59:292|131:200|268:167|268:167|206:191|183:227|183:227|303:216|303:216|260:228|235:248|235:248|263:258|278:268,1,945.00003604889,0|4,0:0|0:0,0:0:0:0:
307,284,374545,1,0,0:0:0:0:
338,281,374670,1,0,0:0:0:0:
369,281,374795,1,0,0:0:0:0:
399,286,374920,1,0,0:0:0:0:
428,297,375045,1,0,0:0:0:0:
458,306,375170,6,0,B|513:268|487:229|518:186|518:186|477:213|468:245,1,210.000008010865
406,369,375919,2,0,P|305:363|252:278,1,210.000008010865
374,207,376670,2,0,B|431:174|455:96|455:96|362:197|314:137|251:277,1,420.000016021729
149,315,378170,6,0,P|100:254|136:179,1,157.500006008148
252,278,378545,1,0,0:0:0:0:
362,227,378670,2,0,P|437:189|469:120,1,157.500006008148
370,58,379170,2,0,P|295:96|262:164,1,157.500006008148
244,348,379670,6,0,P|312:386|388:371,1,157.500006008148
428,262,380045,1,0,0:0:0:0:
354,155,380170,2,0,P|287:116|212:135,1,157.500006008148
142,272,380670,2,0,P|219:272|275:219,1,157.500006008148
109,107,381170,5,0,0:0:0:0:
390,57,381920,1,0,0:0:0:0:
440,338,382670,1,0,0:0:0:0:
159,384,383420,1,0,0:0:0:0:
82,320,384170,22,0,P|33:259|69:184,1,157.500006008148
185,283,384545,1,0,0:0:0:0:
295,232,384670,2,0,P|370:194|402:125,1,157.500006008148
303,63,385170,2,0,P|228:101|195:169,1,157.500006008148
177,353,385670,6,0,P|245:391|321:376,1,157.500006008148
361,267,386045,1,0,0:0:0:0:
287,160,386170,2,0,P|220:121|145:140,1,157.500006008148
75,277,386670,2,0,P|152:277|208:224,1,157.500006008148
327,84,387170,38,0,P|376:145|340:220,1,140
224,121,387545,1,0,0:0:0:0:
114,172,387670,2,0,P|39:210|7:279,1,140
106,341,388170,2,0,P|181:303|214:235,1,140
232,51,388670,6,0,P|164:13|88:28,1,140
48,137,389045,1,0,0:0:0:0:
122,244,389170,2,0,P|189:283|264:264,1,140
334,127,389670,2,0,P|257:127|201:180,1,140
98,315,390170,38,0,P|49:254|85:179,1,122.500001168251
201,278,390545,1,0,0:0:0:0:
311,227,390670,2,0,P|386:189|418:120,1,122.500001168251
319,58,391170,2,0,P|244:96|211:164,1,122.500001168251
193,348,391670,6,0,P|261:386|337:371,1,122.500001168251
377,262,392045,1,0,0:0:0:0:
303,155,392170,2,0,P|236:116|161:135,1,122.500001168251
91,264,392670,2,0,L|211:286,1,122.500001168251
370,325,393170,6,0,B|445:296|490:243|509:196|518:101|455:49|405:17|316:28|316:28|272:34|229:61|191:65|134:51|7:17|7:17|88:96|126:131|176:136|213:135|213:135|169:168|132:169|45:154|45:154|129:203|177:205|222:201|222:201|203:224|156:241|88:264|88:264|168:260|201:249|236:242|236:242|219:288|173:327|173:327|242:278|298:270|298:270|363:254|419:240|439:175|422:124|388:93|338:99|338:99|287:101|277:125|259:161|277:207|326:204|352:176|350:161|344:153|344:153|333:152,1,2393.99993607331
343,169,402420,5,0,0:0:0:0:
256,192,402670,12,0,404920,0:0:0:0:
