osu file format v14

[General]
AudioFilename: audio.mp3
AudioLeadIn: 0
PreviewTime: 331
Countdown: 0
SampleSet: Soft
StackLeniency: 0.7
Mode: 0
LetterboxInBreaks: 0
EpilepsyWarning: 1
WidescreenStoryboard: 1

[Editor]
Bookmarks: 214295,241724,296581,337724,421724,435438,461152
DistanceSpacing: 1.2
BeatDivisor: 4
GridSize: 4
TimelineZoom: 2

[Metadata]
Title:Akumu no Hate ni Miru Yume
TitleUnicode:悪夢の果てに見るユメ
Artist:Diao Ye Zong feat. nayuta
ArtistUnicode:凋叶棕 feat. nayuta
Creator:Hey lululu
Version:Yume...?
Source:東方Project
Tags:無終祭 Owaranu Matsuri 東方プロジェクト Tōhō Toho Touhou Project Shrine Maiden 東方深秘録 Shinpiroku Urban Legend in Limbo 東方紺珠伝 Kanjuden Legacy of Lunatic Kingdom ラストオカルティズム 現し世の秘術師 Last Occultism Utsushiyo Hijutsushi 見た事も無い悪夢の世界 Mita Koto mo Nai Sekai 宇佐見菫子 Usami Sumireko Final Boss Extra Stage Theme 夢 utsutsu Yume Dream Reality 太田順也 Junya Ota ZUN Team Shanghai Alice Withered Leaf RD-Sounds 光収容 Hikarisyuyo 大分貴明 Takaaki Oita はなだひょう Hanada Hyou Comic Market Comiket 90 C90 Doujin Indie Rock Ballad Video Game Videogame Japanese tokiko lu^3
BeatmapID:2172661
BeatmapSetID:1039388

[Difficulty]
HPDrainRate:6
CircleSize:4.3
OverallDifficulty:8
ApproachRate:8.7
SliderMultiplier:1.8
SliderTickRate:1

[Events]
//Background and Video events
0,0,"Diao Ye Zong feat. nayuta - Akumu no Hate ni Miru Yume.jpg",0,0
//Break Periods
2,3852,7936
2,104581,117650
2,214495,226722
2,461352,478722
//Storyboard Layer 0 (Background)
//Storyboard Layer 1 (Fail)
//Storyboard Layer 2 (Pass)
//Storyboard Layer 3 (Foreground)
//Storyboard Layer 4 (Overlay)
//Storyboard Sound Samples

[TimingPoints]
10,428.571428571429,4,2,2,20,1,0
10,-1000,4,2,2,20,0,0
8581,-125,4,2,1,30,0,0
22295,-111.111111111111,4,2,1,40,0,0
36010,-166.666666666666,4,2,1,50,0,0
49724,-166.666666666666,4,2,1,40,0,0
76938,-125,4,2,1,60,0,0
173152,-100,4,2,1,70,0,1
200581,-111.111111111111,4,2,1,70,0,1
214295,-111.111111111111,4,2,1,70,0,0
241724,-125,4,2,1,60,0,0
282867,-111.111111111111,4,2,1,60,0,0
296581,-100,4,2,1,70,0,1
324010,-111.111111111111,4,2,1,70,0,1
337724,-111.111111111111,4,2,1,20,0,0
364295,-111.111111111111,4,2,1,50,0,0
365152,-100,4,2,1,60,0,0
378867,-83.3333333333333,4,2,1,70,0,0
392581,-100,4,2,1,60,0,0
394295,-83.3333333333333,4,2,1,70,0,1
435438,-125,4,2,1,40,0,0
479367,-909.090909090909,4,2,2,20,0,0

[Colours]
Combo1 : 214,123,124
Combo2 : 168,101,236
Combo3 : 123,214,123
Combo4 : 123,169,214

[HitObjects]
133,330,438,6,0,L|133:193,1,135
475,51,8581,6,0,P|441:44|405:47,1,72,2|0,0:0|0:0,0:0:0:0:
376,124,9010,2,0,P|340:127|305:119,1,72,0|0,0:0|0:0,0:0:0:0:
168,156,9438,2,0,P|160:190|164:226,1,72,2|0,0:0|0:0,0:0:0:0:
240,256,9867,2,0,P|247:290|243:326,1,72,0|0,0:0|0:0,0:0:0:0:
112,376,10295,6,0,P|77:384|42:376,1,72,2|0,0:0|0:0,0:0:0:0:
20,280,10724,1,0,0:0:0:0:
98,156,10938,2,0,P|132:147|167:155,2,72,0|2|0,0:0|0:0|0:0,0:0:0:0:
136,236,11581,1,2,0:0:0:0:
220,220,11795,1,0,0:0:0:0:
288,91,12010,6,0,P|295:57|288:22,1,72,2|0,0:0|0:0,0:0:0:0:
212,48,12438,2,0,P|204:82|211:117,1,72,0|0,0:0|0:0,0:0:0:0:
304,192,12867,2,0,P|339:195|375:192,1,72,2|0,0:0|0:0,0:0:0:0:
416,120,13295,2,0,P|451:116|487:120,1,72,0|0,0:0|0:0,0:0:0:0:
512,272,13724,6,0,P|520:306|512:341,1,72,2|0,0:0|0:0,0:0:0:0:
416,380,14152,1,0,0:0:0:0:
280,328,14367,2,0,P|271:293|279:258,2,72,0|2|0,0:0|0:0|0:0,0:0:0:0:
348,276,15010,1,2,0:0:0:0:
336,192,15224,1,0,0:0:0:0:
212,120,15438,6,0,P|176:116|140:119,1,72,2|0,0:0|0:0,0:0:0:0:
104,192,15867,2,0,P|140:196|176:192,1,72,0|0,0:0|0:0,0:0:0:0:
256,304,16295,2,0,P|264:338|256:373,1,72,2|0,0:0|0:0,0:0:0:0:
180,344,16724,2,0,P|171:309|179:274,1,72,0|0,0:0|0:0,0:0:0:0:
272,176,17152,6,0,P|307:171|343:176,1,72,2|0,0:0|0:0,0:0:0:0:
420,240,17581,1,0,0:0:0:0:
504,136,17795,2,0,P|511:101|508:64,2,72,0|2|0,0:0|0:0|0:0,0:0:0:0:
428,92,18438,1,2,0:0:0:0:
344,80,18652,1,0,0:0:0:0:
203,120,18867,6,0,P|192:154|188:189,1,72,2|0,0:0|0:0,0:0:0:0:
236,256,19295,2,0,P|201:267|166:271,1,72,0|0,0:0|0:0,0:0:0:0:
20,192,19724,2,0,P|54:180|89:176,1,72,2|0,0:0|0:0,0:0:0:0:
128,104,20152,2,0,P|123:68|112:34,1,72,0|0,0:0|0:0,0:0:0:0:
256,0,20581,6,0,P|248:34|255:69,1,72,2|0,0:0|0:0,0:0:0:0:
336,128,21010,1,0,0:0:0:0:
292,264,21224,2,0,P|257:271|222:264,2,72,0|2|0,0:0|0:0|0:0,0:0:0:0:
372,324,21867,1,2,0:0:0:0:
468,300,22081,1,0,0:0:0:0:
482,99,22295,6,0,P|444:88|404:84,1,80.9999975280763,4|0,3:1|0:0,0:0:0:0:
320,152,22724,2,0,P|279:148|240:136,1,80.9999975280763,0|0,0:0|3:2,0:0:0:0:
84,192,23152,2,0,P|68:229|69:269,1,80.9999975280763,2|0,0:2|0:0,0:0:0:0:
196,320,23581,2,0,P|211:282|210:242,1,80.9999975280763,0|0,3:2|0:0,0:0:0:0:
136,80,24010,6,0,P|97:68|56:67,1,80.9999975280763,2|0,0:2|3:2,0:0:0:0:
156,0,24438,1,2,0:2:0:0:
284,60,24652,2,0,P|322:48|363:47,1,80.9999975280763,0|2,0:0|3:2,0:0:0:0:
452,88,25081,1,0,0:0:0:0:
512,192,25295,1,2,3:2:0:0:
480,308,25510,1,0,0:0:0:0:
320,272,25724,6,0,P|312:232|319:193,1,80.9999975280763,2|0,3:2|0:0,0:0:0:0:
416,152,26152,2,0,P|423:191|416:230,1,80.9999975280763,0|0,0:0|3:2,0:0:0:0:
256,160,26581,2,0,P|217:148|176:144,1,80.9999975280763,2|0,0:2|0:0,0:0:0:0:
80,220,27010,2,0,P|39:215|0:204,1,80.9999975280763,0|0,3:2|0:0,0:0:0:0:
128,347,27438,6,0,P|138:308|155:272,1,80.9999975280763,2|0,0:2|3:2,0:0:0:0:
284,236,27867,2,0,P|294:275|311:311,1,80.9999975280763,2|0,0:2|0:0,0:0:0:0:
440,352,28295,1,2,3:2:0:0:
508,304,28510,2,0,L|511:284,2,20.2499993820191,0|0|0,0:0|0:0|0:0,0:0:0:0:
496,264,28724,1,2,3:2:0:0:
408,192,28938,1,0,0:0:0:0:
414,172,29045,1,0,0:0:0:0:
419,152,29152,6,0,P|459:144|500:144,1,80.9999975280763,2|0,3:2|0:0,0:0:0:0:
416,32,29581,2,0,P|375:32|335:39,1,80.9999975280763,0|0,0:0|3:2,0:0:0:0:
192,0,30010,2,0,P|184:39|192:80,1,80.9999975280763,2|0,0:2|0:0,0:0:0:0:
288,152,30438,2,0,P|295:191|288:232,1,80.9999975280763,0|0,3:2|0:0,0:0:0:0:
144,364,30867,6,0,P|104:371|64:363,1,80.9999975280763,2|0,0:2|3:2,0:0:0:0:
32,256,31295,1,2,0:2:0:0:
104,132,31510,2,0,P|143:124|183:132,1,80.9999975280763,0|2,0:0|3:2,0:0:0:0:
224,224,31938,1,0,0:0:0:0:
320,292,32152,1,2,3:2:0:0:
436,272,32367,1,0,0:0:0:0:
504,120,32581,6,0,P|507:79|500:40,1,80.9999975280763,2|0,3:2|0:0,0:0:0:0:
396,8,33010,2,0,P|392:48|399:87,1,80.9999975280763,0|0,0:0|3:2,0:0:0:0:
255,160,33438,2,0,P|216:167|176:160,1,80.9999975280763,2|0,0:2|0:0,0:0:0:0:
128,48,33867,2,0,P|88:40|48:48,1,80.9999975280763,0|0,3:2|0:0,0:0:0:0:
0,204,34295,5,2,0:2:0:0:
14,297,34510,1,0,3:2:0:0:
107,283,34724,1,2,0:2:0:0:
93,188,34938,2,0,P|132:177|172:175,1,80.9999975280763,2|2,0:2|3:2,0:0:0:0:
256,224,35367,2,0,L|260:243,2,20.2499993820191,0|0|0,0:0|0:0|0:0,0:0:0:0:
252,264,35581,1,2,3:2:0:0:
360,308,35796,1,0,0:0:0:0:
363,328,35903,1,0,0:0:0:0:
365,347,36010,6,0,P|441:355|475:287,1,161.999995056153,2|0,3:2|3:2,0:0:0:0:
408,220,36867,2,0,P|403:193|407:166,1,53.9999983520508,2|0,0:2|0:0,0:0:0:0:
500,136,37295,2,0,P|504:109|500:82,1,53.9999983520508,0|0,3:2|0:0,0:0:0:0:
396,16,37724,6,0,L|342:9,1,53.9999983520508,2|0,0:2|3:2,0:0:0:0:
284,80,38152,1,2,0:2:0:0:
184,32,38367,2,0,L|130:25,1,53.9999983520508,0|2,0:0|3:2,0:0:0:0:
48,72,38795,1,0,0:0:0:0:
24,164,39010,2,0,L|31:217,1,53.9999983520508,2|0,3:2|0:0,0:0:0:0:
168,340,39438,6,0,P|207:269|220:190,1,161.999995056153,2|0,3:2|3:2,0:0:0:0:
176,104,40295,2,0,P|149:97|123:96,1,53.9999983520508,2|0,0:2|0:0,0:0:0:0:
220,190,40724,2,0,P|243:176|263:158,1,53.9999983520508,0|0,3:2|0:0,0:0:0:0:
348,88,41152,6,0,L|358:140,1,53.9999983520508,2|0,0:2|3:2,0:0:0:0:
448,164,41581,1,2,0:2:0:0:
408,268,41795,2,0,L|418:320,1,53.9999983520508,0|2,0:0|3:2,0:0:0:0:
328,376,42224,2,0,L|314:373,2,13.4999995880127,0|0|0,0:0|0:0|0:0,0:0:0:0:
296,352,42438,1,2,3:2:0:0:
228,268,42652,1,0,0:0:0:0:
212,281,42759,1,0,0:0:0:0:
195,293,42867,6,0,P|115:304|40:276,1,161.999995056153,2|0,3:2|3:2,0:0:0:0:
0,192,43724,2,0,P|24:180|51:176,1,53.9999983520508,2|0,0:2|0:0,0:0:0:0:
100,96,44152,2,0,P|126:101|150:112,1,53.9999983520508,0|0,3:2|0:0,0:0:0:0:
236,208,44581,6,0,L|286:190,1,53.9999983520508,2|0,0:2|3:2,0:0:0:0:
376,220,45010,1,2,0:2:0:0:
424,112,45224,2,0,L|474:94,1,53.9999983520508,0|2,0:0|3:2,0:0:0:0:
412,24,45652,1,0,0:0:0:0:
324,52,45867,2,0,L|306:102,1,53.9999983520508,2|0,3:2|0:0,0:0:0:0:
112,164,46295,6,0,P|153:232|168:316,1,161.999995056153,2|0,3:2|3:2,0:0:0:0:
244,368,47152,2,0,P|251:342|263:318,1,53.9999983520508,2|0,0:2|0:0,0:0:0:0:
395,269,47581,2,0,P|387:243|375:219,1,53.9999983520508,0|0,3:2|0:0,0:0:0:0:
304,152,48010,5,2,0:2:0:0:
304,152,48652,1,0,0:0:0:0:
300,125,48759,1,0,0:0:0:0:
305,99,48867,1,0,0:0:0:0:
310,86,48974,1,0,0:0:0:0:
312,72,49081,1,0,0:0:0:0:
309,59,49188,1,0,0:0:0:0:
300,36,49295,2,0,P|256:21|216:19,1,80.9999975280763,4|0,0:1|0:0,0:0:0:0:
221,18,49724,6,0,P|213:44|209:71,1,53.9999983520508
84,160,50367,2,0,P|88:133|96:108,1,53.9999983520508,0|0,0:0|0:0,0:0:0:0:
176,192,50795,1,0,0:0:0:0:
176,192,51010,1,2,0:0:0:0:
280,136,51224,2,0,P|330:117|384:111,1,107.999996704102,0|0,0:0|0:0,0:0:0:0:
512,200,52081,5,0,0:0:0:0:
496,280,52295,1,0,0:0:0:0:
372,316,52510,1,2,0:0:0:0:
356,236,52724,1,2,0:0:0:0:
228,272,52938,1,2,0:0:0:0:
212,352,53152,5,2,0:0:0:0:
256,192,53260,12,2,54867,0:0:0:0:
221,32,55295,5,0,0:0:0:0:
221,32,55510,2,0,L|149:14,1,53.9999983520508,2|0,0:0|0:0,0:0:0:0:
37,63,55938,1,0,0:0:0:0:
20,160,56152,2,0,P|56:148|104:140,1,80.9999975280763,2|0,0:0|0:0,0:0:0:0:
120,112,56581,6,0,P|131:164|132:218,1,107.999996704102,2|2,0:0|0:0,0:0:0:0:
192,316,57224,2,0,P|235:284|285:265,1,107.999996704102,0|0,0:0|0:0,0:0:0:0:
492,312,58081,1,0,0:0:0:0:
416,220,58295,1,2,0:0:0:0:
500,191,58510,2,0,P|509:152|512:112,1,80.9999975280763,0|0,0:0|0:0,0:0:0:0:
492,88,58938,2,0,P|465:81|439:77,1,53.9999983520508,0|0,0:0|0:0,0:0:0:0:
340,112,59367,1,2,0:0:0:0:
296,192,59581,1,2,0:0:0:0:
176,180,59795,2,0,P|163:155|159:129,1,53.9999983520508,2|0,0:0|0:0,0:0:0:0:
256,192,60117,12,2,61724,0:0:0:0:
29,86,62152,5,0,0:0:0:0:
29,86,62367,2,0,L|44:158,1,53.9999983520508,2|0,0:0|0:0,0:0:0:0:
0,235,62795,1,0,0:0:0:0:
0,235,63010,1,2,0:0:0:0:
56,312,63224,5,0,0:0:0:0:
120,268,63438,1,2,0:0:0:0:
204,328,63652,2,0,P|256:341|310:340,1,107.999996704102
416,284,64295,2,0,P|420:230|416:176,1,107.999996704102,2|0,0:0|0:0,0:0:0:0:
312,128,64938,2,0,P|308:74|312:20,1,107.999996704102,2|0,0:0|0:0,0:0:0:0:
504,0,65795,1,0,0:0:0:0:
496,80,66010,1,2,0:0:0:0:
432,128,66224,1,0,0:0:0:0:
308,76,66438,1,2,0:0:0:0:
160,112,66652,6,0,P|111:237|92:370,1,269.999991760254,0|2,0:0|0:0,0:0:0:0:
332,312,68152,1,2,0:0:0:0:
272,256,68367,2,0,P|192:240|111:239,1,161.999995056153,0|2,0:0|0:0,0:0:0:0:
32,320,69224,2,0,P|84:331|138:336,1,107.999996704102,2|2,0:0|0:0,0:0:0:0:
256,132,70081,1,0,0:0:0:0:
344,164,70295,6,0,P|360:200|369:240,1,80.9999975280763,2|0,0:0|0:0,0:0:0:0:
404,263,70724,2,0,P|418:225|442:192,1,80.9999975280763,0|0,0:0|0:0,0:0:0:0:
472,220,71152,2,0,P|487:257|495:297,1,80.9999975280763,0|0,0:0|0:0,0:0:0:0:
483,336,71581,2,0,P|456:365|420:382,1,80.9999975280763,0|0,0:0|0:0,0:0:0:0:
384,368,72010,5,2,0:0:0:0:
303,307,72224,2,0,P|266:292|226:287,1,80.9999975280763,0|0,0:0|0:0,0:0:0:0:
192,308,72652,1,0,0:0:0:0:
104,372,72867,1,2,0:0:0:0:
0,348,73081,1,0,0:0:0:0:
72,228,73295,1,2,0:0:0:0:
176,192,73510,1,0,0:0:0:0:
256,192,73617,12,2,75438,0:0:0:0:
266,89,75652,5,2,0:0:0:0:
207,27,75867,2,0,L|153:21,1,53.9999983520508
53,104,76295,2,0,L|-17:111,2,53.9999983520508,0|0|2,0:0|0:0|0:0,0:0:0:0:
28,28,76938,5,0,0:0:0:0:
0,192,77152,1,0,3:0:0:0:
108,160,77367,2,0,L|177:140,1,72
332,192,77795,1,0,3:0:0:0:
300,300,78010,2,0,L|230:319,1,72
48,368,78438,1,2,3:1:0:0:
96,268,78652,2,0,L|76:198,1,72,0|0,0:0|3:0,0:0:0:0:
136,24,79081,1,0,0:0:0:0:
236,64,79295,2,0,L|255:133,1,72,0|0,0:0|3:0,0:0:0:0:
388,244,79724,1,0,0:0:0:0:
356,348,79938,2,0,L|286:367,1,72,0|2,0:0|3:1,0:0:0:0:
48,192,80581,5,0,3:0:0:0:
152,160,80795,2,0,P|163:125|164:89,1,72,0|0,0:0|0:0,0:0:0:0:
316,0,81224,1,0,3:0:0:0:
404,60,81438,2,0,P|411:95|409:130,1,72,0|0,0:0|0:0,0:0:0:0:
312,276,81867,1,2,3:1:0:0:
392,352,82081,2,0,P|426:359|462:357,1,72,0|2,0:0|3:1,0:0:0:0:
512,192,82510,1,0,0:0:0:0:
480,88,82724,1,0,0:0:0:0:
384,192,82938,1,0,3:0:0:0:
244,224,83152,1,0,0:0:0:0:
140,192,83367,1,0,0:0:0:0:
216,120,83581,1,2,3:1:0:0:
364,368,84010,5,0,3:0:0:0:
440,292,84224,2,0,L|511:280,1,72,0|0,0:0|0:0,0:0:0:0:
456,120,84652,1,0,3:0:0:0:
380,44,84866,2,0,L|308:32,1,72,0|0,0:0|0:0,0:0:0:0:
152,108,85295,1,2,3:1:0:0:
244,168,85510,2,0,L|255:239,1,72,0|2,0:0|3:1,0:0:0:0:
136,368,85938,1,0,0:0:0:0:
32,336,86152,1,0,0:0:0:0:
64,232,86367,1,0,3:0:0:0:
168,264,86581,1,0,0:0:0:0:
100,296,86795,1,0,0:0:0:0:
68,80,87010,2,0,P|102:72|138:75,1,72,2|0,3:1|0:0,0:0:0:0:
138,75,87438,5,0,3:0:0:0:
356,280,87867,2,0,P|366:314|364:350,1,72,0|0,0:0|3:0,0:0:0:0:
256,380,88295,1,0,0:0:0:0:
100,296,88510,2,0,P|89:261|91:225,1,72,0|2,0:0|3:1,0:0:0:0:
228,176,88938,2,0,P|197:157|161:151,1,72,0|2,0:0|3:1,0:0:0:0:
104,60,89367,1,0,0:0:0:0:
20,124,89581,1,0,0:0:0:0:
0,232,89795,2,0,P|-7:266|0:301,1,72,0|0,3:0|0:0,0:0:0:0:
76,368,90224,1,0,0:0:0:0:
212,328,90438,2,0,P|247:320|282:319,1,72,2|0,3:1|0:0,0:0:0:0:
492,368,90867,6,0,P|506:334|511:299,2,72,0|0|0,3:0|0:0|0:0,0:0:0:0:
380,384,91510,1,0,3:0:0:0:
300,296,91724,2,0,P|305:260|319:227,1,72,0|0,0:0|0:0,0:0:0:0:
492,192,92152,2,0,P|480:139|455:91,1,108,2|0,3:1|0:0,0:0:0:0:
472,64,92581,6,0,P|436:56|401:55,1,72,0|0,3:0|0:0,0:0:0:0:
336,120,93010,1,0,0:0:0:0:
228,84,93224,2,0,P|192:76|157:75,1,72,0|0,3:0|0:0,0:0:0:0:
80,132,93652,1,0,0:0:0:0:
128,268,93867,2,0,P|180:258|234:259,1,108,2|0,3:1|0:0,0:0:0:0:
256,248,94295,6,0,P|248:282|255:317,2,72,0|0|0,3:0|0:0|0:0,0:0:0:0:
340,192,94938,1,0,3:0:0:0:
460,216,95152,2,0,P|466:251|459:285,1,72,0|0,0:0|0:0,0:0:0:0:
340,192,95581,2,0,P|333:156|340:122,1,72,2|0,3:1|0:0,0:0:0:0:
223,23,96010,6,0,P|189:12|154:13,1,72,0|0,3:0|0:0,0:0:0:0:
72,56,96438,1,0,0:0:0:0:
132,164,96652,2,0,P|166:175|201:174,1,72,0|0,3:0|0:0,0:0:0:0:
288,136,97081,1,0,0:0:0:0:
360,288,97295,2,0,P|325:299|290:298,1,72,2|8,3:1|3:2,0:0:0:0:
271,287,97617,1,8,3:2:0:0:
256,276,97724,6,0,P|221:264|186:260,2,72,0|0|0,3:0|0:0|0:0,0:0:0:0:
336,212,98367,1,0,3:0:0:0:
368,92,98581,2,0,P|334:80|298:76,1,72,0|0,0:0|0:0,0:0:0:0:
144,16,99010,2,0,P|90:16|38:32,1,108,2|0,3:1|0:0,0:0:0:0:
12,16,99438,6,0,P|1:50|1:85,1,72,0|0,3:0|0:0,0:0:0:0:
60,164,99867,1,0,0:0:0:0:
180,192,100081,2,0,P|190:226|190:261,1,72,0|0,3:0|0:0,0:0:0:0:
136,340,100510,1,0,0:0:0:0:
284,376,100724,2,0,P|303:325|331:280,1,108,2|0,3:1|0:0,0:0:0:0:
364,268,101152,6,0,P|377:301|383:336,1,72,0|0,3:0|0:0,0:0:0:0:
480,368,101581,2,0,P|486:332|499:299,1,72,0|0,0:0|3:0,0:0:0:0:
448,164,102010,2,0,P|415:149|379:146,1,72,0|0,0:0|0:0,0:0:0:0:
256,24,102438,2,0,P|288:9|324:6,1,72,2|0,3:1|0:0,0:0:0:0:
488,40,102867,5,0,0:0:0:0:
68,20,118295,5,0,3:2:0:0:
151,63,118510,2,0,P|169:114|176:168,1,108,0|0,0:0|0:0,0:0:0:0:
160,203,118938,2,0,P|216:164|279:191,1,144,2|0,0:0|3:2,0:0:0:0:
364,324,119581,1,0,0:0:0:0:
292,375,119795,2,0,P|256:372|222:360,2,72,0|0|0,3:2|3:2|0:0,0:0:0:0:
256,288,120438,1,2,0:0:0:0:
120,268,120652,1,2,0:0:0:0:
52,324,120867,1,0,0:0:0:0:
132,356,121081,1,0,3:2:0:0:
196,240,121295,1,0,0:0:0:0:
168,108,121510,1,0,3:2:0:0:
52,24,121724,6,0,P|34:93|24:165,1,144,0|2,3:2|0:0,0:0:0:0:
92,236,122367,1,2,0:0:0:0:
92,236,122581,2,0,P|102:201|107:166,1,72,2|0,0:0|3:2,0:0:0:0:
196,240,123010,2,0,P|185:274|180:309,1,72,2|0,0:0|3:2,0:0:0:0:
328,380,123438,6,0,P|363:377|398:366,1,72,0|0,3:2|0:0,0:0:0:0:
464,296,123867,1,2,0:0:0:0:
424,176,124081,2,0,P|389:166|353:162,1,72,2|0,0:0|0:0,0:0:0:0:
256,220,124510,1,2,3:2:0:0:
184,56,124724,2,0,P|219:58|254:69,1,72,2|0,0:0|3:2,0:0:0:0:
160,164,125152,6,0,P|124:159|89:150,1,72,0|0,3:2|0:0,0:0:0:0:
16,220,125581,1,2,0:0:0:0:
72,336,125795,2,0,P|143:332|212:313,1,144,2|0,0:0|3:2,0:0:0:0:
256,220,126438,1,0,0:0:0:0:
228,96,126652,1,0,3:2:0:0:
48,56,126867,5,0,3:2:0:0:
72,144,127081,2,0,P|107:147|143:144,1,72,0|2,0:0|0:0,0:0:0:0:
192,28,127510,2,0,P|156:24|120:27,1,72,2|0,0:0|0:0,0:0:0:0:
143,144,127938,1,0,3:2:0:0:
256,192,128152,1,0,0:0:0:0:
388,136,128367,1,0,3:2:0:0:
388,136,128581,6,0,P|399:101|403:66,2,72,0|0|2,3:2|0:0|0:0,0:0:0:0:
448,220,129224,1,2,0:0:0:0:
408,336,129438,2,0,P|373:347|338:351,1,72,2|0,0:0|3:2,0:0:0:0:
228,380,129867,2,0,P|192:375|158:364,1,72,2|0,0:0|3:2,0:0:0:0:
24,292,130295,6,0,P|22:256|27:220,1,72,0|0,3:2|0:0,0:0:0:0:
96,148,130724,1,2,0:0:0:0:
220,108,130938,2,0,P|225:72|223:36,1,72,2|0,0:0|0:0,0:0:0:0:
132,0,131367,1,2,3:2:0:0:
16,44,131581,1,2,0:0:0:0:
0,144,131795,1,0,3:2:0:0:
184,212,132010,5,4,3:2:0:0:
272,164,132224,2,0,P|341:145|412:151,1,144,0|2,0:0|0:0,0:0:0:0:
504,232,132867,2,0,P|511:266|507:302,1,72,0|0,0:0|3:2,0:0:0:0:
384,368,133295,1,0,0:0:0:0:
300,320,133510,2,0,P|266:308|230:311,2,72,0|0|0,3:2|3:2|0:0,0:0:0:0:
376,264,134152,1,2,0:0:0:0:
340,112,134367,1,2,0:0:0:0:
256,68,134581,1,0,0:0:0:0:
204,144,134795,1,0,3:2:0:0:
60,192,135010,1,0,0:0:0:0:
0,64,135224,1,0,3:2:0:0:
0,64,135438,6,0,P|34:52|69:47,2,72,0|0|2,3:2|0:0|0:0,0:0:0:0:
104,124,136081,1,2,0:0:0:0:
179,232,136295,2,0,P|174:267|160:300,1,72,2|0,0:0|3:2,0:0:0:0:
76,328,136724,1,2,0:0:0:0:
256,372,136938,1,0,3:2:0:0:
420,304,137152,6,0,P|455:296|491:295,1,72,0|0,3:2|0:0,0:0:0:0:
468,204,137581,1,2,0:0:0:0:
360,148,137795,2,0,P|325:137|289:134,1,72,2|0,0:0|0:0,0:0:0:0:
208,192,138224,1,2,3:2:0:0:
176,300,138438,1,2,0:0:0:0:
92,136,138652,1,0,3:2:0:0:
184,8,138867,6,0,P|219:1|255:0,1,72,0|0,3:2|0:0,0:0:0:0:
404,64,139295,2,0,P|368:57|332:55,1,72,2|2,0:0|0:0,0:0:0:0:
224,160,139724,2,0,P|206:191|197:226,1,72,0|0,0:0|3:2,0:0:0:0:
104,356,140152,2,0,P|86:324|77:289,1,72,0|0,0:0|3:2,0:0:0:0:
112,120,140581,5,0,3:2:0:0:
84,32,140795,2,0,P|50:19|14:19,1,72,0|2,0:0|0:0,0:0:0:0:
0,120,141224,1,2,0:0:0:0:
196,84,141438,1,0,0:0:0:0:
272,136,141652,2,0,P|283:170|280:205,1,72,0|0,3:2|0:0,0:0:0:0:
216,376,142081,1,0,3:2:0:0:
156,316,142295,6,0,P|224:295|296:295,1,144,0|2,3:2|0:0,0:0:0:0:
408,340,142938,1,2,0:0:0:0:
496,280,143152,2,0,P|506:245|511:210,1,72,2|0,0:0|3:2,0:0:0:0:
380,180,143581,2,0,P|369:145|364:110,1,72,2|0,0:0|3:2,0:0:0:0:
456,0,144010,5,0,3:2:0:0:
488,64,144224,1,0,0:0:0:0:
432,108,144438,1,2,0:0:0:0:
304,68,144652,1,2,0:0:0:0:
212,168,144867,1,2,0:0:0:0:
256,344,145081,1,2,3:2:0:0:
468,384,145295,1,2,0:0:0:0:
504,292,145510,1,2,3:2:0:0:
356,220,145724,5,0,3:0:0:0:
416,128,145938,2,0,L|487:117,1,72,0|0,0:0|0:0,0:0:0:0:
368,0,146367,1,0,3:0:0:0:
308,92,146581,2,0,L|236:102,1,72,0|0,0:0|0:0,0:0:0:0:
64,128,147010,1,2,3:1:0:0:
96,32,147224,1,0,0:0:0:0:
164,160,147438,5,0,3:0:0:0:
132,256,147652,1,0,0:0:0:0:
256,288,147867,1,0,0:0:0:0:
288,384,148081,1,0,3:0:0:0:
384,352,148295,1,0,0:0:0:0:
351,255,148510,2,0,P|344:221|351:186,2,72,0|2|0,0:0|3:1|0:0,0:0:0:0:
472,144,149152,5,0,3:0:0:0:
408,56,149367,2,0,P|373:48|337:55,1,72,0|0,0:0|0:0,0:0:0:0:
180,132,149795,1,0,3:0:0:0:
244,220,150010,2,0,P|278:227|314:220,1,72,0|0,0:0|0:0,0:0:0:0:
480,268,150438,1,2,3:1:0:0:
416,356,150652,2,0,P|404:321|405:286,1,72,0|2,0:0|3:1,0:0:0:0:
472,124,151081,1,0,0:0:0:0:
392,52,151295,1,0,0:0:0:0:
248,28,151510,1,0,3:0:0:0:
124,96,151724,1,0,0:0:0:0:
92,200,151938,1,0,0:0:0:0:
200,180,152152,1,2,3:1:0:0:
484,224,152581,5,0,3:0:0:0:
388,272,152795,2,0,L|375:342,1,72,0|0,0:0|0:0,0:0:0:0:
204,372,153224,1,0,3:0:0:0:
108,324,153438,2,0,L|95:253,1,72,0|0,0:0|0:0,0:0:0:0:
168,96,153867,1,2,3:1:0:0:
276,80,154081,2,0,L|347:69,1,72,0|0,0:0|3:0,0:0:0:0:
488,176,154510,1,0,0:0:0:0:
512,280,154724,1,0,0:0:0:0:
408,304,154938,1,0,3:0:0:0:
384,200,155152,1,0,0:0:0:0:
448,240,155367,1,0,0:0:0:0:
232,268,155581,2,0,P|220:233|219:197,1,72,2|0,3:1|0:0,0:0:0:0:
218,198,156010,5,0,3:0:0:0:
444,16,156438,2,0,P|409:5|374:0,1,72,0|0,0:0|3:0,0:0:0:0:
288,64,156867,1,0,0:0:0:0:
378,224,157081,2,0,P|412:234|447:239,1,72,0|2,0:0|3:1,0:0:0:0:
344,348,157510,6,0,P|339:312|328:278,1,72,0|2,0:0|3:1,0:0:0:0:
256,192,157938,1,0,0:0:0:0:
152,160,158152,1,0,0:0:0:0:
88,248,158367,2,0,P|55:263|20:260,1,72,0|0,3:0|0:0,0:0:0:0:
0,164,158795,1,0,0:0:0:0:
112,68,159010,2,0,P|128:35|135:0,1,72,2|0,3:1|0:0,0:0:0:0:
300,144,159438,6,0,P|333:129|368:124,2,72,0|0|0,3:2|0:0|0:0,0:0:0:0:
256,260,160081,1,2,0:0:0:0:
160,172,160295,2,0,P|124:177|91:191,1,72,0|0,0:0|3:2,0:0:0:0:
0,344,160724,2,0,P|35:349|68:363,1,72,2|0,0:0|3:2,0:0:0:0:
230,327,161152,6,0,P|240:292|256:260,1,72,0|0,3:2|0:0,0:0:0:0:
340,204,161581,1,0,0:0:0:0:
232,128,161795,2,0,P|241:93|257:60,1,72,2|0,0:0|0:0,0:0:0:0:
344,4,162224,1,0,3:2:0:0:
444,112,162438,2,0,P|459:144|469:179,1,72,2|0,0:0|3:2,0:0:0:0:
297,352,162867,6,0,P|262:342|229:326,1,72,0|0,3:2|0:0,0:0:0:0:
256,248,163295,2,0,P|290:257|323:273,1,72,0|2,0:0|0:0,0:0:0:0:
152,296,163724,2,0,P|161:261|177:228,1,72,0|0,0:0|3:2,0:0:0:0:
348,206,164152,2,0,P|338:240|322:273,1,72,2|0,0:0|3:2,0:0:0:0:
256,128,164581,6,0,P|290:120|325:127,1,72,0|0,3:2|0:0,0:0:0:0:
428,192,165010,1,0,0:0:0:0:
322,273,165224,2,0,P|287:280|252:273,1,72,2|0,0:0|0:0,0:0:0:0:
156,200,165652,1,0,3:2:0:0:
20,256,165867,2,0,P|12:291|20:325,1,72,2|0,0:0|3:2,0:0:0:0:
120,88,166295,6,0,P|87:71|52:64,2,72,0|0|0,3:2|0:0|0:0,0:0:0:0:
156,200,166938,1,2,0:0:0:0:
272,136,167152,2,0,P|304:119|339:112,1,72,0|0,0:0|3:2,0:0:0:0:
476,216,167581,2,0,P|443:199|408:192,1,72,2|0,0:0|3:2,0:0:0:0:
256,272,168010,6,0,P|237:303|228:337,1,72,0|0,3:2|0:0,0:0:0:0:
340,376,168438,1,0,0:0:0:0:
448,281,168652,2,0,P|466:249|475:215,1,72,2|0,0:0|0:0,0:0:0:0:
456,104,169081,1,0,3:2:0:0:
304,40,169295,1,2,0:0:0:0:
256,116,169510,1,0,3:2:0:0:
292,256,169724,6,0,P|324:270|360:270,1,72,0|0,3:2|0:0,0:0:0:0:
380,192,170152,2,0,P|347:177|311:177,1,72,0|2,0:0|0:0,0:0:0:0:
95,228,170581,2,0,P|73:256|64:290,1,72,0|0,0:0|3:2,0:0:0:0:
156,372,171010,2,0,P|178:343|187:309,1,72,2|0,0:0|3:2,0:0:0:0:
136,28,171438,5,4,3:2:0:0:
136,28,171867,1,0,0:0:0:0:
184,126,172081,2,0,L|255:115,1,72,0|0,0:0|0:0,0:0:0:0:
312,32,172510,1,8,0:0:0:0:
330,35,172617,1,8,0:0:0:0:
348,38,172724,1,8,0:0:0:0:
404,136,172938,1,8,0:0:0:0:
312,312,173152,6,0,P|272:332|227:340,1,90,4|0,3:2|0:0,0:0:0:0:
96,308,173581,2,0,P|77:267|71:222,1,90,2|0,0:0|3:2,0:0:0:0:
224,108,174010,2,0,P|218:152|199:193,1,90,8|0,3:2|0:0,0:0:0:0:
124,96,174438,1,0,3:2:0:0:
284,15,174652,1,0,0:0:0:0:
284,15,174867,6,0,P|326:1|371:-1,1,90,0|0,3:2|0:0,0:0:0:0:
507,83,175295,2,0,P|515:128|510:172,1,90,0|0,3:2|0:0,0:0:0:0:
444,352,175724,1,8,3:2:0:0:
444,352,175938,1,2,0:0:0:0:
356,328,176152,1,0,3:2:0:0:
336,240,176367,1,2,0:0:0:0:
187,135,176581,6,0,P|144:124|99:120,1,90,0|0,3:2|0:0,0:0:0:0:
16,192,177010,1,2,0:0:0:0:
40,300,177224,1,0,3:2:0:0:
200,360,177438,2,0,P|238:278|255:190,1,180,8|0,3:2|3:2,0:0:0:0:
240,76,178081,1,0,0:0:0:0:
84,4,178295,5,0,3:2:0:0:
0,40,178510,1,2,0:0:0:0:
36,124,178724,1,0,3:2:0:0:
120,88,178938,1,2,0:0:0:0:
352,124,179152,2,0,L|441:116,1,90,8|2,3:2|0:0,0:0:0:0:
441,116,179581,1,0,3:2:0:0:
512,192,179795,1,2,0:0:0:0:
352,276,180010,6,0,L|336:364,1,90,4|0,3:2|0:0,0:0:0:0:
204,384,180438,2,0,L|116:368,1,90,2|0,0:0|3:2,0:0:0:0:
64,192,180867,2,0,L|152:176,1,90,8|0,3:2|0:0,0:0:0:0:
256,248,181295,1,0,3:2:0:0:
416,164,181510,1,0,0:0:0:0:
416,164,181724,6,0,L|432:76,1,90,0|0,3:2|0:0,0:0:0:0:
284,16,182152,2,0,L|196:0,1,90,0|2,3:2|0:0,0:0:0:0:
52,108,182581,1,8,3:2:0:0:
52,108,182795,1,0,0:0:0:0:
16,192,183010,1,0,3:2:0:0:
64,268,183224,1,0,0:0:0:0:
244,244,183438,6,0,L|259:155,1,90,0|0,3:2|0:0,0:0:0:0:
412,104,183867,2,0,L|427:192,1,90,2|0,0:0|3:2,0:0:0:0:
344,360,184295,2,0,L|255:344,1,90,8|0,3:2|0:0,0:0:0:0:
170,170,184724,2,0,L|259:155,1,90,0|0,3:2|0:0,0:0:0:0:
392,0,185152,5,0,3:2:0:0:
496,52,185367,2,0,L|511:140,1,90,0|0,0:0|3:2,0:0:0:0:
376,240,185795,1,10,0:0:0:0:
372,262,185902,1,0,3:0:0:0:
368,284,186009,1,8,3:2:0:0:
496,352,186224,1,0,0:0:0:0:
492,330,186331,1,8,3:2:0:0:
468,164,186652,1,8,3:2:0:0:
300,20,186867,6,0,P|257:6|212:3,1,90,4|0,3:2|0:0,0:0:0:0:
120,104,187295,2,0,P|75:106|32:120,1,90,2|0,0:0|3:2,0:0:0:0:
152,256,187724,2,0,P|173:216|183:172,1,90,8|0,3:2|0:0,0:0:0:0:
60,248,188152,1,0,3:2:0:0:
200,368,188367,1,0,0:0:0:0:
200,368,188581,6,0,P|244:376|288:369,1,90,0|0,3:2|0:0,0:0:0:0:
428,308,189010,2,0,P|436:263|429:219,1,90,0|0,3:2|0:0,0:0:0:0:
376,32,189438,1,8,3:2:0:0:
376,32,189652,1,2,0:0:0:0:
288,4,189867,1,0,3:2:0:0:
200,16,190081,1,2,0:0:0:0:
64,136,190295,6,0,P|42:175|32:219,1,90,0|0,3:2|0:0,0:0:0:0:
68,320,190724,1,2,0:0:0:0:
176,340,190938,1,0,3:2:0:0:
308,216,191152,2,0,P|349:198|393:191,1,90,8|0,3:2|0:0,0:0:0:0:
480,220,191581,1,0,3:2:0:0:
512,332,191795,1,0,0:0:0:0:
340,384,192010,6,0,P|295:377|254:359,1,90,0|2,3:2|0:0,0:0:0:0:
140,244,192438,2,0,P|184:237|225:219,1,90,0|2,3:2|0:0,0:0:0:0:
372,76,192867,2,0,P|327:69|286:51,1,90,8|2,3:2|0:0,0:0:0:0:
416,0,193295,1,0,3:2:0:0:
492,44,193510,1,2,0:0:0:0:
396,220,193724,6,0,P|382:262|376:307,1,90,4|0,3:2|0:0,0:0:0:0:
224,368,194152,2,0,P|218:323|203:280,1,90,2|0,0:0|3:2,0:0:0:0:
116,96,194581,1,8,3:2:0:0:
48,180,194795,2,0,P|90:194|135:198,1,90,0|0,0:0|3:2,0:0:0:0:
304,128,195224,1,0,0:0:0:0:
304,128,195438,6,0,P|346:113|391:109,1,90,0|0,3:2|0:0,0:0:0:0:
484,164,195867,2,0,P|498:206|502:251,1,90,0|2,3:2|0:0,0:0:0:0:
352,352,196295,1,8,3:2:0:0:
256,300,196510,1,0,0:0:0:0:
240,192,196724,1,0,3:2:0:0:
284,92,196938,1,0,0:0:0:0:
120,16,197152,6,0,P|77:1|32:0,1,90,0|0,3:2|0:0,0:0:0:0:
8,100,197581,2,0,P|50:114|95:116,1,90,2|0,0:0|3:2,0:0:0:0:
256,300,198010,2,0,P|213:285|168:283,1,90,8|0,3:2|0:0,0:0:0:0:
32,324,198438,1,0,3:2:0:0:
368,376,198652,1,0,0:0:0:0:
368,376,198867,6,0,P|384:288|370:199,1,180,0|0,3:2|3:2,0:0:0:0:
267,145,199510,1,10,3:2:0:0:
246,135,199617,1,8,3:2:0:0:
224,129,199724,1,8,3:2:0:0:
486,66,200045,1,8,3:2:0:0:
512,319,200367,1,8,3:2:0:0:
512,319,200474,1,8,0:0:0:0:
512,319,200581,6,0,P|435:344|356:332,1,161.999995056153,4|2,3:2|0:0,0:0:0:0:
300,252,201224,1,0,3:2:0:0:
400,159,201438,2,0,P|418:124|424:84,1,80.9999975280763,8|0,3:2|0:0,0:0:0:0:
316,16,201867,2,0,P|257:1|196:-4,1,121.499996292114,0|0,3:2|0:0,0:0:0:0:
160,16,202295,6,0,P|134:92|120:172,1,161.999995056153,0|0,3:2|3:2,0:0:0:0:
192,240,202938,1,0,0:0:0:0:
100,368,203152,2,0,P|60:375|19:374,1,80.9999975280763,8|0,3:2|0:0,0:0:0:0:
111,246,203581,2,0,P|151:238|192:240,1,80.9999975280763,0|0,3:2|0:0,0:0:0:0:
364,280,204010,5,0,3:2:0:0:
400,372,204224,1,2,0:0:0:0:
304,352,204438,1,2,0:0:0:0:
460,264,204652,1,2,3:2:0:0:
344,88,204867,1,8,3:2:0:0:
256,44,205081,1,2,0:0:0:0:
159,60,205295,2,0,P|145:97|140:137,1,80.9999975280763,0|0,3:2|0:0,0:0:0:0:
192,372,205724,5,0,3:2:0:0:
192,372,205938,1,2,0:0:0:0:
96,348,206152,1,0,3:2:0:0:
72,252,206367,1,2,0:0:0:0:
228,192,206581,1,8,3:2:0:0:
256,100,206795,1,2,0:0:0:0:
48,43,207010,2,0,P|86:32|126:27,1,80.9999975280763,0|0,3:2|0:0,0:0:0:0:
384,174,207438,6,0,P|308:199|228:191,1,161.999995056153,4|2,3:2|0:0,0:0:0:0:
168,112,208081,1,0,3:2:0:0:
304,20,208295,2,0,P|383:3|463:7,1,161.999995056153,8|0,3:2|3:2,0:0:0:0:
512,92,208938,1,0,0:0:0:0:
396,220,209152,6,0,P|381:257|381:297,1,80.9999975280763,0|0,3:2|0:0,0:0:0:0:
472,248,209581,1,0,3:2:0:0:
320,192,209795,2,0,P|305:154|305:114,1,80.9999975280763,2|8,0:0|3:2,0:0:0:0:
344,8,210224,1,0,0:0:0:0:
444,68,210438,1,0,3:2:0:0:
444,68,210652,1,0,0:0:0:0:
320,192,210867,6,0,P|280:200|241:190,1,80.9999975280763,0|0,3:2|0:0,0:0:0:0:
204,84,211295,2,0,P|164:74|125:82,1,80.9999975280763,2|0,0:0|3:2,0:0:0:0:
4,192,211724,2,0,P|-5:231|2:270,1,80.9999975280763,8|0,3:2|0:0,0:0:0:0:
80,340,212152,1,0,3:2:0:0:
184,324,212367,1,0,0:0:0:0:
284,192,212581,6,0,P|362:174|442:183,1,161.999995056153,0|0,3:2|3:2,0:0:0:0:
500,272,213224,1,10,3:2:0:0:
509,289,213331,1,8,3:2:0:0:
512,309,213438,1,8,3:2:0:0:
295,278,213759,1,8,3:2:0:0:
453,118,214081,1,8,3:2:0:0:
324,28,214295,5,0,0:0:0:0:
54,74,227367,5,8,0:0:0:0:
78,88,227474,1,8,0:0:0:0:
100,105,227581,5,8,0:0:0:0:
139,97,227688,1,8,0:0:0:0:
179,89,227795,1,8,0:0:0:0:
219,82,227902,1,8,0:0:0:0:
259,74,228010,6,0,P|228:119|228:161,1,80.9999975280763,4|0,3:2|0:0,0:0:0:0:
290,268,228438,1,8,3:2:0:0:
446,236,228652,1,0,3:2:0:0:
392,376,228867,2,0,P|365:351|356:273,1,80.9999975280763,0|0,0:0|3:2,0:0:0:0:
389,136,229295,2,0,P|376:174|347:201,1,80.9999975280763,8|0,3:2|3:2,0:0:0:0:
227,181,229724,6,0,P|187:148|100:134,1,121.499996292114,0|0,3:2|0:0,0:0:0:0:
50,179,230152,1,8,3:2:0:0:
19,330,230367,2,0,P|59:297|146:283,1,121.499996292114,0|0,3:2|0:0,0:0:0:0:
196,328,230795,1,0,3:2:0:0:
317,281,231010,2,0,L|333:178,1,80.9999975280763,8|0,3:2|3:2,0:0:0:0:
237,11,231438,6,0,P|251:70|349:117,1,161.999995056153,0|8,3:2|3:2,0:0:0:0:
437,41,232081,1,0,3:2:0:0:
505,154,232295,2,0,P|452:168|415:208,1,80.9999975280763,0|0,0:0|3:2,0:0:0:0:
389,310,232724,2,0,P|355:287|316:280,1,80.9999975280763,8|0,3:2|3:2,0:0:0:0:
167,341,233152,6,0,P|185:270|202:174,1,161.999995056153,0|8,3:2|3:2,0:0:0:0:
15,55,233795,2,0,P|31:126|67:187,1,121.499996292114,0|0,3:2|0:0,0:0:0:0:
130,196,234224,1,0,3:2:0:0:
279,102,234438,1,8,3:2:0:0:
279,102,234652,1,0,3:2:0:0:
179,0,234867,6,0,P|165:34|172:100,1,80.9999975280763,0|0,3:2|0:0,0:0:0:0:
273,197,235295,1,8,3:2:0:0:
423,147,235510,1,0,3:2:0:0:
489,294,235724,2,0,L|384:276,1,80.9999975280763,0|0,0:0|3:2,0:0:0:0:
264,356,236152,2,0,L|343:369,1,80.9999975280763,8|0,3:2|3:2,0:0:0:0:
360,216,236581,6,0,P|333:158|353:69,1,121.499996292114,0|0,3:2|0:0,0:0:0:0:
402,48,237010,1,8,3:2:0:0:
218,0,237224,2,0,P|245:58|225:147,1,121.499996292114,0|0,3:2|0:0,0:0:0:0:
176,168,237653,1,0,3:2:0:0:
76,63,237867,2,0,P|23:75|-15:115,1,80.9999975280763,8|0,3:2|3:2,0:0:0:0:
12,233,238295,6,0,L|171:261,1,161.999995056153,0|8,3:2|3:2,0:0:0:0:
291,276,238938,1,0,3:2:0:0:
228,184,239152,2,0,P|208:142|202:84,1,80.9999975280763,0|0,0:0|3:2,0:0:0:0:
320,7,239581,2,0,P|311:46|293:82,1,80.9999975280763,8|0,3:2|3:2,0:0:0:0:
471,176,240010,5,4,3:2:0:0:
471,176,240438,1,0,0:0:0:0:
471,176,240652,1,0,3:2:0:0:
471,176,241081,2,0,L|461:130,1,40.4999987640381,0|0,0:0|0:0,0:0:0:0:
446,56,241295,1,8,3:2:0:0:
314,9,241510,1,8,3:2:0:0:
306,37,241617,1,8,3:2:0:0:
286,60,241724,5,4,3:2:0:0:
162,32,241938,2,0,L|189:134,1,72,0|8,0:0|3:2,0:0:0:0:
53,153,242367,2,0,P|112:177|146:248,1,144,0|0,3:2|3:2,0:0:0:0:
93,335,243010,1,8,3:2:0:0:
0,308,243224,1,0,3:2:0:0:
162,246,243438,6,0,P|202:195|285:191,1,144,0|8,3:2|3:2,0:0:0:0:
378,264,244081,1,0,3:2:0:0:
474,196,244295,2,0,P|475:161|487:127,1,72,0|0,0:0|3:2,0:0:0:0:
363,18,244724,2,0,P|375:51|375:87,1,72,8|0,3:2|3:2,0:0:0:0:
271,174,245152,6,0,P|194:158|161:73,1,144,0|8,3:2|3:2,0:0:0:0:
50,0,245795,2,0,P|71:51|60:140,1,144,0|0,3:2|3:2,0:0:0:0:
0,262,246438,2,0,P|31:248|91:241,1,72,8|0,3:2|3:2,0:0:0:0:
157,339,246867,6,0,L|233:321,1,72,0|0,3:2|0:0,0:0:0:0:
333,367,247295,1,8,3:2:0:0:
333,367,247510,2,0,L|409:349,1,72,0|0,3:2|0:0,0:0:0:0:
500,325,247938,1,0,3:2:0:0:
413,253,248152,1,8,3:2:0:0:
509,163,248367,1,0,3:2:0:0:
356,145,248581,6,0,P|300:91|309:20,1,144,0|8,3:2|3:2,0:0:0:0:
419,34,249224,2,0,P|454:32|487:17,1,72,0|0,3:2|0:0,0:0:0:0:
455,118,249652,1,0,3:2:0:0:
512,212,249867,2,0,P|479:196|443:195,1,72,8|0,3:2|3:2,0:0:0:0:
342,279,250295,5,0,3:2:0:0:
294,111,250510,2,0,P|327:120|368:170,1,72,0|8,0:0|3:2,0:0:0:0:
204,199,250938,2,0,P|176:140|179:49,1,144,0|0,3:2|3:2,0:0:0:0:
220,0,251581,1,8,3:2:0:0:
103,98,251795,1,0,3:2:0:0:
0,0,252010,6,0,L|30:97,1,72,0|0,3:2|0:0,0:0:0:0:
67,213,252438,1,8,3:2:0:0:
103,98,252652,2,0,P|132:65|180:54,1,72,0|0,3:2|0:0,0:0:0:0:
276,128,253081,1,0,3:2:0:0:
336,20,253295,1,8,3:2:0:0:
474,26,253510,1,0,3:2:0:0:
508,186,253724,5,0,3:2:0:0:
508,186,253938,2,0,P|460:151|424:150,1,72,0|8,0:0|3:2,0:0:0:0:
316,247,254367,2,0,P|370:222|389:192,1,72,0|0,3:2|3:2,0:0:0:0:
321,81,254795,1,0,0:0:0:0:
321,81,254902,1,8,3:2:0:0:
202,174,255224,1,8,3:2:0:0:
177,168,255331,1,8,3:2:0:0:
152,161,255438,5,4,3:2:0:0:
27,132,255652,2,0,P|27:78|50:38,1,72,0|8,0:0|3:2,0:0:0:0:
131,27,256081,1,0,3:2:0:0:
240,107,256295,2,0,P|288:104|376:30,1,144,0|8,0:0|3:2,0:0:0:0:
382,153,256938,1,0,3:2:0:0:
485,128,257152,6,0,P|460:168|452:209,1,72,0|0,3:2|0:0,0:0:0:0:
485,289,257581,1,8,3:2:0:0:
360,246,257795,1,0,3:2:0:0:
253,330,258010,2,0,L|178:340,1,72,0|0,0:0|3:2,0:0:0:0:
52,217,258438,2,0,L|127:227,1,72,8|0,3:2|3:2,0:0:0:0:
254,160,258867,5,0,3:2:0:0:
254,160,259081,1,0,0:0:0:0:
254,160,259295,1,8,3:2:0:0:
172,13,259510,2,0,P|146:57|162:147,1,144,0|0,3:2|3:2,0:0:0:0:
322,234,260152,2,0,P|337:178|331:143,1,72,8|0,3:2|3:2,0:0:0:0:
452,25,260581,6,0,P|426:69|442:159,1,144,0|8,3:2|3:2,0:0:0:0:
512,326,261224,2,0,P|461:285|379:283,1,144,0|0,3:2|3:2,0:0:0:0:
277,347,261867,1,8,3:2:0:0:
176,282,262081,1,0,3:2:0:0:
273,132,262295,6,0,P|301:76|277:-8,1,144,0|8,3:2|3:2,0:0:0:0:
65,78,262938,1,0,3:2:0:0:
65,78,263152,2,0,P|37:134|61:218,1,144,0|8,0:0|3:2,0:0:0:0:
176,282,263795,1,0,3:2:0:0:
280,228,264010,5,0,3:2:0:0:
183,178,264224,2,0,P|168:134|166:85,1,72,0|8,0:0|3:2,0:0:0:0:
246,29,264652,1,0,3:2:0:0:
345,104,264867,1,0,0:0:0:0:
443,77,265081,1,0,3:2:0:0:
503,175,265295,1,8,3:2:0:0:
436,254,265510,1,0,3:2:0:0:
342,328,265724,6,0,P|294:262|227:244,1,144,0|8,3:2|3:2,0:0:0:0:
108,309,266367,1,0,3:2:0:0:
9,252,266581,1,0,0:0:0:0:
31,138,266795,1,0,3:2:0:0:
127,196,267010,1,8,3:2:0:0:
130,78,267224,6,0,L|111:-3,1,72,0|0,3:2|3:2,0:0:0:0:
232,109,267652,1,0,0:0:0:0:
342,117,267867,1,8,3:2:0:0:
414,32,268081,1,0,3:2:0:0:
512,64,268295,5,0,3:2:0:0:
485,256,268617,1,8,3:2:0:0:
297,214,268938,1,8,3:2:0:0:
301,238,269045,1,8,3:2:0:0:
304,262,269152,5,4,3:2:0:0:
476,161,269367,2,0,L|391:150,1,72,0|8,0:0|3:2,0:0:0:0:
237,57,269795,1,0,3:2:0:0:
343,17,270010,2,0,P|351:55|338:108,1,72,2|0,0:0|3:2,0:0:0:0:
227,173,270438,1,8,3:2:0:0:
134,127,270652,2,0,L|52:146,1,72,0|0,3:2|3:2,0:0:0:0:
12,232,271081,5,0,0:0:0:0:
122,268,271295,1,8,3:2:0:0:
168,380,271510,1,0,3:2:0:0:
50,360,271724,1,2,0:0:0:0:
220,289,271938,2,0,P|262:288|315:304,1,72,0|8,3:2|3:2,0:0:0:0:
370,334,272367,1,0,3:2:0:0:
464,251,272581,5,0,3:2:0:0:
377,164,272795,2,0,L|396:78,1,72,0|8,0:0|3:2,0:0:0:0:
475,42,273224,1,0,3:2:0:0:
307,104,273438,2,0,P|262:96|227:62,1,72,2|0,0:0|3:2,0:0:0:0:
148,6,273867,1,8,3:2:0:0:
120,133,274081,1,0,3:2:0:0:
9,94,274295,6,0,L|24:186,1,72,0|0,3:2|0:0,0:0:0:0:
206,181,274724,2,0,L|191:273,1,72,8|0,3:2|3:2,0:0:0:0:
100,371,275152,1,2,0:0:0:0:
208,354,275367,1,0,3:2:0:0:
328,342,275581,1,8,3:2:0:0:
328,342,276010,5,0,3:2:0:0:
363,178,276224,2,0,P|397:229|397:261,1,72,0|8,0:0|3:2,0:0:0:0:
214,250,276652,1,0,3:2:0:0:
151,105,276866,2,0,P|117:156|117:188,1,72,2|0,0:0|3:2,0:0:0:0:
305,96,277295,1,8,3:2:0:0:
164,0,277510,2,0,L|66:24,1,72,0|0,3:2|3:2,0:0:0:0:
14,163,277938,5,0,0:0:0:0:
107,286,278152,1,8,3:2:0:0:
229,200,278367,1,0,3:2:0:0:
331,300,278581,1,2,0:0:0:0:
402,231,278795,1,0,3:2:0:0:
508,246,279010,1,8,3:2:0:0:
454,381,279224,1,0,3:2:0:0:
306,212,279438,6,0,P|298:156|322:68,1,144,0|8,3:2|3:2,0:0:0:0:
418,48,280081,1,0,3:2:0:0:
488,152,280295,1,2,0:0:0:0:
402,231,280510,2,0,P|387:268|381:322,1,72,0|8,3:2|3:2,0:0:0:0:
247,341,280938,6,0,L|94:313,1,144,0|0,3:2|0:0,0:0:0:0:
42,246,281581,1,8,3:2:0:0:
134,173,281795,2,0,L|157:265,1,72,0|0,3:2|3:2,0:0:0:0:
264,160,282224,1,0,3:2:0:0:
257,135,282331,1,0,3:2:0:0:
270,114,282438,5,8,3:2:0:0:
289,74,282545,1,0,3:2:0:0:
258,18,282652,1,8,3:2:0:0:
486,86,282867,6,0,P|440:135|351:125,1,161.999995056153,4|8,3:2|3:2,0:0:0:0:
182,32,283510,1,0,3:2:0:0:
97,125,283724,2,0,P|139:136|187:114,1,80.9999975280763,2|0,2:1|3:2,0:0:0:0:
270,228,284152,2,0,P|228:217|180:239,1,80.9999975280763,8|0,3:2|3:2,0:0:0:0:
46,357,284581,6,0,P|97:371|184:302,1,161.999995056153,0|8,3:2|3:2,0:0:0:0:
151,80,285224,2,0,P|145:127|216:245,1,161.999995056153,0|0,3:2|3:2,0:0:0:0:
340,300,285867,1,8,3:2:0:0:
473,239,286081,1,0,3:2:0:0:
389,384,286295,6,0,P|332:327|240:302,1,161.999995056153,0|8,3:2|3:2,0:0:0:0:
425,300,286938,1,0,3:2:0:0:
353,221,287152,2,0,P|340:176|342:130,1,80.9999975280763,2|0,2:1|3:2,0:0:0:0:
501,0,287581,2,0,P|500:40|488:78,1,80.9999975280763,8|0,3:2|3:2,0:0:0:0:
341,123,288010,6,0,P|271:120|186:45,1,161.999995056153,0|8,3:2|3:2,0:0:0:0:
189,189,288652,2,0,L|182:281,1,80.9999975280763,0|2,3:2|2:1,0:0:0:0:
170,377,289081,1,0,3:2:0:0:
18,354,289295,1,8,3:2:0:0:
100,255,289510,1,0,3:2:0:0:
0,141,289724,6,0,P|-2:88|71:-10,1,161.999995056153,0|8,3:2|3:2,0:0:0:0:
140,85,290367,1,0,3:2:0:0:
276,123,290581,2,0,P|257:85|257:27,1,80.9999975280763,2|0,2:1|3:2,0:0:0:0:
394,123,291010,2,0,P|413:85|413:27,1,80.9999975280763,8|0,3:2|3:2,0:0:0:0:
498,202,291438,6,0,P|410:208|354:258,1,161.999995056153,0|8,3:2|3:2,0:0:0:0:
360,381,292081,2,0,P|292:311|211:302,1,161.999995056153,0|0,3:2|3:2,0:0:0:0:
130,339,292724,1,8,3:2:0:0:
187,192,292938,1,0,3:2:0:0:
28,234,293152,6,0,P|-1:169|54:80,1,161.999995056153,0|8,3:2|3:2,0:0:0:0:
153,88,293795,1,0,3:2:0:0:
236,0,294010,2,0,L|247:85,1,80.9999975280763,2|0,3:1|3:2,0:0:0:0:
343,170,294331,1,0,3:2:0:0:
332,187,294438,1,0,3:2:0:0:
255,312,294652,1,0,3:2:0:0:
100,263,294867,5,4,3:2:0:0:
180,203,295081,1,8,3:2:0:0:
175,162,295188,1,8,3:2:0:0:
170,122,295295,1,8,3:2:0:0:
165,82,295402,1,8,3:2:0:0:
162,53,295510,5,8,3:2:0:0:
210,71,295617,1,8,3:2:0:0:
256,93,295724,5,8,3:2:0:0:
425,18,296045,1,8,3:2:0:0:
512,190,296367,1,8,3:2:0:0:
369,336,296581,6,0,P|331:283|286:261,1,90,4|0,3:2|0:0,0:0:0:0:
159,205,297010,2,0,P|133:258|80:282,1,90,2|0,0:0|3:2,0:0:0:0:
0,75,297438,2,0,L|94:104,1,90,8|0,3:2|0:0,0:0:0:0:
210,47,297867,1,0,3:2:0:0:
389,89,298081,1,0,0:0:0:0:
389,89,298295,6,0,P|362:149|366:200,1,90,0|0,3:2|0:0,0:0:0:0:
426,281,298724,2,0,P|453:221|449:170,1,90,0|0,3:2|0:0,0:0:0:0:
303,227,299152,1,8,3:2:0:0:
303,227,299367,1,2,0:0:0:0:
221,322,299581,1,0,3:2:0:0:
114,249,299795,1,2,0:0:0:0:
9,313,300010,6,0,P|23:270|20:209,1,90,0|0,3:2|0:0,0:0:0:0:
2,112,300438,1,2,0:0:0:0:
152,54,300652,1,0,3:2:0:0:
64,9,300867,2,0,P|78:117|120:177,1,180,8|0,3:2|3:2,0:0:0:0:
238,221,301510,1,0,0:0:0:0:
368,160,301724,5,0,3:2:0:0:
324,51,301938,1,2,0:0:0:0:
476,115,302152,1,0,3:2:0:0:
432,6,302366,1,2,0:0:0:0:
198,109,302581,2,0,L|89:81,1,90,8|2,3:2|0:0,0:0:0:0:
110,86,303010,1,0,3:2:0:0:
148,264,303224,1,2,0:0:0:0:
305,188,303438,6,0,P|264:216|248:264,1,90,4|0,3:2|0:0,0:0:0:0:
359,380,303867,2,0,P|340:339|302:315,1,90,2|0,0:0|3:2,0:0:0:0:
410,249,304295,2,0,P|452:227|492:172,1,90,8|0,3:2|0:0,0:0:0:0:
491,81,304724,1,0,3:2:0:0:
327,18,304938,1,0,0:0:0:0:
257,99,305152,5,0,3:2:0:0:
234,94,305259,1,0,0:0:0:0:
212,89,305366,1,0,0:0:0:0:
190,85,305473,1,0,0:0:0:0:
168,80,305580,1,0,3:2:0:0:
97,149,305795,1,2,0:0:0:0:
8,105,306010,1,8,3:2:0:0:
8,105,306225,1,0,0:0:0:0:
5,225,306439,1,0,3:2:0:0:
96,323,306653,1,0,0:0:0:0:
230,263,306867,6,0,L|335:246,1,90,0|0,3:2|0:0,0:0:0:0:
433,318,307295,2,0,P|470:295|504:246,1,90,2|0,0:0|3:2,0:0:0:0:
472,99,307724,2,0,P|435:122|401:171,1,90,8|0,3:2|0:0,0:0:0:0:
328,65,308152,2,0,L|227:41,1,90,0|0,3:2|0:0,0:0:0:0:
140,27,308581,5,0,3:2:0:0:
28,152,308795,2,0,P|68:134|113:130,1,90,0|0,0:0|3:2,0:0:0:0:
191,229,309224,1,2,0:0:0:0:
187,251,309331,1,0,3:0:0:0:
183,273,309438,1,8,3:2:0:0:
314,342,309652,1,0,0:0:0:0:
321,364,309759,1,8,3:2:0:0:
443,255,310081,1,8,3:2:0:0:
332,190,310295,6,0,P|321:132|332:81,1,90,4|0,3:2|0:0,0:0:0:0:
446,4,310724,2,0,P|457:62|446:113,1,90,2|0,0:0|3:2,0:0:0:0:
247,117,311152,2,0,L|144:84,1,90,8|0,3:2|0:0,0:0:0:0:
21,137,311581,1,0,3:2:0:0:
39,313,311795,1,0,0:0:0:0:
39,313,312010,6,0,P|86:285|140:286,1,90,0|0,3:2|0:0,0:0:0:0:
231,346,312438,1,0,3:2:0:0:
343,309,312652,1,0,0:0:0:0:
305,195,312867,2,0,P|290:132|322:9,1,180,8|0,3:2|3:2,0:0:0:0:
414,24,313510,1,2,0:0:0:0:
507,124,313724,6,0,P|460:138|408:124,1,90,0|0,3:2|0:0,0:0:0:0:
260,249,314152,1,2,0:0:0:0:
209,123,314367,1,0,3:2:0:0:
67,215,314581,2,0,P|42:272|47:323,1,90,8|0,3:2|0:0,0:0:0:0:
177,370,315010,1,0,3:2:0:0:
260,249,315224,1,0,0:0:0:0:
380,348,315438,6,0,P|393:308|389:246,1,90,0|2,3:2|0:0,0:0:0:0:
240,178,315867,2,0,P|227:138|231:76,1,90,0|2,3:2|0:0,0:0:0:0:
416,31,316295,2,0,P|377:66|336:78,1,90,8|2,3:2|0:0,0:0:0:0:
225,10,316724,1,0,3:2:0:0:
121,56,316938,1,2,0:0:0:0:
14,26,317152,6,0,P|45:74|53:133,1,90,4|0,3:2|0:0,0:0:0:0:
1,205,317581,2,0,P|13:247|39:284,1,90,2|0,0:0|3:2,0:0:0:0:
149,340,318010,1,8,3:2:0:0:
228,260,318224,2,0,L|329:244,1,90,0|0,0:0|3:2,0:0:0:0:
435,261,318652,6,0,P|408:206|406:164,1,90,0|0,0:0|3:2,0:0:0:0:
453,81,319081,1,0,0:0:0:0:
373,14,319295,2,0,P|317:52|200:68,1,180,0|8,3:2|3:2,0:0:0:0:
84,16,319938,1,0,0:0:0:0:
152,128,320152,1,0,3:2:0:0:
95,239,320367,1,0,0:0:0:0:
205,355,320581,6,0,P|209:311|198:250,1,90,0|0,3:2|0:0,0:0:0:0:
328,102,321010,2,0,P|332:146|321:207,1,90,2|0,0:0|3:2,0:0:0:0:
62,137,321438,2,0,L|180:125,1,90,8|0,3:2|0:0,0:0:0:0:
224,49,321867,1,0,3:2:0:0:
342,303,322081,1,0,0:0:0:0:
342,303,322295,6,0,P|288:250|183:231,1,180,0|0,3:2|3:2,0:0:0:0:
310,182,322938,1,10,3:2:0:0:
314,160,323045,1,8,3:2:0:0:
318,138,323152,1,8,3:2:0:0:
478,95,323474,1,8,3:2:0:0:
512,319,323795,1,8,3:2:0:0:
512,319,323902,1,8,0:0:0:0:
512,319,324010,6,0,P|435:344|356:332,1,161.999995056153,4|2,3:2|0:0,0:0:0:0:
300,252,324653,1,0,3:2:0:0:
400,159,324867,2,0,P|418:124|424:84,1,80.9999975280763,8|0,3:2|0:0,0:0:0:0:
316,16,325296,2,0,P|257:1|196:-4,1,121.499996292114,0|0,3:2|0:0,0:0:0:0:
160,16,325724,6,0,P|134:92|120:172,1,161.999995056153,0|0,3:2|3:2,0:0:0:0:
192,240,326367,1,0,0:0:0:0:
100,368,326581,2,0,P|60:375|19:374,1,80.9999975280763,8|0,3:2|0:0,0:0:0:0:
111,246,327010,2,0,P|151:238|192:240,1,80.9999975280763,0|0,3:2|0:0,0:0:0:0:
364,280,327439,5,0,3:2:0:0:
400,372,327653,1,2,0:0:0:0:
304,352,327867,1,2,0:0:0:0:
460,264,328081,1,2,3:2:0:0:
344,88,328296,1,8,3:2:0:0:
256,44,328510,1,2,0:0:0:0:
159,60,328724,2,0,P|145:97|140:137,1,80.9999975280763,0|0,3:2|0:0,0:0:0:0:
192,372,329153,5,0,3:2:0:0:
192,372,329367,1,2,0:0:0:0:
96,348,329581,1,0,3:2:0:0:
72,252,329796,1,2,0:0:0:0:
228,192,330010,1,8,3:2:0:0:
256,100,330224,1,2,0:0:0:0:
48,43,330439,2,0,P|86:32|126:27,1,80.9999975280763,0|0,3:2|0:0,0:0:0:0:
384,174,330867,6,0,P|308:199|228:192,1,161.999995056153,4|2,3:2|0:0,0:0:0:0:
168,112,331510,1,0,3:2:0:0:
304,20,331724,2,0,P|383:3|463:7,1,161.999995056153,8|0,3:2|3:2,0:0:0:0:
512,92,332367,1,0,0:0:0:0:
396,220,332581,6,0,P|381:257|381:297,1,80.9999975280763,0|0,3:2|0:0,0:0:0:0:
472,248,333010,1,0,3:2:0:0:
320,192,333224,2,0,P|305:154|305:114,1,80.9999975280763,2|8,0:0|3:2,0:0:0:0:
344,8,333653,1,0,0:0:0:0:
444,68,333867,1,0,3:2:0:0:
444,68,334081,1,0,0:0:0:0:
320,192,334296,6,0,P|280:200|241:190,1,80.9999975280763,0|0,3:2|0:0,0:0:0:0:
204,84,334724,2,0,P|164:74|125:82,1,80.9999975280763,2|0,0:0|3:2,0:0:0:0:
4,192,335153,2,0,P|-5:231|2:270,1,80.9999975280763,8|0,3:2|0:0,0:0:0:0:
80,340,335581,1,0,3:2:0:0:
184,324,335796,1,0,0:0:0:0:
284,192,336010,6,0,P|362:174|442:183,1,161.999995056153,0|0,3:2|3:2,0:0:0:0:
500,272,336653,1,10,3:2:0:0:
509,289,336760,1,8,3:2:0:0:
512,309,336867,1,8,3:2:0:0:
295,278,337188,1,8,3:2:0:0:
453,118,337510,1,8,3:2:0:0:
368,8,337724,5,6,0:0:0:0:
368,8,337938,1,0,0:0:0:0:
328,88,338152,1,2,0:0:0:0:
328,88,338367,1,0,0:0:0:0:
368,168,338581,1,4,0:3:0:0:
326,246,339010,1,8,2:1:0:0:
326,246,339438,5,2,0:0:0:0:
255,312,339652,1,0,0:0:0:0:
236,220,339867,1,2,0:0:0:0:
236,220,340081,1,0,0:0:0:0:
326,246,340295,1,4,0:3:0:0:
484,199,340724,1,8,2:1:0:0:
484,199,341152,5,2,0:0:0:0:
452,115,341367,1,0,0:0:0:0:
371,89,341581,1,2,0:0:0:0:
371,89,341795,1,0,0:0:0:0:
287,129,342010,2,0,P|247:128|201:111,1,80.9999975280763,4|0,0:3|0:0,0:0:0:0:
93,48,342438,2,0,P|107:98|103:134,1,80.9999975280763,8|0,0:1|0:0,0:0:0:0:
80,220,342867,5,2,0:0:0:0:
118,300,343081,1,0,0:0:0:0:
206,300,343295,1,2,0:0:0:0:
279,228,343510,1,2,0:1:0:0:
279,228,343617,1,2,0:1:0:0:
279,228,343724,1,4,0:3:0:0:
375,275,343938,1,0,0:0:0:0:
375,275,344045,1,2,0:1:0:0:
344,100,344260,1,0,0:0:0:0:
344,100,344367,1,2,0:1:0:0:
164,80,344581,5,2,0:0:0:0:
164,80,344795,1,0,0:0:0:0:
160,168,345009,1,2,0:0:0:0:
160,168,345224,1,0,0:0:0:0:
156,256,345438,5,2,0:0:0:0:
156,256,345652,2,0,L|147:336,1,80.9999975280763,0|8,0:0|2:1,0:0:0:0:
147,336,346081,1,0,0:0:0:0:
324,332,346295,5,2,0:0:0:0:
360,248,346509,1,0,0:0:0:0:
316,168,346724,1,2,0:0:0:0:
352,84,346938,1,0,0:0:0:0:
316,168,347152,5,2,0:0:0:0:
352,84,347367,1,0,0:0:0:0:
300,12,347581,1,8,2:1:0:0:
300,12,347795,1,0,0:0:0:0:
128,60,348009,5,2,0:0:0:0:
190,123,348224,1,0,0:0:0:0:
104,148,348438,1,2,0:0:0:0:
104,148,348652,1,0,0:0:0:0:
144,228,348867,1,2,0:0:0:0:
232,216,349081,1,0,0:0:0:0:
251,303,349295,1,8,2:1:0:0:
251,303,349510,1,0,0:0:0:0:
318,371,349724,5,2,0:0:0:0:
390,322,349938,1,0,0:0:0:0:
505,338,350152,1,2,0:0:0:0:
505,338,350367,1,0,0:0:0:0:
494,298,350474,1,0,0:0:0:0:
484,258,350581,6,0,L|492:159,1,80.9999975280763,2|0,3:1|0:0,0:0:0:0:
385,81,350902,2,0,L|391:170,1,80.9999975280763,2|0,3:1|0:0,0:0:0:0:
266,199,351224,1,2,3:1:0:0:
244,360,351438,5,2,3:2:0:0:
244,360,351652,1,0,0:0:0:0:
336,380,351867,1,2,0:2:0:0:
336,380,352081,1,0,0:0:0:0:
476,358,352295,1,2,3:2:0:0:
476,358,352509,1,0,0:0:0:0:
512,274,352724,1,8,2:1:0:0:
488,186,352938,1,0,0:0:0:0:
272,144,353152,5,2,3:2:0:0:
264,232,353367,1,0,0:0:0:0:
272,144,353581,1,2,0:2:0:0:
264,232,353795,1,0,0:0:0:0:
256,320,354010,5,2,3:2:0:0:
256,320,354224,1,0,0:0:0:0:
168,344,354438,1,8,2:1:0:0:
80,324,354652,1,0,0:0:0:0:
140,255,354867,6,0,P|151:217|151:176,1,80.9999975280763,2|0,3:2|0:0,0:0:0:0:
61,112,355295,2,0,P|49:150|49:191,1,80.9999975280763,2|0,0:2|0:0,0:0:0:0:
167,86,355724,2,0,P|205:74|245:69,1,80.9999975280763,2|0,3:2|0:0,0:0:0:0:
322,115,356152,1,8,2:1:0:0:
357,196,356367,1,0,0:0:0:0:
492,80,356581,5,2,3:2:0:0:
492,80,356795,1,0,0:0:0:0:
512,168,357010,1,2,0:2:0:0:
480,252,357224,1,0,0:0:0:0:
480,252,357438,5,2,3:2:0:0:
422,324,357652,1,0,0:0:0:0:
422,324,357760,1,0,3:2:0:0:
422,324,357867,1,8,2:1:0:0:
493,378,358081,1,0,3:2:0:0:
324,280,358295,5,2,3:2:0:0:
244,240,358510,1,0,0:0:0:0:
164,284,358724,1,2,0:2:0:0:
84,244,358938,1,0,0:0:0:0:
164,284,359153,5,2,3:2:0:0:
84,244,359367,1,0,0:0:0:0:
8,292,359581,1,8,2:1:0:0:
8,292,359795,1,0,0:0:0:0:
12,112,360010,5,2,3:2:0:0:
92,72,360224,1,0,0:0:0:0:
92,72,360438,1,2,0:2:0:0:
92,72,360653,1,0,0:0:0:0:
168,120,360867,1,2,3:2:0:0:
240,68,361081,1,0,0:0:0:0:
309,149,361295,1,8,2:1:0:0:
309,149,361510,1,0,0:0:0:0:
499,69,361723,6,0,P|492:108|499:148,1,80.9999975280763,2|0,3:2|0:0,0:0:0:0:
471,232,362152,1,2,0:2:0:0:
499,148,362366,1,0,0:0:0:0:
499,68,362580,6,0,P|460:61|420:68,1,80.9999975280763,2|0,3:2|0:0,0:0:0:0:
309,149,363010,2,0,P|348:156|388:149,1,80.9999975280763,8|0,2:1|0:0,0:0:0:0:
172,160,363438,6,0,L|64:156,1,80.9999975280763,2|0,3:2|0:0,0:0:0:0:
1,280,363866,1,0,0:0:0:0:
111,384,364081,1,0,0:0:0:0:
224,305,364295,6,0,L|290:329,1,40.4999987640381,8|8,3:2|3:2,0:0:0:0:
385,357,364510,1,0,0:0:0:0:
373,305,364617,1,8,3:2:0:0:
417,277,364724,5,8,3:2:0:0:
421,236,364831,1,8,3:2:0:0:
426,196,364938,1,8,3:2:0:0:
430,156,365045,1,8,3:2:0:0:
435,116,365152,6,0,P|361:144|270:74,1,180,4|0,3:2|0:0,0:0:0:0:
192,8,365795,2,0,P|211:94|221:204,1,180,2|0,0:0|3:2,0:0:0:0:
162,288,366438,1,0,0:0:0:0:
162,288,366652,1,0,3:2:0:0:
162,288,366867,5,0,3:0:0:0:
318,86,367510,2,0,P|409:66|497:57,2,180,2|2|2,0:2|3:2|3:2,0:0:0:0:
209,70,368581,6,0,P|236:119|247:178,1,90,0|0,3:2|0:0,0:0:0:0:
210,243,369010,1,0,0:0:0:0:
110,295,369224,2,0,P|54:287|0:260,1,90,2|0,3:2|0:0,0:0:0:0:
210,243,369652,2,0,P|225:284|231:341,1,90,2|0,3:2|0:0,0:0:0:0:
319,287,370081,1,2,3:2:0:0:
436,336,370295,6,0,P|410:279|420:200,2,135,2|2|2,3:2|3:2|3:2,0:0:0:0:
436,336,371152,1,0,0:0:0:0:
477,145,371367,1,8,3:2:0:0:
477,145,371795,1,8,3:2:0:0:
352,201,372010,5,0,3:0:0:0:
246,145,372224,2,0,P|234:103|233:45,1,90,2|0,0:0|0:0,0:0:0:0:
318,25,372652,1,2,0:0:0:0:
407,16,372867,1,2,0:0:0:0:
489,96,373081,1,2,3:2:0:0:
473,245,373295,1,2,0:0:0:0:
348,283,373510,1,2,3:2:0:0:
222,229,373724,5,0,3:2:0:0:
109,292,373938,2,0,L|92:191,1,90,2|0,0:0|0:0,0:0:0:0:
297,216,374367,2,0,L|314:115,1,90,2|0,0:0|0:0,0:0:0:0:
45,88,374795,2,0,L|28:-13,1,90,2|0,3:2|0:0,0:0:0:0:
196,82,375224,1,2,3:2:0:0:
349,17,375438,5,0,3:2:0:0:
349,17,375652,2,0,P|377:59|384:123,1,90,2|0,0:0|0:0,0:0:0:0:
398,213,376010,1,2,0:0:0:0:
277,165,376295,1,2,0:0:0:0:
169,244,376510,1,8,3:2:0:0:
169,244,376617,1,2,0:0:0:0:
69,202,376938,1,2,3:2:0:0:
28,330,377152,6,0,P|70:274|78:177,1,135,4|0,3:2|0:0,0:0:0:0:
22,26,377795,1,2,0:0:0:0:
154,38,378010,2,0,P|188:17|244:9,1,90,0|8,0:0|0:0,0:0:0:0:
329,69,378331,1,8,0:0:0:0:
329,69,378438,6,0,L|318:142,1,45,8|8,0:0|0:0,0:0:0:0:
235,193,378652,1,8,0:0:0:0:
158,362,378867,6,0,P|202:322|278:326,1,107.999996704102,4|0,3:2|0:0,0:0:0:0:
382,369,379295,1,8,3:2:0:0:
473,331,379510,2,0,P|444:269|441:215,1,107.999996704102,0|2,3:2|2:1,0:0:0:0:
471,106,379938,2,0,P|430:133|355:132,2,107.999996704102,0|8|0,3:2|3:2|3:2,0:0:0:0:
309,25,380581,6,0,P|296:96|308:242,1,215.999993408203,0|8,3:2|3:2,0:0:0:0:
354,354,381224,2,0,L|245:374,1,107.999996704102,0|2,3:2|2:1,0:0:0:0:
150,319,381652,1,0,3:2:0:0:
34,362,381867,2,0,P|13:305|11:250,1,107.999996704102,8|0,3:2|3:2,0:0:0:0:
22,154,382295,5,0,3:2:0:0:
169,181,382510,1,0,0:0:0:0:
169,181,382617,2,0,L|225:192,1,53.9999983520508,0|8,0:0|3:2,0:0:0:0:
316,206,382938,2,0,P|332:153|314:73,1,107.999996704102,0|2,3:2|2:1,0:0:0:0:
245,23,383367,1,0,3:2:0:0:
387,44,383581,2,0,L|497:13,1,107.999996704102,8|0,3:2|3:2,0:0:0:0:
490,138,384010,6,0,P|457:182|452:246,1,107.999996704102,0|0,3:2|0:0,0:0:0:0:
483,344,384438,2,0,P|456:332|418:330,1,53.9999983520508,8|0,3:2|0:0,0:0:0:0:
339,250,384652,2,0,P|296:276|198:285,1,107.999996704102,0|2,3:2|2:1,0:0:0:0:
139,248,385081,1,0,3:2:0:0:
202,159,385295,2,0,L|176:53,1,107.999996704102,8|0,3:2|3:2,0:0:0:0:
310,109,385724,6,0,P|336:109|376:85,1,53.9999983520508,0|0,3:2|0:0,0:0:0:0:
443,44,385938,2,0,P|461:25|472:-19,1,53.9999983520508,0|0,0:0|0:0,0:0:0:0:
512,170,386152,1,8,3:2:0:0:
490,297,386367,2,0,P|412:261|308:266,1,161.999995056153,0|0,3:2|0:0,0:0:0:0:
267,303,386795,1,0,3:2:0:0:
141,169,387010,5,8,3:2:0:0:
154,134,387117,1,0,0:0:0:0:
121,90,387224,1,0,3:2:0:0:
145,32,387331,1,0,0:0:0:0:
89,9,387438,6,0,P|34:34|16:181,1,215.999993408203,0|8,3:2|3:2,0:0:0:0:
29,301,388081,2,0,P|111:265|211:252,1,161.999995056153,0|0,3:2|0:0,0:0:0:0:
271,293,388510,1,0,3:2:0:0:
330,203,388724,1,8,3:2:0:0:
463,290,388938,1,0,3:2:0:0:
496,86,389152,6,0,P|476:47|447:23,2,71.9999978027344,0|0|0,3:0|0:0|0:0,0:0:0:0:
445,212,389581,1,8,3:2:0:0:
385,238,389724,1,0,0:0:0:0:
330,203,389867,2,0,P|302:186|229:161,1,71.9999978027344
162,46,390224,6,0,P|168:83|157:121,1,53.9999983520508,0|0,3:2|0:0,0:0:0:0:
4,163,390438,2,0,P|32:138|71:127,1,53.9999983520508,8|0,3:2|0:0,0:0:0:0:
196,238,390652,2,0,P|160:223|132:196,1,53.9999983520508,0|0,3:2|0:0,0:0:0:0:
379,91,390867,6,0,P|358:172|351:256,1,161.999995056153,0|0,3:2|0:0,0:0:0:0:
401,332,391295,1,8,3:2:0:0:
201,125,391510,2,0,P|222:206|229:290,1,161.999995056153,0|0,3:2|0:0,0:0:0:0:
179,366,391938,1,0,3:2:0:0:
34,330,392152,1,8,3:2:0:0:
138,220,392367,1,0,3:2:0:0:
15,130,392581,5,4,3:2:0:0:
152,68,392902,1,0,3:2:0:0:
293,10,393224,1,0,3:2:0:0:
293,10,393331,1,0,0:0:0:0:
293,10,393438,5,8,3:2:0:0:
258,64,393545,1,8,3:2:0:0:
312,124,393652,1,8,3:2:0:0:
102,222,393867,6,0,P|123:208|174:207,1,45,8|8,3:2|3:2,0:0:0:0:
262,242,394081,1,8,3:2:0:0:
385,344,394295,6,0,P|380:292|408:217,1,107.999996704102,4|0,3:2|0:0,0:0:0:0:
512,138,394724,2,0,P|458:161|403:164,1,107.999996704102,2|0,0:0|3:2,0:0:0:0:
324,5,395152,2,0,P|377:9|426:31,1,107.999996704102,8|0,3:2|0:0,0:0:0:0:
285,123,395581,1,0,3:2:0:0:
142,5,395795,1,0,0:0:0:0:
142,5,396010,6,0,P|165:97|174:223,1,215.999993408203,0|0,3:2|3:2,0:0:0:0:
52,289,396652,1,0,0:0:0:0:
168,377,396867,1,8,3:2:0:0:
237,286,397081,2,0,P|304:252|353:248,1,107.999996704102,2|0,0:0|3:2,0:0:0:0:
455,286,397510,1,2,0:0:0:0:
416,183,397724,6,0,P|377:97|387:29,1,161.999995056153,0|0,3:2|0:0,0:0:0:0:
473,61,398152,1,2,0:0:0:0:
473,61,398367,1,0,3:2:0:0:
302,145,398581,2,0,P|217:122|188:94,1,107.999996704102,8|0,3:2|0:0,0:0:0:0:
66,15,399010,2,0,P|100:57|115:134,1,107.999996704102,0|0,3:2|0:0,0:0:0:0:
0,233,399438,6,0,P|48:214|115:211,1,107.999996704102,0|2,3:2|0:0,0:0:0:0:
128,333,399867,2,0,P|80:352|13:355,1,107.999996704102,0|2,3:2|0:0,0:0:0:0:
193,248,400295,1,8,3:2:0:0:
298,322,400510,1,2,0:0:0:0:
387,239,400724,1,0,3:2:0:0:
506,297,400938,1,2,0:0:0:0:
375,207,401152,6,0,P|365:144|380:93,1,107.999996704102,4|0,3:2|0:0,0:0:0:0:
252,0,401581,2,0,P|262:63|247:114,1,107.999996704102,2|0,0:0|3:2,0:0:0:0:
137,157,402010,1,8,3:2:0:0:
137,157,402224,1,0,0:0:0:0:
42,82,402438,1,0,3:2:0:0:
112,276,402652,1,0,0:0:0:0:
112,276,402867,6,0,P|168:242|330:226,1,215.999993408203,0|0,3:2|3:2,0:0:0:0:
409,269,403510,1,2,0:0:0:0:
308,312,403724,1,8,3:2:0:0:
225,149,403938,2,0,P|208:91|202:21,1,107.999996704102,0|0,0:0|3:2,0:0:0:0:
305,0,404367,1,0,0:0:0:0:
433,82,404581,5,0,3:2:0:0:
433,82,404688,1,0,3:2:0:0:
433,82,404795,5,0,3:2:0:0:
422,103,404902,1,0,3:2:0:0:
414,126,405009,1,2,0:0:0:0:
408,150,405116,1,0,3:2:0:0:
405,174,405223,1,0,3:2:0:0:
404,198,405330,1,0,3:2:0:0:
405,223,405438,6,8,L|416:264,4,26.9999991760254,8|8|8|8|8,3:2|3:2|3:2|3:2|3:2,0:0:0:0:
370,340,405867,1,2,3:2:0:0:
186,244,406081,1,2,3:2:0:0:
43,369,406295,6,0,P|69:334|66:245,1,107.999996704102,0|0,3:2|0:0,0:0:0:0:
37,170,406617,1,8,3:2:0:0:
0,146,406724,2,0,P|2:92|32:48,1,107.999996704102,0|8,0:0|3:2,0:0:0:0:
165,6,407152,5,0,3:2:0:0:
286,72,407367,1,0,3:2:0:0:
299,107,407474,1,0,3:2:0:0:
331,126,407581,5,8,3:2:0:0:
287,174,407688,1,8,3:2:0:0:
332,240,407795,2,0,L|323:308,1,53.9999983520508,8|8,3:2|3:2,0:0:0:0:
197,374,408010,6,0,P|185:314|146:251,1,107.999996704102,4|0,3:2|0:0,0:0:0:0:
41,139,408438,2,0,P|17:187|7:240,1,107.999996704102,2|0,0:0|3:2,0:0:0:0:
69,350,408867,1,8,3:2:0:0:
163,272,409081,1,0,0:0:0:0:
312,349,409295,1,0,3:2:0:0:
384,157,409510,1,0,0:0:0:0:
384,157,409724,6,0,P|309:171|197:62,1,215.999993408203,0|0,3:2|3:2,0:0:0:0:
264,17,410367,1,0,0:0:0:0:
98,0,410581,2,0,P|120:49|127:106,1,107.999996704102,8|2,3:2|0:0,0:0:0:0:
48,228,411010,1,0,3:2:0:0:
150,332,411224,1,2,0:0:0:0:
284,233,411438,6,0,P|258:297|261:363,1,107.999996704102,0|0,3:2|0:0,0:0:0:0:
361,381,411867,1,2,0:0:0:0:
481,267,412081,1,0,3:2:0:0:
386,162,412295,2,0,P|384:92|400:34,1,107.999996704102,8|0,3:2|0:0,0:0:0:0:
264,0,412724,2,0,P|273:52|270:106,1,107.999996704102,0|0,3:2|0:0,0:0:0:0:
132,199,413152,6,0,P|79:186|26:195,1,107.999996704102,0|2,3:2|0:0,0:0:0:0:
247,362,413581,2,0,P|194:370|141:358,1,107.999996704102,0|2,3:2|0:0,0:0:0:0:
370,247,414010,2,0,P|353:296|349:373,1,107.999996704102,8|2,3:2|0:0,0:0:0:0:
235,222,414438,1,0,3:2:0:0:
400,153,414652,1,2,0:0:0:0:
257,107,414867,6,0,P|245:51|251:-11,1,107.999996704102,4|0,3:2|0:0,0:0:0:0:
478,117,415295,2,0,P|481:170|469:223,1,107.999996704102,2|0,0:0|3:2,0:0:0:0:
363,334,415724,1,8,3:2:0:0:
239,231,415938,1,0,0:0:0:0:
74,326,416152,2,0,L|196:298,1,107.999996704102,0|0,3:2|0:0,0:0:0:0:
316,192,416581,5,0,3:2:0:0:
172,125,416795,1,0,0:0:0:0:
331,88,417010,2,0,L|453:58,2,107.999996704102,0|2|8,3:2|0:0|3:2,0:0:0:0:
184,9,417652,1,0,0:0:0:0:
243,159,417867,1,0,3:2:0:0:
129,249,418081,1,0,0:0:0:0:
3,136,418295,6,0,P|66:146|116:175,1,107.999996704102,0|0,3:2|0:0,0:0:0:0:
304,64,418724,2,0,P|241:74|191:103,1,107.999996704102,2|0,0:0|3:2,0:0:0:0:
390,253,419152,2,0,P|413:173|409:125,1,107.999996704102,8|0,3:2|0:0,0:0:0:0:
321,340,419581,1,0,3:2:0:0:
154,223,419795,1,0,0:0:0:0:
24,384,420010,6,0,L|-1:265,1,107.999996704102,0|0,3:2|0:0,0:0:0:0:
160,29,420438,2,0,L|182:134,1,107.999996704102,0|10,3:2|3:2,0:0:0:0:
276,216,420760,1,8,3:2:0:0:
337,194,420867,1,8,3:2:0:0:
490,299,421188,1,8,3:2:0:0:
269,370,421510,1,8,3:2:0:0:
269,370,421617,1,8,0:0:0:0:
269,370,421724,6,0,P|282:285|256:125,1,215.999993408203,4|2,3:2|0:0,0:0:0:0:
156,82,422367,2,0,P|136:140|143:189,1,107.999996704102,0|8,3:2|3:2,0:0:0:0:
206,267,422795,1,0,0:0:0:0:
289,203,423010,1,0,3:2:0:0:
471,260,423224,1,0,0:0:0:0:
381,326,423438,6,0,P|378:245|422:96,1,215.999993408203,0|0,3:2|3:2,0:0:0:0:
292,0,424081,1,0,0:0:0:0:
181,113,424295,2,0,P|118:127|53:120,1,107.999996704102,8|0,3:2|0:0,0:0:0:0:
0,29,424724,2,0,P|63:15|128:22,1,107.999996704102,0|0,3:2|0:0,0:0:0:0:
287,104,425152,5,0,3:2:0:0:
249,220,425367,1,2,0:0:0:0:
150,184,425581,1,2,0:0:0:0:
356,153,425795,1,2,3:2:0:0:
264,384,426010,1,8,3:2:0:0:
169,307,426224,1,2,0:0:0:0:
58,356,426438,2,0,P|14:326|1:275,1,107.999996704102,0|0,3:2|0:0,0:0:0:0:
12,161,426867,5,0,3:2:0:0:
12,161,427081,1,2,0:0:0:0:
102,96,427295,1,0,3:2:0:0:
200,137,427510,1,2,0:0:0:0:
387,0,427724,1,8,3:2:0:0:
289,41,427939,1,2,0:0:0:0:
414,162,428152,2,0,P|473:149|516:100,1,107.999996704102,0|0,3:2|0:0,0:0:0:0:
335,126,428581,6,0,P|306:214|299:342,1,215.999993408203,4|2,3:2|0:0,0:0:0:0:
194,363,429224,2,0,P|161:300|165:245,1,107.999996704102,0|8,3:2|3:2,0:0:0:0:
209,166,429652,1,0,0:0:0:0:
108,128,429867,1,0,3:2:0:0:
30,300,430081,1,0,0:0:0:0:
1,194,430295,6,0,P|68:211|192:297,1,215.999993408203,0|0,3:2|3:2,0:0:0:0:
264,381,430938,1,2,0:0:0:0:
354,310,431152,1,8,3:2:0:0:
274,190,431367,1,0,0:0:0:0:
413,123,431581,2,0,P|444:77|467:29,1,107.999996704102,0|0,3:2|0:0,0:0:0:0:
320,49,432010,6,0,L|92:20,1,215.999993408203,0|2,3:2|0:0,0:0:0:0:
9,92,432652,2,0,P|39:141|42:193,1,107.999996704102,0|8,3:2|3:2,0:0:0:0:
0,293,433081,1,0,0:0:0:0:
164,381,433295,2,0,P|134:332|131:280,1,107.999996704102,0|0,3:2|0:0,0:0:0:0:
249,178,433724,6,0,L|357:200,1,107.999996704102,0|0,3:2|0:0,0:0:0:0:
427,279,434152,1,0,3:2:0:0:
489,142,434367,1,10,3:2:0:0:
489,142,434474,1,8,3:2:0:0:
489,142,434581,1,8,3:2:0:0:
319,30,434902,1,8,3:2:0:0:
225,194,435224,1,8,3:2:0:0:
37,50,435438,6,0,P|72:43|107:47,1,72,2|0,0:0|0:0,0:0:0:0:
136,124,435867,2,0,P|171:127|206:119,1,72,0|0,0:0|0:0,0:0:0:0:
344,156,436295,2,0,P|352:190|347:226,1,72,2|0,0:0|0:0,0:0:0:0:
271,256,436724,2,0,P|264:291|269:326,1,72,0|0,0:0|0:0,0:0:0:0:
400,376,437152,6,0,P|434:383|469:376,1,72,2|0,0:0|0:0,0:0:0:0:
492,280,437581,1,0,0:0:0:0:
413,155,437795,2,0,P|379:146|344:155,2,72,0|2|0,0:0|0:0|0:0,0:0:0:0:
376,236,438438,1,2,0:0:0:0:
292,220,438652,1,0,0:0:0:0:
223,90,438867,6,0,P|217:55|224:20,1,72,2|0,0:0|0:0,0:0:0:0:
300,48,439295,2,0,P|308:82|300:117,1,72,0|0,0:0|0:0,0:0:0:0:
207,192,439724,2,0,P|172:195|136:191,1,72,2|0,0:0|0:0,0:0:0:0:
95,119,440152,2,0,P|60:115|24:120,1,72,0|0,0:0|0:0,0:0:0:0:
0,272,440581,6,0,P|-8:306|0:341,1,72,2|0,0:0|0:0,0:0:0:0:
96,380,441009,1,2,0:0:0:0:
232,327,441224,2,0,P|240:293|233:258,2,72,0|2|0,0:0|0:0|0:0,0:0:0:0:
164,276,441867,1,0,0:0:0:0:
176,192,442081,1,0,0:0:0:0:
300,119,442295,6,0,P|335:116|371:118,1,72,2|0,0:0|0:0,0:0:0:0:
407,192,442724,2,0,P|372:195|336:192,1,72,0|0,0:0|0:0,0:0:0:0:
255,304,443152,2,0,P|247:338|256:373,1,72,2|0,0:0|0:0,0:0:0:0:
332,343,443581,2,0,P|340:309|333:274,1,72,0|0,0:0|0:0,0:0:0:0:
239,175,444009,6,0,P|204:170|168:176,1,72,2|0,0:0|0:0,0:0:0:0:
92,240,444438,1,0,0:0:0:0:
7,135,444652,2,0,P|0:100|3:65,2,72,0|2|0,0:0|0:0|0:0,0:0:0:0:
84,92,445295,1,2,0:0:0:0:
168,80,445509,1,0,0:0:0:0:
309,120,445724,6,0,P|320:154|324:189,1,72,2|0,0:0|0:0,0:0:0:0:
276,256,446152,2,0,P|310:266|345:270,1,72,0|0,0:0|0:0,0:0:0:0:
491,191,446581,2,0,P|458:180|422:175,1,72,2|0,0:0|0:0,0:0:0:0:
384,103,447009,2,0,P|388:68|399:34,1,72,0|0,0:0|0:0,0:0:0:0:
256,0,447438,6,0,P|264:34|256:69,1,72,2|0,0:0|0:0,0:0:0:0:
176,128,447867,1,0,0:0:0:0:
220,264,448081,2,0,P|255:270|290:263,2,72,0|2|0,0:0|0:0|0:0,0:0:0:0:
140,324,448724,1,2,0:0:0:0:
44,300,448938,1,0,0:0:0:0:
30,98,449152,6,0,P|68:87|109:83,1,72,2|0,0:0|0:0,0:0:0:0:
192,152,449581,2,0,P|232:148|270:136,1,72,0|0,0:0|0:0,0:0:0:0:
427,191,450009,2,0,P|443:228|442:269,1,72,2|0,0:0|0:0,0:0:0:0:
315,319,450438,2,0,P|301:282|301:242,1,72,0|0,0:0|0:0,0:0:0:0:
376,79,450867,6,0,P|414:68|454:66,1,72,2|0,0:0|0:0,0:0:0:0:
356,0,451295,1,0,0:0:0:0:
227,59,451509,2,0,P|189:47|149:46,1,72,0|2,0:0|0:0,0:0:0:0:
60,88,451938,1,0,0:0:0:0:
0,192,452152,1,2,0:0:0:0:
32,308,452367,1,0,0:0:0:0:
191,272,452581,6,0,P|199:232|192:192,1,72,2|0,0:0|0:0,0:0:0:0:
95,152,453009,2,0,P|89:191|96:231,1,72,0|0,0:0|0:0,0:0:0:0:
256,159,453438,2,0,P|294:148|334:143,1,72,2|0,0:0|0:0,0:0:0:0:
432,219,453867,2,0,P|472:215|511:204,1,72,0|0,0:0|0:0,0:0:0:0:
384,347,454295,6,0,P|373:307|356:271,1,72,2|0,0:0|0:0,0:0:0:0:
228,235,454724,2,0,P|217:275|200:311,1,72,2|0,0:0|0:0,0:0:0:0:
72,352,455152,1,2,0:0:0:0:
4,285,455367,1,0,0:0:0:0:
114,249,455581,1,0,0:0:0:0:
13,132,455795,1,0,0:0:0:0:
92,151,456009,6,0,P|53:144|12:143,1,72,2|0,0:0|0:0,0:0:0:0:
96,31,456438,2,0,P|136:31|176:38,1,72,0|0,0:0|0:0,0:0:0:0:
320,0,456867,2,0,P|328:39|320:78,1,72,2|0,0:0|0:0,0:0:0:0:
223,152,457295,2,0,P|216:191|223:231,1,72,0|0,0:0|0:0,0:0:0:0:
368,364,457724,6,0,P|407:371|447:363,1,72,2|0,0:0|0:0,0:0:0:0:
480,256,458152,1,0,0:0:0:0:
407,131,458367,2,0,P|368:123|329:131,1,72,0|2,0:0|0:0,0:0:0:0:
288,224,458795,1,0,0:0:0:0:
192,292,459009,1,2,0:0:0:0:
76,272,459224,1,0,0:0:0:0:
8,120,459438,6,0,P|4:79|12:39,1,72,2|0,0:0|0:0,0:0:0:0:
115,7,459867,2,0,P|119:48|112:87,1,72,0|0,0:0|0:0,0:0:0:0:
256,159,460295,2,0,P|296:167|336:159,1,72,2|0,0:0|0:0,0:0:0:0:
384,47,460724,2,0,P|423:40|462:47,1,72,0|0,0:0|0:0,0:0:0:0:
512,204,461152,5,0,0:0:0:0:
133,195,479367,6,0,L|132:336,1,138.600004229736
