osu file format v14

[General]
AudioFilename: audio.mp3
AudioLeadIn: 0
PreviewTime: 73734
Countdown: 1
SampleSet: Soft
StackLeniency: 0.2
Mode: 0
LetterboxInBreaks: 0
WidescreenStoryboard: 0

[Editor]
Bookmarks: 36180,73734,81072,81827,87763,94885,95640,114741,132871,207763,219200,226538,264092,284811,295171,300351,305531,320209
DistanceSpacing: 1.8
BeatDivisor: 4
GridSize: 32
TimelineZoom: 1.4

[Metadata]
Title:tamesugame
TitleUnicode:ためすがめ
Artist:Diao Ye Zong feat. Meramipop
ArtistUnicode:凋叶棕 feat. めらみぽっぷ
Creator:SDpeople
Version:Collab Lunatic
Source:東方文花帖 ~ Shoot the Bullet.
Tags:東方 touhou project zun 眇 c96 comic market 96 look closely RD-Sounds Diao Ye Zong ニュースハウンド Double Spoiler ~ 东方文花帖 天狗が見ている ~ Black Eyes 东方文花帖 ~ Shoot the Bullet. Houshou Hari Loneight
BeatmapID:2141952
BeatmapSetID:1023980

[Difficulty]
HPDrainRate:5
CircleSize:3.8
OverallDifficulty:6
ApproachRate:9
SliderMultiplier:1.8
SliderTickRate:1

[Events]
//Background and Video events
0,0,"BG.png",0,0
//Break Periods
2,114940,125364
//Storyboard Layer 0 (Background)
//Storyboard Layer 1 (Fail)
//Storyboard Layer 2 (Pass)
//Storyboard Layer 3 (Foreground)
//Storyboard Layer 4 (Overlay)
//Storyboard Sound Samples

[TimingPoints]
1648,431.654676258993,4,2,1,50,1,0
9417,-200,4,2,1,50,0,0
11791,-100,4,2,1,50,0,0
12439,-100,4,2,1,50,0,0
12871,-200,4,2,1,50,0,0
15029,-66.6666666666667,4,2,1,60,0,0
15460,-100,4,2,1,60,0,0
22367,-100,4,1,1,60,0,0
29273,-100,4,3,1,60,0,0
32295,-133.333333333333,4,3,1,60,0,0
32942,-100,4,3,1,60,0,0
39201,-133.333333333333,4,3,1,60,0,0
39849,-100,4,3,1,60,0,0
44381,-66.6666666666667,4,3,1,60,0,0
44813,-100,4,3,1,60,0,0
46108,-133.333333333333,4,3,1,60,0,0
46755,-100,4,3,1,60,0,0
56899,-100,4,3,1,50,0,0
72439,-100,4,3,1,60,0,1
73734,-133.333333333333,4,3,1,65,0,1
85173,-100,4,3,1,65,0,1
87978,-133.333333333333,4,3,1,65,0,1
89273,-100,4,3,1,65,0,1
89813,-133.333333333333,4,3,1,65,0,1
97906,-133.333333333333,4,2,6,65,0,1
110855,-133.333333333333,3,3,1,65,0,1
111719,-133.333333333333,3,2,1,30,0,1
112151,-200,4,2,1,60,0,0
114955,-133.333333333333,4,2,1,50,0,0
115055,-133.333333333333,4,2,1,50,0,0
127689,-66.6666666666667,4,2,1,50,0,0
128552,-133.333333333333,4,2,1,50,0,0
128984,-66.6666666666667,4,2,1,50,0,0
129200,-100,4,2,1,50,0,0
129416,-133.333333333333,4,2,1,50,0,0
131142,-66.6666666666667,4,2,1,50,0,0
131574,-133.333333333333,4,2,1,50,0,0
131790,-66.6666666666667,4,2,1,50,0,0
132221,-133.333333333333,4,2,1,50,0,0
132437,-200,4,2,1,60,0,0
132869,-133.333333333333,4,2,1,60,0,0
134164,-76.9230769230769,4,2,1,60,0,0
134596,-133.333333333333,4,2,1,60,0,0
135891,-76.9230769230769,4,2,1,60,0,0
136322,-133.333333333333,4,2,1,60,0,0
141070,-76.9230769230769,4,2,1,60,0,0
141502,-133.333333333333,4,2,1,60,0,0
142797,-76.9230769230769,4,2,1,60,0,0
143229,-117.647058823529,4,2,1,60,0,0
147977,-166.666666666667,4,2,1,60,0,0
148408,-117.647058823529,4,2,1,60,0,0
149703,-166.666666666667,4,2,1,60,0,0
150135,-117.647058823529,4,2,1,60,0,0
154883,-166.666666666667,4,2,1,60,0,0
155315,-117.647058823529,4,2,1,60,0,0
156610,-166.666666666667,4,2,1,60,0,0
157042,-117.647058823529,4,2,1,60,0,0
158768,-166.666666666667,4,2,1,60,0,0
159200,-117.647058823529,4,2,1,60,0,0
160495,-166.666666666667,4,2,1,60,0,0
176036,-100,4,2,1,60,0,1
177761,-133.333333333333,4,2,1,60,0,1
178193,-100,4,2,1,60,0,1
179488,-133.333333333333,4,2,1,60,0,1
179919,-100,4,2,1,60,0,1
181214,-133.333333333333,4,2,1,60,0,1
181646,-100,4,2,1,60,0,1
182509,-133.333333333333,4,2,1,60,0,1
182941,-100,4,2,1,60,0,1
183373,-133.333333333333,4,2,1,60,0,1
183804,-100,4,2,1,60,0,1
184667,-133.333333333333,4,2,1,60,0,1
185099,-100,4,2,1,60,0,1
186394,-133.333333333333,4,2,1,60,0,1
186826,-100,4,2,1,60,0,1
188121,-133.333333333333,4,2,1,60,0,1
190711,-100,4,2,1,60,0,1
191574,-133.333333333333,4,2,1,60,0,1
192006,-100,4,2,1,60,0,1
193301,-133.333333333333,4,2,1,60,0,1
193732,-100,4,2,1,60,0,1
195027,-133.333333333333,4,2,1,60,0,1
195459,-100,4,2,1,60,0,1
196322,-133.333333333333,4,2,1,60,0,1
196754,-100,4,2,1,60,0,1
197185,-133.333333333333,4,2,1,60,0,1
197617,-100,4,2,1,60,0,1
198480,-133.333333333333,4,2,1,60,0,1
198912,-100,4,2,1,60,0,1
200207,-133.333333333333,4,2,1,60,0,1
200639,-100,4,2,1,60,0,1
201934,-133.333333333333,4,2,1,60,0,1
203660,-100,4,2,1,60,0,1
205173,-100,4,3,1,50,0,0
212293,-80,4,1,1,55,0,0
219200,-80,4,2,1,50,0,0
226538,-133.333333333333,4,3,1,60,0,0
229344,-133.333333333333,4,3,1,65,0,0
231286,-133.333333333333,4,3,1,50,0,0
232150,-200,4,2,1,50,0,0
233013,-133.333333333333,4,2,1,50,0,0
238193,-266.666666666667,4,2,1,50,0,0
239488,-133.333333333333,4,2,1,50,0,0
245099,-266.666666666667,4,2,1,50,0,0
246394,-133.333333333333,4,2,1,50,0,0
248552,-133.333333333333,4,1,1,60,0,0
249416,-100,4,1,1,55,0,0
249849,-100,4,1,1,60,0,1
250279,-133.333333333333,4,3,1,65,0,1
260207,-133.333333333333,4,2,6,65,0,1
273157,-266.666666666667,4,2,6,65,0,1
274452,-133.333333333333,4,2,6,65,0,1
295173,-133.333333333333,4,2,1,55,0,0
313301,-200,4,2,1,50,0,0
314596,-400,4,2,1,45,0,0
315964,-400,4,2,1,40,0,0
316322,-400,4,2,1,5,0,0

[Colours]
Combo1 : 255,128,128
Combo2 : 255,98,255
Combo3 : 255,126,64
Combo4 : 225,225,225

[HitObjects]
73,145,1648,5,2,0:0:0:0:
162,138,1863,1,0,0:0:0:0:
205,216,2079,1,0,0:0:0:0:
93,335,2295,5,2,0:0:0:0:
183,310,2511,1,0,0:0:0:0:
269,287,2727,1,0,0:0:0:0:
259,120,2942,5,2,0:0:0:0:
302,198,3158,1,0,0:0:0:0:
383,226,3374,1,0,0:0:0:0:
365,1,3590,5,2,0:0:0:0:
279,30,3806,1,0,0:0:0:0:
196,54,4022,1,0,0:0:0:0:
302,198,4237,5,2,0:0:0:0:
336,114,4453,1,0,0:0:0:0:
321,202,4669,5,2,0:0:0:0:
355,118,4885,1,0,0:0:0:0:
133,211,5101,5,2,0:0:0:0:
222,202,5317,1,0,0:0:0:0:
251,117,5532,1,0,0:0:0:0:
120,20,5748,5,2,0:0:0:0:
212,29,5964,1,0,0:0:0:0:
301,37,6180,1,0,0:0:0:0:
321,202,6396,5,2,0:0:0:0:
349,118,6612,1,0,0:0:0:0:
424,76,6827,1,0,0:0:0:0:
444,301,7043,5,2,0:0:0:0:
356,287,7259,1,0,0:0:0:0:
270,279,7475,1,0,0:0:0:0:
349,118,7691,5,2,0:0:0:0:
398,195,7906,1,0,0:0:0:0:
368,111,8122,5,2,0:0:0:0:
415,188,8338,1,0,0:0:0:0:
226,170,8554,5,2,0:0:0:0:
316,171,8770,1,0,0:0:0:0:
271,248,8986,2,0,P|337:257|391:219,1,135,2|0,0:0|0:0,0:0:0:0:
415,188,9417,2,0,P|512:272|336:252,1,450,2|0,0:0|0:0,0:0:0:0:
320,169,11791,1,0,0:0:0:0:
243,121,12007,1,0,0:0:0:0:
164,164,12223,1,0,0:0:0:0:
117,241,12439,6,0,P|183:250|237:212,1,135,2|0,0:0|0:0,0:0:0:0:
261,181,12871,2,0,P|364:268|194:274,1,405,2|0,0:0|0:0,0:0:0:0:
484,198,15029,5,0,0:1:0:0:
484,198,15460,5,0,3:0:0:0:
237,89,15676,1,0,3:0:0:0:
212,175,15892,1,2,0:0:0:0:
222,199,16000,1,2,0:0:0:0:
240,220,16108,1,2,0:0:0:0:
262,235,16216,1,2,0:0:0:0:
287,243,16324,1,2,0:0:0:0:
314,244,16432,1,2,0:0:0:0:
390,194,16648,5,2,0:0:0:0:
390,194,16755,1,2,0:0:0:0:
402,283,16971,1,2,0:0:0:0:
390,194,17187,5,0,3:0:0:0:
392,179,17403,1,0,3:0:0:0:
395,164,17619,1,0,3:0:0:0:
397,149,17835,1,0,3:0:0:0:
314,102,18050,5,2,3:3:0:0:
312,117,18266,1,2,3:3:0:0:
310,132,18482,1,2,3:3:0:0:
308,147,18698,1,2,3:3:0:0:
220,132,18914,5,0,3:0:0:0:
153,194,19130,1,0,3:0:0:0:
128,108,19345,1,2,0:0:0:0:
138,84,19453,1,2,0:0:0:0:
156,63,19561,1,2,0:0:0:0:
178,48,19669,1,2,0:0:0:0:
203,40,19777,1,2,0:0:0:0:
230,39,19885,1,2,0:0:0:0:
306,89,20101,5,2,0:0:0:0:
306,89,20209,1,2,0:0:0:0:
318,0,20424,1,2,0:0:0:0:
306,89,20640,5,0,1:0:0:0:
325,176,20856,1,0,1:0:0:0:
413,158,21072,1,0,1:0:0:0:
395,69,21288,1,0,1:0:0:0:
230,39,21504,5,0,1:0:0:0:
156,90,21719,1,0,1:0:0:0:
238,123,21935,1,0,1:0:0:0:
219,151,22043,1,0,1:0:0:0:
191,171,22151,1,0,1:0:0:0:
159,178,22259,1,0,1:0:0:0:
125,173,22367,5,0,0:0:0:0:
67,105,22583,1,0,0:0:0:0:
35,189,22799,1,12,3:0:0:0:
35,189,22906,1,0,0:0:0:0:
96,255,23122,1,12,3:0:0:0:
141,255,23230,2,0,L|197:255,1,45
180,344,23554,2,0,P|243:322|273:264,1,135,12|0,3:3|0:0,0:0:0:0:
239,180,24094,5,2,0:2:0:0:
242,165,24309,1,2,0:2:0:0:
244,150,24525,1,2,0:2:0:0:
247,135,24741,1,2,0:2:0:0:
341,119,24957,5,2,0:0:0:0:
338,134,25173,1,2,0:0:0:0:
335,149,25389,1,2,0:0:0:0:
332,163,25604,1,2,0:0:0:0:
416,161,25820,5,0,0:0:0:0:
493,116,26036,1,0,0:0:0:0:
416,71,26252,1,12,3:0:0:0:
416,71,26360,1,0,0:0:0:0:
341,119,26576,1,12,3:0:0:0:
333,163,26683,2,0,L|323:218,1,45
239,186,27007,2,0,P|249:251|301:291,1,135,12|0,3:0|0:0,0:0:0:0:
388,265,27547,6,0,L|483:264,2,90
405,178,28194,2,0,L|316:179,2,90
381,97,28842,5,0,0:0:0:0:
363,83,28950,1,0,0:0:0:0:
343,73,29058,1,0,0:0:0:0:
321,68,29165,1,0,0:0:0:0:
298,66,29273,5,0,0:0:0:0:
271,66,29381,2,0,L|197:64,1,45
180,63,29597,1,2,0:2:0:0:
143,89,29705,1,2,0:2:0:0:
159,130,29813,1,2,0:2:0:0:
120,153,29921,1,2,0:2:0:0:
134,195,30029,1,2,0:2:0:0:
245,133,30137,2,0,L|299:136,4,45
230,228,30784,1,8,2:0:0:0:
330,140,31000,5,0,0:0:0:0:
409,246,31216,1,2,0:2:0:0:
409,246,31324,1,2,0:2:0:0:
441,233,31432,1,2,0:2:0:0:
441,187,31540,1,2,0:2:0:0:
483,171,31648,1,2,0:2:0:0:
475,127,31755,1,2,0:2:0:0:
467,82,31863,6,0,L|398:76,1,45,2|0,0:0|0:0,0:0:0:0:
330,140,32079,2,0,L|374:143,1,45,2|0,0:0|0:0,0:0:0:0:
305,218,32295,2,0,L|151:213,1,135.000005149842,4|0,0:2|0:0,0:0:0:0:
83,71,32942,5,2,0:0:0:0:
152,128,33158,1,2,0:0:0:0:
235,93,33374,1,2,0:2:0:0:
235,93,33482,1,2,0:2:0:0:
235,93,33590,1,2,0:2:0:0:
83,71,33806,5,2,0:0:0:0:
54,156,34022,1,2,0:2:0:0:
54,156,34130,1,0,0:0:0:0:
166,38,34345,1,2,0:0:0:0:
235,177,34561,5,2,0:2:0:0:
278,166,34669,1,2,0:2:0:0:
309,133,34777,1,2,0:2:0:0:
267,254,34993,1,2,0:0:0:0:
235,93,35209,5,2,0:0:0:0:
191,82,35317,2,0,L|120:83,1,45
50,153,35532,2,0,L|94:152,1,45,2|0,0:0|0:0,0:0:0:0:
113,233,35748,2,0,P|152:214|176:169,1,90,4|0,0:2|0:0,0:0:0:0:
298,38,36180,5,2,0:2:0:0:
298,38,36288,1,2,0:2:0:0:
342,41,36396,1,2,0:2:0:0:
348,85,36504,1,2,0:2:0:0:
392,89,36612,1,2,0:2:0:0:
401,132,36719,1,2,0:2:0:0:
454,132,36827,1,2,0:2:0:0:
458,176,36935,1,2,0:2:0:0:
405,253,37043,2,0,L|360:239,4,45
327,155,37691,1,8,0:2:0:0:
102,137,37906,5,2,0:2:0:0:
102,137,38014,1,2,0:2:0:0:
146,132,38122,1,2,0:2:0:0:
162,173,38230,1,2,0:2:0:0:
206,166,38338,1,2,0:2:0:0:
226,206,38446,1,2,0:2:0:0:
270,202,38554,1,2,0:2:0:0:
435,218,38770,6,0,L|463:174,1,45,2|0,0:0|0:0,0:0:0:0:
432,79,38986,2,0,L|397:135,1,45,2|0,0:0|0:0,0:0:0:0:
360,36,39201,2,0,P|414:-2|478:9,1,135.000005149842,4|0,0:2|0:0,0:0:0:0:
489,148,39849,5,2,0:0:0:0:
432,79,40065,1,2,0:0:0:0:
454,231,40281,1,2,0:2:0:0:
454,231,40389,1,2,0:2:0:0:
454,231,40496,1,2,0:2:0:0:
489,148,40712,5,2,0:0:0:0:
342,99,40928,1,2,0:2:0:0:
342,99,41036,1,0,0:0:0:0:
308,180,41252,1,2,0:0:0:0:
432,79,41468,5,2,1:2:0:0:
423,46,41576,1,2,1:2:0:0:
396,24,41683,1,2,1:2:0:0:
401,161,41899,5,2,0:2:0:0:
403,194,42007,1,2,0:2:0:0:
388,224,42115,1,2,0:2:0:0:
365,248,42223,2,0,L|300:244,1,45,2|0,0:0|0:0,0:0:0:0:
247,168,42439,2,0,L|310:171,1,45,2|0,0:0|0:0,0:0:0:0:
240,86,42655,2,0,P|199:100|171:135,1,90,4|0,0:2|0:0,0:0:0:0:
339,87,43086,5,2,0:2:0:0:
339,87,43194,1,2,0:2:0:0:
374,114,43302,1,2,0:2:0:0:
365,158,43410,1,2,0:2:0:0:
402,182,43518,1,2,0:2:0:0:
403,227,43626,1,2,0:2:0:0:
444,244,43734,1,2,0:2:0:0:
446,288,43842,1,2,0:2:0:0:
378,346,43950,6,0,L|304:346,1,45,2|0,0:0|0:0,0:0:0:0:
267,266,44165,2,0,L|312:266,1,45,2|2,0:0|0:0,0:0:0:0:
289,147,44381,5,6,1:2:0:0:
38,46,44813,5,2,0:2:0:0:
38,46,44921,1,2,0:2:0:0:
72,75,45029,1,2,0:2:0:0:
55,116,45137,1,2,0:2:0:0:
92,141,45245,1,2,0:2:0:0:
81,184,45353,1,2,0:2:0:0:
110,217,45460,6,0,L|153:206,1,45
237,182,45676,2,0,P|238:226|217:266,1,90,2|0,0:0|0:0,0:0:0:0:
176,285,46000,1,2,0:0:0:0:
132,295,46108,2,0,P|94:300|54:274,1,67.5000025749208,10|0,0:0|0:0,0:0:0:0:
0,173,46755,5,2,0:0:0:0:
85,200,46971,1,2,0:0:0:0:
62,112,47187,2,0,L|131:101,1,45,2|0,0:0|0:0,0:0:0:0:
206,158,47403,2,0,L|161:165,1,45,2|0,0:0|0:0,0:0:0:0:
158,245,47619,1,2,0:0:0:0:
290,128,47835,5,2,0:2:0:0:
267,89,47942,1,2,0:2:0:0:
225,72,48050,1,2,0:2:0:0:
257,239,48374,5,2,0:2:0:0:
300,249,48482,1,2,0:2:0:0:
342,232,48590,1,2,0:2:0:0:
461,108,48806,5,2,0:2:0:0:
434,72,48914,1,2,0:2:0:0:
391,58,49022,1,2,0:2:0:0:
304,83,49130,6,0,L|229:91,1,45,2|0,0:0|0:0,0:0:0:0:
200,171,49345,2,0,L|244:166,1,45,2|0,0:0|0:0,0:0:0:0:
170,247,49561,2,0,P|135:221|117:180,1,90,4|0,0:2|0:0,0:0:0:0:
76,23,49993,5,2,0:2:0:0:
76,23,50101,1,2,0:2:0:0:
98,61,50209,1,2,0:2:0:0:
143,60,50317,1,2,0:2:0:0:
165,98,50424,1,2,0:2:0:0:
209,89,50532,1,2,0:2:0:0:
229,129,50640,1,2,0:2:0:0:
273,121,50748,1,2,0:2:0:0:
299,210,50856,2,0,L|360:188,4,45
402,96,51504,1,8,0:2:0:0:
413,257,51719,5,2,0:2:0:0:
413,257,51827,1,2,0:2:0:0:
387,294,51935,1,2,0:2:0:0:
343,281,52043,1,2,0:2:0:0:
322,320,52151,1,2,0:2:0:0:
277,310,52259,1,2,0:2:0:0:
256,349,52367,1,2,0:2:0:0:
211,342,52475,1,2,0:2:0:0:
126,305,52583,6,0,L|67:305,1,45,2|0,0:0|0:0,0:0:0:0:
111,223,52799,2,0,L|156:223,1,45,2|0,0:0|0:0,0:0:0:0:
134,136,53014,2,0,P|50:155|26:238,1,180,4|0,0:2|0:0,0:0:0:0:
241,226,53662,6,0,L|341:223,2,90,2|0|2,0:0|0:0|0:0,0:0:0:0:
196,227,54201,1,2,0:0:0:0:
150,227,54309,1,10,0:0:0:0:
232,57,54525,5,2,0:0:0:0:
138,120,54741,1,2,0:2:0:0:
138,120,54849,1,0,0:0:0:0:
232,57,55065,1,4,0:2:0:0:
331,110,55389,5,2,0:2:0:0:
345,152,55496,1,2,0:2:0:0:
331,195,55604,1,2,0:2:0:0:
213,320,55820,1,2,0:2:0:0:
127,173,56036,1,2,0:2:0:0:
94,290,56252,1,2,0:2:0:0:
246,203,56468,1,8,0:3:0:0:
246,203,56576,1,8,0:3:0:0:
246,203,56683,1,8,0:3:0:0:
246,203,56791,1,8,0:3:0:0:
246,203,56899,1,8,1:3:0:0:
332,177,57115,1,2,1:3:0:0:
420,199,57331,5,2,1:3:0:0:
420,199,57547,1,2,1:3:0:0:
428,109,57763,1,2,1:3:0:0:
428,109,57978,1,2,1:3:0:0:
355,55,58194,1,2,1:3:0:0:
355,55,58410,1,2,1:3:0:0:
215,201,58626,5,2,0:3:0:0:
215,201,58842,1,2,0:3:0:0:
209,290,59058,1,2,0:3:0:0:
209,290,59273,1,2,0:3:0:0:
218,111,59489,2,0,L|214:200,1,90,8|0,0:0|0:0,0:0:0:0:
209,290,59921,2,0,L|218:111,1,180,14|0,0:0|0:0,0:0:0:0:
206,379,60784,5,2,1:3:0:0:
206,379,61000,1,2,1:3:0:0:
129,331,61216,1,2,1:3:0:0:
129,331,61432,1,2,1:3:0:0:
136,241,61648,1,2,1:3:0:0:
136,241,61863,1,2,1:3:0:0:
310,146,62079,5,2,0:0:0:0:
310,146,62295,1,2,0:0:0:0:
323,235,62511,1,2,0:0:0:0:
323,235,62727,1,2,0:0:0:0:
336,323,62942,2,0,L|319:209,1,90,8|0,0:0|0:0,0:0:0:0:
298,56,63374,1,8,0:0:0:0:
298,56,63482,1,8,0:0:0:0:
298,56,63590,1,8,0:0:0:0:
298,56,63698,1,8,0:0:0:0:
298,56,63806,1,8,0:0:0:0:
381,97,64022,1,2,3:3:0:0:
405,186,64237,5,2,1:3:0:0:
405,186,64453,1,2,1:3:0:0:
317,206,64669,1,2,1:3:0:0:
317,206,64885,1,2,1:3:0:0:
256,139,65101,1,2,1:3:0:0:
256,139,65317,1,2,1:3:0:0:
124,205,65532,5,4,1:1:0:0:
165,124,65964,1,4,1:1:0:0:
83,286,66396,1,4,1:1:0:0:
206,43,66827,1,4,1:1:0:0:
182,301,67259,6,0,B|233:286|266:234|243:172|243:172|281:205,1,180,4|0,1:2|0:0,0:0:0:0:
315,322,67906,1,2,1:2:0:0:
405,211,68122,2,0,L|512:203,1,90,2|0,1:2|0:0,0:0:0:0:
256,184,68554,2,0,L|166:190,1,90,2|0,1:2|0:0,0:0:0:0:
411,74,68986,1,2,0:2:0:0:
329,37,69201,1,2,0:2:0:0:
254,87,69417,1,2,0:2:0:0:
260,277,69633,5,2,0:2:0:0:
260,277,69741,1,2,0:2:0:0:
381,121,70281,5,2,0:0:0:0:
381,121,70712,2,0,L|383:221,1,90
205,178,71360,2,0,L|207:278,1,90
29,235,72007,2,0,L|31:335,1,90
102,380,72439,5,2,0:2:0:0:
102,380,72547,1,2,0:2:0:0:
135,349,72655,1,2,0:2:0:0:
173,372,72763,1,2,0:2:0:0:
207,343,72871,1,2,0:2:0:0:
245,365,72978,1,2,0:2:0:0:
329,345,73086,6,0,L|393:335,1,45,2|0,0:0|0:0,0:0:0:0:
312,263,73302,2,0,L|240:273,1,45,2|0,0:0|0:0,0:0:0:0:
303,182,73518,1,2,0:2:0:0:
346,172,73626,1,2,0:2:0:0:
370,149,73734,6,0,P|387:101|377:52,1,101.250003862381,2|0,0:0|0:0,0:0:0:0:
217,199,74165,2,0,P|218:158|264:103,1,101.250003862381,2|0,0:0|0:0,0:0:0:0:
300,316,74597,2,0,L|296:248,1,67.5000025749208,2|0,0:0|0:0,0:0:0:0:
131,144,75029,5,0,0:0:0:0:
339,81,75245,1,0,0:0:0:0:
296,248,75460,1,0,0:0:0:0:
131,144,75676,6,0,L|86:143,2,33.7500012874604,2|2|2,0:2|0:2|0:2,0:2:0:0:
319,166,76108,1,2,0:2:0:0:
49,261,76324,5,2,0:2:0:0:
231,115,76540,1,2,0:2:0:0:
98,346,76755,5,2,0:2:0:0:
141,190,76971,1,2,0:2:0:0:
179,212,77079,1,2,0:2:0:0:
222,213,77187,6,0,B|289:213|289:213|323:235,1,101.250003862381,2|0,0:0|0:0,0:0:0:0:
324,370,77619,2,0,P|274:356|245:311,1,101.250003862381,2|0,0:0|0:0,0:0:0:0:
207,173,78050,2,0,L|199:251,1,67.5000025749208,2|0,0:0|0:0,0:0:0:0:
411,374,78482,6,0,P|403:335|383:307,1,67.5000025749208,2|0,0:0|0:0,0:0:0:0:
324,370,78806,1,2,0:0:0:0:
308,285,78914,2,0,P|336:244|368:232,1,67.5000025749208,2|0,0:0|0:0,0:0:0:0:
388,312,79237,1,2,0:0:0:0:
435,242,79345,2,0,P|429:205|410:177,1,67.5000025749208,2|0,0:0|0:0,0:0:0:0:
350,236,79669,1,2,0:0:0:0:
333,152,79777,2,0,P|359:114|392:99,1,67.5000025749208,2|0,0:0|0:0,0:0:0:0:
492,213,80209,5,6,0:0:0:0:
439,37,80424,1,6,0:0:0:0:
406,293,80640,1,8,0:0:0:0:
406,293,80748,1,8,0:0:0:0:
406,293,80856,1,8,0:0:0:0:
406,293,80964,1,8,0:0:0:0:
406,292,81072,6,0,L|320:291,1,67.5000025749208,10|0,0:0|0:0,0:0:0:0:
300,286,81396,1,0,0:0:0:0:
265,271,81504,1,2,0:0:0:0:
424,206,81719,1,2,0:0:0:0:
388,378,81935,2,0,P|421:377|453:365,1,67.5000025749208,2|0,0:0|0:0,0:0:0:0:
406,292,82259,1,2,0:0:0:0:
341,237,82367,2,0,P|338:184|349:162,1,67.5000025749208,2|0,0:0|0:0,0:0:0:0:
388,172,82691,1,0,0:0:0:0:
424,206,82799,5,2,0:2:0:0:
262,136,83014,1,2,0:2:0:0:
284,312,83230,5,2,0:2:0:0:
329,84,83446,1,2,0:2:0:0:
126,227,83662,5,2,0:2:0:0:
304,205,83878,1,2,0:2:0:0:
185,329,84094,5,2,0:2:0:0:
284,312,84309,1,2,0:2:0:0:
446,380,84525,2,0,P|509:340|523:282,1,135.000005149842,2|0,0:0|0:0,0:0:0:0:
356,366,85173,5,2,0:0:0:0:
284,312,85389,2,0,L|272:212,1,90,2|0,0:0|0:0,0:0:0:0:
283,188,85712,1,0,0:0:0:0:
309,164,85820,5,2,0:0:0:0:
356,366,86036,1,2,0:0:0:0:
473,211,86252,5,2,0:2:0:0:
314,263,86468,1,2,0:2:0:0:
372,74,86683,1,2,0:2:0:0:
213,126,86899,1,2,0:2:0:0:
213,126,87007,1,2,0:2:0:0:
213,126,87115,2,0,L|212:222,1,90,2|0,0:2|0:0,0:0:0:0:
214,306,87547,5,8,0:0:0:0:
214,260,87655,1,8,0:0:0:0:
212,215,87763,1,8,0:0:0:0:
212,169,87871,1,8,0:0:0:0:
212,126,87978,2,0,P|246:99|303:92,1,101.250003862381,10|0,0:0|0:0,0:0:0:0:
376,218,88410,2,0,L|377:145,1,67.5000025749208,2|0,0:0|0:0,0:0:0:0:
124,280,88842,5,0,0:0:0:0:
376,218,89058,1,2,0:0:0:0:
212,126,89273,1,0,0:0:0:0:
188,337,89489,6,0,L|182:386,2,45,2|2|2,0:2|0:2|0:2,0:0:0:0:
244,207,89921,1,2,0:2:0:0:
272,319,90137,5,2,0:2:0:0:
414,157,90353,1,2,0:2:0:0:
342,380,90568,5,2,0:2:0:0:
329,182,90784,1,2,0:2:0:0:
324,62,91000,6,0,P|275:75|242:112,1,101.250003862381,2|0,0:0|0:0,0:0:0:0:
297,271,91432,2,0,P|328:227|325:171,1,101.250003862381,2|0,0:0|0:0,0:0:0:0:
425,90,91863,2,0,L|412:168,1,67.5000025749208,2|0,0:0|0:0,0:0:0:0:
203,325,92295,6,0,P|170:318|142:299,1,67.5000025749208,2|0,0:0|0:0,0:0:0:0:
204,242,92619,1,2,0:0:0:0:
161,170,92727,2,0,P|136:193|123:224,1,67.5000025749208,2|0,0:0|0:0,0:0:0:0:
142,299,93050,1,2,0:0:0:0:
222,324,93158,2,0,P|200:360|164:382,1,67.5000025749208,2|0,0:0|0:0,0:0:0:0:
97,370,93482,1,2,0:0:0:0:
59,295,93590,2,0,L|53:210,1,67.5000025749208,2|0,0:0|0:0,0:0:0:0:
41,58,94022,1,14,1:2:0:0:
134,193,94453,5,8,0:0:0:0:
134,193,94561,1,8,0:0:0:0:
134,193,94669,1,8,0:0:0:0:
134,193,94777,1,8,0:0:0:0:
133,193,94885,6,0,L|222:172,1,67.5000025749208
231,166,95209,1,0,0:0:0:0:
256,142,95317,1,2,0:0:0:0:
83,125,95532,1,2,0:0:0:0:
154,273,95748,2,0,P|116:274|88:261,1,67.5000025749208,2|0,0:0|0:0,0:0:0:0:
133,192,96072,1,2,0:0:0:0:
167,116,96180,2,0,P|148:71|115:47,1,67.5000025749208,2|0,0:0|0:0,0:0:0:0:
89,262,96612,5,2,2:0:0:0:
167,116,96827,1,2,2:0:0:0:
254,256,97043,1,2,2:0:0:0:
133,192,97259,5,2,2:0:0:0:
248,119,97475,1,2,2:0:0:0:
254,256,97691,1,2,2:0:0:0:
167,116,97906,5,2,0:0:0:0:
133,192,98122,1,2,0:0:0:0:
167,268,98338,2,0,B|256:258|256:258|300:220,1,135.000005149842,2|0,0:0|0:0,0:0:0:0:
449,50,99201,5,2,0:0:0:0:
427,263,99633,1,2,0:0:0:0:
370,25,100065,1,2,0:0:0:0:
337,276,100496,1,2,0:0:0:0:
292,1,100928,2,0,L|157:1,1,135.000005149842,2|0,0:0|0:0,0:0:0:0:
34,273,101791,5,6,0:0:0:0:
135,39,102223,1,0,0:0:0:0:
114,249,102655,1,6,0:0:0:0:
215,15,102978,5,10,0:0:0:0:
215,15,103086,1,2,0:0:0:0:
476,112,103518,1,0,0:0:0:0:
116,250,103950,1,4,0:0:0:0:
291,51,104381,5,2,0:0:0:0:
270,286,104813,1,0,0:0:0:0:
215,15,105245,1,4,0:0:0:0:
116,250,105676,5,2,0:0:0:0:
457,194,106108,1,0,0:0:0:0:
85,173,106540,1,6,0:0:0:0:
426,117,106971,5,2,0:0:0:0:
327,366,107403,1,0,0:0:0:0:
349,82,107835,1,4,0:0:0:0:
250,331,108158,5,10,0:0:0:0:
250,331,108266,1,2,0:0:0:0:
496,64,108698,1,0,0:0:0:0:
412,344,109130,1,4,0:0:0:0:
418,34,109561,5,2,0:0:0:0:
334,314,109993,1,0,0:0:0:0:
340,4,110424,1,4,0:0:0:0:
252,288,110856,2,0,L|112:289,1,135,6|0,0:0|0:0,0:0:0:0:
33,134,111719,5,0,0:0:0:0:
57,221,112151,2,0,B|109:213|147:141|104:78|104:78|154:169|207:103|259:221|259:221|296:210|317:180|317:180|340:209|372:222,1,540
6,345,125964,5,0,1:0:0:0:
15,250,126180,1,2,0:0:0:0:
85,343,126396,5,2,3:0:0:0:
77,295,126504,1,2,0:0:0:0:
161,321,126719,5,0,3:0:0:0:
161,321,126827,1,0,3:0:0:0:
140,246,126935,2,0,L|152:168,1,67.5000025749208,2|0,0:0|3:0,0:0:0:0:
232,276,127259,2,0,L|317:260,1,67.5000025749208,0|4,1:0|3:0,0:0:0:0:
383,299,127691,6,0,P|398:267|397:221,1,67.5000025749208,0|0,1:0|0:0,0:0:0:0:
512,198,127906,2,0,P|484:175|440:164,1,67.5000025749208,4|0,3:0|0:0,0:0:0:0:
447,48,128122,2,0,P|418:68|395:108,1,67.5000025749208,0|0,1:0|0:0,0:0:0:0:
284,70,128338,2,0,P|296:103|329:135,1,67.5000025749208,4|0,3:0|0:0,0:0:0:0:
326,215,128554,5,2,0:0:0:0:
284,70,128770,1,4,3:0:0:0:
326,215,128986,2,0,P|296:230|263:233,1,67.5000025749208,0|0,1:0|0:0,0:0:0:0:
221,257,129201,2,0,L|168:247,1,45,2|0,0:0|0:0,0:0:0:0:
133,269,129417,5,0,1:0:0:0:
38,265,129633,1,2,0:0:0:0:
118,192,129849,5,2,3:0:0:0:
70,195,129957,1,2,0:0:0:0:
116,113,130173,5,0,0:0:0:0:
116,113,130281,1,0,0:0:0:0:
38,122,130389,2,0,P|16:95|10:55,1,67.5000025749208,2|0,0:0|3:0,0:0:0:0:
136,50,130712,2,0,L|215:38,1,67.5000025749208,0|4,1:0|3:0,0:0:0:0:
262,113,131144,6,0,P|267:148|252:199,1,67.5000025749208,0|0,1:0|0:0,0:0:0:0:
374,157,131360,2,0,P|361:188|339:214,1,67.5000025749208,4|0,3:0|0:0,0:0:0:0:
226,258,131576,2,0,L|178:248,1,33.7500012874604,0|0,1:0|0:0,0:0:0:0:
262,113,131791,6,0,P|267:148|252:199,1,67.5000025749208,4|0,3:0|0:0,0:0:0:0:
374,157,132007,2,0,P|361:188|339:214,1,67.5000025749208,0|0,1:0|0:0,0:0:0:0:
226,258,132223,2,0,L|178:248,1,33.7500012874604,4|0,3:0|0:0,0:0:0:0:
93,279,132439,1,0,1:0:0:0:
84,299,132547,1,0,1:0:0:0:
75,319,132655,1,0,3:0:0:0:
71,326,132871,5,4,1:2:0:0:
145,358,132978,2,0,L|219:345,1,67.5000025749208,2|0,0:0|0:0,0:0:0:0:
245,340,133302,1,2,3:0:0:0:
277,349,133410,2,0,L|319:359,2,33.7500012874604,0|4|0,0:0|3:0|0:0,0:0:0:0:
301,325,133734,1,2,0:0:0:0:
379,304,133842,5,2,1:2:0:0:
380,300,133950,1,4,3:0:0:0:
381,296,134058,1,2,0:0:0:0:
382,292,134165,2,0,L|375:225,1,58.4999973220826,2|0,3:0|0:0,0:0:0:0:
461,216,134381,2,0,L|454:149,1,58.4999973220826,2|0,0:0|0:0,0:0:0:0:
421,83,134597,6,0,P|391:99|345:108,2,67.5000025749208,0|2|2,1:0|0:0|3:0,0:0:0:0:
274,113,135245,1,0,1:0:0:0:
267,66,135353,1,2,0:0:0:0:
260,19,135460,1,2,0:0:0:0:
253,17,135676,5,0,1:0:0:0:
267,66,135784,1,0,0:0:0:0:
267,111,135892,2,0,B|201:102|201:102|201:113|207:123|207:123|181:88|132:89|100:123|112:173,1,233.999989288331,2|0,3:0|1:0,0:0:0:0:
57,315,136540,5,2,0:0:0:0:
187,218,136755,1,2,3:0:0:0:
194,334,136971,1,0,1:0:0:0:
234,332,137079,1,2,0:0:0:0:
274,330,137187,2,0,P|296:305|294:252,1,67.5000025749208,2|0,0:0|1:0,0:0:0:0:
260,142,137619,1,2,3:0:0:0:
338,162,137727,2,0,L|345:122,1,33.7500012874604,2|0,0:0|0:0,0:0:0:0:
355,47,137942,6,0,L|437:66,1,84.3750032186509,2|0,3:2|3:0,0:0:0:0:
461,76,138266,1,2,0:0:0:0:
468,122,138374,2,0,L|475:165,1,33.7500012874604,0|2,0:0|3:0,0:0:0:0:
486,235,138590,2,0,L|479:278,1,33.7500012874604,0|0,0:0|1:0,0:0:0:0:
384,323,138806,1,0,0:0:0:0:
370,242,138914,2,0,L|276:221,2,67.5000025749208,4|0|2,3:0|1:0|3:0,0:0:0:0:
385,204,139453,1,2,3:0:0:0:
387,197,139561,1,2,3:0:0:0:
389,190,139669,1,2,3:0:0:0:
391,183,139777,5,4,1:2:0:0:
382,136,139885,2,0,P|349:148|308:146,1,67.5000025749208,0|0,0:0|0:0,0:0:0:0:
237,168,140209,2,0,L|222:91,1,67.5000025749208,2|0,3:0|1:0,0:0:0:0:
128,36,140640,1,2,0:0:0:0:
51,61,140748,1,2,1:2:0:0:
48,54,140856,1,4,3:0:0:0:
41,56,140964,1,2,0:0:0:0:
44,63,141072,2,0,L|30:119,1,58.4999973220826,0|0,1:0|0:0,0:0:0:0:
88,186,141288,2,0,L|74:242,1,58.4999973220826,2|0,0:0|0:0,0:0:0:0:
35,314,141504,5,0,1:0:0:0:
64,341,141612,1,0,0:0:0:0:
102,329,141719,1,2,0:0:0:0:
131,356,141827,1,0,0:0:0:0:
169,344,141935,1,2,3:0:0:0:
183,295,142043,2,0,L|257:277,1,67.5000025749208,2|2,0:2|0:0,0:0:0:0:
310,331,142367,2,0,L|328:293,1,33.7500012874604,0|4,1:0|3:0,0:0:0:0:
336,250,142583,1,0,1:0:0:0:
398,301,142691,1,0,0:0:0:0:
475,318,142799,6,0,B|490:275|490:275|471:242|471:242|495:203|495:203|512:173|498:136|459:115|421:162,1,233.999989288331,2|0,3:0|1:0,0:0:0:0:
323,36,143446,5,2,0:0:0:0:
219,160,143662,1,2,3:0:0:0:
333,149,143878,1,0,1:0:0:0:
333,149,144094,2,0,L|342:240,1,76.5000014591217,2|0,0:0|1:0,0:0:0:0:
215,321,144525,1,2,3:0:0:0:
138,294,144633,2,0,L|135:254,1,38.2500007295609,0|2,0:0|0:0,0:0:0:0:
56,217,144849,2,0,L|58:255,1,38.2500007295609,0|0,0:0|1:0,0:0:0:0:
124,174,145065,6,0,P|153:190|205:194,2,76.5000014591217,0|2|0,0:0|0:0|0:0,0:0:0:0:
99,61,145712,1,2,0:0:0:0:
172,94,145820,2,0,P|190:99|214:103,1,38.2500007295609,0|0,1:0|0:0,0:0:0:0:
277,137,146036,2,0,P|295:132|315:123,1,38.2500007295609,4|0,3:0|0:0,0:0:0:0:
389,121,146252,1,2,3:0:0:0:
412,96,146360,1,2,3:0:0:0:
431,68,146468,1,2,3:0:0:0:
446,37,146576,1,2,3:0:0:0:
479,31,146683,6,0,L|523:23,1,38.2500007295609,4|0,1:2|0:0,0:0:0:0:
345,202,147115,1,2,3:0:0:0:
446,254,147331,1,0,1:0:0:0:
320,304,147547,1,2,0:0:0:0:
241,285,147655,1,2,0:0:0:0:
241,288,147763,1,0,1:0:0:0:
242,291,147871,1,0,3:0:0:0:
242,294,147978,2,0,P|204:309|153:300,1,80.9999975280763,2|0,3:0|0:0,0:0:0:0:
90,336,148410,6,0,P|103:306|96:257,1,76.5000014591217,0|2,1:0|0:0,0:0:0:0:
80,226,148734,1,2,0:0:0:0:
50,198,148842,1,2,3:0:0:0:
24,166,148950,1,2,0:0:0:0:
16,126,149058,1,0,1:0:0:0:
29,87,149165,1,2,0:0:0:0:
60,61,149273,2,0,L|98:54,1,38.2500007295609,2|4,0:0|3:0,0:0:0:0:
132,32,149489,2,0,L|141:73,1,38.2500007295609,0|0,1:0|0:0,0:0:0:0:
204,115,149705,2,0,L|192:208,1,80.9999975280763,2|0,3:0|0:0,0:0:0:0:
182,275,150137,5,0,1:0:0:0:
312,181,150353,1,2,0:0:0:0:
374,277,150568,1,2,3:0:0:0:
482,315,150784,1,0,1:0:0:0:
482,315,150892,2,0,L|488:229,1,76.5000014591217,2|4,0:0|3:0,0:0:0:0:
430,181,151216,2,0,L|425:239,1,38.2500007295609,0|0,1:0|0:0,0:0:0:0:
374,277,151432,1,2,3:0:0:0:
300,245,151540,1,2,0:0:0:0:
304,155,151755,1,2,0:0:0:0:
309,29,151971,5,0,0:0:0:0:
309,36,152079,1,2,0:0:0:0:
309,43,152187,2,0,L|215:51,2,76.5000014591217,0|2|0,0:0|0:0|0:0,0:0:0:0:
376,87,152727,2,0,L|368:140,1,38.2500007295609,2|4,0:0|3:0,0:0:0:0:
308,177,152942,2,0,L|255:169,1,38.2500007295609,0|0,1:0|0:0,0:0:0:0:
218,109,153158,1,6,3:0:0:0:
210,107,153266,1,2,3:0:0:0:
202,105,153374,1,2,3:0:0:0:
194,103,153482,1,2,3:0:0:0:
186,101,153590,6,0,L|124:113,1,38.2500007295609,0|0,1:0|0:0,0:0:0:0:
1,43,154022,1,2,3:0:0:0:
71,132,154237,1,0,1:0:0:0:
14,232,154453,1,2,0:0:0:0:
91,254,154561,1,2,0:0:0:0:
94,253,154669,1,0,1:0:0:0:
97,251,154777,1,0,0:0:0:0:
100,249,154885,2,0,L|86:334,1,80.9999975280763,2|0,3:0|0:0,0:0:0:0:
160,362,155317,5,0,1:0:0:0:
178,248,155532,1,2,0:0:0:0:
196,134,155748,1,2,3:0:0:0:
307,161,155964,1,0,1:0:0:0:
345,159,156072,1,0,0:0:0:0:
383,158,156180,2,0,P|413:140|439:106,1,76.5000014591217,2|0,0:0|1:0,0:0:0:0:
457,28,156504,1,0,0:0:0:0:
511,87,156612,2,0,L|520:177,1,80.9999975280763,2|0,3:0|0:0,0:0:0:0:
503,247,157043,5,0,1:0:0:0:
363,325,157259,1,2,0:0:0:0:
385,196,157475,1,2,3:0:0:0:
255,212,157691,1,0,1:0:0:0:
209,219,157799,1,0,0:0:0:0:
163,225,157906,2,0,P|166:264|146:312,1,76.5000014591217,2|0,0:0|1:0,0:0:0:0:
23,301,158338,2,0,P|11:275|29:186,1,114.750002188683,2|2,3:0|3:0,0:0:0:0:
1,114,158770,6,0,L|98:102,1,80.9999975280763,0|0,1:0|0:0,0:0:0:0:
131,167,159201,1,2,3:0:0:0:
189,50,159417,1,0,1:0:0:0:
316,22,159633,1,2,1:3:0:0:
302,150,159849,1,0,1:0:0:0:
287,277,160065,1,2,3:0:0:0:
293,296,160173,1,2,3:0:0:0:
300,314,160281,1,2,3:0:0:0:
306,332,160389,1,2,3:0:0:0:
312,350,160496,5,4,1:2:0:0:
327,357,160928,2,0,P|350:335|391:323,1,53.9999983520508,2|0,3:0|1:0,0:0:0:0:
338,213,161360,2,0,P|368:205|410:215,1,53.9999983520508,2|0,0:0|1:0,0:0:0:0:
414,96,161791,2,0,P|444:104|475:134,1,53.9999983520508,2|0,1:3|0:0,0:0:0:0:
390,207,162223,6,0,P|363:205|310:231,1,80.9999975280763,0|0,1:0|0:0,0:0:0:0:
327,357,162655,2,0,P|350:335|391:323,1,53.9999983520508,2|0,3:0|1:0,0:0:0:0:
185,357,163086,2,0,P|166:337|141:326,1,53.9999983520508,2|0,0:0|1:0,0:0:0:0:
174,213,163518,2,0,P|143:205|101:215,1,53.9999983520508,2|2,1:3|0:0,0:0:0:0:
78,225,163842,1,2,0:0:0:0:
46,257,163950,5,0,1:0:0:0:
38,270,164381,2,0,L|32:201,1,53.9999983520508,2|0,3:0|1:0,0:0:0:0:
124,149,164813,2,0,L|136:80,1,53.9999983520508,2|0,0:0|1:0,0:0:0:0:
240,56,165245,2,0,L|234:-13,1,53.9999983520508,2|2,1:3|0:0,0:0:0:0:
134,96,165676,6,0,L|119:180,1,80.9999975280763,0|0,1:0|0:0,0:0:0:0:
38,270,166108,2,0,L|33:216,1,53.9999983520508,2|0,3:0|1:0,0:0:0:0:
131,274,166540,2,0,L|135:327,1,53.9999983520508,2|0,0:0|1:0,0:0:0:0:
233,305,166971,1,2,1:3:0:0:
234,318,167079,1,2,0:3:0:0:
235,331,167187,1,2,0:3:0:0:
236,345,167295,1,2,0:3:0:0:
237,358,167403,5,4,1:2:0:0:
226,364,167835,2,0,L|220:299,1,53.9999983520508,2|0,3:0|1:0,0:0:0:0:
308,237,168266,2,0,P|319:211|317:171,1,53.9999983520508,2|0,0:0|1:0,0:0:0:0:
204,121,168698,2,0,P|193:95|195:55,1,53.9999983520508,2|2,1:3|0:0,0:0:0:0:
320,185,169130,2,0,P|318:212|289:259,1,80.9999975280763,0|0,1:0|0:0,0:0:0:0:
226,364,169561,2,0,L|220:299,1,53.9999983520508,2|0,3:0|1:0,0:0:0:0:
157,195,169993,2,0,L|153:255,1,53.9999983520508,2|0,0:0|1:0,0:0:0:0:
45,106,170424,2,0,L|58:189,1,80.9999975280763,2|0,1:3|0:0,0:0:0:0:
116,265,170856,6,0,P|121:317|82:364,1,107.999996704102,0|2,1:0|3:0,0:0:0:0:
212,306,171504,1,0,1:0:0:0:
338,354,171719,1,2,0:0:0:0:
337,340,171827,1,0,1:0:0:0:
325,218,172151,2,0,L|421:245,1,80.9999975280763,2|0,1:3|0:0,0:0:0:0:
459,298,172583,5,0,1:0:0:0:
478,169,172799,1,2,0:0:0:0:
459,298,173014,1,2,3:0:0:0:
338,354,173230,1,2,1:2:0:0:
337,340,173338,2,0,L|259:318,1,80.9999975280763,2|0,0:0|1:0,0:0:0:0:
216,206,173878,1,2,1:3:0:0:
195,208,173986,1,2,3:0:0:0:
175,211,174094,1,2,3:0:0:0:
155,214,174201,1,2,3:0:0:0:
135,217,174309,5,2,1:2:0:0:
39,228,174957,1,4,1:2:0:0:
17,133,175604,1,2,1:2:0:0:
17,133,176036,5,2,0:0:0:0:
37,150,176144,1,2,0:0:0:0:
49,174,176252,1,0,0:0:0:0:
50,200,176360,1,0,0:0:0:0:
40,225,176468,2,0,P|30:284|86:337,1,135,2|0,0:0|0:0,0:0:0:0:
148,378,176899,2,0,P|161:335|143:286,1,90,2|0,0:0|0:0,0:0:0:0:
167,186,177331,1,4,3:0:0:0:
167,186,177547,1,4,3:0:0:0:
186,79,177763,6,0,L|287:65,1,101.250003862381,4|0,1:2|0:0,0:0:0:0:
337,129,178194,1,2,3:0:0:0:
404,36,178410,1,0,1:0:0:0:
457,178,178626,1,2,0:0:0:0:
457,178,178734,1,2,0:0:0:0:
457,178,178842,1,0,1:0:0:0:
349,286,179058,2,0,P|316:264|264:266,1,90,2|2,3:0|0:0,0:0:0:0:
174,240,179489,6,0,P|126:262|72:258,1,101.250003862381,0|0,1:0|0:0,0:0:0:0:
6,296,179921,1,2,3:0:0:0:
113,341,180137,1,0,1:0:0:0:
71,178,180353,1,2,0:0:0:0:
113,341,180568,1,0,1:0:0:0:
180,155,180784,2,0,L|186:54,1,90,2|2,3:0|0:0,0:0:0:0:
374,97,181216,6,0,P|322:114|255:88,1,101.250003862381,0|0,1:0|0:0,0:0:0:0:
261,184,181648,1,2,3:0:0:0:
321,25,181863,1,0,1:0:0:0:
184,64,182079,2,0,L|48:46,1,135,2|0,0:0|0:0,0:0:0:0:
25,159,182511,2,0,P|38:217|-2:251,1,101.250003862381,2|2,3:0|0:0,0:0:0:0:
124,310,182942,6,0,L|132:175,1,135,0|0,1:0|0:0,0:0:0:0:
291,214,183374,2,0,L|226:200,1,67.5000025749208,2|0,1:3|1:0,0:0:0:0:
303,331,183806,1,2,0:0:0:0:
400,237,184022,1,0,1:0:0:0:
387,101,184237,1,6,3:0:0:0:
424,123,184345,1,2,3:0:0:0:
442,164,184453,1,6,3:0:0:0:
432,207,184561,1,2,3:0:0:0:
400,237,184669,6,0,L|293:228,1,101.250003862381,4|0,1:2|0:0,0:0:0:0:
229,270,185101,1,2,3:0:0:0:
301,134,185317,1,0,1:0:0:0:
161,198,185532,1,2,0:0:0:0:
161,198,185640,1,2,0:0:0:0:
161,198,185748,1,0,1:0:0:0:
294,45,185964,2,0,L|406:61,1,90,2|2,3:0|0:0,0:0:0:0:
211,106,186396,6,0,L|99:122,1,101.250003862381,0|0,1:0|0:0,0:0:0:0:
38,82,186827,1,2,3:0:0:0:
78,203,187043,2,0,L|60:308,1,90,0|2,1:0|0:0,0:0:0:0:
38,82,187475,1,0,1:0:0:0:
177,195,187691,2,0,L|159:300,1,90,2|2,3:0|0:0,0:0:0:0:
54,376,188122,6,0,L|159:365,1,101.250003862381,0|0,1:0|0:0,0:0:0:0:
235,356,188554,1,2,3:0:0:0:
256,240,188770,1,0,1:0:0:0:
458,376,188986,2,0,L|353:365,1,101.250003862381,2|2,0:0|0:0,0:0:0:0:
277,356,189417,1,2,3:0:0:0:
256,240,189633,1,0,0:0:0:0:
256,124,189849,5,0,1:0:0:0:
256,240,190065,5,0,0:0:0:0:
277,28,190281,1,2,1:3:0:0:
256,124,190496,1,0,1:0:0:0:
223,115,190604,1,0,1:0:0:0:
189,108,190712,6,0,L|128:123,1,45,4|0,3:0|0:0,0:0:0:0:
73,47,190928,2,0,L|55:107,1,45,0|0,1:0|0:0,0:0:0:0:
19,179,191144,1,6,3:0:0:0:
21,190,191252,1,2,3:0:0:0:
23,201,191360,1,6,3:0:0:0:
25,212,191468,1,2,3:0:0:0:
27,223,191576,6,0,L|143:202,1,101.250003862381,4|0,1:2|0:0,0:0:0:0:
183,263,192007,1,2,3:0:0:0:
200,129,192223,1,0,1:0:0:0:
329,263,192439,1,2,0:0:0:0:
329,263,192547,1,2,0:0:0:0:
329,263,192655,1,0,1:0:0:0:
312,129,192871,2,0,P|314:82|345:49,1,90,2|2,3:0|0:0,0:0:0:0:
385,204,193302,6,0,L|485:223,1,101.250003862381,0|0,1:0|0:0,0:0:0:0:
499,302,193734,1,2,3:0:0:0:
387,347,193950,1,0,1:0:0:0:
403,178,194165,1,2,0:0:0:0:
387,347,194381,1,0,1:0:0:0:
299,174,194597,2,0,P|334:132|329:86,1,90,2|2,3:0|0:0,0:0:0:0:
181,85,195029,6,0,P|181:142|213:174,1,101.250003862381,0|0,1:0|0:0,0:0:0:0:
256,240,195460,1,2,3:0:0:0:
256,108,195676,1,0,1:0:0:0:
360,242,195892,2,0,L|495:206,1,135,2|0,0:0|0:0,0:0:0:0:
444,324,196324,2,0,L|341:351,1,101.250003862381,2|2,3:0|0:0,0:0:0:0:
221,315,196755,6,0,P|243:269|208:189,1,135,0|0,1:0|0:0,0:0:0:0:
291,315,197187,2,0,P|274:280|300:220,1,101.250003862381,2|2,1:3|0:0,0:0:0:0:
292,142,197619,1,2,0:0:0:0:
166,257,197835,1,2,1:2:0:0:
246,363,198050,1,6,3:0:0:0:
212,360,198158,1,2,3:0:0:0:
178,357,198266,1,6,3:0:0:0:
145,354,198374,1,2,3:0:0:0:
119,332,198482,6,0,L|230:338,1,101.250003862381,4|0,1:2|0:0,0:0:0:0:
298,360,198914,1,2,3:0:0:0:
224,219,199130,1,0,1:0:0:0:
380,272,199345,1,2,0:0:0:0:
380,272,199453,1,2,0:0:0:0:
380,272,199561,1,0,1:0:0:0:
480,146,199777,2,0,L|487:42,1,90,2|2,3:0|0:0,0:0:0:0:
331,24,200209,6,0,P|352:59|355:125,1,101.250003862381,0|0,1:0|0:0,0:0:0:0:
299,177,200640,1,2,3:0:0:0:
243,24,200856,2,0,L|137:22,1,90,0|2,1:0|0:0,0:0:0:0:
299,177,201288,1,0,1:0:0:0:
133,111,201504,2,0,L|27:109,1,90,2|2,3:0|0:0,0:0:0:0:
106,250,201935,6,0,P|154:227|208:228,1,101.250003862381,0|0,1:0|0:0,0:0:0:0:
266,274,202367,1,2,3:0:0:0:
238,134,202583,1,0,1:0:0:0:
349,222,202799,1,2,0:0:0:0:
349,222,202906,1,2,0:0:0:0:
349,222,203014,1,0,1:0:0:0:
417,97,203230,2,0,L|430:22,1,67.5000025749208,2|2,3:0|0:0,0:0:0:0:
342,168,203662,6,0,P|409:157|472:199,1,135,0|2,1:0|0:0,0:0:0:0:
486,268,204094,1,2,1:3:0:0:
342,168,204309,2,0,L|359:268,1,90,0|2,1:0|0:0,0:0:0:0:
266,352,204741,5,0,1:0:0:0:
342,168,204957,2,0,L|359:268,1,90,6|6,3:0|3:0,0:0:0:0:
200,262,205389,5,2,0:2:0:0:
260,195,205604,1,2,0:2:0:0:
231,109,205820,1,2,0:2:0:0:
290,42,206036,2,0,P|316:79|319:123,1,90,0|0,0:2|0:0,0:0:0:0:
326,263,206468,5,2,0:2:0:0:
347,257,206576,1,2,0:2:0:0:
369,242,206683,1,2,0:2:0:0:
385,220,206791,1,2,0:2:0:0:
402,193,206899,1,2,0:2:0:0:
418,164,207007,1,2,0:2:0:0:
434,132,207115,2,0,L|438:205,1,45,2|0,0:0|0:0,0:0:0:0:
479,294,207331,2,0,L|476:249,1,45,2|0,0:0|0:0,0:0:0:0:
512,369,207763,5,2,0:2:0:0:
476,375,207871,1,2,0:2:0:0:
441,366,207978,1,2,0:2:0:0:
314,120,208302,5,2,0:0:0:0:
352,348,208626,1,2,0:0:0:0:
415,284,208842,2,0,P|368:259|303:274,1,90,2|0,0:0|0:0,0:0:0:0:
202,342,209273,1,2,0:2:0:0:
172,331,209381,1,2,0:2:0:0:
148,309,209489,1,2,0:2:0:0:
139,278,209597,1,2,0:2:0:0:
118,189,209705,2,0,L|107:132,1,45,2|0,0:0|0:0,0:0:0:0:
171,58,209921,2,0,L|182:115,1,45,2|0,0:0|0:0,0:0:0:0:
213,217,210137,2,0,L|224:160,2,45,14|8|8,0:0|0:0|0:0,0:0:0:0:
235,249,210460,5,2,0:0:0:0:
269,259,210568,2,0,L|360:266,1,90,10|0,0:0|0:0,0:0:0:0:
65,78,211108,5,2,0:0:0:0:
94,67,211216,2,0,P|175:81|216:140,1,135,14|0,0:0|0:0,0:0:0:0:
258,250,211648,2,0,L|285:140,1,90,8|0,0:0|0:0,0:0:0:0:
377,111,211971,2,0,L|355:217,1,90,8|0,0:0|0:0,0:0:0:0:
420,288,212295,6,0,B|333:282|351:352|245:339,1,168.75,2|0,0:0|0:0,0:0:0:0:
174,340,212727,2,0,B|87:351|105:281|18:287,1,168.75,2|0,0:0|0:0,0:0:0:0:
7,203,213158,1,8,0:3:0:0:
28,181,213266,1,8,0:3:0:0:
59,174,213374,1,8,0:3:0:0:
100,319,213590,2,0,B|151:268|151:268|151:156,1,168.75,2|0,0:2|0:0,0:0:0:0:
155,88,214022,1,2,0:2:0:0:
229,220,214237,1,2,0:2:0:0:
83,127,214453,1,8,0:3:0:0:
83,127,214561,1,8,0:3:0:0:
82,304,214777,5,8,0:3:0:0:
109,331,214885,2,0,P|172:339|233:297,1,112.5,8|0,0:3|0:0,0:0:0:0:
250,300,215209,1,2,0:3:0:0:
287,312,215317,1,2,0:3:0:0:
423,49,215640,5,2,0:2:0:0:
428,79,215748,2,0,P|411:140|317:106,1,168.75,2|0,0:0|0:0,0:0:0:0:
280,54,216180,2,0,P|207:29|175:99,1,168.75,2|0,0:0|0:0,0:0:0:0:
211,174,216612,1,8,0:3:0:0:
227,210,216719,1,8,0:3:0:0:
237,248,216827,1,8,0:3:0:0:
226,286,216935,1,8,0:3:0:0:
196,312,217043,6,0,B|62:302|62:302|116:271,1,168.75,8|0,0:3|0:0,0:0:0:0:
110,250,217475,1,8,0:3:0:0:
101,211,217583,1,8,0:3:0:0:
78,178,217691,1,8,0:3:0:0:
40,165,217799,1,8,0:3:0:0:
1,171,217906,6,0,L|11:103,1,56.25,10|0,0:3|0:0,0:0:0:0:
99,52,218122,2,0,L|90:107,1,56.25,10|0,0:3|0:0,0:0:0:0:
166,180,218338,2,0,P|229:182|284:120,1,112.5,10|0,0:3|0:0,0:0:0:0:
286,116,218662,1,8,0:3:0:0:
305,69,218770,2,0,L|302:267,1,168.75,14|0,0:3|0:0,0:0:0:0:
302,268,219201,5,2,0:0:0:0:
272,194,219417,1,0,0:0:0:0:
242,120,219633,1,0,0:0:0:0:
222,255,219849,5,2,0:0:0:0:
192,181,220065,1,0,0:0:0:0:
162,107,220281,1,0,0:0:0:0:
142,242,220496,5,2,0:0:0:0:
112,168,220712,1,0,0:0:0:0:
82,94,220928,1,0,0:0:0:0:
62,231,221144,5,2,0:0:0:0:
142,242,221360,1,0,0:0:0:0:
192,181,221576,1,0,0:0:0:0:
322,133,221791,5,2,0:0:0:0:
192,181,222007,1,0,0:0:0:0:
212,46,222223,5,2,0:0:0:0:
192,181,222439,1,0,0:0:0:0:
212,316,222655,5,2,0:0:0:0:
242,242,222871,1,0,0:0:0:0:
272,168,223086,1,0,0:0:0:0:
292,303,223302,5,2,0:0:0:0:
322,229,223518,1,0,0:0:0:0:
352,155,223734,1,0,0:0:0:0:
372,290,223950,5,2,0:0:0:0:
402,216,224165,1,0,0:0:0:0:
432,142,224381,1,0,0:0:0:0:
452,280,224597,5,2,0:0:0:0:
372,290,224813,1,0,0:0:0:0:
322,229,225029,1,0,0:0:0:0:
432,142,225245,5,2,0:0:0:0:
322,229,225460,1,0,0:0:0:0:
302,94,225676,5,2,0:0:0:0:
322,229,225892,1,0,0:0:0:0:
322,229,226108,5,2,0:0:0:0:
272,168,226324,1,0,0:0:0:0:
192,181,226540,2,0,L|36:209,2,135.000005149842
192,181,227619,1,0,0:0:0:0:
272,168,227835,5,0,0:0:0:0:
322,229,228266,1,0,0:0:0:0:
292,303,228698,1,0,0:0:0:0:
292,303,229130,1,0,0:0:0:0:
292,303,229345,5,0,0:0:0:0:
292,303,229561,2,0,L|204:296,1,67.5000025749208
153,252,229993,2,0,L|-3:280,2,135.000005149842
153,252,231072,1,0,0:0:0:0:
190,102,231288,5,0,0:0:0:0:
234,384,231719,1,0,0:0:0:0:
288,290,232151,2,0,L|283:260,6,22.5
288,290,232906,5,0,0:0:0:0:
284,267,233014,2,0,L|265:128,1,135.000005149842
195,317,233554,5,0,0:0:0:0:
191,294,233662,2,0,L|172:155,1,135.000005149842
102,344,234201,5,0,0:0:0:0:
99,320,234309,2,0,L|93:277,1,33.7500012874604
11,238,234525,2,0,L|15:271,1,33.7500012874604
23,348,234741,6,0,L|0:374,3,33.7500012874604,2|0|0|0,0:0|0:0|0:0|0:0,0:0:0:0:
55,338,235173,6,0,L|89:344,3,33.7500012874604,2|0|0|0,0:0|0:0|0:0|0:0,0:0:0:0:
30,314,235604,6,0,L|18:281,3,33.7500012874604,2|0|0|0,0:0|0:0|0:0|0:0,0:0:0:0:
51,291,236036,6,0,P|115:308|185:259,2,135.000005149842,2|2|0,0:0|0:0|0:0,0:0:0:0:
192,187,237331,2,0,P|250:156|313:173,1,135.000005149842,2|2,0:0|0:0,0:0:0:0:
313,173,238194,2,0,P|250:155|192:187,1,135.000005149842,2|0,0:0|0:0,0:0:0:0:
401,142,239489,6,0,P|397:208|352:257,2,135.000005149842,2|2|0,0:0|0:0|0:0,0:0:0:0:
177,192,240784,2,0,L|169:43,1,135.000005149842,2|2,0:0|0:0,0:0:0:0:
353,73,241648,6,0,P|321:115|316:136,1,67.5000025749208,2|0,0:0|0:0,0:0:0:0:
180,259,242079,2,0,L|176:191,1,67.5000025749208,2|0,0:0|0:0,0:0:0:0:
21,73,242511,2,0,L|13:222,1,135.000005149842,2|0,0:0|0:0,0:0:0:0:
461,93,243374,6,0,P|397:76|327:125,1,135.000005149842,2|0,0:0|0:0,0:0:0:0:
320,197,244237,2,0,P|262:228|199:211,1,135.000005149842,2|2,0:0|0:0,0:0:0:0:
199,211,245101,2,0,P|262:228|320:197,1,135.000005149842,2|0,0:0|0:0,0:0:0:0:
161,128,246396,6,0,P|130:152|111:184,1,67.5000025749208,2|2,0:0|0:0,0:0:0:0:
191,345,246827,2,0,L|198:210,1,135.000005149842,2|0,0:0|0:0,0:0:0:0:
335,192,247475,1,2,0:0:0:0:
335,192,247691,2,0,L|343:341,1,135.000005149842,2|2,0:0|0:0,0:0:0:0:
335,192,248338,1,2,0:0:0:0:
159,311,248554,6,0,P|191:269|196:248,1,67.5000025749208
329,112,248986,1,0,0:0:0:0:
491,311,249201,1,2,0:2:0:0:
491,311,249309,1,2,0:2:0:0:
512,273,249417,5,2,0:2:0:0:
476,245,249525,1,2,0:2:0:0:
498,206,249633,1,2,0:2:0:0:
462,178,249741,1,2,0:2:0:0:
493,95,249849,6,0,L|487:25,1,45,2|0,0:2|0:0,0:0:0:0:
403,40,250065,2,0,L|409:110,1,45,2|0,0:2|0:0,0:0:0:0:
369,161,250281,6,0,P|316:171|258:143,1,101.250003862381,2|0,1:3|0:0,0:0:0:0:
326,81,250712,1,2,0:0:0:0:
225,227,250928,5,2,0:0:0:0:
150,63,251144,2,0,L|145:142,1,67.5000025749208,2|0,0:0|0:0,0:0:0:0:
141,211,251468,1,2,0:0:0:0:
174,287,251576,2,0,P|208:304|258:297,1,67.5000025749208,2|0,0:0|0:0,0:0:0:0:
272,155,252007,5,2,0:2:0:0:
92,280,252223,1,2,0:2:0:0:
145,130,252439,5,2,0:2:0:0:
173,288,252655,1,2,0:2:0:0:
75,165,252871,5,2,0:2:0:0:
225,227,253086,1,2,0:2:0:0:
41,340,253302,2,0,L|36:215,1,101.250003862381,2|0,1:3|0:0,0:0:0:0:
124,355,253734,2,0,P|170:372|218:359,1,101.250003862381,2|0,0:3|0:0,0:0:0:0:
173,288,254165,1,2,0:2:0:0:
41,340,254381,1,2,0:2:0:0:
173,288,254597,6,0,L|246:274,1,67.5000025749208,2|0,0:0|0:0,0:0:0:0:
272,270,254921,1,2,0:0:0:0:
312,180,255029,2,0,L|239:194,1,67.5000025749208,2|0,0:0|0:0,0:0:0:0:
213,198,255353,1,2,0:0:0:0:
298,318,255460,2,0,L|320:240,1,67.5000025749208,2|0,0:0|0:0,0:0:0:0:
282,16,255892,5,6,1:3:0:0:
234,222,256324,1,6,1:3:0:0:
35,263,256755,5,8,0:0:0:0:
35,263,256863,1,8,0:0:0:0:
35,263,256971,1,8,0:0:0:0:
35,263,257079,1,8,0:0:0:0:
35,263,257187,2,0,P|88:263|141:225,1,101.250003862381,10|0,1:3|0:0,0:0:0:0:
63,176,257619,1,2,0:0:0:0:
188,302,257835,5,2,0:0:0:0:
233,128,258050,2,0,L|251:204,1,67.5000025749208,2|0,0:0|0:0,0:0:0:0:
268,272,258374,1,2,0:0:0:0:
248,353,258482,2,0,P|217:375|167:377,1,67.5000025749208,2|0,0:0|0:0,0:0:0:0:
233,128,258914,5,2,0:2:0:0:
106,307,259130,1,2,0:2:0:0:
158,77,259345,5,2,0:2:0:0:
185,286,259561,1,2,0:2:0:0:
72,85,259777,5,0,0:0:0:0:
268,272,259993,1,0,0:0:0:0:
78,382,260209,5,2,0:0:0:0:
209,335,260424,1,2,0:0:0:0:
339,292,260640,6,0,L|354:138,1,135.000005149842,2|0,0:0|0:0,0:0:0:0:
209,335,261288,6,0,L|194:181,1,135.000005149842,2|0,0:0|0:0,0:0:0:0:
290,372,261935,5,2,0:0:0:0:
138,9,262367,1,2,0:0:0:0:
11,384,262799,1,2,0:0:0:0:
295,0,263230,2,0,L|281:134,1,135.000005149842,6|0,0:0|0:0,0:0:0:0:
255,375,264094,5,6,0:0:0:0:
133,0,264525,1,0,0:0:0:0:
450,231,264957,1,4,0:0:0:0:
139,232,265281,5,8,0:0:0:0:
58,231,265389,1,2,0:0:0:0:
375,0,265820,1,0,0:0:0:0:
255,375,266252,1,4,0:0:0:0:
139,0,266683,5,2,0:0:0:0:
448,237,267115,1,0,0:0:0:0:
56,224,267547,1,4,0:0:0:0:
381,4,267978,5,2,0:0:0:0:
248,374,268410,1,0,0:0:0:0:
139,0,268842,1,4,0:0:0:0:
446,244,269273,5,2,0:0:0:0:
55,217,269705,1,0,0:0:0:0:
388,8,270137,1,4,0:0:0:0:
280,302,270460,5,10,0:0:0:0:
242,374,270568,1,2,0:0:0:0:
146,0,271000,1,0,0:0:0:0:
446,244,271432,1,4,0:0:0:0:
55,217,271863,5,2,0:0:0:0:
146,0,272295,1,2,0:0:0:0:
242,374,272727,1,2,0:0:0:0:
388,8,273158,2,0,L|377:149,1,135.000005149842,6|0,0:0|0:0,0:0:0:0:
257,375,274453,5,2,0:0:0:0:
379,0,274885,1,0,0:0:0:0:
62,231,275317,1,4,0:0:0:0:
373,232,275640,5,10,0:0:0:0:
454,231,275748,1,2,0:0:0:0:
137,0,276180,1,0,0:0:0:0:
257,375,276612,1,0,0:0:0:0:
373,0,277043,5,2,0:0:0:0:
64,237,277475,1,0,0:0:0:0:
456,224,277906,1,4,0:0:0:0:
131,4,278338,5,2,0:0:0:0:
264,374,278770,1,0,0:0:0:0:
373,0,279201,1,4,0:0:0:0:
66,244,279633,5,2,0:0:0:0:
457,217,280065,1,0,0:0:0:0:
124,8,280496,1,4,0:0:0:0:
232,302,280820,5,10,0:0:0:0:
270,374,280928,1,2,0:0:0:0:
366,0,281360,1,0,0:0:0:0:
66,244,281791,1,4,0:0:0:0:
457,217,282223,5,2,0:0:0:0:
366,0,282655,1,2,0:0:0:0:
270,374,283086,1,2,0:0:0:0:
124,8,283518,2,0,L|135:149,1,135.000005149842,6|0,0:0|0:0,0:0:0:0:
255,375,284381,5,2,0:0:0:0:
58,231,284813,6,0,L|67:282,1,33.7500012874604,8|0,1:2|0:0,0:0:0:0:
211,153,285245,6,0,L|220:204,1,33.7500012874604,8|0,1:2|0:0,0:0:0:0:
370,90,285676,5,8,1:2:0:0:
377,133,285784,1,8,1:2:0:0:
384,176,285892,1,8,1:2:0:0:
391,219,286000,1,8,1:2:0:0:
398,262,286108,1,8,1:2:0:0:
162,132,286540,1,2,1:2:0:0:
162,380,286971,1,6,1:2:0:0:
450,231,287403,6,0,L|441:282,1,33.7500012874604,8|0,1:2|0:0,0:0:0:0:
298,162,287835,6,0,L|289:213,1,33.7500012874604,8|0,1:2|0:0,0:0:0:0:
142,90,288266,5,8,1:2:0:0:
135,133,288374,1,8,1:2:0:0:
128,176,288482,1,8,1:2:0:0:
121,219,288590,1,8,1:2:0:0:
114,262,288698,1,8,1:2:0:0:
350,132,289130,1,2,1:2:0:0:
332,384,289561,1,6,1:2:0:0:
114,262,289993,6,0,L|167:249,1,33.7500012874604,8|0,1:2|0:0,0:0:0:0:
251,112,290424,6,0,L|303:100,1,33.7500012874604,8|0,1:2|0:0,0:0:0:0:
322,272,290856,5,8,1:2:0:0:
365,265,290964,1,8,1:2:0:0:
408,258,291072,1,8,1:2:0:0:
451,252,291180,1,8,1:2:0:0:
494,245,291288,1,8,1:2:0:0:
193,378,291719,6,0,L|177:229,1,135.000005149842,2|6,0:0|0:0,0:0:0:0:
124,29,292583,6,0,P|188:66|270:49,1,135.000005149842,2|2,0:0|0:0,0:0:0:0:
119,313,293446,1,2,0:0:0:0:
388,355,293878,2,0,P|324:318|242:335,1,135.000005149842,2|2,0:0|0:0,0:0:0:0:
393,71,294741,1,6,0:0:0:0:
161,214,295173,5,2,0:0:0:0:
119,136,295604,1,2,0:0:0:0:
32,139,296036,1,2,0:0:0:0:
118,290,296468,1,2,0:0:0:0:
206,133,296899,1,2,0:0:0:0:
31,293,297331,1,2,0:0:0:0:
351,214,297763,5,2,0:0:0:0:
393,136,298194,1,2,0:0:0:0:
480,139,298626,1,2,0:0:0:0:
394,290,299058,1,2,0:0:0:0:
306,133,299489,1,2,0:0:0:0:
353,367,299921,1,2,0:0:0:0:
306,133,300353,6,0,L|281:284,1,135.000005149842,2|0,1:3|0:0,0:0:0:0:
393,136,301216,1,2,0:0:0:0:
283,266,301648,1,2,0:0:0:0:
240,190,302079,1,2,0:0:0:0:
197,114,302511,1,2,0:0:0:0:
61,276,302942,6,0,L|213:261,1,135.000005149842,2|0,1:3|0:0,0:0:0:0:
41,191,303806,1,2,0:0:0:0:
195,262,304237,1,2,0:0:0:0:
269,215,304669,1,2,0:0:0:0:
343,168,305101,1,2,0:0:0:0:
188,174,305532,5,2,0:0:0:0:
146,96,305964,1,2,0:0:0:0:
59,99,306396,1,2,0:0:0:0:
145,250,306827,1,2,0:0:0:0:
233,93,307259,1,2,0:0:0:0:
58,253,307691,1,2,0:0:0:0:
404,252,308122,5,2,0:0:0:0:
362,330,308554,1,2,0:0:0:0:
275,327,308986,1,2,0:0:0:0:
361,176,309417,1,2,0:0:0:0:
449,333,309849,1,2,0:0:0:0:
402,99,310281,1,2,0:0:0:0:
350,310,310712,6,0,L|361:174,2,135.000005149842,2|2|2,0:0|0:0|0:0,0:0:0:0:
174,302,312007,1,2,0:0:0:0:
269,155,312439,1,2,0:0:0:0:
350,310,312871,1,2,0:0:0:0:
173,301,313302,6,0,L|74:300,2,90
269,155,314597,6,0,L|322:156,2,45
365,9,316000,5,0,0:0:0:0:
385,4,316108,2,0,L|395:0,2,7.5
256,192,316324,12,0,319777,0:0:0:0:
