osu file format v14

[General]
AudioFilename: audio.mp3
AudioLeadIn: 0
PreviewTime: 218836
Countdown: 0
SampleSet: Soft
StackLeniency: 0.4
Mode: 0
LetterboxInBreaks: 0
WidescreenStoryboard: 0

[Editor]
DistanceSpacing: 0.7
BeatDivisor: 12
GridSize: 32
TimelineZoom: 4.499998

[Metadata]
Title:Unprivileged Access
TitleUnicode:Unprivileged Access
Artist:Diao Ye Zong feat. Meramipop
ArtistUnicode:凋叶棕 feat. めらみぽっぷ
Creator:ailv
Version:Original Sentiment
Source:東方地霊殿 ~ Subterranean Animism.
Tags:RD-Sounds Reitaisai 11 望 -nozomi- 少女さとり~3rd Eye 古明地さとり Satori Komeiji merami zun doujin touhou 2hu
BeatmapID:1504230
BeatmapSetID:698525

[Difficulty]
HPDrainRate:4
CircleSize:4
OverallDifficulty:8
ApproachRate:9.4
SliderMultiplier:2.2
SliderTickRate:1

[Events]
//Background and Video events
0,0,"13807202_p0.jpg",0,0
//Break Periods
2,131044,133974
2,134714,137427
2,153227,155078
2,182149,185725
2,197256,201480
//Storyboard Layer 0 (Background)
//Storyboard Layer 1 (Fail)
//Storyboard Layer 2 (Pass)
//Storyboard Layer 3 (Foreground)
//Storyboard Sound Samples

[TimingPoints]
651,431.654676258993,3,2,1,40,1,0
15327,444.444444444444,4,2,1,70,1,0
17104,431.654676258993,4,2,1,70,1,0
17104,-83.3333333333333,4,2,1,70,0,0
24010,-166.666666666667,4,2,1,50,0,0
50557,-333.333333333333,4,2,1,70,0,0
51636,-83.3333333333334,4,2,1,70,0,0
57679,-62.5,4,2,1,70,0,0
58542,-62.5,4,2,1,70,0,0
86168,-62.5,4,2,1,50,0,0
87463,-62.5,4,2,1,30,0,0
87679,-62.5,4,2,1,40,0,0
87787,-62.5,4,2,1,50,0,0
93075,-50,4,2,1,60,0,0
95880,-200,4,2,1,60,0,0
96528,-100,4,2,1,70,0,0
99981,-50,4,2,1,80,0,0
113255,-66.6666666666667,4,2,1,80,0,0
113794,-166.666666666667,4,2,1,80,0,0
137967,555.555555555556,4,2,1,80,1,0
139078,413.793103448276,4,2,1,80,1,0
139491,480,4,2,1,80,1,0
139731,454.545454545455,4,2,1,80,1,0
141549,461.538461538462,4,2,1,30,1,0
144779,491.803278688525,4,2,1,30,1,0
144779,-333.333333333333,4,2,1,30,0,0
145147,-333.333333333333,4,2,1,5,0,0
145270,431.654676258993,5,2,1,30,1,0
145270,-200,4,2,1,30,0,0
146985,431.654676258993,4,2,1,30,1,0
146985,-200,4,2,1,30,0,0
155618,-333.333333333333,4,2,1,30,0,0
158963,-333.333333333333,4,2,1,5,0,0
159071,-200,4,2,1,30,0,0
165330,-200,4,2,1,5,0,0
165438,-200,4,2,1,30,0,0
165654,-200,4,2,1,5,0,0
165761,-200,4,2,1,30,0,0
169431,-200,4,2,1,30,0,0
212596,-100,4,2,1,70,0,0
218855,-100,4,2,1,80,0,0
219502,-50,4,2,1,80,0,0
245833,-66.6666666666667,4,2,1,80,0,0
246913,-66.6666666666667,4,2,1,80,0,0
247128,-166.666666666667,4,2,1,80,0,0
250582,-125,4,2,1,80,0,0
264395,-50,4,2,1,80,0,1
270438,-100,4,2,1,80,0,0
271301,-50,4,2,1,80,0,1
277344,-50,4,2,1,80,0,0
277668,-66.6666666666667,4,2,1,80,0,0
278208,-50,4,2,1,80,0,1
278315,-50,4,2,1,80,0,0
279071,-50,4,2,1,80,0,1
279179,-50,4,2,1,80,0,0
279934,-50,4,2,1,80,0,1
279988,-100,4,2,1,80,0,0
280636,-83.3333333333334,4,2,1,80,0,0
281661,-62.5,4,2,1,80,0,0
287704,-50,4,2,1,80,0,0
288567,-62.5,4,2,1,80,0,0
295472,-83.3333333333334,4,2,1,80,0,0
298927,-83.3333333333334,4,2,1,70,0,0
304970,-62.5,4,2,1,70,0,0
305833,-83.3333333333334,4,2,1,70,0,0
312740,-83.3333333333334,4,2,1,70,0,1
318783,-62.5,4,2,1,70,0,0
319646,-83.3333333333334,4,2,1,70,0,1
326553,-83.3333333333334,4,2,1,70,0,0
328279,337.078651685393,4,2,1,70,1,0
328953,350.877192982456,4,2,1,70,1,0
329303,372.670807453416,4,2,1,70,1,0
329675,526.315789473684,4,2,1,70,1,0
330201,-66.6666666666667,4,2,1,70,0,0
336517,-100,4,2,1,5,0,0

[Colours]
Combo1 : 242,132,242
Combo2 : 192,63,63
Combo3 : 255,128,64

[HitObjects]
188,184,651,5,2,0:2:0:0:
259,261,1082,1,0,0:2:0:0:
242,366,1514,1,0,0:2:0:0:
188,184,1945,5,2,0:2:0:0:
259,261,2377,1,0,0:2:0:0:
242,366,2809,1,0,0:2:0:0:
169,125,3240,5,2,0:2:0:0:
259,261,3672,1,0,0:2:0:0:
242,366,4104,1,0,0:2:0:0:
169,125,4535,5,2,0:2:0:0:
259,261,4967,1,0,0:2:0:0:
242,366,5399,1,0,0:2:0:0:
178,64,5830,5,2,0:2:0:0:
259,261,6262,1,0,0:2:0:0:
242,366,6694,1,0,0:2:0:0:
178,64,7125,5,2,0:2:0:0:
259,261,7557,1,0,0:2:0:0:
242,366,7989,1,0,0:2:0:0:
216,16,8420,5,2,0:2:0:0:
259,261,8852,1,0,0:2:0:0:
242,366,9284,1,0,0:2:0:0:
216,16,9715,5,2,0:2:0:0:
259,261,10147,1,0,0:2:0:0:
242,366,10579,1,0,0:2:0:0:
292,32,11010,5,2,0:2:0:0:
256,192,11118,12,0,15327,0:2:0:0:
440,110,16660,5,4,3:2:0:0:
482,141,16771,1,0,3:2:0:0:
508,218,16882,1,0,3:2:0:0:
481,293,16993,1,0,3:2:0:0:
380,334,17104,6,0,L|313:330,1,65.9999979858399,6|0,1:2|0:0,0:0:0:0:
227,241,17319,2,0,P|204:264|190:293,1,65.9999979858399,8|0,0:2|0:0,0:0:0:0:
399,345,17535,6,0,L|315:341,1,65.9999979858399,0|0,1:2|0:0,0:0:0:0:
208,229,17751,2,0,P|179:258|161:295,1,65.9999979858399,8|0,0:2|0:0,0:0:0:0:
379,217,17967,6,0,L|369:125,1,65.9999979858399,2|0,1:2|0:0,0:0:0:0:
244,29,18183,1,8,0:2:0:0:
244,29,18291,2,0,L|328:66,1,65.9999979858399,0|2,1:2|1:2,0:0:0:0:
474,6,18506,1,0,0:0:0:0:
474,6,18614,2,0,L|399:60,1,65.9999979858399,8|0,0:2|0:0,0:0:0:0:
264,138,18830,6,0,L|185:138,1,65.9999979858399,2|0,1:2|0:0,0:0:0:0:
93,46,19046,2,0,L|63:111,1,65.9999979858399,8|0,0:2|0:0,0:0:0:0:
285,149,19262,6,0,L|191:149,1,65.9999979858399,0|0,1:2|0:0,0:0:0:0:
71,34,19478,2,0,L|34:115,1,65.9999979858399,8|0,0:2|0:0,0:0:0:0:
115,163,19693,5,2,1:2:0:0:
111,195,19801,1,0,0:0:0:0:
108,228,19909,1,8,0:2:0:0:
105,261,20017,1,2,1:2:0:0:
60,298,20125,5,2,1:2:0:0:
114,290,20233,1,2,1:2:0:0:
160,316,20341,1,8,0:2:0:0:
184,363,20449,1,2,1:2:0:0:
100,367,20557,6,0,L|34:369,1,65.9999979858399,2|0,1:2|0:0,0:0:0:0:
236,277,20773,2,0,P|263:331|270:363,1,65.9999979858399,8|0,0:2|0:0,0:0:0:0:
84,342,20988,6,0,L|8:344,1,65.9999979858399,0|0,1:2|0:0,0:0:0:0:
239,239,21204,2,0,P|266:293|273:325,1,65.9999979858399,8|0,0:2|0:0,0:0:0:0:
79,250,21420,6,0,L|86:171,1,65.9999979858399,2|0,1:2|0:0,0:0:0:0:
168,22,21636,1,8,0:2:0:0:
168,22,21744,2,0,L|173:87,1,65.9999979858399,0|2,1:2|1:2,0:0:0:0:
303,177,21960,1,0,0:0:0:0:
303,177,22068,2,0,L|308:111,1,65.9999979858399,8|0,0:2|0:0,0:0:0:0:
488,263,22283,6,0,L|482:328,1,65.9999979858399,2|0,1:2|0:0,0:0:0:0:
414,170,22499,2,0,P|453:145|487:141,1,65.9999979858399,8|0,0:2|0:0,0:0:0:0:
467,276,22715,6,0,L|459:358,1,65.9999979858399,0|0,1:2|0:0,0:0:0:0:
375,165,22931,2,0,P|420:136|459:131,1,65.9999979858399,8|0,0:2|0:0,0:0:0:0:
285,359,23147,6,0,P|325:222|322:209,1,131.99999597168,12|0,1:2|0:2,0:0:0:0:
137,112,23470,2,0,P|145:177|179:233,1,131.99999597168,12|0,1:2|0:2,0:0:0:0:
293,94,23794,2,0,P|306:63|309:31,1,65.9999979858399,12|0,1:2|0:2,0:0:0:0:
222,42,24010,5,2,0:2:0:0:
162,113,24765,2,0,L|155:78,3,21.9999993286133,0|0|0|0,0:2|0:2|0:2|0:2,0:0:0:0:
162,113,25521,5,2,0:2:0:0:
233,194,25737,1,0,0:2:0:0:
233,194,26384,5,0,0:0:0:0:
201,211,26492,1,0,0:0:0:0:
181,237,26600,1,0,0:2:0:0:
174,262,26708,1,0,0:2:0:0:
175,284,26816,1,0,0:2:0:0:
181,301,26924,1,0,0:2:0:0:
216,368,27139,1,0,0:2:0:0:
256,304,27463,5,0,0:2:0:0:
256,304,28219,2,0,L|255:291,6,10.9999996643067
512,306,29190,6,0,P|477:283|396:291,1,98.9999969787599,0|0,0:2|0:2,0:0:0:0:
284,371,29837,1,0,0:2:0:0:
232,269,30053,1,0,0:2:0:0:
232,269,30377,2,0,P|178:251|129:260,1,98.9999969787599,0|0,0:2|0:2,0:0:0:0:
15,350,30916,5,2,0:2:0:0:
15,350,31780,1,0,0:2:0:0:
128,274,32643,5,0,0:2:0:0:
135,240,32859,1,0,0:2:0:0:
127,201,33075,1,0,0:2:0:0:
100,153,33291,1,0,0:2:0:0:
52,118,33506,5,0,0:2:0:0:
170,111,33722,1,0,0:2:0:0:
221,12,33938,1,0,0:2:0:0:
221,12,34370,5,2,0:2:0:0:
221,12,35233,1,0,0:2:0:0:
221,12,36096,1,0,0:2:0:0:
221,12,36744,2,0,L|224:43,3,16.49999949646,0|0|0|0,0:2|0:2|0:2|0:2,0:0:0:0:
285,76,36960,5,2,0:2:0:0:
285,76,37283,1,2,0:2:0:0:
285,76,37607,1,2,0:2:0:0:
487,187,37823,6,0,L|389:196,2,98.9999969787599,4|0|0,1:3|0:2|1:2,0:0:0:0:
310,291,38686,2,0,L|408:300,2,98.9999969787599,0|0|2,0:2|0:2|0:2,0:0:0:0:
207,237,39550,2,0,P|173:300|175:331,2,98.9999969787599,8|0|0,1:3|0:2|1:2,0:0:0:0:
293,175,40413,1,0,1:2:0:0:
293,175,41060,5,2,0:2:0:0:
219,80,41276,2,0,P|156:70|109:84,2,98.9999969787599,4|0|0,1:3|0:2|1:2,0:0:0:0:
314,39,42139,2,0,P|377:29|424:43,2,98.9999969787599,0|0|2,0:2|0:2|0:2,0:0:0:0:
253,150,43003,6,0,P|249:222|256:254,2,98.9999969787599,8|0|0,1:3|0:2|1:2,0:0:0:0:
373,192,43866,1,0,1:2:0:0:
373,192,44190,1,0,1:2:0:0:
373,192,44514,1,0,1:2:0:0:
256,192,44621,12,0,46456,1:2:0:0:
364,300,47535,5,0,0:2:0:0:
244,251,47751,1,0,0:2:0:0:
188,368,47967,1,0,0:2:0:0:
188,368,48075,1,0,1:2:0:0:
120,327,48183,6,0,L|46:334,1,65.9999979858399,2|0,1:2|0:2,0:0:0:0:
179,245,48614,2,0,L|253:252,1,65.9999979858399,0|2,0:2|0:2,0:0:0:0:
83,226,49046,2,0,L|9:233,1,65.9999979858399,0|0,1:2|0:2,0:0:0:0:
142,144,49478,2,0,L|216:151,1,65.9999979858399,0|0,0:2|1:2,0:0:0:0:
343,213,49909,6,0,P|370:154|352:92,1,131.99999597168,0|0,1:2|0:2,0:0:0:0:
301,35,50449,1,2,0:2:0:0:
264,146,50557,1,2,1:2:0:0:
192,51,50988,5,2,1:2:0:0:
114,65,51204,5,0,3:2:0:0:
80,85,51312,1,0,3:2:0:0:
31,156,51420,1,0,3:2:0:0:
49,248,51528,1,0,3:2:0:0:
128,315,51636,6,0,L|217:309,1,65.9999979858399,6|0,1:2|0:0,0:0:0:0:
284,220,51852,2,0,P|314:258|320:290,1,65.9999979858399,8|0,0:2|0:0,0:0:0:0:
147,347,52068,6,0,L|244:341,1,65.9999979858399,0|0,1:2|0:0,0:0:0:0:
331,235,52283,2,0,P|361:273|367:305,1,65.9999979858399,8|0,0:2|0:0,0:0:0:0:
177,227,52499,6,0,L|187:135,1,65.9999979858399,2|0,1:2|0:0,0:0:0:0:
312,39,52715,1,8,0:2:0:0:
312,39,52823,2,0,L|228:76,1,65.9999979858399,0|2,1:2|1:2,0:0:0:0:
82,16,53039,1,0,0:0:0:0:
82,16,53147,2,0,L|157:70,1,65.9999979858399,8|0,0:2|0:0,0:0:0:0:
292,148,53362,6,0,L|371:148,1,65.9999979858399,2|0,1:2|0:0,0:0:0:0:
463,56,53578,2,0,L|493:121,1,65.9999979858399,8|0,0:2|0:0,0:0:0:0:
271,159,53794,6,0,L|365:159,1,65.9999979858399,0|0,1:2|0:0,0:0:0:0:
485,44,54010,2,0,L|522:125,1,65.9999979858399,8|0,0:2|0:0,0:0:0:0:
413,242,54226,6,0,L|328:244,1,65.9999979858399,2|0,1:2|0:0,0:0:0:0:
187,173,54442,1,8,0:2:0:0:
187,173,54550,2,0,L|193:270,1,65.9999979858399,0|2,1:2|1:2,0:0:0:0:
41,278,54765,1,0,0:0:0:0:
41,278,54873,2,0,L|35:375,1,65.9999979858399,8|0,0:2|0:0,0:0:0:0:
278,355,55089,6,0,L|267:274,1,65.9999979858399,2|0,1:2|0:0,0:0:0:0:
355,163,55305,2,0,L|286:137,1,65.9999979858399,8|0,0:2|0:0,0:0:0:0:
289,356,55521,6,0,L|278:277,1,65.9999979858399,0|0,1:2|0:0,0:0:0:0:
381,125,55737,2,0,L|298:94,1,65.9999979858399,8|0,0:2|0:0,0:0:0:0:
128,202,55952,6,0,L|207:183,1,65.9999979858399,2|0,1:2|0:0,0:0:0:0:
58,43,56168,1,8,0:2:0:0:
58,43,56276,2,0,L|34:120,1,65.9999979858399,0|2,1:2|1:2,0:0:0:0:
230,61,56492,1,0,0:0:0:0:
230,61,56600,2,0,L|175:1,1,65.9999979858399,8|0,0:2|0:0,0:0:0:0:
386,129,56816,6,0,L|289:127,1,65.9999979858399,2|0,1:2|0:0,0:0:0:0:
477,61,57032,2,0,P|497:98|503:127,1,65.9999979858399,8|0,0:2|0:0,0:0:0:0:
336,170,57247,6,0,L|257:169,1,65.9999979858399,0|0,1:2|0:0,0:0:0:0:
446,89,57463,2,0,P|470:133|477:168,1,65.9999979858399,8|0,0:2|1:2,0:0:0:0:
453,270,57679,6,0,B|375:231|366:304|279:262,1,176,2|0,1:2|1:2,0:0:0:0:
154,177,58003,2,0,B|232:216|241:143|328:185,1,176,8|0,0:2|1:2,0:0:0:0:
320,352,58327,2,0,L|408:350,1,88,8|0,0:2|0:0,0:0:0:0:
205,308,58542,6,0,L|118:311,1,88,6|0,1:2|0:0,0:0:0:0:
33,247,58758,1,8,0:2:0:0:
33,247,58866,2,0,L|25:136,1,88,0|0,0:0|1:2,0:0:0:0:
131,86,59082,1,0,0:0:0:0:
131,86,59190,2,0,L|137:173,1,88,8|0,0:2|0:2,0:0:0:0:
266,269,59406,6,0,P|222:277|179:275,1,88,2|0,1:2|0:0,0:0:0:0:
285,157,59621,1,8,0:2:0:0:
285,157,59729,2,0,P|316:82|395:101,1,176,0|0,1:2|0:2,0:0:0:0:
486,16,60053,2,0,P|502:74|495:107,1,88,8|0,0:2|0:0,0:0:0:0:
422,315,60269,6,0,P|370:253|419:188,1,176,2|8,1:2|0:2,0:0:0:0:
510,354,60593,1,0,0:0:0:0:
510,354,60701,2,0,P|509:311|503:267,1,88,0|0,1:2|0:0,0:0:0:0:
333,382,60916,2,0,P|333:339|338:295,1,88,8|2,0:2|0:2,0:0:0:0:
439,201,61132,6,0,P|328:170|259:173,1,176,2|8,1:2|0:2,0:0:0:0:
230,279,61456,2,0,P|119:248|50:251,1,176,2|2,0:2|1:2,0:0:0:0:
85,366,61780,2,0,P|19:347|-21:349,1,88,8|2,0:2|0:2,0:0:0:0:
150,298,61996,6,0,P|185:323|213:357,1,88,2|0,1:2|0:0,0:0:0:0:
145,216,62211,1,8,0:2:0:0:
221,190,62319,1,0,0:0:0:0:
221,190,62427,2,0,P|241:109|253:82,1,88,0|0,1:2|0:0,0:0:0:0:
125,0,62643,2,0,P|139:41|147:85,1,88,8|0,0:2|0:0,0:0:0:0:
221,190,62859,6,0,P|289:156|321:150,1,88,2|0,1:2|0:0,0:0:0:0:
483,102,63075,1,8,0:2:0:0:
483,102,63183,2,0,P|415:68|383:62,1,88,0|2,1:2|0:2,0:0:0:0:
484,203,63398,1,0,0:0:0:0:
484,203,63506,2,0,P|416:237|384:243,1,88,8|0,0:2|0:0,0:0:0:0:
299,355,63722,6,0,P|254:349|186:350,1,88,2|0,1:2|0:0,0:0:0:0:
103,254,63938,1,8,0:2:0:0:
150,187,64046,1,0,0:0:0:0:
150,187,64154,2,0,P|198:188|238:191,1,88,0|0,1:2|0:0,0:0:0:0:
30,115,64370,2,0,P|30:157|33:214,1,88,8|2,0:2|0:2,0:0:0:0:
206,67,64586,6,0,P|164:22|154:98,1,176,2|8,1:2|0:2,0:0:0:0:
385,170,64909,2,0,P|390:99|332:139,1,176,2|2,0:2|1:2,0:0:0:0:
203,224,65233,2,0,P|206:256|249:235,1,88,8|2,0:2|0:2,0:0:0:0:
331,52,65449,5,2,1:2:0:0:
374,44,65557,1,0,0:0:0:0:
415,57,65665,1,8,0:2:0:0:
447,86,65773,1,0,0:0:0:0:
463,127,65880,5,0,1:2:0:0:
455,154,65988,1,0,0:0:0:0:
453,183,66096,1,8,0:2:0:0:
462,206,66204,1,0,0:0:0:0:
512,274,66312,6,0,P|430:248|336:239,1,176,2|8,1:2|0:2,0:0:0:0:
146,354,66636,2,0,P|228:328|322:319,1,176,0|0,1:2|0:0,0:0:0:0:
386,163,66960,2,0,P|345:149|298:145,1,88,8|0,0:2|0:0,0:0:0:0:
66,182,67175,6,0,L|158:197,1,88,2|0,1:2|0:0,0:0:0:0:
72,214,67391,2,0,L|159:200,1,88,10|0,0:2|0:0,0:0:0:0:
296,263,67607,6,0,L|204:278,1,88,2|0,1:2|0:0,0:0:0:0:
290,294,67823,2,0,L|204:280,1,88,10|0,0:2|0:0,0:0:0:0:
453,375,68039,6,0,P|429:239|393:199,1,176,2|8,1:2|0:2,0:0:0:0:
268,162,68362,2,0,P|292:26|328:-14,1,176,2|2,0:2|1:2,0:0:0:0:
475,102,68686,2,0,L|385:103,1,88,8|2,0:2|0:2,0:0:0:0:
193,136,68902,6,0,L|120:83,1,88,2|0,1:2|0:0,0:0:0:0:
42,153,69118,2,0,L|122:116,1,88,10|0,0:2|0:0,0:0:0:0:
101,16,69334,2,0,L|92:104,1,88,2|0,1:2|0:0,0:0:0:0:
74,287,69550,1,8,0:2:0:0:
64,332,69657,1,0,1:2:0:0:
95,366,69765,6,0,L|206:358,1,88,2|0,1:2|0:0,0:0:0:0:
246,198,69981,2,0,L|318:248,1,88,8|0,0:2|1:2,0:0:0:0:
447,109,70197,2,0,L|453:196,1,88,2|0,1:2|1:2,0:0:0:0:
447,345,70413,1,8,0:2:0:0:
378,384,70521,1,0,0:0:0:0:
292,370,70629,6,0,B|174:320|174:320|121:358,1,176,12|0,1:2|0:2,0:0:0:0:
156,183,70952,2,0,B|38:233|38:233|-15:195,1,176,12|0,1:2|0:2,0:0:0:0:
153,62,71276,2,0,B|271:112|271:112|324:74,1,176,12|0,1:2|0:2,0:0:0:0:
512,138,71600,2,0,P|432:130|343:179,1,176,12|0,1:2|0:2,0:0:0:0:
424,367,71924,2,0,P|472:372|512:360,1,88,12|0,1:2|0:2,0:0:0:0:
503,205,72139,2,0,P|455:200|415:212,1,88,8|0,1:2|0:0,0:0:0:0:
243,214,72355,6,0,P|293:256|304:295,1,88,2|0,1:2|0:0,0:0:0:0:
159,347,72571,1,8,0:2:0:0:
103,295,72679,1,0,0:0:0:0:
103,295,72787,2,0,P|55:303|-5:322,1,88,0|0,1:2|0:0,0:0:0:0:
0,177,73003,2,0,P|48:185|108:204,1,88,8|0,0:2|0:0,0:0:0:0:
268,213,73219,6,0,P|224:205|183:189,1,88,2|0,1:2|0:0,0:0:0:0:
192,14,73434,1,8,0:2:0:0:
266,36,73542,1,0,1:2:0:0:
266,36,73650,2,0,P|285:91|290:146,1,88,2|0,0:2|0:0,0:0:0:0:
424,116,73866,2,0,P|412:173|389:223,1,88,8|0,0:2|0:0,0:0:0:0:
194,305,74082,6,0,P|246:243|198:178,1,176,2|8,1:2|0:2,0:0:0:0:
104,316,74406,1,0,0:0:0:0:
104,316,74514,2,0,P|105:272|111:229,1,88,0|0,1:2|0:0,0:0:0:0:
267,384,74729,2,0,P|266:340|261:296,1,88,8|2,0:2|0:2,0:0:0:0:
180,152,74945,6,0,P|92:153|9:181,1,176,2|8,1:2|0:2,0:0:0:0:
164,251,75269,2,0,P|275:220|344:223,1,176,2|2,0:2|1:2,0:0:0:0:
442,292,75593,2,0,P|398:295|357:311,1,88,8|2,0:2|0:2,0:0:0:0:
164,333,75809,6,0,P|208:336|249:352,1,88,2|0,1:2|0:0,0:0:0:0:
151,196,76024,1,8,0:2:0:0:
95,263,76132,1,0,0:0:0:0:
95,263,76240,2,0,P|143:333|146:364,1,88,0|0,1:2|0:0,0:0:0:0:
280,180,76456,2,0,P|232:250|229:281,1,88,8|0,0:2|0:0,0:0:0:0:
37,171,76672,6,0,P|103:163|146:168,1,88,2|0,1:2|0:0,0:0:0:0:
306,86,76888,1,8,0:2:0:0:
362,140,76996,1,0,1:2:0:0:
362,140,77104,2,0,P|362:183|355:227,1,88,2|0,0:2|0:0,0:0:0:0:
391,365,77319,2,0,P|347:365|303:358,1,88,8|0,0:2|0:0,0:0:0:0:
31,285,77535,6,0,P|72:260|138:248,1,88,2|0,1:2|0:0,0:0:0:0:
213,382,77751,1,8,0:2:0:0:
146,358,77859,1,0,0:0:0:0:
146,358,77967,2,0,L|135:258,1,88,0|0,1:2|0:0,0:0:0:0:
44,130,78183,2,0,L|34:217,1,88,8|2,0:2|0:2,0:0:0:0:
244,229,78398,6,0,P|177:146|115:171,1,176,2|8,1:2|0:2,0:0:0:0:
235,342,78722,2,0,P|318:349|356:276,1,176,2|2,0:2|1:2,0:0:0:0:
403,201,79046,2,0,P|369:159|338:172,1,88,8|2,0:2|0:2,0:0:0:0:
483,377,79262,6,0,L|489:277,1,88,2|0,1:2|0:0,0:0:0:0:
334,327,79478,2,0,L|328:227,1,88,8|0,0:2|0:0,0:0:0:0:
456,324,79693,2,0,L|462:224,1,88,0|0,1:2|0:0,0:0:0:0:
307,274,79909,2,0,L|301:174,1,88,8|0,0:2|0:0,0:0:0:0:
161,364,80125,6,0,B|179:269|179:269|131:192,1,176,2|8,1:2|0:2,0:0:0:0:
17,31,80449,2,0,B|-1:126|-1:126|47:203,1,176,0|2,1:2|1:2,0:0:0:0:
177,126,80773,2,0,B|179:82|179:82|143:30,1,88,8|0,0:2|0:0,0:0:0:0:
269,113,80988,6,0,L|361:128,1,88,2|0,1:2|0:0,0:0:0:0:
275,145,81204,2,0,L|362:131,1,88,10|0,0:2|0:0,0:0:0:0:
506,199,81420,6,0,L|414:214,1,88,2|0,1:2|0:0,0:0:0:0:
499,229,81636,2,0,L|413:215,1,88,10|0,0:2|0:0,0:0:0:0:
353,355,81852,5,0,1:2:0:0:
193,283,82068,1,8,0:2:0:0:
193,283,82175,1,0,0:0:0:0:
193,283,82283,1,2,0:2:0:0:
279,135,82499,2,0,L|265:243,1,88,8|0,0:2|0:0,0:0:0:0:
94,336,82715,5,0,1:2:0:0:
35,92,82931,1,8,0:2:0:0:
268,223,83147,1,8,0:2:0:0:
14,280,83362,2,0,P|7:224|21:173,1,88,2|0,0:2|0:0,0:0:0:0:
175,112,83578,5,8,1:2:0:0:
449,33,83794,1,8,0:2:0:0:
449,33,83902,1,0,0:2:0:0:
449,33,84010,1,10,0:0:0:0:
312,0,84226,1,8,0:2:0:0:
353,133,84442,1,12,1:2:0:0:
449,33,84873,5,0,1:2:0:0:
449,33,85089,1,0,1:2:0:0:
353,133,85952,5,2,0:2:0:0:
174,116,86168,5,2,0:2:0:0:
174,116,86816,1,2,0:2:0:0:
174,116,87463,2,0,L|178:143,16,22,2|0|0|0|0|0|0|0|0|0|0|0|0|0|0|0|0,0:2|0:2|0:2|0:2|0:2|0:2|0:2|0:2|0:2|0:2|0:2|0:2|0:2|0:2|0:2|0:2|0:2,0:0:0:0:
277,184,88542,5,0,1:2:0:0:
277,184,89190,1,0,0:2:0:0:
277,184,89621,1,2,0:2:0:0:
135,244,90269,5,2,1:2:0:0:
135,244,90916,1,2,1:2:0:0:
135,244,91348,5,2,0:2:0:0:
383,323,91672,1,2,0:2:0:0:
135,244,91996,5,2,0:2:0:0:
383,323,92211,1,2,0:2:0:0:
326,172,92427,6,0,L|318:118,2,44,2|2|2,0:2|0:2|0:2,0:0:0:0:
245,191,92643,1,2,0:2:0:0:
196,250,92751,1,2,0:2:0:0:
200,326,92859,1,2,0:2:0:0:
256,377,92967,1,2,0:2:0:0:
298,292,93075,5,0,1:2:0:0:
318,288,93506,1,0,1:2:0:0:
338,284,93938,1,0,1:2:0:0:
358,281,94370,1,0,1:2:0:0:
292,162,94801,5,0,1:2:0:0:
271,158,95233,1,0,1:2:0:0:
251,154,95665,1,0,1:2:0:0:
188,89,95880,6,0,L|148:94,1,27.5,2|0,1:2|0:0,0:0:0:0:
168,85,96096,2,0,L|119:79,1,27.5,2|0,1:2|0:0,0:0:0:0:
149,94,96312,2,0,L|100:100,1,27.5,2|0,1:2|0:0,0:0:0:0:
24,184,96528,6,0,L|101:191,1,55,2|0,1:2|0:0,0:0:0:0:
24,184,96744,2,0,L|100:198,1,55,2|0,1:2|0:0,0:0:0:0:
24,184,96960,2,0,L|98:205,1,55,2|0,1:2|0:0,0:0:0:0:
384,337,97175,6,0,L|307:336,1,55,2|0,1:2|0:0,0:0:0:0:
128,337,97391,2,0,L|205:330,1,55,2|0,1:2|0:0,0:0:0:0:
384,337,97607,2,0,L|308:324,1,55,2|0,1:2|0:0,0:0:0:0:
253,277,97823,6,0,L|298:265,3,27.5,2|0|0|0,1:2|0:0|0:0|0:0,0:0:0:0:
177,252,98039,2,0,L|126:234,1,55,2|0,1:2|0:0,0:0:0:0:
256,0,98255,5,14,1:2:0:0:
256,364,98578,1,14,1:2:0:0:
256,0,98902,5,14,1:2:0:0:
256,192,99118,1,14,1:2:0:0:
78,36,99334,5,0,0:2:0:0:
85,63,99442,1,0,0:0:0:0:
40,156,99550,1,14,0:2:0:0:
23,216,99657,1,0,3:2:0:0:
41,262,99765,1,8,3:2:0:0:
60,288,99873,1,8,3:2:0:0:
73,297,99981,6,0,P|125:309|189:293,1,110,6|0,1:2|0:0,0:0:0:0:
365,236,100197,2,0,P|338:188|278:159,1,110,8|0,0:2|0:0,0:0:0:0:
118,134,100413,2,0,P|145:182|205:211,1,110,0|0,1:2|0:0,0:0:0:0:
248,74,100629,1,8,0:2:0:0:
307,32,100737,1,2,1:2:0:0:
377,54,100845,6,0,P|413:119|407:173,1,110,2|2,1:2|1:2,0:0:0:0:
465,316,101060,1,8,0:2:0:0:
389,358,101168,1,0,0:0:0:0:
389,358,101276,2,0,L|263:349,1,110,2|2,1:2|0:2,0:0:0:0:
317,227,101492,2,0,L|207:234,1,110,8|2,0:2|0:2,0:0:0:0:
169,359,101708,6,0,P|91:240|-2:217,1,220,2|8,1:2|0:2,0:0:0:0:
90,25,102032,1,0,0:0:0:0:
90,25,102139,2,0,P|40:112|30:165,1,110,0|0,1:2|0:0,0:0:0:0:
280,78,102355,2,0,P|181:72|131:90,1,110,8|0,0:2|0:0,0:0:0:0:
352,161,102571,6,0,P|385:74|376:23,1,110,2|0,1:2|0:0,0:0:0:0:
494,269,102787,1,8,0:2:0:0:
494,269,102895,2,0,P|461:182|470:131,1,110,2|0,0:2|0:0,0:0:0:0:
342,376,103111,1,0,1:2:0:0:
342,376,103219,2,0,P|375:289|366:238,1,110,8|2,0:2|1:2,0:0:0:0:
72,240,103434,6,0,P|73:328|142:250,1,220,2|8,1:2|0:2,0:0:0:0:
133,155,103758,1,0,0:0:0:0:
133,155,103866,2,0,P|73:142|9:162,1,110,0|0,1:2|0:0,0:0:0:0:
213,205,104082,2,0,P|273:218|337:198,1,110,8|2,0:2|1:2,0:0:0:0:
361,66,104298,6,0,B|326:11|269:1|269:1|246:53|275:116,1,220,2|8,1:2|0:2,0:0:0:0:
463,136,104621,1,0,0:0:0:0:
463,136,104729,2,0,P|477:44|456:-4,1,110,2|2,1:2|1:2,0:0:0:0:
343,143,104945,2,0,P|329:235|350:283,1,110,8|2,0:2|1:2,0:0:0:0:
498,337,105161,6,0,B|370:294|390:384|274:340,1,220,2|8,1:2|0:2,0:0:0:0:
137,270,105485,1,2,1:2:0:0:
137,270,105593,2,0,L|147:390,1,110,2|2,0:2|1:2,0:0:0:0:
343,141,105809,2,0,L|333:250,1,110,8|0,0:2|0:0,0:0:0:0:
203,170,106024,5,14,3:2:0:0:
151,151,106132,1,0,3:2:0:0:
97,157,106240,1,0,3:2:0:0:
49,184,106348,1,14,3:2:0:0:
0,125,106456,5,0,3:2:0:0:
74,72,106564,1,0,3:2:0:0:
164,64,106672,1,14,3:2:0:0:
246,101,106780,1,0,3:2:0:0:
300,221,106888,6,0,P|254:274|192:181,1,220,6|8,1:2|0:2,0:0:0:0:
384,218,107211,1,0,0:0:0:0:
384,218,107319,2,0,P|358:302|328:336,1,110,0|0,1:2|0:0,0:0:0:0:
141,317,107535,2,0,P|112:270|102:216,1,110,8|2,0:2|1:2,0:0:0:0:
291,114,107751,6,0,P|301:165|295:232,1,110,2|2,1:2|1:2,0:0:0:0:
119,16,107967,1,8,0:2:0:0:
96,98,108075,1,0,0:0:0:0:
96,98,108183,2,0,P|156:144|245:162,1,110,2|2,1:2|0:2,0:0:0:0:
297,7,108398,2,0,P|246:29|205:64,1,110,8|2,0:2|0:2,0:0:0:0:
29,224,108614,6,0,P|44:290|64:342,1,110,6|0,1:2|0:0,0:0:0:0:
212,378,108830,1,8,0:2:0:0:
295,352,108938,1,0,1:2:0:0:
295,352,109046,2,0,P|296:293|283:242,1,110,2|0,0:2|0:0,0:0:0:0:
189,99,109262,2,0,P|188:157|201:209,1,110,8|0,0:2|0:0,0:0:0:0:
470,191,109478,5,2,1:2:0:0:
494,114,109586,1,8,0:2:0:0:
446,54,109693,1,0,1:2:0:0:
366,63,109801,1,8,0:2:0:0:
304,136,109909,2,0,B|367:143|367:143|422:134,1,110,2|0,1:2|0:2,0:0:0:0:
297,7,110125,2,0,B|234:0|234:0|179:9,1,110,8|2,0:2|0:2,0:0:0:0:
0,198,110341,6,0,P|99:287|184:256,1,220,2|8,1:2|0:2,0:0:0:0:
93,53,110665,1,0,0:0:0:0:
93,53,110773,2,0,L|103:168,1,110,2|0,1:2|0:0,0:0:0:0:
292,199,110988,2,0,L|281:314,1,110,8|0,0:2|1:2,0:0:0:0:
510,143,111204,6,0,P|417:107|296:106,1,220,2|8,1:2|0:2,0:0:0:0:
512,330,111528,1,0,0:0:0:0:
512,330,111636,2,0,P|508:245|503:202,1,110,2|0,1:2|1:2,0:0:0:0:
266,368,111852,2,0,P|309:306|362:280,1,110,8|0,0:2|0:0,0:0:0:0:
436,100,112068,2,0,P|393:162|340:188,1,110,2|0,1:2|0:0,0:0:0:0:
258,240,112283,5,8,0:2:0:0:
161,198,112391,2,0,P|106:290|124:344,1,110,2|0,1:2|0:0,0:0:0:0:
20,253,112607,1,2,1:2:0:0:
29,167,112715,2,0,P|65:110|136:81,1,110,8|0,0:2|0:0,0:0:0:0:
215,38,112931,5,8,0:2:0:0:
252,18,113039,1,8,0:2:0:0:
285,35,113147,1,8,0:2:0:0:
326,20,113255,2,0,L|391:16,1,41.2500015735627,8|8,0:2|0:2,0:0:0:0:
462,5,113362,5,8,0:2:0:0:
462,84,113470,1,8,0:2:0:0:
406,141,113578,1,8,0:2:0:0:
331,163,113686,1,8,0:2:0:0:
230,137,113794,6,0,B|198:143|155:127|143:91|143:91|91:106|43:68|43:68|63:122|21:188|21:188|92:175|154:208,1,461.999985900879,14|0,0:2|0:2,0:0:0:0:
203,276,115521,2,0,B|167:292|106:275|106:275|61:257|17:273|17:273|4:341|4:341|64:328|111:356|111:356|159:361|202:354,1,461.999985900879,14|0,0:2|0:2,0:0:0:0:
483,199,117247,6,0,B|426:204|356:233|356:233|387:206|384:171,1,197.99999395752,14|0,0:2|0:2,0:0:0:0:
211,78,118111,2,0,B|243:124|303:170|303:170|265:157|236:177,1,197.99999395752,14|0,0:2|0:2,0:0:0:0:
243,375,118974,2,0,B|267:323|277:248|277:248|284:288|316:303,1,197.99999395752,14|0,0:2|0:2,0:0:0:0:
497,296,119837,2,0,P|443:215|349:240,1,197.99999395752,14|0,0:2|0:2,0:0:0:0:
99,226,120701,6,0,B|176:209|220:298|173:373|81:384|31:327|37:289|37:289|34:265|17:230|17:230|34:187|28:140,1,461.999985900879,14|0,0:2|0:2,0:0:0:0:
130,108,122427,2,0,B|107:64|67:38|22:43|22:43|139:25|189:93|189:93|275:81|334:35,1,461.999985900879,14|0,0:2|0:2,0:0:0:0:
410,368,124154,6,0,B|332:345|317:256|317:256|365:262,1,197.99999395752,14|0,0:2|0:2,0:0:0:0:
102,368,125017,2,0,B|180:345|195:256|195:256|147:262,1,197.99999395752,14|0,0:2|0:2,0:0:0:0:
133,27,125880,2,0,B|113:106|182:163|182:163|201:119,1,197.99999395752,14|0,0:2|0:2,0:0:0:0:
379,27,126744,2,0,B|399:106|330:163|330:163|312:122,1,197.99999395752,14|0,0:2|0:2,0:0:0:0:
256,364,127607,6,0,B|318:292|276:232|270:230|242:241|238:256|243:272|271:288,1,197.99999395752,14|0,0:2|0:2,0:0:0:0:
107,106,128470,2,0,B|138:195|211:189|216:185|220:155|209:144|193:140|165:156,1,197.99999395752,14|0,0:2|0:2,0:0:0:0:
404,105,129334,2,0,B|311:87|280:153|281:159|305:178|320:174|331:162|331:130,1,197.99999395752,14|0,0:2|0:2,0:0:0:0:
398,176,130035,6,0,L|389:203,1,16.49999949646,2|2,3:0|3:0,0:0:0:0:
334,274,130305,5,2,3:2:0:0:
309,285,130413,2,0,L|261:282,1,32.99999899292,2|0,3:2|0:0,0:0:0:0:
193,253,130629,5,2,3:2:0:0:
168,264,130737,2,0,L|120:261,1,32.99999899292,2|0,3:2|0:0,0:0:0:0:
28,273,134514,5,0,0:2:0:0:
256,192,137967,12,0,141549,0:2:0:0:
300,358,142472,5,0,0:2:0:0:
305,273,143395,1,0,0:2:0:0:
311,189,144318,1,0,0:2:0:0:
311,189,144779,6,0,L|373:182,1,49.4999984893799,0|0,0:2|0:2,0:0:0:0:
441,167,145270,6,0,P|505:238|466:273,1,165,2|0,0:2|0:2,0:0:0:0:
390,319,146133,2,0,L|287:328,2,82.5,0|0|0,0:2|0:2|0:2,0:0:0:0:
471,271,146985,2,0,P|484:192|470:106,1,165,0|0,0:2|0:2,0:0:0:0:
470,108,147848,1,0,0:2:0:0:
335,31,148279,5,0,0:2:0:0:
335,31,148711,2,0,P|309:100|324:202,1,165,2|0,0:2|0:2,0:0:0:0:
472,145,149574,2,0,P|415:135|366:142,2,82.5,0|0|0,0:2|0:2|0:2,0:0:0:0:
512,246,150438,6,0,P|445:255|441:254,1,55,2|0,0:2|0:2,0:0:0:0:
339,197,150869,2,0,P|380:250|381:254,1,55,0|0,0:2|0:2,0:0:0:0:
384,371,151301,2,0,P|409:308|412:305,1,55,0|0,0:2|0:2,0:0:0:0:
512,246,151733,5,0,0:2:0:0:
512,246,151949,1,0,0:2:0:0:
512,246,152164,2,0,P|454:268|327:169,1,220,2|0,0:2|0:2,0:0:0:0:
482,125,155618,6,0,L|482:85,4,32.99999899292,2|0|0|0|0,0:2|0:2|0:2|0:0|0:0,0:0:0:0:
405,171,156697,2,0,P|401:138|403:106,1,65.9999979858399,0|0,0:2|0:2,0:0:0:0:
339,32,157344,2,0,L|326:70,1,32.99999899292,0|0,0:0|0:0,0:0:0:0:
309,138,157776,2,0,L|317:177,1,32.99999899292,0|0,0:0|0:0,0:0:0:0:
152,192,158639,6,0,L|90:185,1,49.4999984893799,0|0,0:2|0:2,0:0:0:0:
72,180,159071,6,0,P|28:186|42:280,1,165,2|0,0:2|0:2,0:0:0:0:
123,330,159934,2,0,L|206:323,2,82.5,0|0|0,0:2|0:2|0:2,0:0:0:0:
41,279,160797,2,0,P|42:168|64:111,1,165,0|0,0:2|0:2,0:0:0:0:
59,118,161661,1,0,0:2:0:0:
212,36,162092,5,0,0:2:0:0:
212,36,162524,2,0,P|172:101|124:41,1,165,2|0,0:2|0:2,0:0:0:0:
37,0,163387,2,0,P|22:61|26:82,2,82.5,0|0|0,0:2|0:2|0:2,0:0:0:0:
122,54,164251,6,0,L|124:135,1,55,0|0,0:2|0:2,0:0:0:0:
224,205,164682,2,0,L|143:203,1,55,0|0,0:2|0:2,0:0:0:0:
0,153,165114,2,0,L|81:151,1,55,0|0,0:2|0:2,0:0:0:0:
87,175,165438,2,0,L|87:230,1,55,0|0,0:2|0:2,0:0:0:0:
105,269,165761,1,0,0:0:0:0:
176,294,165977,6,0,P|119:269|48:339,1,165,0|0,0:0|0:0,0:0:0:0:
149,373,166841,2,0,P|87:308|177:296,1,220,2|0,0:2|0:2,0:0:0:0:
85,190,169646,5,2,0:2:0:0:
85,190,169862,2,0,P|54:193|16:207,1,55,0|0,0:2|0:2,0:0:0:0:
143,132,170294,2,0,P|114:119|74:112,1,55,0|0,0:2|0:2,0:0:0:0:
217,98,170726,2,0,P|198:72|167:46,1,55,0|0,0:2|0:2,0:0:0:0:
83,127,171157,6,0,P|110:134|135:146,1,55,2|0,0:2|0:2,0:0:0:0:
201,219,171589,2,0,P|208:245|210:272,1,55,0|0,0:2|0:2,0:0:0:0:
181,355,172020,1,0,0:2:0:0:
328,312,172452,6,0,P|336:212|324:184,1,110,2|0,0:2|0:2,0:0:0:0:
176,236,173531,1,0,0:2:0:0:
176,236,173747,2,0,P|212:244|268:236,2,82.5,0|0|0,0:2|0:2|0:2,0:0:0:0:
91,193,174610,2,0,P|51:204|98:279,1,165,2|0,0:2|0:2,0:0:0:0:
176,236,175474,1,0,0:0:0:0:
176,236,175905,6,0,P|184:164|180:112,1,110,2|0,0:2|0:2,0:0:0:0:
114,54,177200,2,0,P|84:122|87:144,2,82.5,0|0|0,0:2|0:2|0:2,0:0:0:0:
236,118,178064,2,0,L|171:128,1,55,0|0,0:2|0:2,0:0:0:0:
243,22,178495,2,0,L|298:31,1,55,0|0,0:2|0:2,0:0:0:0:
362,109,178927,2,0,P|435:107|452:104,2,82.5,0|0|0,0:2|0:2|0:2,0:0:0:0:
292,164,179790,5,0,0:2:0:0:
256,192,179898,12,0,181949,0:2:0:0:
254,222,186265,6,0,L|292:217,3,27.5,0|0|0|0,0:2|0:2|0:2|0:2,0:0:0:0:
326,159,186697,6,0,P|410:192|369:257,1,165,2|0,0:2|0:2,0:0:0:0:
323,297,187560,2,0,L|220:308,2,82.5,0|0|0,0:2|0:2|0:2,0:0:0:0:
150,366,188423,2,0,P|137:258|157:197,1,165,0|0,0:2|0:2,0:0:0:0:
152,205,189287,1,0,0:2:0:0:
306,75,189718,5,0,0:2:0:0:
306,75,190150,2,0,P|323:143|323:245,1,165,2|0,0:2|0:2,0:0:0:0:
227,185,191013,2,0,P|174:159|125:152,2,82.5,0|0|0,0:2|0:2|0:2,0:0:0:0:
237,293,191877,6,0,P|170:283|166:281,1,55,0|0,0:2|0:2,0:0:0:0:
84,198,192308,2,0,P|108:260|108:264,1,55,0|0,0:2|0:2,0:0:0:0:
80,377,192740,2,0,P|121:323|125:321,1,55,0|0,0:2|0:2,0:0:0:0:
237,293,193172,5,0,0:2:0:0:
237,293,193387,1,0,0:2:0:0:
237,293,193603,1,0,0:2:0:0:
256,192,193711,12,0,197056,0:2:0:0:
175,170,202020,5,2,0:2:0:0:
175,170,202236,2,0,L|292:167,1,110,2|0,0:2|0:2,0:0:0:0:
376,115,202884,2,0,L|383:190,1,55,0|0,0:2|0:2,0:0:0:0:
309,246,203315,2,0,L|302:321,1,55,0|0,0:2|0:2,0:0:0:0:
303,300,203747,1,0,0:2:0:0:
471,278,203963,6,0,P|493:313|498:354,2,82.5,2|0|0,0:2|0:2|0:2,0:0:0:0:
405,211,204826,1,0,0:2:0:0:
412,218,205474,5,2,0:2:0:0:
412,218,205582,1,2,0:2:0:0:
412,218,205690,2,0,L|340:225,1,55,2|0,0:2|0:2,0:0:0:0:
368,133,206121,2,0,L|296:140,1,55,0|0,0:2|0:2,0:0:0:0:
343,47,206553,1,0,0:0:0:0:
247,58,206769,2,0,L|175:65,1,55,0|0,0:2|0:2,0:0:0:0:
17,88,207200,5,2,0:2:0:0:
17,88,207416,2,0,L|97:82,1,55,2|0,0:2|0:2,0:0:0:0:
159,135,207740,1,0,0:2:0:0:
159,135,207848,1,0,0:2:0:0:
159,135,207956,2,0,L|163:180,1,27.5,0|0,0:2|0:2,0:0:0:0:
226,226,208279,2,0,L|303:221,1,55,0|0,0:2|0:2,0:0:0:0:
426,306,208603,5,0,0:0:0:0:
456,279,208711,1,0,0:2:0:0:
477,248,208819,1,0,0:2:0:0:
483,200,208927,1,0,0:2:0:0:
475,155,209035,1,0,0:2:0:0:
423,55,209143,5,2,1:2:0:0:
419,75,209574,1,2,1:2:0:0:
415,95,210006,1,2,1:2:0:0:
412,115,210438,1,2,1:2:0:0:
405,273,210869,5,2,1:2:0:0:
401,252,211301,1,0,0:2:0:0:
397,232,211733,1,2,1:2:0:0:
289,267,211949,6,0,L|283:218,1,27.5,2|0,1:2|0:0,0:0:0:0:
293,246,212164,2,0,L|299:197,1,27.5,2|0,1:2|0:0,0:0:0:0:
284,227,212380,2,0,L|278:178,1,27.5,2|0,1:2|0:0,0:0:0:0:
255,44,212596,6,0,L|248:121,1,55,2|0,1:2|0:0,0:0:0:0:
255,44,212812,2,0,L|241:120,1,55,2|0,1:2|0:0,0:0:0:0:
255,44,213028,2,0,L|234:118,1,55,2|0,1:2|0:0,0:0:0:0:
102,148,213243,6,0,L|102:225,1,55,2|0,1:2|0:0,0:0:0:0:
102,148,213459,2,0,L|109:225,1,55,2|0,1:2|0:0,0:0:0:0:
102,148,213675,2,0,L|115:224,1,55,2|0,1:2|0:0,0:0:0:0:
166,258,213891,6,0,L|178:303,3,27.5,2|0|0|0,1:2|0:0|0:0|0:0,0:0:0:0:
196,184,214107,2,0,L|214:132,1,55,2|0,1:2|0:0,0:0:0:0:
402,189,214323,5,6,1:2:0:0:
402,189,214538,5,2,3:2:0:0:
395,271,214646,1,2,3:2:0:0:
389,353,214754,1,2,3:2:0:0:
389,353,214970,5,2,1:2:0:0:
491,192,215186,1,2,1:2:0:0:
200,14,215510,5,10,1:2:0:0:
300,38,215618,1,8,1:2:0:0:
0,119,215833,5,10,1:2:0:0:
235,335,216049,6,0,P|380:346|445:192,1,330,4|0,0:2|0:2,0:0:0:0:
131,86,216913,6,0,P|276:75|341:229,1,330,4|0,0:2|0:2,0:0:0:0:
0,192,217776,5,14,1:2:0:0:
512,192,218100,1,14,1:2:0:0:
0,192,218423,5,14,1:2:0:0:
256,192,218639,1,14,1:2:0:0:
423,5,218855,5,0,0:2:0:0:
433,51,218963,1,0,0:0:0:0:
366,129,219071,1,14,0:2:0:0:
353,205,219178,1,0,3:2:0:0:
366,256,219286,1,8,3:2:0:0:
341,295,219394,1,8,3:2:0:0:
310,307,219502,6,0,B|255:325|255:325|194:311,1,110,6|0,1:2|0:0,0:0:0:0:
53,171,219718,2,0,B|108:153|108:153|168:166,1,110,8|0,0:2|0:0,0:0:0:0:
109,355,219934,2,0,L|112:237,1,110,0|0,1:2|0:0,0:0:0:0:
276,172,220150,1,8,0:2:0:0:
356,184,220258,1,2,1:2:0:0:
406,115,220366,6,0,P|444:154|442:209,1,110,2|2,1:2|1:2,0:0:0:0:
192,171,220582,1,8,0:2:0:0:
150,105,220690,1,0,0:0:0:0:
150,105,220797,2,0,B|128:56|128:56|145:2,1,110,2|2,1:2|0:2,0:0:0:0:
319,108,221013,2,0,B|340:59|340:59|323:5,1,110,8|2,0:2|0:2,0:0:0:0:
283,206,221229,6,0,P|179:167|70:169,1,220,2|8,1:2|0:2,0:0:0:0:
134,288,221553,1,0,0:0:0:0:
134,288,221661,2,0,P|29:254|-5:253,1,110,0|0,1:2|0:0,0:0:0:0:
189,379,221877,2,0,P|294:345|328:344,1,110,8|0,0:2|0:0,0:0:0:0:
458,231,222092,6,0,B|477:287|477:287|467:344,1,110,2|0,1:2|0:0,0:0:0:0:
348,128,222308,1,8,0:2:0:0:
348,128,222416,2,0,B|367:184|367:184|357:241,1,110,2|0,0:2|0:0,0:0:0:0:
242,21,222632,1,0,1:2:0:0:
242,21,222740,2,0,B|261:77|261:77|251:134,1,110,8|2,0:2|1:2,0:0:0:0:
46,99,222956,6,0,L|181:87,1,110,2|0,1:2|0:0,0:0:0:0:
221,220,223172,1,8,0:2:0:0:
298,196,223279,1,0,0:2:0:0:
298,196,223387,2,0,L|291:325,1,110,0|0,1:2|0:0,0:0:0:0:
29,274,223603,2,0,L|164:262,1,110,8|2,0:2|1:2,0:0:0:0:
187,5,223819,6,0,P|93:39|104:162,1,220,2|8,1:2|0:2,0:0:0:0:
303,106,224143,2,0,P|293:30|273:-18,1,110,0|2,0:2|0:2,0:0:0:0:
224,230,224359,1,2,1:2:0:0:
224,230,224467,2,0,P|214:154|194:106,1,110,8|2,0:2|1:2,0:0:0:0:
4,238,224682,6,0,B|62:223|62:223|127:234,1,110,2|2,1:2|1:2,0:0:0:0:
146,371,224898,1,8,0:2:0:0:
220,371,225006,2,0,B|280:356|280:356|366:387,1,110,0|2,1:2|0:2,0:0:0:0:
395,254,225222,1,0,1:2:0:0:
343,199,225330,2,0,B|328:140|328:140|349:71,1,110,8|0,0:2|0:0,0:0:0:0:
512,51,225546,5,14,3:2:0:0:
512,104,225654,1,0,3:2:0:0:
477,145,225761,1,0,3:2:0:0:
424,150,225869,1,14,3:2:0:0:
342,93,225977,5,0,3:2:0:0:
301,111,226085,1,0,3:2:0:0:
232,78,226193,1,14,3:2:0:0:
159,113,226301,1,0,3:2:0:0:
107,199,226409,6,0,B|96:259|96:259|110:312,1,110,6|0,1:2|0:0,0:0:0:0:
292,384,226625,2,0,B|303:324|303:324|289:271,1,110,8|0,0:2|0:0,0:0:0:0:
107,199,226841,2,0,L|216:188,1,110,0|0,1:2|0:0,0:0:0:0:
382,223,227056,1,8,0:2:0:0:
435,273,227164,1,2,1:2:0:0:
460,343,227272,6,0,P|455:263|458:225,1,110,2|2,1:2|1:2,0:0:0:0:
470,52,227488,1,8,0:2:0:0:
397,30,227596,1,0,0:0:0:0:
397,30,227704,2,0,P|310:130|304:160,1,110,2|2,1:2|0:2,0:0:0:0:
286,284,227920,2,0,P|373:184|379:154,1,110,8|2,0:2|0:2,0:0:0:0:
259,9,228136,6,0,P|154:38|85:122,1,220,2|8,1:2|0:2,0:0:0:0:
201,239,228459,1,0,0:0:0:0:
201,239,228567,2,0,L|211:129,1,110,0|0,1:2|0:0,0:0:0:0:
28,320,228783,2,0,L|18:211,1,110,8|0,0:2|0:0,0:0:0:0:
324,359,228999,6,0,P|290:226|205:257,1,220,2|8,1:2|0:2,0:0:0:0:
116,345,229323,1,2,0:2:0:0:
116,345,229431,2,0,B|172:353|172:353|234:343,1,110,0|0,0:0|1:2,0:0:0:0:
109,218,229646,2,0,B|55:208|55:208|-9:220,1,110,8|2,0:2|1:2,0:0:0:0:
300,126,229862,6,0,P|245:69|96:23,1,220,2|8,1:2|0:2,0:0:0:0:
0,113,230186,1,0,0:0:0:0:
0,113,230294,2,0,P|62:121|131:91,1,110,0|0,1:2|0:0,0:0:0:0:
215,223,230510,2,0,P|161:231|108:217,1,110,8|2,0:2|1:2,0:0:0:0:
380,268,230726,6,0,P|407:128|475:69,1,220,2|8,1:2|0:2,0:0:0:0:
490,341,231049,2,0,P|490:227|481:198,1,110,0|2,0:0|1:2,0:0:0:0:
276,373,231265,1,2,1:2:0:0:
276,373,231373,2,0,P|276:259|285:230,1,110,8|0,0:2|0:0,0:0:0:0:
344,87,231589,5,14,1:2:0:0:
382,92,231697,1,2,3:0:0:0:
408,119,231805,1,2,3:0:0:0:
411,158,231913,1,2,3:0:0:0:
389,189,232020,1,2,3:0:0:0:
352,200,232128,1,2,3:0:0:0:
317,185,232236,1,2,3:0:0:0:
299,151,232344,1,2,3:0:0:0:
259,82,232452,6,0,B|202:58|202:58|124:72,1,110,14|0,1:2|0:0,0:0:0:0:
41,182,232668,1,0,1:2:0:0:
116,160,232776,1,14,1:2:0:0:
185,196,232884,1,0,0:0:0:0:
2,249,233100,1,14,1:2:0:0:
268,361,233315,6,0,P|317:331|391:323,1,110,6|0,1:2|0:0,0:0:0:0:
497,261,233531,2,0,P|477:214|470:149,1,110,8|0,0:2|0:0,0:0:0:0:
349,26,233747,2,0,P|348:81|325:138,1,110,0|0,1:2|0:0,0:0:0:0:
243,276,233963,1,8,0:2:0:0:
187,332,234071,1,2,1:2:0:0:
109,328,234179,6,0,L|0:320,1,110,2|2,1:2|1:2,0:0:0:0:
54,127,234395,1,8,0:2:0:0:
115,182,234502,1,0,0:2:0:0:
115,182,234610,2,0,L|225:189,1,110,2|2,1:2|0:2,0:0:0:0:
60,51,234826,2,0,L|169:59,1,110,8|2,0:2|0:2,0:0:0:0:
470,186,235042,6,0,P|346:107|274:138,1,220,2|8,1:2|0:2,0:0:0:0:
197,332,235366,1,0,0:0:0:0:
197,332,235474,2,0,P|205:276|194:211,1,110,0|0,1:2|0:0,0:0:0:0:
34,132,235690,2,0,P|22:190|31:248,1,110,8|0,0:2|0:0,0:0:0:0:
280,10,235905,6,0,P|246:143|161:112,1,220,2|8,1:2|0:2,0:0:0:0:
91,13,236229,1,2,0:2:0:0:
91,13,236337,2,0,B|154:6|154:6|209:15,1,110,0|0,0:0|1:2,0:0:0:0:
362,140,236553,2,0,P|378:62|377:20,1,110,8|2,0:2|1:2,0:0:0:0:
257,199,236769,6,0,P|352:166|488:149,1,220,2|8,1:2|0:2,0:0:0:0:
512,384,237092,1,0,0:0:0:0:
512,384,237200,2,0,P|455:364|404:360,1,110,0|0,1:2|0:0,0:0:0:0:
225,297,237416,2,0,P|281:277|332:273,1,110,8|2,0:2|1:2,0:0:0:0:
363,98,237632,5,2,1:2:0:0:
297,137,237740,1,2,1:2:0:0:
257,199,237848,2,0,P|190:190|127:147,1,110,8|0,0:2|0:0,0:0:0:0:
98,325,238064,2,0,P|138:363|190:381,1,110,2|2,1:2|1:2,0:0:0:0:
3,235,238279,2,0,P|35:190|53:139,1,110,8|2,0:2|1:2,0:0:0:0:
219,20,238495,6,0,B|117:80|113:-18|6:23,1,220,2|8,1:2|0:2,0:0:0:0:
166,119,238819,1,2,1:2:0:0:
166,119,238927,2,0,L|56:121,1,110,2|2,0:2|1:2,0:0:0:0:
183,257,239143,2,0,L|293:260,1,110,8|0,0:2|0:0,0:0:0:0:
459,111,239359,5,0,3:2:0:0:
427,121,239467,1,14,3:2:0:0:
439,152,239575,1,0,3:2:0:0:
469,141,239683,1,0,3:2:0:0:
490,40,239791,5,14,3:2:0:0:
399,26,239899,1,0,3:2:0:0:
323,86,240006,1,0,3:2:0:0:
324,178,240114,1,14,3:2:0:0:
390,247,240222,6,0,B|441:259|441:259|497:242,1,110,6|0,1:2|0:0,0:0:0:0:
475,69,240438,2,0,P|444:114|432:167,1,110,8|0,0:2|0:0,0:0:0:0:
253,110,240654,2,0,P|276:159|316:196,1,110,0|0,1:2|0:0,0:0:0:0:
106,193,240869,1,8,0:2:0:0:
141,263,240977,1,2,1:2:0:0:
203,314,241085,6,0,P|294:364|450:358,1,220,2|8,1:2|0:2,0:0:0:0:
415,216,241409,1,0,0:0:0:0:
415,216,241517,2,0,P|309:245|277:236,1,110,2|2,1:2|0:2,0:0:0:0:
483,130,241733,2,0,P|512:236|503:268,1,110,8|2,0:2|0:2,0:0:0:0:
246,302,241949,6,0,P|202:280|173:226,1,110,6|0,1:2|0:0,0:0:0:0:
314,88,242164,1,8,0:2:0:0:
389,131,242272,1,0,1:2:0:0:
389,131,242380,2,0,L|399:240,1,110,2|0,0:2|0:0,0:0:0:0:
131,216,242596,2,0,L|120:325,1,110,8|0,0:2|0:0,0:0:0:0:
123,69,242812,6,0,P|222:158|307:127,1,220,2|2,1:2|1:2,0:0:0:0:
229,54,243136,1,8,0:2:0:0:
229,54,243243,2,0,B|276:47|276:47|339:54,1,110,2|8,1:2|0:2,0:0:0:0:
403,166,243459,2,0,B|466:173|466:173|521:164,1,110,2|8,1:2|0:2,0:0:0:0:
339,54,243675,6,0,P|303:147|302:268,1,220,2|8,1:2|0:2,0:0:0:0:
487,378,243999,1,0,0:0:0:0:
487,378,244107,2,0,P|483:293|478:250,1,110,2|0,1:2|0:0,0:0:0:0:
295,375,244323,2,0,P|299:290|304:247,1,110,8|0,0:2|1:2,0:0:0:0:
195,179,244538,2,0,P|140:168|86:165,1,110,2|0,1:2|0:0,0:0:0:0:
0,262,244754,1,8,0:2:0:0:
3,376,244862,6,0,P|82:241|36:177,1,220,0|0,0:0|1:2,0:0:0:0:
210,0,245186,2,0,P|228:60|265:92,1,110,8|0,0:2|0:0,0:0:0:0:
446,204,245402,5,8,0:2:0:0:
404,216,245510,1,8,0:2:0:0:
354,198,245618,1,8,0:2:0:0:
308,225,245726,1,2,1:2:0:0:
270,188,245833,2,0,L|275:120,1,41.2500015735627,8|0,0:2|0:0,0:0:0:0:
334,57,245941,5,8,0:2:0:0:
297,25,246049,1,8,0:2:0:0:
251,7,246157,1,8,0:2:0:0:
200,15,246265,1,8,0:2:0:0:
169,35,246373,1,8,0:2:0:0:
150,114,246481,5,8,0:2:0:0:
176,144,246589,1,8,0:2:0:0:
186,182,246697,1,8,0:2:0:0:
174,223,246805,1,8,0:2:0:0:
145,256,246913,2,0,P|105:286|41:278,1,82.5000031471254,0|0,0:0|0:0,0:0:0:0:
5,206,247128,6,0,B|25:288|102:296|166:270|163:161|98:145|98:145|160:176|198:139|198:139|241:121|290:141,1,461.999985900879,14|0,0:2|0:2,0:0:0:0:
420,254,248855,2,0,B|352:243|333:292|320:355|411:389|485:350|485:350|477:318|484:293|484:293|501:254|483:213|483:213|474:181|483:149,1,461.999985900879,14|0,0:2|0:2,0:0:0:0:
331,59,250582,6,0,B|399:55|387:13|362:-9|303:14|261:50|242:83|267:147,1,264,14|0,0:2|0:2,0:0:0:0:
406,303,251445,2,0,B|375:363|416:374|449:364|458:302|447:246|429:213|361:203,1,264,14|0,0:2|0:2,0:0:0:0:
157,245,252308,2,0,B|119:188|89:218|82:251|131:290|184:309|222:310|265:256,1,264,14|0,0:2|0:2,0:0:0:0:
469,218,253172,2,0,B|507:275|537:245|544:212|495:173|442:154|404:153|361:207,1,264,14|0,0:2|0:2,0:0:0:0:
278,335,254035,6,0,B|226:302|175:339|175:339|164:271|119:249|53:243|53:243|136:254|183:221|183:221|180:137|141:100|141:100|157:135|150:169,1,616,14|0,0:2|0:2,0:0:0:0:
316,30,255761,2,0,B|282:81|295:137|334:171|412:189|467:96|445:45|445:45|371:69|393:172|393:172|445:231|421:332,1,616,14|0,0:2|0:2,0:0:0:0:
222,279,257488,6,0,B|184:275|136:291|136:347|97:381|60:375|44:335|59:292|120:296,1,264,14|0,0:2|0:2,0:0:0:0:
236,163,258351,2,0,B|257:132|267:82|219:54|209:3|233:-25|276:-18|305:15|272:66,1,264,14|0,0:2|0:2,0:0:0:0:
329,233,259215,2,0,B|344:267|382:300|431:273|480:289|493:324|466:358|422:367|394:312,1,264,14|0,0:2|0:2,0:0:0:0:
183,233,260078,2,0,B|167:267|129:300|80:273|31:289|18:324|45:358|89:367|117:312,1,264,14|0,0:2|0:2,0:0:0:0:
232,57,260941,6,0,B|210:36|210:36|255:3|303:27|303:27|246:97|279:157,1,264,14|0,0:2|0:2,0:0:0:0:
465,254,261805,2,0,B|493:244|493:244|499:300|455:329|455:329|448:262|354:244,1,264,14|0,0:2|0:2,0:0:0:0:
171,359,262668,2,0,B|164:388|164:388|113:365|110:312|110:312|199:326|234:268,1,264,14|0,0:2|0:2,0:0:0:0:
153,227,263369,6,0,L|112:231,1,22,2|2,3:2|3:2,0:0:0:0:
3,288,263531,5,2,3:2:0:0:
48,273,263639,1,2,3:2:0:0:
101,276,263747,1,2,3:2:0:0:
144,302,263855,1,2,3:2:0:0:
218,370,263963,5,2,3:2:0:0:
239,382,264071,1,2,3:2:0:0:
265,384,264179,1,2,3:2:0:0:
289,377,264287,1,2,3:2:0:0:
357,294,264395,6,0,P|457:304|470:182,1,220,6|8,1:2|0:2,0:0:0:0:
324,112,264718,1,0,0:0:0:0:
324,112,264826,2,0,P|306:172|321:232,1,110,0|0,1:2|0:0,0:0:0:0:
498,27,265042,2,0,P|516:87|501:147,1,110,8|2,0:2|1:2,0:0:0:0:
303,13,265258,6,0,L|414:2,1,110,2|2,1:2|1:2,0:0:0:0:
171,110,265474,1,8,0:2:0:0:
171,110,265582,2,0,L|60:99,1,110,0|2,0:0|1:2,0:0:0:0:
289,263,265797,1,2,0:2:0:0:
289,263,265905,2,0,L|400:252,1,110,8|2,0:2|0:2,0:0:0:0:
133,245,266121,6,0,B|107:211|68:201|68:201|11:273|84:352,1,220,2|8,1:2|0:2,0:0:0:0:
255,367,266445,1,0,1:2:0:0:
255,367,266553,2,0,P|203:385|150:378,1,110,0|0,1:2|0:0,0:0:0:0:
10,131,266769,2,0,P|62:113|115:120,1,110,8|0,0:2|0:0,0:0:0:0:
237,243,266985,6,0,P|339:253|418:161,1,220,2|8,1:2|0:2,0:0:0:0:
292,39,267308,2,0,L|299:162,1,110,2|0,0:2|0:0,0:0:0:0:
137,97,267524,1,0,1:2:0:0:
137,97,267632,2,0,L|144:220,1,110,8|2,0:2|1:2,0:0:0:0:
444,0,267848,6,0,L|457:239,1,220,2|8,1:2|0:2,0:0:0:0:
343,161,268172,1,0,0:0:0:0:
343,161,268279,2,0,B|324:219|324:219|335:281,1,110,0|0,1:2|0:0,0:0:0:0:
502,381,268495,2,0,B|521:323|521:323|510:261,1,110,8|2,0:2|1:2,0:0:0:0:
175,344,268711,6,0,B|291:299|265:410|428:334,1,220,2|8,1:2|0:2,0:0:0:0:
384,172,269035,1,0,0:0:0:0:
384,172,269143,2,0,P|350:214|330:284,1,110,2|2,1:2|1:2,0:0:0:0:
118,151,269359,2,0,P|152:193|172:263,1,110,8|2,0:2|1:2,0:0:0:0:
284,28,269574,6,0,P|141:61|71:23,1,220,2|8,1:2|0:2,0:0:0:0:
8,188,269898,1,2,1:2:0:0:
8,188,270006,2,0,L|12:78,1,110,2|2,0:2|1:2,0:0:0:0:
244,348,270222,2,0,L|248:238,1,110,8|0,0:2|0:0,0:0:0:0:
408,151,270438,5,14,3:2:0:0:
436,136,270546,1,0,3:2:0:0:
452,164,270654,1,0,3:2:0:0:
423,180,270761,1,14,3:2:0:0:
329,238,270869,5,0,3:2:0:0:
367,225,270977,1,0,3:2:0:0:
434,225,271085,1,14,3:2:0:0:
504,270,271193,1,0,3:2:0:0:
512,358,271301,6,0,P|378:269|326:306,1,220,6|8,1:2|0:2,0:0:0:0:
162,362,271625,1,0,0:0:0:0:
162,362,271733,2,0,P|234:355|284:353,1,110,0|0,1:2|0:0,0:0:0:0:
160,215,271949,5,8,0:2:0:0:
69,226,272056,1,2,1:2:0:0:
5,282,272164,2,0,P|53:75|46:60,1,220,2|8,1:2|0:2,0:0:0:0:
162,362,272488,2,0,P|122:245|129:231,1,110,0|2,0:0|1:2,0:0:0:0:
258,151,272704,1,2,0:2:0:0:
258,151,272812,2,0,L|139:136,1,110,8|2,0:2|0:2,0:0:0:0:
418,106,273028,6,0,B|353:19|200:21,1,220,6|8,1:2|0:2,0:0:0:0:
334,311,273351,1,0,1:2:0:0:
334,311,273459,2,0,P|324:219|326:186,1,110,2|0,0:2|0:0,0:0:0:0:
503,383,273675,2,0,P|513:291|511:258,1,110,8|0,0:2|0:0,0:0:0:0:
236,374,273891,6,0,P|218:210|221:151,1,220,2|2,1:2|1:2,0:0:0:0:
447,46,274215,1,8,0:2:0:0:
447,46,274323,2,0,B|348:-10|331:98|207:17,1,220,2|2,1:2|1:2,0:0:0:0:
389,126,274646,1,8,0:2:0:0:
398,205,274754,6,0,L|412:343,1,110,2|0,1:2|0:0,0:0:0:0:
223,143,274970,2,0,L|235:34,1,110,8|0,0:2|0:0,0:0:0:0:
75,271,275186,2,0,L|63:161,1,110,2|0,1:2|0:0,0:0:0:0:
293,211,275402,6,0,B|247:242|247:242|162:235,1,110,8|0,0:2|1:2,0:0:0:0:
0,105,275618,2,0,B|46:74|46:74|131:81,1,110,2|0,1:2|1:2,0:0:0:0:
147,320,275833,2,0,B|101:351|101:351|16:344,1,110,8|0,0:2|1:2,0:0:0:0:
178,41,276049,6,0,P|213:92|215:150,1,110,2|0,1:2|1:2,0:0:0:0:
372,222,276265,2,0,P|365:275|332:319,1,110,8|0,0:2|0:0,0:0:0:0:
50,223,276481,6,0,B|152:164|171:275|279:218,1,220,2|8,1:2|0:2,0:0:0:0:
108,292,276805,1,2,1:2:0:0:
108,292,276913,2,0,P|13:304|-25:280,1,110,0|2,0:0|1:2,0:0:0:0:
141,133,277128,2,0,P|236:121|274:145,1,110,8|0,0:2|0:0,0:0:0:0:
380,102,277344,5,8,0:2:0:0:
354,138,277452,1,8,0:2:0:0:
360,212,277560,1,8,0:2:0:0:
436,240,277668,2,0,L|435:181,1,41.2500015735627,8|8,0:2|0:2,0:0:0:0:
413,74,277776,5,8,0:2:0:0:
336,42,277884,1,8,0:2:0:0:
240,56,277992,1,8,0:2:0:0:
174,156,278100,1,8,0:2:0:0:
235,285,278208,6,0,P|424:179|449:54,1,330,14|0,0:2|0:2,0:0:0:0:
443,0,278639,1,0,0:2:0:0:
15,121,279071,6,0,P|322:89|445:373,1,660,14|0,0:2|0:2,0:0:0:0:
66,372,279934,6,0,P|126:140|501:126,1,660,14|0,0:2|0:2,0:0:0:0:
496,121,280636,6,0,L|492:173,2,32.99999899292,2|2|2,3:2|3:2|3:2,0:0:0:0:
413,200,281013,5,2,3:2:0:0:
388,211,281121,1,2,3:2:0:0:
302,150,281337,5,2,3:2:0:0:
277,161,281445,1,2,3:2:0:0:
201,245,281661,6,0,L|78:237,1,88,6|0,1:2|0:0,0:0:0:0:
0,85,281877,2,0,L|123:77,1,88,8|0,0:2|0:0,0:0:0:0:
189,0,282092,2,0,P|220:61|214:118,1,88,0|0,1:2|0:0,0:0:0:0:
329,74,282308,2,0,P|325:142|291:188,1,88,8|0,0:2|0:0,0:0:0:0:
302,346,282524,6,0,B|347:331|347:331|423:342,1,88,2|0,1:2|0:0,0:0:0:0:
512,372,282740,2,0,L|504:256,1,88,8|0,0:2|1:2,0:0:0:0:
411,150,282956,2,0,L|403:259,1,88,2|0,2:2|0:0,0:0:0:0:
302,346,283172,2,0,L|294:230,1,88,8|0,0:2|0:0,0:0:0:0:
150,130,283387,6,0,P|84:152|55:197,1,88,2|0,1:2|1:2,0:0:0:0:
17,310,283603,1,8,0:2:0:0:
46,322,283711,1,0,1:2:0:0:
74,332,283819,2,0,L|192:314,1,88,0|0,1:2|1:2,0:0:0:0:
241,218,284035,2,0,L|349:234,1,88,8|0,0:2|0:0,0:0:0:0:
480,365,284251,6,0,L|483:247,1,88,2|0,1:2|0:0,0:0:0:0:
362,158,284467,1,8,0:2:0:0:
362,158,284574,2,0,L|365:278,1,88,0|2,1:2|0:2,0:0:0:0:
355,356,284790,1,2,1:2:0:0:
316,369,284898,2,0,B|269:379|269:379|204:362,1,88,8|2,0:2|1:2,0:0:0:0:
14,184,285114,6,0,P|58:258|51:298,1,88,2|0,1:2|0:0,0:0:0:0:
155,242,285330,2,0,P|156:328|130:359,1,88,8|0,0:2|0:0,0:0:0:0:
310,284,285546,2,0,P|287:231|299:180,1,88,0|0,1:2|0:0,0:0:0:0:
455,304,285761,2,0,P|411:271|394:219,1,88,8|0,0:2|1:2,0:0:0:0:
511,98,285977,6,0,L|407:89,1,88,2|0,1:2|1:2,0:0:0:0:
318,23,286193,2,0,L|208:32,1,88,8|0,2:2|0:0,0:0:0:0:
17,86,286409,2,0,L|121:94,1,88,2|0,1:2|1:2,0:0:0:0:
210,161,286625,2,0,L|320:152,1,88,8|2,2:2|1:2,0:0:0:0:
424,90,286841,6,0,P|404:148|403:200,1,88,2|0,1:2|1:2,0:0:0:0:
490,262,287056,2,0,P|510:320|511:372,1,88,8|0,2:2|1:2,0:0:0:0:
364,240,287272,5,2,1:2:0:0:
331,218,287380,1,0,1:2:0:0:
268,223,287488,1,8,2:2:0:0:
221,278,287596,1,0,0:0:0:0:
247,354,287704,6,0,P|308:302|334:156,1,220,14|2,1:2|1:2,0:0:0:0:
72,29,288028,2,0,P|86:136|162:213,1,220,14|2,1:2|1:2,0:0:0:0:
327,70,288351,2,0,L|177:67,1,110,14|0,1:2|0:0,0:0:0:0:
411,22,288567,6,0,B|424:73|424:73|417:131,1,88,6|0,1:2|0:0,0:0:0:0:
338,188,288783,2,0,B|333:223|333:223|346:274,1,88,8|0,0:2|0:0,0:0:0:0:
425,345,288999,2,0,L|542:330,1,88,2|0,1:2|0:0,0:0:0:0:
511,205,289215,2,0,L|423:216,1,88,8|0,0:2|0:0,0:0:0:0:
293,362,289431,6,0,P|255:291|247:262,1,88,2|0,1:2|0:0,0:0:0:0:
159,323,289646,2,0,P|161:242|169:213,1,88,8|0,0:2|0:0,0:0:0:0:
59,220,289862,2,0,P|101:151|122:130,1,88,2|0,1:2|0:0,0:0:0:0:
14,82,290078,2,0,P|85:44|114:36,1,88,8|2,0:2|1:2,0:0:0:0:
121,175,290294,6,0,P|93:209|73:248,1,88,2|0,1:2|0:0,0:0:0:0:
184,256,290510,2,0,P|178:300|181:344,1,88,8|2,0:2|1:2,0:0:0:0:
319,383,290726,2,0,P|296:347|279:306,1,88,2|0,0:2|0:0,0:0:0:0:
454,350,290941,2,0,P|416:330|381:303,1,88,8|0,0:2|0:0,0:0:0:0:
300,184,291157,6,0,L|394:178,1,88,2|0,1:2|0:0,0:0:0:0:
509,80,291373,1,8,0:2:0:0:
509,80,291481,2,0,L|422:75,1,88,2|0,0:2|0:0,0:0:0:0:
280,14,291697,1,2,1:2:0:0:
280,14,291805,2,0,L|192:19,1,88,8|0,0:2|0:0,0:0:0:0:
202,206,292020,6,0,B|188:120,1,88,2|0,1:2|0:0,0:0:0:0:
78,171,292236,2,0,B|64:85,1,88,8|0,0:2|0:0,0:0:0:0:
3,229,292452,2,0,B|20:334,1,88,2|0,1:2|0:0,0:0:0:0:
127,264,292668,2,0,B|144:369,1,88,8|2,0:2|1:2,0:0:0:0:
261,306,292884,6,0,P|325:302|369:305,1,88,2|0,1:2|0:0,0:0:0:0:
448,368,293100,2,0,P|448:324|445:280,1,88,8|0,0:2|0:0,0:0:0:0:
511,168,293315,2,0,P|447:172|403:169,1,88,2|0,1:2|0:0,0:0:0:0:
324,106,293531,2,0,P|323:149|326:193,1,88,8|0,0:2|1:2,0:0:0:0:
238,67,293747,6,0,P|172:31|120:38,1,88,2|0,1:2|0:0,0:0:0:0:
130,138,293963,2,0,P|65:177|45:225,1,88,8|0,0:2|0:0,0:0:0:0:
137,267,294179,2,0,P|138:342|170:383,1,88,2|0,1:2|0:0,0:0:0:0:
254,309,294395,2,0,P|320:345|372:338,1,88,8|0,0:2|0:0,0:0:0:0:
482,214,294610,5,8,0:2:0:0:
504,242,294718,1,8,0:2:0:0:
510,277,294826,1,8,0:2:0:0:
498,312,294934,2,0,L|427:313,1,44,8|0,0:2|0:0,0:0:0:0:
359,214,295042,5,8,0:2:0:0:
327,226,295150,1,8,0:2:0:0:
277,203,295258,1,8,0:2:0:0:
206,225,295366,1,8,0:2:0:0:
150,170,295474,6,0,B|89:131|4:157|3:212|39:280|131:282|157:196|201:155|250:165|292:185,1,395.999987915039,14|0,0:2|0:2,0:0:0:0:
317,118,296337,2,0,B|380:84|401:-1|353:-29|276:-32|228:46|289:111|304:169|271:207|232:233,1,395.999987915039,14|0,0:2|0:2,0:0:0:0:
278,288,297200,2,0,B|274:359|339:420|387:393|428:328|384:247|297:267|239:251|223:203|220:156,1,395.999987915039,14|0,0:2|0:2,0:0:0:0:
137,41,297956,5,2,3:2:0:0:
109,64,298064,1,2,3:2:0:0:
99,94,298172,1,2,3:2:0:0:
117,139,298279,5,2,3:2:0:0:
94,173,298387,1,2,3:2:0:0:
97,216,298495,1,2,3:2:0:0:
124,252,298603,5,2,3:2:0:0:
139,335,298711,1,2,3:2:0:0:
218,359,298819,1,2,3:2:0:0:
329,313,298927,6,0,L|408:306,1,65.9999979858399,6|0,1:2|0:0,0:0:0:0:
461,216,299143,2,0,P|493:246|506:286,1,65.9999979858399,8|0,0:2|0:0,0:0:0:0:
307,295,299359,6,0,L|392:287,1,65.9999979858399,0|0,1:2|0:0,0:0:0:0:
472,173,299574,2,0,P|502:201|515:240,1,65.9999979858399,8|0,0:2|0:0,0:0:0:0:
366,147,299790,6,0,L|300:152,1,65.9999979858399,2|0,1:2|0:0,0:0:0:0:
166,281,300006,1,8,0:2:0:0:
166,281,300114,2,0,L|193:221,1,65.9999979858399,0|2,1:2|1:2,0:0:0:0:
149,40,300330,1,0,0:0:0:0:
149,40,300438,2,0,L|186:94,1,65.9999979858399,8|0,0:2|0:0,0:0:0:0:
302,258,300654,6,0,L|296:344,1,65.9999979858399,2|0,1:2|0:0,0:0:0:0:
405,200,300869,2,0,P|376:159|353:147,1,65.9999979858399,8|0,0:2|0:0,0:0:0:0:
318,284,301085,6,0,L|311:370,1,65.9999979858399,0|0,1:2|0:0,0:0:0:0:
448,211,301301,2,0,P|409:162|381:147,1,65.9999979858399,8|0,0:2|0:0,0:0:0:0:
214,198,301517,6,0,L|293:191,1,65.9999979858399,2|0,1:2|0:0,0:0:0:0:
174,31,301733,1,8,0:2:0:0:
174,31,301841,2,0,L|140:102,1,65.9999979858399,0|2,1:2|1:2,0:0:0:0:
338,79,302056,1,0,0:0:0:0:
338,79,302164,2,0,L|292:14,1,65.9999979858399,8|0,0:2|0:0,0:0:0:0:
31,33,302380,5,2,1:2:0:0:
24,41,302488,1,0,0:0:0:0:
18,49,302596,2,0,L|110:42,1,65.9999979858399,8|0,0:2|0:0,0:0:0:0:
149,141,302812,1,0,1:2:0:0:
156,149,302920,1,0,0:0:0:0:
161,156,303028,2,0,L|69:149,1,65.9999979858399,8|0,0:2|0:0,0:0:0:0:
144,260,303243,5,2,1:2:0:0:
163,254,303351,1,0,0:0:0:0:
184,253,303459,1,8,0:2:0:0:
201,256,303567,1,0,1:2:0:0:
206,326,303675,5,2,1:2:0:0:
224,297,303783,1,0,0:0:0:0:
246,277,303891,1,8,0:2:0:0:
275,262,303999,1,0,0:0:0:0:
312,331,304107,5,2,1:2:0:0:
319,285,304215,1,0,0:0:0:0:
346,249,304323,1,8,0:2:0:0:
386,232,304431,1,0,0:2:0:0:
468,160,304538,5,0,1:2:0:0:
448,101,304646,1,0,0:0:0:0:
390,35,304754,1,8,0:2:0:0:
287,11,304862,1,0,0:2:0:0:
123,2,304970,6,0,P|124:95|193:185,1,176,14|2,1:2|1:2,0:0:0:0:
418,127,305294,2,0,P|336:81|224:96,1,176,14|2,1:2|1:2,0:0:0:0:
294,286,305618,2,0,L|308:186,1,88,14|0,1:2|0:0,0:0:0:0:
202,269,305833,6,0,L|136:278,1,65.9999979858399,6|0,1:2|0:0,0:0:0:0:
59,201,306049,2,0,P|37:239|30:262,1,65.9999979858399,8|0,0:2|0:0,0:0:0:0:
190,254,306265,6,0,L|124:263,1,65.9999979858399,0|0,1:2|0:0,0:0:0:0:
30,169,306481,2,0,P|3:214|-5:242,1,65.9999979858399,8|0,0:2|0:0,0:0:0:0:
114,73,306697,6,0,P|63:45|33:42,1,65.9999979858399,2|0,1:2|0:0,0:0:0:0:
257,112,306913,1,8,0:2:0:0:
257,112,307020,2,0,P|306:81|324:57,1,65.9999979858399,0|2,1:2|1:2,0:0:0:0:
151,216,307236,1,0,0:0:0:0:
151,216,307344,2,0,P|152:274|164:301,1,65.9999979858399,8|0,0:2|0:0,0:0:0:0:
254,355,307560,6,0,L|343:345,1,65.9999979858399,2|0,1:2|0:0,0:0:0:0:
443,258,307776,2,0,L|487:329,1,65.9999979858399,8|0,0:2|0:0,0:0:0:0:
243,325,307992,6,0,L|326:316,1,65.9999979858399,0|0,1:2|0:0,0:0:0:0:
459,215,308208,2,0,L|509:296,1,65.9999979858399,8|0,0:2|0:0,0:0:0:0:
413,118,308423,5,2,1:2:0:0:
381,140,308531,1,0,0:0:0:0:
357,175,308639,1,8,0:2:0:0:
353,216,308747,1,0,1:2:0:0:
284,131,308855,5,2,1:2:0:0:
259,167,308963,1,0,0:0:0:0:
248,217,309071,1,8,0:2:0:0:
251,262,309179,1,0,0:0:0:0:
290,360,309287,6,0,L|375:355,1,65.9999979858399,2|0,1:2|0:0,0:0:0:0:
163,280,309502,2,0,L|143:368,1,65.9999979858399,8|0,0:2|0:0,0:0:0:0:
296,338,309718,6,0,L|382:332,1,65.9999979858399,0|0,1:2|0:0,0:0:0:0:
137,238,309934,2,0,L|118:320,1,65.9999979858399,8|0,0:2|0:0,0:0:0:0:
361,228,310150,6,0,L|354:149,1,65.9999979858399,2|0,1:2|0:0,0:0:0:0:
437,30,310366,1,8,0:2:0:0:
437,30,310474,2,0,L|432:95,1,65.9999979858399,0|2,1:2|1:2,0:0:0:0:
277,235,310690,1,0,0:0:0:0:
277,235,310797,2,0,L|272:169,1,65.9999979858399,8|0,0:2|0:0,0:0:0:0:
93,58,311013,6,0,L|12:64,1,65.9999979858399,2|0,1:2|0:0,0:0:0:0:
182,151,311229,2,0,L|212:84,1,65.9999979858399,8|0,0:2|0:0,0:0:0:0:
117,16,311445,6,0,L|22:23,1,65.9999979858399,0|0,1:2|0:0,0:0:0:0:
221,124,311661,2,0,L|256:45,1,65.9999979858399,8|0,0:2|1:2,0:0:0:0:
484,106,311877,5,8,1:2:0:0:
506,134,311985,1,8,1:2:0:0:
512,169,312092,1,8,1:2:0:0:
500,204,312200,2,0,L|443:204,1,32.99999899292,8|0,1:2|0:0,0:0:0:0:
374,113,312308,5,8,1:2:0:0:
342,125,312416,1,8,1:2:0:0:
292,102,312524,1,8,1:2:0:0:
221,120,312632,1,8,1:2:0:0:
142,90,312740,6,0,L|76:92,1,65.9999979858399,6|0,1:2|0:0,0:0:0:0:
4,196,312956,2,0,L|69:193,1,65.9999979858399,8|0,0:2|0:0,0:0:0:0:
208,244,313172,5,0,1:2:0:0:
180,278,313279,1,0,0:0:0:0:
176,323,313387,1,8,0:2:0:0:
267,384,313495,5,0,0:0:0:0:
276,345,313603,1,2,1:2:0:0:
263,311,313711,1,0,0:0:0:0:
341,298,313819,6,0,L|334:250,2,43.9999986572266,8|0|0,0:2|0:0|1:2,0:0:0:0:
408,249,314035,2,0,L|413:203,2,43.9999986572266,2|0|0,1:2|0:0|0:0,0:0:0:0:
503,254,314251,5,8,0:2:0:0:
491,233,314359,1,0,0:0:0:0:
488,148,314467,5,2,1:2:0:0:
502,100,314574,1,0,0:0:0:0:
422,66,314682,6,0,L|338:74,1,65.9999979858399,8|0,0:2|0:0,0:0:0:0:
433,35,314898,2,0,L|349:43,1,65.9999979858399,0|0,1:2|0:0,0:0:0:0:
239,56,315114,1,8,0:2:0:0:
243,14,315222,1,0,0:0:0:0:
163,43,315330,6,0,L|171:127,1,65.9999979858399,2|0,1:2|0:0,0:0:0:0:
64,180,315546,1,8,0:2:0:0:
104,182,315654,1,0,1:2:0:0:
114,158,315761,5,2,1:2:0:0:
77,193,315869,1,0,0:0:0:0:
70,241,315977,1,8,0:2:0:0:
87,280,316085,1,0,0:0:0:0:
234,265,316193,5,6,1:2:0:0:
209,244,316301,2,0,L|145:232,1,65.9999979858399,0|8,0:0|0:2,0:0:0:0:
263,338,316517,1,0,0:0:0:0:
319,273,316625,6,0,L|409:267,1,65.9999979858399,0|0,1:2|0:0,0:0:0:0:
456,320,316841,1,8,0:2:0:0:
481,319,316949,1,0,0:0:0:0:
512,219,317056,6,0,B|514:184|514:184|498:147,1,65.9999979858399,2|0,1:2|0:0,0:0:0:0:
407,145,317272,1,8,0:2:0:0:
410,172,317380,1,0,1:2:0:0:
460,86,317488,5,2,1:2:0:0:
394,66,317596,1,0,0:0:0:0:
350,87,317704,1,8,0:2:0:0:
332,118,317812,1,0,0:0:0:0:
295,196,317920,6,0,L|307:272,1,65.9999979858399,2|0,1:2|0:0,0:0:0:0:
373,324,318136,1,8,0:2:0:0:
372,340,318243,1,0,0:0:0:0:
439,272,318351,5,0,1:2:0:0:
373,246,318459,1,0,0:0:0:0:
305,261,318567,2,0,L|252:280,3,32.99999899292,8|0|0|0,0:2|0:0|0:0|0:0,0:0:0:0:
196,366,318783,6,0,L|181:169,1,176,14|2,1:2|1:2,0:0:0:0:
13,0,319107,2,0,L|0:175,1,176,14|2,1:2|1:2,0:0:0:0:
206,96,319431,2,0,L|198:-3,1,88,14|0,1:2|0:0,0:0:0:0:
0,175,319646,6,0,L|80:166,1,65.9999979858399,6|0,1:2|0:0,0:0:0:0:
113,161,319808,2,0,L|110:129,2,32.99999899292
158,175,319970,2,0,L|205:170,1,32.99999899292
306,223,320078,5,0,1:2:0:0:
296,300,320186,1,0,0:2:0:0:
221,315,320294,2,0,P|202:287|193:256,1,65.9999979858399,8|0,0:2|0:0,0:0:0:0:
509,259,320510,6,0,L|429:250,1,65.9999979858399,2|0,1:2|0:0,0:0:0:0:
416,227,320672,2,0,L|378:231,2,32.99999899292,0|0|0,0:0|0:0|0:0,0:0:0:0:
350,259,320833,2,0,L|260:248,1,65.9999979858399,0|0,1:2|0:0,0:0:0:0:
278,362,321049,1,0,0:0:0:0:
278,362,321157,2,0,L|190:360,1,65.9999979858399,8|0,0:2|0:0,0:0:0:0:
38,248,321373,5,2,1:2:0:0:
104,213,321481,1,0,0:0:0:0:
177,236,321589,1,8,0:2:0:0:
130,355,321805,5,0,1:2:0:0:
112,309,321913,1,0,0:0:0:0:
272,170,322128,1,0,0:0:0:0:
290,216,322236,1,2,1:2:0:0:
23,195,322452,1,8,0:2:0:0:
41,149,322560,1,0,1:2:0:0:
87,17,322776,1,0,0:0:0:0:
87,17,322992,1,0,0:0:0:0:
0,119,323100,5,6,1:2:0:0:
41,149,323208,1,0,0:0:0:0:
56,196,323315,1,8,0:2:0:0:
123,148,323423,5,0,0:0:0:0:
138,205,323531,1,0,1:2:0:0:
118,257,323639,1,0,0:0:0:0:
219,165,323747,5,8,0:2:0:0:
229,259,323855,1,0,0:0:0:0:
168,327,323963,1,2,1:2:0:0:
86,362,324071,1,0,0:0:0:0:
171,341,324179,1,8,0:2:0:0:
244,356,324287,1,0,1:2:0:0:
313,319,324395,5,2,1:2:0:0:
372,309,324502,1,0,0:0:0:0:
415,327,324610,1,8,0:2:0:0:
434,354,324718,1,0,0:0:0:0:
441,370,324826,5,2,1:2:0:0:
409,344,324934,1,0,0:0:0:0:
404,304,325042,1,8,0:2:0:0:
414,264,325150,1,0,0:0:0:0:
443,226,325258,6,0,P|452:212|458:196,1,32.99999899292,0|0,1:2|0:0,0:0:0:0:
472,171,325366,2,0,P|469:154|463:139,1,32.99999899292
441,96,325474,2,0,P|431:83|421:71,1,32.99999899292,8|0,0:2|0:0,0:0:0:0:
358,31,325582,2,0,P|342:26|325:23,1,32.99999899292
87,83,325690,5,2,1:2:0:0:
196,76,325797,1,0,0:0:0:0:
290,110,325905,1,8,0:2:0:0:
319,228,326013,6,0,P|301:210|267:194,1,32.99999899292,0|0,1:2|0:0,0:0:0:0:
210,194,326121,1,2,1:2:0:0:
130,227,326229,1,0,0:0:0:0:
98,319,326337,5,8,0:2:0:0:
173,316,326445,1,0,0:0:0:0:
236,356,326553,5,14,1:2:0:0:
412,275,326769,1,0,0:2:0:0:
415,316,326877,1,0,0:2:0:0:
300,200,327092,1,0,0:2:0:0:
297,241,327200,1,0,0:2:0:0:
415,138,327416,5,14,1:2:0:0:
245,75,327632,1,0,0:2:0:0:
315,60,327740,1,0,0:2:0:0:
168,195,327956,1,0,0:2:0:0:
98,180,328064,1,0,0:2:0:0:
307,168,328279,5,4,0:2:0:0:
352,360,328616,5,4,0:2:0:0:
508,222,328953,5,4,0:2:0:0:
309,204,329303,5,4,0:2:0:0:
383,341,329675,5,4,0:2:0:0:
473,204,329938,5,4,0:2:0:0:
404,38,330201,6,0,L|382:19,8,20.6250007867813,0|0|0|0|0|0|0|0|0,0:2|0:2|0:2|0:2|0:2|0:2|0:2|0:2|0:2,0:0:0:0:
256,192,330727,12,0,336517,0:2:0:0:
