osu file format v14

[General]
AudioFilename: audio.mp3
AudioLeadIn: 0
PreviewTime: 213836
Countdown: 0
SampleSet: Soft
StackLeniency: 0.7
Mode: 0
LetterboxInBreaks: 0
WidescreenStoryboard: 1

[Editor]
Bookmarks: 2542,42035,94090,137136,142736,188336,213936,266736,306736,332336,357936
DistanceSpacing: 1.2
BeatDivisor: 8
GridSize: 4
TimelineZoom: 2

[Metadata]
Title:Touhou Jin'you Komachi
TitleUnicode:東方人妖小町
Artist:Diao Ye Zong feat. Meramipop
ArtistUnicode:凋叶棕 feat. めらみぽっぷ
Creator:Hey lululu
Version:lu^3 x Crissa's Komachi
Source:東方永夜抄 ~ Imperishable Night.
Tags:娶 metori C95 video game japanese comiket 95 team shanghai alice RD-Sounds 東方project touhou zun 東方妖怪小町 Jinyou crissa [-Crissaegrim-]
BeatmapID:1919041
BeatmapSetID:919045

[Difficulty]
HPDrainRate:6
CircleSize:4.2
OverallDifficulty:8.4
ApproachRate:9.5
SliderMultiplier:2.8
SliderTickRate:1

[Events]
//Background and Video events
0,0,"reimu.jpg",0,0
//Break Periods
2,137336,142211
2,254136,265611
//Storyboard Layer 0 (Background)
//Storyboard Layer 1 (Fail)
//Storyboard Layer 2 (Pass)
//Storyboard Layer 3 (Foreground)
//Storyboard Sound Samples

[TimingPoints]
2542,759.493670886076,4,2,7,30,1,0
2542,-166.666666666667,4,2,7,30,0,0
26845,-133.333333333333,4,2,7,30,0,0
55706,-200,4,2,7,30,0,0
57225,-200,4,2,7,30,0,0
80010,-200,4,2,7,30,0,0
80769,-166.666666666667,4,2,7,30,0,0
81529,-133.333333333333,4,2,7,30,0,0
90643,810.810810810811,4,2,7,30,1,0
90643,-200,4,2,7,30,0,0
92264,909.090909090909,4,2,7,30,1,0
92264,-400,4,2,7,30,0,0
94090,361.44578313253,4,2,6,50,1,0
94090,-166.666666666667,4,2,6,50,0,0
117222,348.837209302326,4,2,6,50,1,0
117222,-166.666666666667,4,2,6,50,0,0
134315,375,4,2,6,50,1,0
134315,-166.666666666667,4,2,6,50,0,0
135065,400,4,2,6,50,1,0
135065,-166.666666666667,4,2,6,50,0,0
136065,428.571428571429,4,2,6,50,1,0
136065,-166.666666666667,4,2,6,50,0,0
137136,400,4,2,1,70,1,0
142736,-100,4,2,2,50,0,0
143536,-100,4,2,2,70,0,0
149936,-125,4,2,2,60,0,0
165136,-125,4,2,2,70,0,0
167536,-125,4,2,1,50,0,0
168736,-125,4,2,2,65,0,0
184336,-125,4,2,2,70,0,0
186736,-125,4,2,1,50,0,0
187936,-83.3333333333333,4,2,1,50,0,0
188336,-142.857142857143,4,2,4,65,0,0
201136,-100,4,2,4,65,0,0
213336,-100,4,2,3,70,0,0
213936,-83.3333333333333,4,2,1,70,0,1
226536,-83.3333333333333,4,2,1,70,0,0
226736,-83.3333333333333,4,2,3,70,0,1
239536,-125,4,2,5,60,0,0
244336,-200,4,2,5,60,0,0
244636,-142.857142857143,4,2,5,60,0,0
244936,-111.111111111111,4,2,5,60,0,0
245236,-90.9090909090909,4,2,5,60,0,0
245936,-125,4,2,5,60,0,0
250736,-200,4,2,5,60,0,0
251036,-142.857142857143,4,2,5,60,0,0
251336,-111.111111111111,4,2,5,60,0,0
251636,-90.9090909090909,4,2,5,60,0,0
252336,-166.666666666667,4,2,5,50,0,0
253936,-166.666666666667,4,2,5,40,0,0
266736,-111.111111111111,4,2,5,50,0,0
278736,-111.111111111111,4,2,1,60,0,0
279536,-83.3333333333333,4,2,1,70,0,1
291136,-66.6666666666667,4,2,1,70,0,1
293936,-62.5,4,2,1,70,0,1
294736,-66.6666666666667,4,2,1,70,0,1
302136,-83.3333333333333,4,2,1,70,0,1
302736,-66.6666666666667,4,2,1,70,0,1
304336,-66.6666666666667,4,2,1,70,0,0
305136,-125,4,2,1,70,0,0
306736,-142.857142857143,4,2,4,65,0,0
319536,-100,4,2,4,65,0,0
331736,-100,4,2,3,70,0,0
332336,-83.3333333333333,4,2,1,70,0,1
344936,-83.3333333333333,4,2,1,70,0,0
345136,-83.3333333333333,4,2,3,70,0,1
345286,-83.3333333333333,4,2,3,5,0,1
345336,-83.3333333333333,4,2,3,70,0,1
345686,-83.3333333333333,4,2,3,5,0,1
345736,-83.3333333333333,4,2,3,70,0,1
346886,-83.3333333333333,4,2,3,5,0,1
346936,-83.3333333333333,4,2,3,70,0,1
347286,-83.3333333333333,4,2,3,5,0,1
347336,-83.3333333333333,4,2,3,70,0,1
351686,-83.3333333333333,4,2,3,5,0,1
351736,-83.3333333333333,4,2,3,70,0,1
352086,-83.3333333333333,4,2,3,5,0,1
352136,-83.3333333333333,4,2,3,70,0,1
352486,-83.3333333333333,4,2,3,5,0,1
352536,-83.3333333333333,4,2,3,70,0,1
352886,-83.3333333333333,4,2,3,5,0,1
352936,-83.3333333333333,4,2,3,70,0,1
353286,-83.3333333333333,4,2,3,5,0,1
353336,-83.3333333333333,4,2,3,70,0,1
353686,-83.3333333333333,4,2,3,5,0,1
353736,-83.3333333333333,4,2,3,70,0,1
356336,-66.6666666666667,4,2,3,70,0,1
356586,-66.6666666666667,4,2,3,5,0,1
356636,-66.6666666666667,4,2,3,70,0,1
356886,-66.6666666666667,4,2,3,5,0,1
356936,-66.6666666666667,4,2,3,70,0,1
357936,-83.3333333333333,4,2,3,70,0,1
358086,-83.3333333333333,4,2,3,5,0,1
358136,-83.3333333333333,4,2,3,70,0,1
358486,-83.3333333333333,4,2,3,5,0,1
358536,-83.3333333333333,4,2,3,70,0,1
359686,-83.3333333333333,4,2,3,5,0,1
359736,-83.3333333333333,4,2,3,70,0,1
360086,-83.3333333333333,4,2,3,5,0,1
360136,-83.3333333333333,4,2,3,70,0,1
364486,-83.3333333333333,4,2,3,5,0,1
364536,-83.3333333333333,4,2,3,70,0,1
364886,-83.3333333333333,4,2,3,5,0,1
364936,-83.3333333333333,4,2,3,70,0,1
366086,-83.3333333333333,4,2,3,5,0,1
366136,-83.3333333333333,4,2,3,70,0,1
366486,-83.3333333333333,4,2,3,5,0,1
366536,-83.3333333333333,4,2,3,70,0,1
370336,-66.6666666666667,4,2,3,70,0,1
370736,-83.3333333333333,4,2,3,70,0,0
383136,-66.6666666666667,4,2,3,70,0,0
383536,413.793103448276,4,2,7,70,1,0
384363,387.096774193548,4,2,7,70,1,0
385137,416.666666666667,4,2,7,70,1,0
385553,433.212996389892,4,2,7,20,1,0
388157,454.545454545455,4,2,7,20,1,0
388611,451.127819548872,4,2,7,20,1,0
390866,740.740740740741,4,2,7,20,1,0
391606,750,4,2,7,20,1,0
393856,759.493670886076,4,2,7,20,1,0
394616,750,4,2,7,20,1,0
394616,-200,4,2,7,20,0,0
406616,1111.11111111111,4,2,7,20,1,0
407727,1132.07547169811,4,2,7,20,1,0
408859,745.341614906832,4,2,7,20,1,0
409602,1250,4,2,7,20,1,0
410852,1526.71755725191,4,2,7,20,1,0
412378,1395.3488372093,4,2,7,20,1,0
413773,731.707317073171,4,2,7,10,1,0
416699,-100,4,2,7,5,0,0

[Colours]
Combo1 : 255,207,106
Combo2 : 255,128,131
Combo3 : 208,143,218
Combo4 : 211,167,150

[HitObjects]
362,178,2542,6,0,P|312:175|276:165,1,83.9999974365235,2|0,0:0|0:0,0:0:0:0:
421,248,3301,1,2,0:0:0:0:
296,294,3681,1,0,0:0:0:0:
453,346,4060,2,0,P|408:355|362:380,2,83.9999974365235,2|0|2,0:0|0:0|0:0,0:0:0:0:
512,194,5200,1,2,0:0:0:0:
320,242,5579,6,0,P|314:191|303:152,1,83.9999974365235,2|0,0:0|0:0,0:0:0:0:
188,308,6339,1,0,0:0:0:0:
181,207,6719,1,0,0:0:0:0:
174,106,7098,1,2,0:0:0:0:
160,112,7478,1,0,0:0:0:0:
122,120,7858,1,2,0:0:0:0:
43,89,8238,1,2,0:0:0:0:
81,266,8617,6,0,P|86:220|104:181,1,83.9999974365235,2|0,0:0|0:0,0:0:0:0:
182,355,9377,1,2,0:0:0:0:
279,344,9757,1,0,0:0:0:0:
411,241,10136,1,2,0:0:0:0:
298,225,10516,1,0,0:0:0:0:
173,98,10896,1,2,0:0:0:0:
357,69,11276,1,2,0:0:0:0:
273,245,11655,6,0,P|270:203|255:152,1,83.9999974365235,2|0,0:0|0:0,0:0:0:0:
238,323,12415,1,2,0:0:0:0:
136,310,12795,1,0,0:0:0:0:
38,167,13174,1,2,0:0:0:0:
160,151,13554,1,0,0:0:0:0:
264,337,13934,1,2,0:0:0:0:
422,316,14314,1,2,0:0:0:0:
330,173,14693,6,0,L|325:271,1,83.9999974365235,2|0,0:0|0:0,0:0:0:0:
436,133,15453,2,0,L|441:231,1,83.9999974365235,0|0,0:0|0:0,0:0:0:0:
309,94,16212,2,0,L|303:196,2,83.9999974365235,2|0|2,0:0|0:0|0:0,0:0:0:0:
298,272,17352,1,2,0:0:0:0:
190,134,17731,6,0,L|101:141,1,83.9999974365235,2|0,0:0|0:0,0:0:0:0:
221,266,18491,2,0,L|132:259,1,83.9999974365235,0|0,0:0|0:0,0:0:0:0:
258,101,19250,2,0,L|169:108,2,83.9999974365235,2|0|2,0:0|0:0|0:0,0:0:0:0:
76,117,20390,1,2,0:0:0:0:
88,327,20769,5,2,0:0:0:0:
103,333,21149,1,0,0:0:0:0:
130,338,21529,1,2,0:0:0:0:
168,333,21909,1,0,0:0:0:0:
264,246,22288,5,2,0:0:0:0:
285,334,22668,1,0,0:0:0:0:
382,173,23048,1,2,0:0:0:0:
421,356,23428,1,2,0:0:0:0:
497,111,23807,6,0,L|407:100,2,83.9999974365235,2|0|2,0:0|0:0|0:0,0:0:0:0:
497,111,24947,1,0,0:0:0:0:
411,205,25326,1,2,0:0:0:0:
323,160,25706,1,0,0:0:0:0:
214,262,26086,5,2,0:0:0:0:
169,77,26466,1,2,0:0:0:0:
6,236,26845,6,0,B|112:249,1,105.000004005432,2|0,0:0|0:0,0:0:0:0:
266,206,27605,1,2,0:0:0:0:
107,155,27985,1,2,0:0:0:0:
296,91,28364,6,0,L|290:203,2,105.000004005432,2|0|2,0:0|0:0|0:0,0:0:0:0:
284,280,29504,1,2,0:0:0:0:
433,157,29883,2,0,L|443:285,1,105.000004005432,2|0,0:0|0:0,0:0:0:0:
448,355,30453,1,0,0:0:0:0:
345,278,30643,1,2,0:0:0:0:
322,296,30833,1,0,0:0:0:0:
244,294,31023,1,2,0:0:0:0:
193,112,31402,6,0,L|309:107,2,105.000004005432,2|0|2,0:0|0:0|0:0,0:0:0:0:
382,104,32542,1,2,0:0:0:0:
212,233,32921,6,0,P|266:240|312:264,2,105.000004005432,2|0|2,0:0|0:0|0:0,0:0:0:0:
366,323,34060,1,2,0:0:0:0:
127,310,34440,2,0,P|100:257|92:203,1,105.000004005432,2|0,0:0|0:0,0:0:0:0:
193,361,35200,1,2,0:0:0:0:
298,200,35579,1,2,0:0:0:0:
116,124,35959,6,0,P|169:121|230:104,1,105.000004005432,2|0,0:0|0:0,0:0:0:0:
302,59,36529,1,0,0:0:0:0:
360,111,36719,2,0,L|353:179,1,52.5000020027161,2|0,0:0|0:0,0:0:0:0:
302,270,37098,2,0,L|295:202,1,52.5000020027161,2|0,0:0|0:0,0:0:0:0:
455,120,37478,1,2,0:0:0:0:
463,247,37858,1,0,0:0:0:0:
471,374,38238,1,2,0:0:0:0:
459,168,38617,1,2,0:0:0:0:
199,260,38997,6,0,B|276:291|277:229|353:260,1,157.500006008148,2|0,0:0|0:0,0:0:0:0:
428,253,39757,2,0,P|365:248|322:227,1,105.000004005432,2|0,0:0|0:0,0:0:0:0:
512,223,40516,1,2,0:0:0:0:
389,13,42035,6,0,P|349:49|322:121,1,105.000004005432,2|0,0:0|0:0,0:0:0:0:
323,197,42795,1,2,0:0:0:0:
323,197,43174,1,2,0:0:0:0:
166,68,43554,2,0,P|206:104|233:176,1,105.000004005432,2|0,0:0|0:0,0:0:0:0:
232,252,44314,1,2,0:0:0:0:
232,252,44693,1,2,0:0:0:0:
149,163,45073,6,0,L|94:174,1,52.5000020027161,2|0,0:0|0:0,0:0:0:0:
14,191,45453,2,0,L|10:246,1,52.5000020027161,0|0,0:0|0:0,0:0:0:0:
4,325,45833,2,0,L|57:342,1,52.5000020027161,2|0,0:0|0:0,0:0:0:0:
142,367,46212,2,0,L|173:320,1,52.5000020027161,2|0,0:0|0:0,0:0:0:0:
237,227,46592,6,0,L|252:363,1,105.000004005432,2|0,0:0|0:0,0:0:0:0:
160,58,47352,2,0,L|145:194,1,105.000004005432,2|2,0:0|0:0,0:0:0:0:
367,134,48111,6,0,P|317:145|245:125,1,105.000004005432,2|0,0:0|0:0,0:0:0:0:
232,17,48871,1,2,0:0:0:0:
232,17,49250,1,2,0:0:0:0:
133,215,49630,2,0,P|183:226|255:206,1,105.000004005432,2|0,0:0|0:0,0:0:0:0:
268,98,50390,1,2,0:0:0:0:
268,98,50769,1,2,0:0:0:0:
397,80,51149,6,0,P|448:102|480:184,1,105.000004005432,2|0,0:0|0:0,0:0:0:0:
431,233,51719,1,0,0:0:0:0:
431,233,51909,2,0,L|418:359,1,105.000004005432,2|2,0:0|0:0,0:0:0:0:
325,243,52668,2,0,P|266:222|204:231,2,105.000004005432,2|0|2,0:0|0:0|0:0,0:0:0:0:
420,337,53807,1,2,0:0:0:0:
310,357,54187,6,0,B|250:395|187:363|231:329|160:297|107:338,1,210.000008010865,2|2,0:0|0:0,0:0:0:0:
119,329,55326,1,0,0:0:0:0:
68,165,55706,6,0,P|106:187|20:225,1,210,2|0,0:0|0:0,0:0:0:0:
82,96,57225,6,0,P|131:113|162:144,1,70,2|0,0:0|0:0,0:0:0:0:
197,46,57985,2,0,P|246:29|277:-2,1,70,0|0,0:0|0:0,0:0:0:0:
360,0,58744,1,2,0:0:0:0:
336,109,59124,1,0,0:0:0:0:
447,158,59504,1,0,0:0:0:0:
354,317,59883,5,2,0:0:0:0:
435,70,60263,1,2,0:0:0:0:
309,148,60643,2,0,L|316:209,1,35,0|0,0:0|0:0,0:0:0:0:
393,237,61023,2,0,P|426:244|461:238,1,70,0|0,0:0|0:0,0:0:0:0:
354,317,61782,6,0,L|260:309,1,70,2|0,0:0|0:0,0:0:0:0:
151,340,62542,2,0,P|190:309|207:280,1,70,2|0,0:0|0:0,0:0:0:0:
192,193,63301,1,2,0:0:0:0:
256,192,63491,12,0,68997,0:0:0:0:
156,49,69377,6,0,P|121:72|81:84,1,70,2|0,0:0|0:0,0:0:0:0:
189,131,70136,2,0,P|224:154|264:166,1,70,0|0,0:0|0:0,0:0:0:0:
107,187,70896,2,0,L|125:336,1,140,2|2,0:0|0:0,0:0:0:0:
123,325,72035,1,2,0:0:0:0:
203,266,72415,6,0,P|244:276|279:306,1,70,2|0,0:0|0:0,0:0:0:0:
429,328,73174,2,0,P|354:342|297:384,1,140,0|2,0:0|0:0,0:0:0:0:
302,377,74314,1,2,0:0:0:0:
339,260,74693,2,0,P|341:221|336:171,1,70,0|0,0:0|0:0,0:0:0:0:
284,102,75453,1,2,0:0:0:0:
256,192,75643,12,2,79250,0:0:0:0:
155,308,80010,6,0,P|189:287|208:253,1,70,2|2,0:0|0:0,0:0:0:0:
308,226,80769,6,0,P|267:200|244:160,1,83.9999974365235,2|2,0:0|0:0,0:0:0:0:
198,57,81529,5,2,0:0:0:0:
206,36,82288,1,2,0:0:0:0:
226,45,83048,1,2,0:0:0:0:
218,66,83807,1,2,0:0:0:0:
116,138,84567,6,0,P|57:156|-1:147,1,105.000004005432,2|0,0:0|0:0,0:0:0:0:
134,240,85326,2,0,P|186:237|235:254,1,105.000004005432,2|0,0:0|0:0,0:0:0:0:
337,361,86086,2,0,L|321:247,1,105.000004005432,2|0,0:0|0:0,0:0:0:0:
512,202,86845,2,0,P|497:255|396:269,1,157.500006008148,2|0,0:0|0:0,0:0:0:0:
366,181,87605,5,2,0:0:0:0:
358,139,88364,1,2,0:0:0:0:
471,65,89124,1,2,0:0:0:0:
479,23,89883,1,2,0:0:0:0:
306,1,90643,6,0,L|318:80,1,70,2|0,0:0|0:0,0:0:0:0:
197,110,91453,2,0,L|185:189,1,70,2|0,0:0|0:0,0:0:0:0:
321,240,92264,6,0,L|332:321,1,70,2|2,0:0|0:0,0:0:0:0:
127,239,94090,5,14,0:0:0:0:
294,268,94451,2,0,L|191:280,1,83.9999974365235,2|0,0:0|0:0,0:0:0:0:
392,263,94812,1,0,0:0:0:0:
392,263,94993,1,2,0:0:0:0:
392,263,95174,2,0,P|394:219|409:168,1,83.9999974365235,2|0,0:0|0:0,0:0:0:0:
423,351,95535,5,14,0:0:0:0:
293,264,95716,2,0,B|268:242|240:237|240:237|183:248|153:297,1,167.999994873047,2|2,0:0|0:0,0:0:0:0:
247,373,96258,1,2,0:0:0:0:
247,373,96439,1,0,0:0:0:0:
247,373,96620,2,0,L|330:366,1,83.9999974365235,2|0,0:0|0:0,0:0:0:0:
147,380,96981,5,14,0:0:0:0:
27,270,97343,2,0,P|71:265|113:254,1,83.9999974365235,2|0,0:0|0:0,0:0:0:0:
187,118,97704,1,0,0:0:0:0:
187,118,97885,1,2,0:0:0:0:
187,118,98065,2,0,P|185:167|177:203,1,83.9999974365235,2|0,0:0|0:0,0:0:0:0:
155,24,98427,5,14,0:0:0:0:
285,137,98608,2,0,B|338:157|392:148|392:148|415:128|424:90,1,167.999994873047,2|0,0:0|0:0,0:0:0:0:
325,12,99150,1,2,0:0:0:0:
325,12,99330,2,0,L|272:20,3,27.9999991455078,0|0|0|2,0:0|0:0|0:0|3:2,0:0:0:0:
197,32,99692,1,0,0:0:0:0:
283,211,99873,5,14,0:0:0:0:
144,289,100234,2,0,L|230:294,1,83.9999974365235,2|0,0:0|0:0,0:0:0:0:
51,291,100596,1,0,0:0:0:0:
51,291,100776,1,2,0:0:0:0:
51,291,100957,2,0,P|45:249|32:206,1,83.9999974365235,2|0,0:0|0:0,0:0:0:0:
35,380,101318,5,14,0:0:0:0:
188,381,101499,2,0,B|227:344|228:272|228:272|197:222,1,167.999994873047,2|2,0:0|0:0,0:0:0:0:
87,283,102041,1,2,0:0:0:0:
87,283,102222,1,0,0:0:0:0:
87,283,102403,2,0,L|97:373,1,83.9999974365235,2|0,0:0|0:0,0:0:0:0:
76,194,102764,5,14,0:0:0:0:
250,162,103126,2,0,L|152:154,1,83.9999974365235,2|0,0:0|0:0,0:0:0:0:
345,177,103487,1,0,0:0:0:0:
345,177,103668,1,2,0:0:0:0:
345,177,103849,2,0,P|352:132|368:88,1,83.9999974365235,2|0,0:0|0:0,0:0:0:0:
363,269,104210,5,14,0:0:0:0:
210,194,104391,2,0,B|175:224|175:224|160:290|205:341,1,167.999994873047,2|0,0:0|0:0,0:0:0:0:
289,262,104933,1,2,0:0:0:0:
289,262,105114,1,0,0:0:0:0:
289,262,105294,2,0,L|296:356,1,83.9999974365235,2|0,3:2|0:0,0:0:0:0:
284,172,105656,6,0,B|219:148|218:194|152:164,1,125.999996154785,14|0,0:0|0:0,0:0:0:0:
116,110,106017,2,0,L|132:204,1,83.9999974365235,2|0,0:0|0:0,0:0:0:0:
108,24,106379,1,0,0:0:0:0:
108,24,106559,1,2,0:0:0:0:
108,24,106740,1,2,0:0:0:0:
139,284,107102,5,14,0:0:0:0:
225,154,107282,2,0,B|257:138|287:133|287:133|344:147|378:206,1,167.999994873047,2|2,0:0|0:0,0:0:0:0:
267,256,107824,1,2,0:0:0:0:
267,256,108005,1,0,0:0:0:0:
267,256,108186,1,2,0:0:0:0:
348,302,108367,1,0,0:0:0:0:
192,328,108547,6,0,P|178:275|158:243,1,83.9999974365235,14|0,0:0|0:0,0:0:0:0:
271,169,108909,2,0,P|285:116|305:84,1,83.9999974365235,2|0,0:0|0:0,0:0:0:0:
143,68,109270,1,0,0:0:0:0:
143,68,109451,1,2,0:0:0:0:
143,68,109632,2,0,P|162:105|171:145,1,83.9999974365235,2|0,0:0|0:0,0:0:0:0:
74,5,109993,5,14,0:0:0:0:
1,109,110174,2,0,B|34:106|61:117|61:117|100:162|98:232,1,167.999994873047,2|0,0:0|0:0,0:0:0:0:
19,288,110716,2,0,L|0:202,1,83.9999974365235,2|0,0:0|0:0,0:0:0:0:
37,370,111077,1,2,3:2:0:0:
285,302,111439,5,14,0:0:0:0:
236,111,111800,2,0,L|228:213,1,83.9999974365235,2|0,0:0|0:0,0:0:0:0:
250,28,112162,1,0,0:0:0:0:
250,28,112343,1,2,0:0:0:0:
250,28,112523,1,2,0:0:0:0:
49,181,112885,5,14,0:0:0:0:
195,265,113065,2,0,L|103:254,1,83.9999974365235,2|0,0:0|0:0,0:0:0:0:
294,278,113427,1,2,0:0:0:0:
258,188,113608,1,2,0:0:0:0:
179,346,113969,5,2,0:0:0:0:
179,346,114150,1,0,0:0:0:0:
179,346,114330,2,0,B|155:284|204:286|177:220,1,125.999996154785,14|0,0:0|0:0,0:0:0:0:
101,197,114692,2,0,P|147:200|192:185,1,83.9999974365235,2|0,0:0|0:0,0:0:0:0:
284,105,115053,1,0,0:0:0:0:
284,105,115234,1,2,0:0:0:0:
284,105,115415,1,2,0:0:0:0:
364,346,115776,5,14,0:0:0:0:
412,177,115957,2,0,L|424:292,1,83.9999974365235,2|0,0:0|0:0,0:0:0:0:
404,86,116318,1,2,0:0:0:0:
327,141,116499,1,2,0:0:0:0:
364,346,116861,1,2,0:0:0:0:
50,252,117222,5,14,0:0:0:0:
225,219,117570,2,0,P|149:212|131:192,1,83.9999974365235,2|0,0:0|0:0,0:0:0:0:
195,143,117919,1,0,0:0:0:0:
203,128,118093,1,2,0:0:0:0:
242,100,118268,1,2,0:0:0:0:
334,82,118442,1,0,0:0:0:0:
445,153,118617,5,14,0:0:0:0:
364,271,118791,2,0,P|356:227|339:190,1,83.9999974365235,2|0,0:0|0:0,0:0:0:0:
338,367,119140,1,2,0:0:0:0:
267,296,119315,1,2,0:0:0:0:
250,299,119489,1,0,0:0:0:0:
180,361,119663,1,2,0:0:0:0:
163,358,119838,1,0,0:0:0:0:
66,240,120012,5,14,0:0:0:0:
246,180,120361,2,0,P|202:193|150:167,1,83.9999974365235,2|0,0:0|0:0,0:0:0:0:
206,111,120710,1,0,0:0:0:0:
219,101,120884,1,2,0:0:0:0:
263,87,121059,1,2,0:0:0:0:
354,120,121233,1,0,0:0:0:0:
456,41,121408,5,14,0:0:0:0:
461,224,121582,2,0,L|451:136,1,83.9999974365235,2|0,0:0|0:0,0:0:0:0:
470,304,121931,1,2,0:0:0:0:
367,271,122105,1,2,0:0:0:0:
276,335,122280,2,0,L|269:376,3,27.9999991455078,0|0|0|2,0:0|0:0|0:0|3:2,0:0:0:0:
300,201,122628,1,0,0:0:0:0:
181,86,122803,5,14,0:0:0:0:
72,227,123152,2,0,P|63:172|97:124,1,83.9999974365235,2|0,0:0|0:0,0:0:0:0:
144,189,123501,1,0,0:0:0:0:
158,197,123675,1,2,0:0:0:0:
205,210,123849,1,2,0:0:0:0:
304,182,124024,1,0,0:0:0:0:
370,69,124198,5,14,0:0:0:0:
476,162,124373,2,0,L|393:158,1,83.9999974365235,2|0,0:0|0:0,0:0:0:0:
512,255,124722,1,2,0:0:0:0:
342,336,124896,1,2,0:0:0:0:
325,332,125070,1,0,0:0:0:0:
238,200,125245,1,2,0:0:0:0:
221,204,125419,1,0,0:0:0:0:
92,339,125594,5,14,0:0:0:0:
22,181,125942,2,0,P|66:184|111:157,1,83.9999974365235,2|0,0:0|0:0,0:0:0:0:
50,103,126291,1,0,0:0:0:0:
51,86,126466,1,2,0:0:0:0:
69,36,126640,1,2,0:0:0:0:
156,1,126815,1,0,0:0:0:0:
281,49,126989,5,14,0:0:0:0:
198,176,127163,2,0,L|190:93,1,83.9999974365235,2|0,0:0|0:0,0:0:0:0:
208,256,127512,1,2,0:0:0:0:
315,181,127687,1,2,0:0:0:0:
331,178,127861,1,0,0:0:0:0:
418,278,128035,1,2,3:2:0:0:
434,281,128209,1,0,0:0:0:0:
499,104,128384,6,0,B|420:69|416:124|336:85,1,167.999994873047,14|2,0:0|0:0,0:0:0:0:
335,84,128908,1,0,0:0:0:0:
202,229,129082,2,0,P|183:178|161:143,1,83.9999974365235,0|2,0:0|0:0,0:0:0:0:
258,90,129431,2,0,P|277:39|299:4,1,83.9999974365235,2|0,0:0|0:0,0:0:0:0:
305,190,129780,5,14,0:0:0:0:
173,248,129954,2,0,P|229:254|295:345,1,167.999994873047,2|2,0:0|0:0,0:0:0:0:
190,353,130477,1,2,0:0:0:0:
159,149,130826,2,0,P|218:149|256:160,1,83.9999974365235,2|0,0:0|0:0,0:0:0:0:
404,252,131175,5,14,0:0:0:0:
448,98,131524,2,0,L|457:193,1,83.9999974365235,2|0,0:0|0:0,0:0:0:0:
437,14,131873,1,0,0:0:0:0:
357,87,132047,1,2,0:0:0:0:
258,45,132222,1,2,0:0:0:0:
298,324,132570,5,14,0:0:0:0:
305,227,132745,2,0,P|361:248|391:350,1,167.999994873047,2|2,0:0|0:0,0:0:0:0:
270,346,133268,1,2,0:0:0:0:
197,235,133617,1,6,0:0:0:0:
316,88,133966,5,14,0:0:0:0:
150,64,134315,2,0,L|254:59,1,83.9999974365235,2|0,0:0|0:0,0:0:0:0:
65,71,134690,1,2,0:0:0:0:
113,142,134877,1,2,0:0:0:0:
73,217,135065,1,2,0:0:0:0:
323,296,135465,5,10,0:3:0:0:
299,210,135665,2,0,P|248:250|251:349,1,167.999994873047,2|2,0:0|0:0,0:0:0:0:
360,310,136279,1,2,0:0:0:0:
397,91,136707,1,2,0:0:0:0:
379,201,137136,5,0,0:0:0:0:
317,278,142736,5,0,0:0:0:0:
480,265,142936,1,0,0:0:0:0:
240,319,143136,1,0,0:0:0:0:
229,285,143236,1,0,0:0:0:0:
232,251,143336,1,0,0:0:0:0:
373,129,143536,6,0,P|337:144|295:144,1,70,14|0,0:0|0:0,0:0:0:0:
192,70,143736,1,0,0:0:0:0:
187,35,143836,1,0,0:0:0:0:
183,0,143936,1,0,0:0:0:0:
98,149,144136,1,0,0:0:0:0:
94,183,144236,1,0,0:0:0:0:
90,218,144336,6,0,L|18:208,1,70,2|0,0:0|0:0,0:0:0:0:
100,350,144536,2,0,L|172:340,1,70,2|0,0:0|0:0,0:0:0:0:
306,244,144736,1,0,0:0:0:0:
339,254,144836,1,0,0:0:0:0:
365,276,144936,1,0,0:0:0:0:
381,307,145036,1,0,0:0:0:0:
384,342,145136,6,0,P|393:309|412:271,1,70,8|0,0:0|0:0,0:0:0:0:
512,152,145336,1,0,0:0:0:0:
477,157,145436,1,0,0:0:0:0:
442,162,145536,1,0,0:0:0:0:
324,21,145736,1,2,0:0:0:0:
358,26,145836,1,2,0:0:0:0:
393,31,145936,6,0,L|404:105,1,70,2|0,0:0|0:0,0:0:0:0:
306,244,146136,2,0,L|316:174,1,70,2|0,0:0|0:0,0:0:0:0:
218,41,146336,1,0,0:0:0:0:
218,41,146436,1,0,0:0:0:0:
218,41,146536,1,0,0:0:0:0:
218,41,146636,1,0,0:0:0:0:
218,41,146736,6,0,P|185:53|133:50,1,70,10|0,0:0|0:0,0:0:0:0:
176,200,146936,1,0,0:0:0:0:
144,185,147036,1,0,0:0:0:0:
119,161,147136,1,0,0:0:0:0:
39,277,147336,1,0,0:0:0:0:
27,244,147436,1,0,0:0:0:0:
26,209,147536,6,0,P|22:247|8:306,1,70,2|0,0:0|0:0,0:0:0:0:
145,377,147736,2,0,P|136:343|133:307,1,70,2|0,0:0|0:0,0:0:0:0:
225,204,147936,1,0,0:0:0:0:
259,199,148036,1,0,0:0:0:0:
294,195,148136,1,0,0:0:0:0:
329,190,148236,1,0,0:0:0:0:
363,186,148336,6,0,P|376:152|376:113,1,70,8|0,0:0|0:0,0:0:0:0:
441,34,148536,1,0,0:0:0:0:
412,14,148636,1,0,0:0:0:0:
378,5,148736,1,0,0:0:0:0:
449,130,148936,1,2,0:0:0:0:
483,121,149036,1,2,0:0:0:0:
512,101,149136,6,0,L|501:186,1,70,2|0,0:0|0:0,0:0:0:0:
452,334,149336,2,0,L|443:264,1,70,2|0,0:0|0:0,0:0:0:0:
326,302,149536,1,0,0:0:0:0:
326,302,149636,1,0,0:0:0:0:
326,302,149736,1,0,0:0:0:0:
326,302,149836,1,0,0:0:0:0:
326,302,149936,6,0,P|268:299|203:321,1,112,6|0,0:0|0:0,0:0:0:0:
133,186,150336,2,0,P|186:201|242:197,1,112,0|0,0:0|0:0,0:0:0:0:
301,313,150736,6,0,P|271:311|238:322,1,56,2|0,0:0|0:0,0:0:0:0:
161,175,150936,2,0,P|187:182|215:180,1,56,2|0,0:0|0:0,0:0:0:0:
340,44,151136,2,0,P|282:47|217:25,1,112,0|0,0:0|0:0,0:0:0:0:
81,0,151536,6,0,P|126:22|139:94,1,112,2|0,0:0|0:0,0:0:0:0:
215,180,151936,2,0,P|205:229|139:260,1,112,0|0,0:0|0:0,0:0:0:0:
68,109,152336,6,0,P|116:142|150:221,1,112,2|0,0:0|0:0,0:0:0:0:
69,278,152636,2,0,P|38:278|-1:288,2,56,2|0|0,0:0|0:0|0:0,0:0:0:0:
154,351,152936,2,0,L|232:339,1,56,2|0,0:0|0:0,0:0:0:0:
293,234,153136,6,0,B|333:259|333:259|352:361,1,112,2|0,0:0|0:0,0:0:0:0:
475,349,153536,2,0,B|435:324|435:324|416:222,1,112,0|0,0:0|0:0,0:0:0:0:
302,255,153936,6,0,B|324:269|324:269|335:326,1,56,2|0,0:0|0:0,0:0:0:0:
467,330,154136,2,0,B|444:315|444:315|433:258,1,56,2|0,0:0|0:0,0:0:0:0:
441,84,154336,2,0,B|481:109|481:109|500:211,1,112,0|0,0:0|0:0,0:0:0:0:
382,274,154736,5,2,0:0:0:0:
407,171,154936,1,0,0:0:0:0:
294,7,155136,1,0,0:0:0:0:
319,110,155336,1,0,0:0:0:0:
484,32,155536,6,0,P|427:28|371:47,1,112,2|0,0:0|0:0,0:0:0:0:
199,124,155836,2,0,P|185:99|165:14,1,112,2|0,0:0|0:0,0:0:0:0:
300,199,156136,2,0,L|286:273,1,56,2|0,0:0|0:0,0:0:0:0:
190,363,156336,6,0,P|155:314|161:241,1,112,2|0,0:0|0:0,0:0:0:0:
25,270,156736,2,0,P|60:221|54:148,1,112,0|0,0:0|0:0,0:0:0:0:
186,333,157136,6,0,P|166:305|169:263,1,56,2|0,0:0|0:0,0:0:0:0:
30,243,157336,2,0,P|49:215|46:173,1,56,2|0,0:0|0:0,0:0:0:0:
173,31,157536,2,0,P|138:80|144:153,1,112,0|0,0:0|0:0,0:0:0:0:
314,161,157936,6,0,B|312:141|296:125|296:125|260:126|183:99,1,112,2|0,0:0|0:0,0:0:0:0:
367,263,158336,2,0,B|369:243|385:227|385:227|421:228|498:201,1,112,0|0,0:0|0:0,0:0:0:0:
355,341,158736,6,0,P|308:351|282:292,1,112,2|0,0:0|0:0,0:0:0:0:
187,202,159036,2,0,P|140:192|114:251,1,112,2|0,0:0|0:0,0:0:0:0:
276,218,159336,2,0,L|283:147,1,56,2|0,0:0|0:0,0:0:0:0:
302,18,159536,6,0,P|359:15|420:65,2,112,2|0|0,0:0|0:0|0:0,0:0:0:0:
205,100,160136,1,2,0:0:0:0:
149,101,160236,1,2,0:0:0:0:
99,77,160336,6,0,P|108:46|137:17,1,56,2|0,0:0|0:0,0:0:0:0:
56,164,160536,2,0,P|27:147|7:112,1,56,2|0,0:0|0:0,0:0:0:0:
147,202,160736,2,0,L|167:335,1,112,0|0,0:0|0:0,0:0:0:0:
303,360,161136,5,2,0:0:0:0:
436,341,161336,1,0,0:0:0:0:
221,244,161536,1,0,0:0:0:0:
354,263,161736,1,0,0:0:0:0:
486,138,161936,6,0,P|488:78|444:10,1,112,2|0,0:0|0:0,0:0:0:0:
328,162,162236,2,0,P|378:193|459:189,1,112,2|0,0:0|0:0,0:0:0:0:
360,22,162536,2,0,P|331:37|311:76,1,56,2|0,0:0|0:0,0:0:0:0:
225,178,162736,5,2,0:0:0:0:
215,134,162936,1,0,0:0:0:0:
78,251,163136,1,0,0:0:0:0:
88,207,163336,1,0,0:0:0:0:
238,182,163536,6,0,L|223:107,1,56,2|0,0:0|0:0,0:0:0:0:
66,256,163736,2,0,L|81:181,1,56,2|0,0:0|0:0,0:0:0:0:
185,342,163936,1,0,0:0:0:0:
185,342,164136,1,0,0:0:0:0:
133,124,164336,6,0,P|74:101|18:117,1,112,2|0,0:0|0:0,0:0:0:0:
183,244,164736,2,0,P|242:267|298:251,1,112
435,139,165136,5,2,0:0:0:0:
407,133,165236,1,0,0:0:0:0:
380,127,165336,1,0,0:0:0:0:
300,122,165436,5,2,0:0:0:0:
309,148,165536,1,0,0:0:0:0:
317,175,165636,1,0,0:0:0:0:
354,244,165736,6,0,L|398:198,1,56,2|0,0:0|0:0,0:0:0:0:
449,325,167536,6,0,L|409:273,2,56,2|0|0,0:0|0:0|0:0,0:0:0:0:
311,296,167836,2,0,L|319:230,2,56,0|2|0,0:0|0:0|0:0,0:0:0:0:
196,195,168136,2,0,L|248:155,2,56,0|0|2,0:0|0:0|0:0,0:0:0:0:
173,28,168436,2,0,L|238:36,2,56
363,62,168736,5,0,0:0:0:0:
360,51,168836,1,0,0:0:0:0:
358,40,168936,1,0,0:0:0:0:
356,29,169036,1,0,0:0:0:0:
354,18,169136,6,0,B|422:5|394:50|472:27,1,112,6|0,0:0|0:0,0:0:0:0:
400,150,169536,2,0,B|457:188|405:200|477:239,1,112,0|0,0:0|0:0,0:0:0:0:
314,166,169936,6,0,P|311:131|329:93,1,56,2|0,0:0|0:0,0:0:0:0:
210,91,170136,2,0,P|213:126|195:164,1,56,2|0,0:0|0:0,0:0:0:0:
72,177,170336,2,0,P|27:130|31:76,1,112,0|0,0:0|0:0,0:0:0:0:
121,257,170736,6,0,P|76:304|80:358,1,112,2|0,0:0|0:0,0:0:0:0:
262,231,171136,2,0,P|197:184|143:181,1,112,0|0,0:0|0:0,0:0:0:0:
341,367,171536,6,0,L|356:242,1,112,2|0,0:0|0:0,0:0:0:0:
318,140,171836,2,0,B|364:174|364:174|429:156,1,112,2|0,0:0|0:0,0:0:0:0:
406,54,172136,2,0,B|381:35|381:35|347:45,1,56,2|0,0:0|0:0,0:0:0:0:
224,20,172336,6,0,P|190:56|124:82,1,112,2|0,0:0|0:0,0:0:0:0:
8,14,172736,2,0,P|56:45|33:92,1,112,0|0,0:0|0:0,0:0:0:0:
67,252,173136,6,0,P|90:230|106:188,1,56,2|0,0:0|0:0,0:0:0:0:
212,187,173336,2,0,P|196:159|160:132,1,56,2|0,0:0|0:0,0:0:0:0:
224,20,173536,2,0,P|278:49|359:54,1,112,0|0,0:0|0:0,0:0:0:0:
512,16,173936,5,2,0:0:0:0:
403,44,174136,1,0,0:0:0:0:
288,165,174336,1,0,0:0:0:0:
397,193,174536,1,0,0:0:0:0:
511,121,174736,6,0,B|466:117|433:135|433:135|405:172,1,112,2|0,0:0|0:0,0:0:0:0:
447,258,175036,2,0,L|440:313,2,56,2|0|0,0:0|0:0|0:0,0:0:0:0:
288,165,175336,2,0,L|298:225,1,56,2|0,0:0|0:0,0:0:0:0:
184,350,175536,6,0,P|182:287|194:215,1,112,2|0,0:0|0:0,0:0:0:0:
14,118,175936,2,0,P|67:151|140:169,1,112,0|0,0:0|0:0,0:0:0:0:
198,47,176336,6,0,P|169:45|129:63,1,56,2|0,0:0|0:0,0:0:0:0:
288,177,176536,2,0,P|316:187|342:185,1,56,2|0,0:0|0:0,0:0:0:0:
343,0,176736,2,0,L|315:159,1,112,0|0,0:0|0:0,0:0:0:0:
481,202,177136,6,0,P|440:150|394:125,1,112,2|0,0:0|0:0,0:0:0:0:
311,317,177536,2,0,P|352:265|398:240,1,112,0|0,0:0|0:0,0:0:0:0:
275,201,177936,2,0,P|223:186|185:138,1,112,2|0,0:0|0:0,0:0:0:0:
271,49,178236,2,0,P|276:76|266:103,2,56,2|0|0,0:0|0:0|0:0,0:0:0:0:
168,5,178536,2,0,L|112:10,1,56,2|0,0:0|0:0,0:0:0:0:
28,97,178736,6,0,P|10:160|6:228,2,112,2|0|0,0:0|0:0|0:0,0:0:0:0:
234,158,179336,1,2,0:0:0:0:
181,175,179436,1,2,0:0:0:0:
125,176,179536,6,0,P|114:146|110:113,1,56,2|0,0:0|0:0,0:0:0:0:
258,250,179736,2,0,P|253:277|243:303,1,56,2|0,0:0|0:0,0:0:0:0:
102,358,179936,2,0,B|109:345|130:332|130:332|166:339|202:366,1,112,0|0,0:0|0:0,0:0:0:0:
388,235,180336,5,2,0:0:0:0:
258,250,180536,1,0,0:0:0:0:
132,99,180736,1,0,0:0:0:0:
262,114,180936,1,0,0:0:0:0:
395,0,181136,6,0,P|349:39|359:118,1,112,2|0,0:0|0:0,0:0:0:0:
495,124,181436,2,0,P|480:101|443:81,2,56,2|0|0,0:0|0:0|0:0,0:0:0:0:
395,179,181736,2,0,L|385:251,1,56,2|0,0:0|0:0,0:0:0:0:
474,287,181936,6,0,B|423:251|346:259|385:309|323:325|238:275,1,224,2|0,0:0|0:0,0:0:0:0:
314,218,182536,1,0,0:0:0:0:
252,159,182736,6,0,P|235:181|229:220,1,56,2|0,0:0|0:0,0:0:0:0:
139,214,182936,2,0,P|142:241|165:273,1,56,2|0,0:0|0:0,0:0:0:0:
188,379,183136,2,0,P|141:342|72:328,1,112
7,153,183536,5,2,0:0:0:0:
34,149,183636,1,0,0:0:0:0:
152,51,183836,1,0,0:0:0:0:
124,55,183936,1,0,0:0:0:0:
237,230,184136,5,0,0:0:0:0:
237,230,184236,1,0,0:0:0:0:
237,230,184336,5,2,0:0:0:0:
231,257,184436,1,0,0:0:0:0:
227,285,184536,1,0,0:0:0:0:
313,217,184636,5,2,0:0:0:0:
311,188,184736,1,0,0:0:0:0:
309,160,184836,1,0,0:0:0:0:
270,87,184936,6,0,L|347:81,1,56,2|0,0:0|0:0,0:0:0:0:
224,26,186736,6,0,P|192:38|170:60,2,56,2|0|0,0:0|0:0|0:0,0:0:0:0:
223,144,187036,2,0,P|208:175|208:206,2,56,0|2|0,0:0|0:0|0:0,0:0:0:0:
304,210,187336,2,0,P|316:241|338:264,2,56,0|0|2,0:0|0:0|0:0,0:0:0:0:
409,198,187636,2,0,P|440:212|471:212,2,56
512,63,187936,6,0,B|457:54|423:95|423:95|396:66|359:63|359:63|326:93|269:103,1,251.999992309571,0|0,0:0|0:0,0:0:0:0:
189,231,188336,6,0,P|168:212|215:231,1,195.999994018555,6|0,0:0|0:0,0:0:0:0:
0,123,188936,1,8,0:0:0:0:
219,51,189136,2,0,L|112:44,1,97.9999970092774,2|2,0:0|0:0,0:0:0:0:
338,130,189536,1,8,0:0:0:0:
229,223,189736,1,0,0:0:0:0:
444,293,189936,5,2,0:0:0:0:
444,293,190136,2,0,P|454:240|452:176,1,97.9999970092774,0|0,0:0|0:0,0:0:0:0:
314,354,190536,1,8,0:0:0:0:
299,196,190736,1,2,0:0:0:0:
100,350,190936,2,0,P|104:320|100:285,1,48.9999985046387,8|0,0:0|0:0,0:0:0:0:
38,63,191136,1,8,0:0:0:0:
142,167,191336,1,2,0:0:0:0:
195,29,191536,6,0,P|246:47|300:45,1,97.9999970092774,2|0,0:0|0:0,0:0:0:0:
380,18,191836,1,0,0:0:0:0:
380,18,191936,1,0,0:0:0:0:
493,211,192136,1,8,0:0:0:0:
359,305,192336,2,0,P|354:243|338:195,1,97.9999970092774,2|2,0:0|0:0,0:0:0:0:
266,143,192636,1,0,0:0:0:0:
266,143,192736,2,0,P|250:190|250:241,1,97.9999970092774,8|0,0:0|0:0,0:0:0:0:
197,363,193136,6,0,P|150:339|101:336,1,97.9999970092774,2|0,0:0|0:0,0:0:0:0:
12,356,193436,1,0,0:0:0:0:
12,356,193536,1,0,0:0:0:0:
121,129,193736,2,0,P|124:181|141:232,1,97.9999970092774,8|2,0:0|0:0,0:0:0:0:
173,3,194136,2,0,P|188:27|200:56,1,48.9999985046387,8|0,0:0|0:0,0:0:0:0:
260,284,194336,1,8,0:0:0:0:
293,141,194536,1,2,0:0:0:0:
495,226,194736,6,0,P|442:229|395:248,1,97.9999970092774,2|0,0:0|0:0,0:0:0:0:
302,354,195136,1,0,0:0:0:0:
214,131,195336,1,8,0:0:0:0:
141,295,195536,2,0,L|129:190,1,97.9999970092774,2|2,0:0|0:0,0:0:0:0:
120,101,195836,1,0,0:0:0:0:
120,101,195936,1,8,0:0:0:0:
50,251,196136,1,0,0:0:0:0:
249,289,196336,5,2,0:0:0:0:
258,286,196436,1,0,0:0:0:0:
266,280,196536,2,0,P|274:236|247:177,1,97.9999970092774,0|0,0:0|0:0,0:0:0:0:
181,369,196936,1,8,0:0:0:0:
338,320,197136,1,2,0:0:0:0:
106,214,197336,2,0,P|135:218|160:216,1,48.9999985046387,8|0,0:0|0:0,0:0:0:0:
414,142,197536,1,8,0:0:0:0:
265,98,197736,1,2,0:0:0:0:
259,304,197936,6,0,P|251:244|231:201,1,97.9999970092774,2|0,0:0|0:0,0:0:0:0:
157,153,198236,1,0,0:0:0:0:
157,153,198336,1,0,0:0:0:0:
22,291,198536,1,8,0:0:0:0:
23,300,198636,1,2,0:0:0:0:
24,309,198736,1,2,0:0:0:0:
152,345,198936,1,2,0:0:0:0:
241,110,199136,1,8,0:0:0:0:
117,222,199336,1,0,0:0:0:0:
407,202,199536,5,2,0:0:0:0:
407,202,199736,1,2,0:0:0:0:
209,44,199936,1,8,0:0:0:0:
175,72,200036,1,8,0:0:0:0:
160,113,200136,1,8,0:0:0:0:
168,156,200236,1,8,0:0:0:0:
196,189,200336,5,0,3:0:0:0:
197,203,200436,1,0,3:0:0:0:
183,204,200536,1,0,3:0:0:0:
182,190,200636,1,0,3:0:0:0:
211,151,200736,5,12,0:0:0:0:
272,151,200836,1,0,0:0:0:0:
318,190,200936,1,8,0:0:0:0:
328,250,201036,1,0,0:0:0:0:
296,301,201136,6,0,B|214:336|242:267|136:302,1,140,6|0,0:0|0:0,0:0:0:0:
77,376,201436,1,2,0:0:0:0:
77,376,201536,1,0,0:0:0:0:
0,233,201736,2,0,P|79:230|138:193,1,140,2|0,0:0|0:0,0:0:0:0:
171,117,202036,1,2,0:0:0:0:
171,117,202136,1,0,0:0:0:0:
289,348,202336,1,8,0:0:0:0:
372,148,202536,1,8,0:0:0:0:
202,245,202736,6,0,P|271:234|339:278,1,140,2|0,0:0|0:0,0:0:0:0:
379,349,203036,1,2,0:0:0:0:
379,349,203136,1,0,0:0:0:0:
503,224,203336,2,0,P|467:223|429:203,1,70,2|0,0:0|0:0,0:0:0:0:
368,60,203536,1,0,0:0:0:0:
368,60,203636,2,0,P|386:136|342:182,1,140,2|0,0:0|0:0,0:0:0:0:
257,202,203936,1,8,0:0:0:0:
144,0,204136,1,8,0:0:0:0:
9,210,204336,6,0,B|86:203|64:252|141:247,1,140,2|0,0:0|0:0,0:0:0:0:
235,229,204636,1,2,0:0:0:0:
235,229,204736,1,0,0:0:0:0:
113,98,204936,2,0,P|207:95|264:120,1,140,2|0,0:0|0:0,0:0:0:0:
323,180,205236,1,2,0:0:0:0:
323,180,205336,1,0,0:0:0:0:
462,0,205536,1,8,0:0:0:0:
509,252,205736,1,8,0:0:0:0:
391,59,205936,6,0,L|397:140,1,70,2|0,0:0|0:0,0:0:0:0:
410,257,206136,1,0,0:0:0:0:
386,282,206236,1,2,0:0:0:0:
354,296,206336,2,0,P|318:303|267:302,1,70,0|0,0:0|0:0,0:0:0:0:
230,200,206536,2,0,P|194:192|143:194,1,70,2|0,0:0|0:0,0:0:0:0:
23,258,206736,5,8,0:0:0:0:
13,311,206836,1,8,0:0:0:0:
38,358,206936,1,0,0:0:0:0:
88,379,207036,2,0,P|154:354|174:280,1,140,8|8,0:0|0:0,0:0:0:0:
161,192,207336,1,8,0:0:0:0:
153,150,207436,1,2,0:0:0:0:
166,110,207536,6,0,P|213:58|305:54,1,140,2|0,0:0|0:0,0:0:0:0:
378,81,207836,1,2,0:0:0:0:
378,81,207936,1,0,0:0:0:0:
315,254,208136,2,0,L|163:241,1,140,2|0,0:0|0:0,0:0:0:0:
85,232,208436,1,2,0:0:0:0:
85,232,208536,1,0,0:0:0:0:
293,145,208736,1,8,0:0:0:0:
233,371,208936,1,8,0:0:0:0:
140,162,209136,6,0,P|174:161|211:153,1,70,2|0,0:0|0:0,0:0:0:0:
344,78,209336,1,0,0:0:0:0:
347,64,209436,1,2,0:0:0:0:
350,50,209536,1,0,0:0:0:0:
470,200,209736,1,2,0:0:0:0:
308,332,209936,1,0,0:0:0:0:
308,332,210036,2,0,P|288:256|320:190,1,140,2|0,0:0|0:0,0:0:0:0:
388,140,210336,1,8,0:0:0:0:
424,304,210536,1,8,0:0:0:0:
181,304,210736,6,0,P|173:222|150:162,1,140,2|0,0:0|0:0,0:0:0:0:
99,88,211036,1,2,0:0:0:0:
99,88,211136,1,0,0:0:0:0:
303,17,211336,2,0,P|268:92|258:155,1,140,2|0,0:0|0:0,0:0:0:0:
266,245,211636,1,2,0:0:0:0:
266,245,211736,1,0,0:0:0:0:
183,5,211936,1,8,0:0:0:0:
50,220,212136,1,8,0:0:0:0:
329,124,212336,6,0,P|348:149|371:201,1,70,2|0,0:0|0:0,0:0:0:0:
386,311,212536,1,0,0:0:0:0:
382,331,212636,1,2,0:0:0:0:
368,347,212736,2,0,P|335:365|290:373,1,70,0|0,0:0|0:0,0:0:0:0:
239,258,212936,2,0,P|206:238|177:203,1,70,2|0,0:0|0:0,0:0:0:0:
241,3,213136,5,0,0:0:0:0:
308,18,213236,1,0,0:0:0:0:
354,69,213336,1,10,0:1:0:0:
364,137,213436,1,10,0:1:0:0:
332,199,213536,5,10,0:1:0:0:
411,217,213636,1,2,0:0:0:0:
485,184,213736,1,8,0:0:0:0:
202,264,213936,6,0,B|108:284|136:205|31:225,1,167.999994873047,6|8,0:0|0:0,0:0:0:0:
37,384,214236,1,0,0:0:0:0:
37,384,214336,2,0,P|54:348|61:297,1,83.9999974365235,2|0,0:0|0:0,0:0:0:0:
4,111,214536,2,0,P|-25:167|68:214,1,167.999994873047,8|2,0:0|0:0,0:0:0:0:
237,119,214836,1,0,0:0:0:0:
237,119,214936,6,0,P|193:124|150:135,1,83.9999974365235,8|0,0:0|0:0,0:0:0:0:
56,8,215136,2,0,P|100:13|143:24,1,83.9999974365235,2|0,0:0|0:0,0:0:0:0:
128,236,215336,2,0,P|84:231|41:220,1,83.9999974365235,8|0,0:0|0:0,0:0:0:0:
186,384,215536,6,0,P|188:340|207:273,1,83.9999974365235,2|0,0:0|0:0,0:0:0:0:
329,145,215736,2,0,P|331:189|350:256,1,83.9999974365235,8|0,0:0|0:0,0:0:0:0:
376,363,215936,2,0,L|282:350,1,83.9999974365235,2|0,0:0|0:0,0:0:0:0:
157,166,216136,2,0,L|251:179,1,83.9999974365235,8|0,0:0|0:0,0:0:0:0:
477,156,216336,6,0,B|490:117|490:117|480:55,1,83.9999974365235,2|0,0:0|0:0,0:0:0:0:
301,0,216536,2,0,B|288:39|288:39|298:101,1,83.9999974365235,8|0,0:0|0:0,0:0:0:0:
455,193,216736,5,2,0:0:0:0:
384,152,216836,1,2,0:0:0:0:
309,189,216936,1,10,0:0:0:0:
296,272,217036,1,2,0:0:0:0:
353,333,217136,6,0,B|392:310|443:315|443:315|478:346|529:328,1,167.999994873047,2|8,0:0|0:0,0:0:0:0:
489,117,217436,1,0,0:0:0:0:
489,117,217536,2,0,P|465:153|454:199,1,83.9999974365235,2|0,0:0|0:0,0:0:0:0:
311,119,217736,2,0,P|314:32|420:17,1,167.999994873047,8|2,0:0|0:0,0:0:0:0:
363,188,218036,1,0,0:0:0:0:
363,188,218136,6,0,P|324:206|267:190,1,83.9999974365235,8|0,0:0|0:0,0:0:0:0:
186,297,218336,2,0,P|153:269|143:210,1,83.9999974365235,2|0,0:0|0:0,0:0:0:0:
17,169,218536,2,0,P|28:127|77:94,1,83.9999974365235,8|0,0:0|0:0,0:0:0:0:
272,77,218736,6,0,P|237:98|184:102,1,83.9999974365235,2|0,0:0|0:0,0:0:0:0:
124,35,218936,2,0,P|84:25|44:-9,1,83.9999974365235,8|0,0:0|0:0,0:0:0:0:
244,137,219136,2,0,P|204:148|152:139,1,83.9999974365235,2|0,0:0|0:0,0:0:0:0:
110,59,219336,2,0,P|73:39|43:-3,1,83.9999974365235,8|0,0:0|0:0,0:0:0:0:
342,0,219536,6,0,P|321:40|314:99,1,83.9999974365235,2|0,0:0|0:0,0:0:0:0:
512,110,219736,2,0,P|516:68|509:27,1,83.9999974365235,8|0,0:0|0:0,0:0:0:0:
411,73,219936,5,2,0:0:0:0:
396,155,220036,1,2,0:0:0:0:
448,220,220136,1,10,0:0:0:0:
433,302,220236,1,2,0:0:0:0:
412,383,220336,6,0,P|315:340|324:254,1,167.999994873047,2|8,0:0|0:0,0:0:0:0:
173,274,220636,1,0,0:0:0:0:
173,274,220736,2,0,P|199:241|207:194,1,83.9999974365235,2|0,0:0|0:0,0:0:0:0:
231,7,220936,2,0,P|284:70|272:167,1,167.999994873047,8|2,0:0|0:0,0:0:0:0:
95,119,221236,1,0,0:0:0:0:
95,119,221336,6,0,L|4:109,1,83.9999974365235,8|0,0:0|0:0,0:0:0:0:
207,200,221536,2,0,L|298:190,1,83.9999974365235,2|0,0:0|0:0,0:0:0:0:
231,7,221736,2,0,P|214:51|216:103,1,83.9999974365235,8|0,0:0|0:0,0:0:0:0:
485,204,221936,6,0,P|455:172|404:147,1,83.9999974365235,2|0,0:0|0:0,0:0:0:0:
386,61,222136,2,0,P|342:59|288:77,1,83.9999974365235,8|0,0:0|0:0,0:0:0:0:
483,181,222336,2,0,P|439:179|385:197,1,83.9999974365235,2|0,0:0|0:0,0:0:0:0:
311,149,222536,2,0,P|279:179|254:230,1,83.9999974365235,8|0,0:0|0:0,0:0:0:0:
169,374,222736,6,0,B|150:347|150:347|167:261,1,83.9999974365235,2|0,0:0|0:0,0:0:0:0:
10,99,222936,2,0,B|29:126|29:126|12:212,1,83.9999974365235,8|0,0:0|0:0,0:0:0:0:
0,289,223136,5,2,0:0:0:0:
80,304,223236,1,2,0:0:0:0:
149,260,223336,1,10,0:0:0:0:
170,181,223436,1,2,0:0:0:0:
131,109,223536,5,0,0:0:0:0:
80,304,223736,1,2,0:3:0:0:
297,380,223936,5,12,0:0:0:0:
328,331,224036,1,0,0:0:0:0:
379,302,224136,1,0,0:0:0:0:
437,301,224236,1,0,0:0:0:0:
489,327,224336,5,8,0:0:0:0:
410,304,224436,1,8,0:0:0:0:
372,232,224536,1,8,0:0:0:0:
400,155,224636,1,8,0:0:0:0:
481,134,224736,5,2,0:3:0:0:
465,38,224836,1,8,0:0:0:0:
377,0,224936,1,8,0:0:0:0:
339,228,225136,6,0,B|294:240|245:217|276:194|232:171|179:192,1,167.999994873047,2|0,0:3|0:0,0:0:0:0:
222,23,225436,2,0,B|205:66|157:92|157:53|113:76|98:131,1,167.999994873047,2|0,0:3|0:0,0:0:0:0:
55,262,225736,2,0,P|14:237|3:177,1,83.9999974365235,2|0,0:3|0:0,0:0:0:0:
31,104,225936,5,10,0:3:0:0:
119,345,226236,5,2,0:3:0:0:
288,178,226536,5,2,0:3:0:0:
412,333,226736,6,0,L|497:314,1,83.9999974365235,6|0,0:0|0:0,0:0:0:0:
313,353,226936,1,10,0:1:0:0:
189,158,227136,6,0,L|104:139,1,83.9999974365235,2|0,0:0|0:0,0:0:0:0:
288,178,227336,1,10,0:1:0:0:
471,77,227536,5,2,0:0:0:0:
430,3,227636,1,0,0:0:0:0:
346,14,227736,2,0,B|329:57|329:57|339:98,1,83.9999974365235,10|0,0:1|0:0,0:0:0:0:
463,245,227936,1,2,0:0:0:0:
404,185,228036,2,0,P|363:177|316:193,2,83.9999974365235,0|10|0,0:0|0:1|0:0,0:0:0:0:
170,248,228336,6,0,P|138:225|87:212,1,83.9999974365235,2|0,0:0|0:0,0:0:0:0:
212,351,228536,1,10,0:1:0:0:
152,134,228736,6,0,P|184:111|235:98,1,83.9999974365235,2|0,0:0|0:0,0:0:0:0:
212,351,228936,1,10,0:1:0:0:
14,194,229136,6,0,P|9:237|49:284,1,83.9999974365235,2|0,0:0|0:0,0:0:0:0:
212,351,229336,1,10,0:1:0:0:
294,174,229536,5,2,0:0:0:0:
335,170,229636,1,0,0:0:0:0:
373,186,229736,1,10,0:1:0:0:
399,219,229836,1,0,0:0:0:0:
405,260,229936,6,0,P|360:266|320:241,1,83.9999974365235,2|0,0:0|0:0,0:0:0:0:
222,115,230136,1,10,0:1:0:0:
352,45,230336,6,0,L|425:4,1,83.9999974365235,2|0,0:0|0:0,0:0:0:0:
222,115,230536,1,10,0:1:0:0:
89,13,230736,6,0,P|108:56|117:105,1,83.9999974365235,2|0,0:0|0:0,0:0:0:0:
196,283,230936,2,0,P|215:240|224:191,1,83.9999974365235,10|0,0:1|0:0,0:0:0:0:
44,144,231136,2,0,P|-8:180|11:282,1,167.999994873047,2|10,0:0|0:1,0:0:0:0:
129,333,231436,1,0,0:0:0:0:
196,283,231536,6,0,P|241:268|289:267,1,83.9999974365235,2|0,0:0|0:0,0:0:0:0:
115,217,231736,1,10,0:1:0:0:
307,66,231936,6,0,P|262:51|214:50,1,83.9999974365235,2|0,0:0|0:0,0:0:0:0:
388,0,232136,1,10,0:1:0:0:
324,312,232336,5,10,3:1:0:0:
356,235,232436,1,0,3:1:0:0:
319,161,232536,1,0,3:1:0:0:
240,133,232636,5,10,3:1:0:0:
232,135,232736,1,0,3:1:0:0:
224,137,232836,1,0,3:1:0:0:
150,170,232936,5,10,3:1:0:0:
143,166,233036,1,0,3:1:0:0:
135,166,233136,6,0,P|134:126|154:81,1,83.9999974365235,6|0,0:0|0:0,0:0:0:0:
22,104,233336,1,10,0:1:0:0:
231,0,233536,6,0,P|230:40|250:85,1,83.9999974365235,2|0,0:0|0:0,0:0:0:0:
383,47,233736,1,10,0:1:0:0:
487,289,233936,5,2,0:0:0:0:
406,266,234036,1,0,0:0:0:0:
344,323,234136,2,0,P|299:330|228:313,1,83.9999974365235,10|0,0:1|0:0,0:0:0:0:
113,223,234336,1,2,0:0:0:0:
185,181,234436,2,0,B|196:229|196:229|175:287,2,83.9999974365235,0|10|0,0:0|0:1|0:0,0:0:0:0:
26,80,234736,6,0,P|26:121|50:163,1,83.9999974365235,2|0,0:0|0:0,0:0:0:0:
133,0,234936,1,10,0:1:0:0:
300,120,235136,6,0,P|300:161|276:203,1,83.9999974365235,2|0,0:0|0:0,0:0:0:0:
133,0,235336,1,10,0:1:0:0:
31,281,235536,6,0,P|11:257|-6:200,1,83.9999974365235,2|0,0:0|0:0,0:0:0:0:
266,311,235736,2,0,P|254:351|229:384,1,83.9999974365235,10|0,0:1|0:0,0:0:0:0:
130,210,235936,2,0,P|220:172|308:235,1,167.999994873047,2|10,0:0|0:1,0:0:0:0:
397,20,236336,6,0,P|357:22|285:39,1,83.9999974365235,2|0,0:0|0:0,0:0:0:0:
102,73,236536,2,0,P|142:75|214:92,1,83.9999974365235,10|0,0:1|0:0,0:0:0:0:
395,272,236736,6,0,L|408:173,1,83.9999974365235,2|0,0:0|0:0,0:0:0:0:
137,300,236936,2,0,L|147:383,1,83.9999974365235,10|0,0:1|0:0,0:0:0:0:
188,185,237136,6,0,B|148:136|67:152|67:152|81:190,1,167.999994873047,2|10,0:0|0:1,0:0:0:0:
312,67,237436,1,0,0:0:0:0:
312,67,237536,2,0,B|352:18|433:34|433:34|419:72,1,167.999994873047,2|10,0:0|0:1,0:0:0:0:
426,306,237936,6,0,B|388:309|361:263|361:263|348:217|279:206,1,167.999994873047,12|0,0:0|0:0,0:0:0:0:
53,212,238236,2,0,B|79:187|129:205|129:205|169:231|211:205,1,167.999994873047,2|0,0:0|0:0,0:0:0:0:
206,389,238536,2,0,B|191:356|225:314|225:314|263:287|253:238,1,167.999994873047,12|0,0:1|0:0,0:0:0:0:
165,8,238836,2,0,B|200:24|200:78|200:78|188:124|243:168,1,167.999994873047,2|0,0:0|0:0,0:0:0:0:
363,81,239136,6,0,P|321:78|263:99,1,83.9999974365235,12|0,0:0|0:0,0:0:0:0:
15,289,239336,2,0,P|55:299|97:296,1,83.9999974365235,8|0,0:0|0:0,0:0:0:0:
199,235,239536,5,4,3:2:0:0:
195,221,240136,1,0,3:2:0:0:
97,125,240536,6,0,L|64:115,2,28,0|0|0,0:0|0:0|0:0,0:0:0:0:
160,50,240736,1,0,3:2:0:0:
190,96,240836,1,0,0:0:0:0:
190,151,240936,1,0,0:0:0:0:
335,110,241136,6,0,P|389:134|506:94,2,168,0|0|0,3:2|0:0|3:2,0:0:0:0:
296,14,241936,1,0,0:0:0:0:
404,68,242136,1,0,0:0:0:0:
307,223,242336,1,0,3:2:0:0:
307,223,242436,1,0,0:0:0:0:
442,183,242636,1,0,0:0:0:0:
442,183,242736,6,0,L|469:370,2,168,0|0|0,3:2|0:0|3:2,0:0:0:0:
328,296,243536,1,0,0:0:0:0:
272,139,243736,6,0,L|265:187,2,28,0|0|0,0:0|0:0|0:0,0:0:0:0:
211,230,243936,1,0,3:2:0:0:
165,198,244036,1,0,0:0:0:0:
110,191,244136,1,0,0:0:0:0:
16,34,244336,5,0,3:2:0:0:
16,34,244436,2,0,L|24:76,1,35,0|0,0:0|0:0,0:0:0:0:
90,22,244636,1,0,3:2:0:0:
90,22,244736,2,0,L|98:72,1,48.9999985046387,0|0,0:0|0:0,0:0:0:0:
166,12,244936,1,0,3:2:0:0:
166,12,245036,2,0,L|176:78,1,62.9999980773926,0|0,0:0|0:0,0:0:0:0:
240,0,245236,1,0,3:2:0:0:
240,0,245336,2,0,L|252:76,1,77.0000023498536,0|0,0:0|0:0,0:0:0:0:
409,37,245536,6,0,B|372:22|372:22|332:28,1,77.0000023498536,8|0,3:2|0:0,0:0:0:0:
197,153,245736,2,0,B|234:168|234:168|273:160,1,77.0000023498536,8|0,3:2|0:0,0:0:0:0:
371,134,245936,5,4,3:2:0:0:
375,148,246536,1,0,3:2:0:0:
473,244,246936,6,0,L|506:254,2,28,0|0|0,0:0|0:0|0:0,0:0:0:0:
410,319,247136,1,0,3:2:0:0:
379,272,247236,1,0,0:0:0:0:
379,217,247336,1,0,0:0:0:0:
410,170,247436,1,0,0:0:0:0:
465,159,247536,6,0,B|518:121|508:44|508:44|478:51|480:86,2,168,0|0|0,3:2|0:0|3:2,0:0:0:0:
357,61,248336,5,0,0:0:0:0:
236,22,248536,1,0,0:0:0:0:
194,206,248736,1,0,3:2:0:0:
194,206,248836,1,0,0:0:0:0:
163,102,249036,1,0,0:0:0:0:
163,102,249136,6,0,B|122:81|67:91|102:115|51:124|-16:91,2,168,0|0|0,3:2|0:0|3:2,0:0:0:0:
303,238,249936,1,0,0:0:0:0:
180,349,250136,6,0,L|172:318,2,28,0|0|0,0:0|0:0|0:0,0:0:0:0:
88,312,250336,1,0,3:2:0:0:
116,250,250436,1,0,0:0:0:0:
182,242,250536,1,0,0:0:0:0:
269,334,250736,5,8,3:2:0:0:
269,334,250836,2,0,L|277:292,1,35,0|0,0:0|0:0,0:0:0:0:
343,346,251036,1,8,3:2:0:0:
343,346,251136,2,0,L|351:296,1,48.9999985046387,0|0,0:0|0:0,0:0:0:0:
419,356,251336,1,8,3:2:0:0:
419,356,251436,2,0,L|429:289,1,62.9999980773926,0|0,0:0|0:0,0:0:0:0:
493,368,251636,1,8,3:2:0:0:
493,368,251736,2,0,L|505:291,1,77.0000023498536,0|0,0:0|0:0,0:0:0:0:
368,137,251936,6,0,P|364:172|388:227,1,77.0000023498536,8|0,3:2|0:0,0:0:0:0:
506,83,252136,2,0,P|510:48|486:-7,1,77.0000023498536,8|0,3:2|0:0,0:0:0:0:
400,56,252336,6,0,L|262:47,2,125.999996154785,0|0|4,3:2|3:2|3:2,0:0:0:0:
400,56,253336,1,2,3:2:0:0:
405,76,253436,1,2,3:2:0:0:
410,96,253536,1,2,3:2:0:0:
291,153,253736,1,2,2:2:0:0:
285,173,253836,1,2,2:2:0:0:
280,193,253936,5,0,3:2:0:0:
203,173,266136,6,0,L|215:146,1,20.9999993591309,0|0,0:0|0:0,0:0:0:0:
222,165,266236,2,0,L|227:136,1,20.9999993591309,0|0,0:0|0:0,0:0:0:0:
241,157,266336,2,0,L|230:274,1,83.9999974365235,0|0,0:0|0:0,0:0:0:0:
222,364,266636,1,0,0:0:0:0:
222,364,266736,6,0,B|299:353|299:353|330:367|330:367|406:356,1,188.999994232178,4|2,3:2|0:0,0:0:0:0:
484,301,267136,1,0,3:2:0:0:
462,174,267336,1,2,0:0:0:0:
348,118,267536,1,0,3:2:0:0:
346,130,267636,1,2,0:0:0:0:
344,142,267736,1,2,0:0:0:0:
230,86,267936,1,0,3:2:0:0:
191,205,268136,1,2,0:0:0:0:
184,215,268236,1,2,0:0:0:0:
174,223,268336,6,0,P|106:244|50:225,1,125.999996154785,0|2,3:2|0:0,0:0:0:0:
0,157,268636,1,2,0:0:0:0:
0,157,268736,1,0,3:2:0:0:
81,61,268936,1,2,0:0:0:0:
205,78,269136,1,0,3:2:0:0:
207,90,269236,1,2,0:0:0:0:
209,102,269336,1,2,0:0:0:0:
333,119,269536,1,0,3:2:0:0:
257,219,269736,1,2,0:0:0:0:
263,229,269836,1,2,0:0:0:0:
272,237,269936,6,0,P|336:253|398:228,1,125.999996154785,0|2,3:2|0:0,0:0:0:0:
447,157,270236,1,2,0:0:0:0:
447,157,270336,1,0,3:2:0:0:
474,280,270536,1,2,0:0:0:0:
367,347,270736,1,0,3:2:0:0:
354,345,270836,1,2,0:0:0:0:
341,343,270936,1,2,0:0:0:0:
274,235,271136,2,0,L|135:250,1,125.999996154785,0|2,3:2|0:0,0:0:0:0:
66,304,271436,1,2,0:0:0:0:
66,304,271536,6,0,P|50:244|76:181,1,125.999996154785,0|2,3:2|0:0,0:0:0:0:
149,132,271836,1,2,0:0:0:0:
149,132,271936,1,0,3:2:0:0:
251,204,272136,1,2,0:0:0:0:
357,136,272336,1,0,3:2:0:0:
355,123,272436,1,2,0:0:0:0:
450,205,272636,1,2,0:0:0:0:
355,288,272836,1,2,0:0:0:0:
353,301,272936,1,2,0:0:0:0:
251,204,273136,6,0,P|182:204|125:240,1,125.999996154785,0|2,3:2|0:0,0:0:0:0:
82,308,273436,1,2,0:0:0:0:
82,308,273536,1,0,3:2:0:0:
190,371,273736,1,2,0:0:0:0:
304,317,273936,1,0,3:2:0:0:
301,304,274036,1,2,0:0:0:0:
298,291,274136,1,2,0:0:0:0:
208,202,274336,1,0,3:2:0:0:
290,106,274536,1,2,0:0:0:0:
300,99,274636,1,2,0:0:0:0:
312,97,274736,6,0,P|375:116|406:171,1,125.999996154785,0|2,3:2|0:0,0:0:0:0:
404,258,275036,1,2,0:0:0:0:
404,258,275136,1,0,3:2:0:0:
326,357,275336,1,2,0:0:0:0:
240,264,275536,1,0,3:2:0:0:
227,267,275636,1,2,0:0:0:0:
214,270,275736,1,2,0:0:0:0:
128,177,275936,1,0,3:2:0:0:
216,87,276136,1,2,0:0:0:0:
218,74,276236,1,2,0:0:0:0:
214,61,276336,6,0,P|162:22|86:42,1,125.999996154785,0|2,3:2|0:0,0:0:0:0:
36,93,276636,1,2,0:0:0:0:
36,93,276736,1,0,3:2:0:0:
128,177,276936,1,2,0:0:0:0:
8,306,277136,1,0,3:2:0:0:
7,293,277236,1,2,0:0:0:0:
7,280,277336,1,2,0:0:0:0:
229,288,277536,2,0,L|94:266,1,125.999996154785,0|2,3:2|0:0,0:0:0:0:
29,177,277836,1,2,0:0:0:0:
29,177,277936,6,0,L|164:155,1,125.999996154785,0|2,3:2|0:0,0:0:0:0:
222,78,278236,1,2,0:0:0:0:
222,78,278336,1,0,3:2:0:0:
298,178,278536,1,2,0:0:0:0:
410,31,278736,6,0,P|432:54|447:84,1,62.9999980773926,8|0,0:0|0:0,0:0:0:0:
423,286,278936,2,0,P|424:254|416:224,1,62.9999980773926,8|0,0:0|0:0,0:0:0:0:
298,70,279136,1,8,0:0:0:0:
222,78,279236,1,8,0:0:0:0:
168,132,279336,1,8,0:0:0:0:
162,208,279436,1,8,0:0:0:0:
209,273,279536,5,6,0:0:0:0:
209,273,279636,2,0,P|156:236|138:318,1,167.999994873047,0|0,0:0|0:0,0:0:0:0:
51,363,279936,2,0,P|28:282|52:200,1,167.999994873047,2|8,0:0|0:0,0:0:0:0:
44,93,280236,2,0,P|80:111|123:118,1,83.9999974365235,0|2,0:0|0:0,0:0:0:0:
283,29,280436,1,0,0:0:0:0:
269,121,280536,2,0,P|266:79|248:27,1,83.9999974365235,8|0,0:0|0:0,0:0:0:0:
126,191,280736,1,2,0:0:0:0:
173,249,280836,1,0,0:0:0:0:
229,264,280936,1,8,0:0:0:0:
270,256,281036,1,0,0:0:0:0:
291,242,281136,5,2,0:0:0:0:
306,248,281236,2,0,L|294:346,1,83.9999974365235,0|8,0:0|0:0,0:0:0:0:
404,165,281436,1,0,0:0:0:0:
438,232,281536,5,2,0:0:0:0:
421,233,281636,1,0,0:0:0:0:
404,234,281736,1,8,0:0:0:0:
387,236,281836,1,0,0:0:0:0:
312,294,281936,5,2,0:0:0:0:
295,293,282036,1,0,0:0:0:0:
235,244,282136,1,8,0:0:0:0:
179,328,282236,1,0,0:0:0:0:
94,273,282336,2,0,L|81:178,1,83.9999974365235,2|2,0:0|0:0,0:0:0:0:
13,21,282536,2,0,L|0:116,1,83.9999974365235,10|2,0:0|0:0,0:0:0:0:
22,276,282736,5,2,0:0:0:0:
45,286,282836,1,0,0:0:0:0:
70,287,282936,1,8,0:0:0:0:
94,279,283036,1,0,0:0:0:0:
113,264,283136,1,2,0:0:0:0:
102,223,283236,1,0,0:0:0:0:
121,176,283336,1,8,0:0:0:0:
176,155,283436,1,0,0:0:0:0:
236,183,283536,5,2,0:0:0:0:
298,139,283636,2,0,P|340:133|389:155,1,83.9999974365235,0|8,0:0|0:0,0:0:0:0:
472,281,283836,2,0,B|446:193|507:205|482:119,1,167.999994873047,0|0,0:0|0:0,0:0:0:0:
400,19,284136,1,8,0:0:0:0:
334,56,284236,1,0,0:0:0:0:
253,31,284336,5,2,0:0:0:0:
253,31,284436,2,0,L|258:128,1,83.9999974365235,0|8,0:0|0:0,0:0:0:0:
274,335,284636,1,0,0:0:0:0:
274,335,284736,1,2,0:0:0:0:
236,316,284836,1,0,0:0:0:0:
193,318,284936,1,8,0:0:0:0:
157,341,285036,1,0,0:0:0:0:
96,384,285136,5,2,0:0:0:0:
84,326,285236,1,0,0:0:0:0:
74,276,285336,1,8,0:0:0:0:
66,234,285436,1,0,0:0:0:0:
59,201,285536,5,2,0:0:0:0:
125,236,285636,2,0,P|165:242|215:226,1,83.9999974365235,2|10,0:0|0:0,0:0:0:0:
368,125,285836,1,2,0:0:0:0:
331,216,285936,6,0,P|335:126|275:71,1,167.999994873047,2|8,0:0|0:0,0:0:0:0:
137,147,286236,2,0,P|132:57|193:2,1,167.999994873047,0|0,0:0|0:0,0:0:0:0:
363,186,286536,6,0,P|321:106|242:88,1,167.999994873047,8|2,0:0|0:0,0:0:0:0:
105,117,286836,2,0,P|146:37|225:19,1,167.999994873047,0|0,0:0|0:0,0:0:0:0:
260,190,287136,1,2,0:0:0:0:
252,194,287236,1,0,0:0:0:0:
248,186,287336,1,8,0:0:0:0:
256,182,287436,1,0,0:0:0:0:
344,231,287536,6,0,P|259:215|200:264,1,167.999994873047,2|8,0:0|0:0,0:0:0:0:
129,373,287836,1,0,0:0:0:0:
118,360,287936,1,2,0:0:0:0:
114,343,288036,1,0,0:0:0:0:
43,279,288136,5,8,0:0:0:0:
50,253,288236,1,0,0:0:0:0:
70,237,288336,1,2,0:0:0:0:
71,123,288436,5,0,0:0:0:0:
129,106,288536,1,8,0:0:0:0:
180,127,288636,1,0,0:0:0:0:
303,53,288736,5,2,0:0:0:0:
371,85,288836,1,2,0:0:0:0:
402,153,288936,1,10,0:0:0:0:
382,225,289036,1,2,0:0:0:0:
320,267,289136,6,0,B|247:306|240:241|157:280,1,167.999994873047,2|8,0:0|0:0,0:0:0:0:
83,375,289436,2,0,P|75:332|52:283,1,83.9999974365235,0|2,0:0|0:0,0:0:0:0:
11,90,289636,5,0,0:0:0:0:
7,123,289736,1,8,0:0:0:0:
4,156,289836,1,0,0:0:0:0:
84,208,289936,5,2,0:0:0:0:
134,203,290036,1,0,0:0:0:0:
184,198,290136,1,8,0:0:0:0:
210,91,290236,6,0,L|304:102,1,83.9999974365235,0|2,0:0|0:0,0:0:0:0:
395,205,290436,1,0,0:0:0:0:
495,160,290536,2,0,L|401:171,1,83.9999974365235,8|0,0:0|0:0,0:0:0:0:
278,340,290736,1,2,0:0:0:0:
249,184,290836,2,0,L|238:278,1,83.9999974365235,0|8,0:0|0:0,0:0:0:0:
73,342,291036,5,0,0:0:0:0:
139,143,291136,2,0,L|152:255,1,105.000004005432,2|0,0:0|0:0,0:0:0:0:
336,307,291336,1,8,0:0:0:0:
392,187,291436,1,0,0:0:0:0:
415,355,291536,1,2,0:0:0:0:
468,44,291736,1,8,0:0:0:0:
208,172,291936,5,2,0:0:0:0:
291,173,292036,1,2,0:0:0:0:
332,246,292136,2,0,P|330:291|300:349,1,105.000004005432,10|2,0:0|0:0,0:0:0:0:
97,371,292336,5,6,0:0:0:0:
81,343,292436,1,0,0:0:0:0:
97,315,292536,1,8,0:0:0:0:
81,287,292636,1,0,0:0:0:0:
97,259,292736,1,2,0:0:0:0:
81,231,292836,1,0,0:0:0:0:
178,282,292936,5,8,0:0:0:0:
194,254,293036,1,0,0:0:0:0:
178,226,293136,1,2,0:0:0:0:
194,198,293236,1,0,0:0:0:0:
178,170,293336,1,8,0:0:0:0:
194,142,293436,1,0,0:0:0:0:
97,193,293536,5,2,0:0:0:0:
81,165,293636,1,0,0:0:0:0:
97,137,293736,1,8,0:0:0:0:
81,109,293836,1,0,0:0:0:0:
97,81,293936,2,0,L|97:203,1,112,2|0,0:0|0:0,0:0:0:0:
203,363,294136,5,8,0:0:0:0:
233,348,294236,1,0,0:0:0:0:
263,363,294336,1,2,0:0:0:0:
293,348,294436,1,0,0:0:0:0:
319,312,294536,1,8,0:0:0:0:
332,257,294636,1,0,0:0:0:0:
318,191,294736,2,0,P|287:150|224:124,1,105.000004005432,2|0,0:0|0:0,0:0:0:0:
55,316,294936,2,0,P|106:319|154:299,1,105.000004005432,8|0,0:0|0:0,0:0:0:0:
160,26,295136,5,2,0:0:0:0:
85,21,295236,1,2,0:0:0:0:
25,63,295336,1,10,0:0:0:0:
7,135,295436,1,2,0:0:0:0:
39,201,295536,2,0,P|78:224|113:225,2,70.0000026702882,2|0|0,0:0|0:0|0:0,0:0:0:0:
102,334,295736,6,0,P|168:311|212:231,1,157.500006008148,8|0,0:0|0:0,0:0:0:0:
223,128,295936,2,0,P|209:196|257:274,1,157.500006008148,2|0,0:0|0:0,0:0:0:0:
341,351,296136,6,0,P|305:349|268:365,2,52.5000020027161,8|0|0,0:0|0:0|0:0,0:0:0:0:
437,245,296336,2,0,P|392:183|316:177,1,157.500006008148,2|0,0:0|0:0,0:0:0:0:
251,270,296536,2,0,P|288:282|353:257,1,105.000004005432,8|0,0:0|0:0,0:0:0:0:
195,188,296736,6,0,P|151:266|176:336,1,157.500006008148,2|0,0:0|0:0,0:0:0:0:
258,370,296936,2,0,P|267:319|250:269,1,105.000004005432,8|0,0:0|0:0,0:0:0:0:
51,137,297136,6,0,L|159:124,1,105.000004005432,2|0,0:0|0:0,0:0:0:0:
327,73,297336,2,0,L|219:60,1,105.000004005432,8|0,0:0|0:0,0:0:0:0:
2,211,297536,6,0,L|109:226,1,105.000004005432,2|0,0:0|0:0,0:0:0:0:
363,355,297736,2,0,L|255:370,1,105.000004005432,8|0,0:0|0:0,0:0:0:0:
155,124,297936,6,0,B|272:86|327:195|327:195|360:147|421:151,1,315.000012016297,2|0,0:0|0:0,0:0:0:0:
512,248,298336,1,2,0:0:0:0:
488,317,298436,1,2,0:0:0:0:
421,347,298536,2,0,L|310:339,1,105.000004005432,10|2,0:0|0:0,0:0:0:0:
178,149,298736,6,0,P|229:146|278:176,1,105.000004005432,2|0,0:0|0:0,0:0:0:0:
85,346,298936,2,0,B|149:193|7:193|76:45,1,315.000012016297,8|0,0:0|0:0,0:0:0:0:
193,1,299336,1,8,0:0:0:0:
253,42,299436,1,0,0:0:0:0:
326,34,299536,2,0,P|423:81|436:101,1,105.000004005432,2|0,0:0|0:0,0:0:0:0:
410,256,299736,1,8,0:0:0:0:
344,188,299836,2,0,P|325:292|399:349,1,210.000008010865,0|0,0:0|0:0,0:0:0:0:
506,279,300136,2,0,P|461:253|410:256,1,105.000004005432,8|0,0:0|0:0,0:0:0:0:
254,375,300336,6,0,L|237:264,1,105.000004005432,2|0,0:0|0:0,0:0:0:0:
113,171,300536,2,0,L|130:60,1,105.000004005432,8|0,0:0|0:0,0:0:0:0:
375,46,300736,2,0,L|392:157,1,105.000004005432,2|0,0:0|0:0,0:0:0:0:
160,237,300936,2,0,B|210:166|300:206|300:206|359:274|444:239,1,315.000012016297,8|0,0:0|0:0,0:0:0:0:
485,118,301336,2,0,P|433:120|391:150,1,105.000004005432,8|0,0:0|0:0,0:0:0:0:
281,348,301536,1,2,0:0:0:0:
207,307,301636,1,2,0:0:0:0:
131,343,301736,2,0,P|97:301|81:249,1,105.000004005432,10|2,0:0|0:0,0:0:0:0:
274,133,301936,6,0,P|270:185|249:232,1,105.000004005432
109,140,302136,2,0,P|87:92|88:51,1,83.9999974365235,2|0,0:0|0:0,0:0:0:0:
326,68,302336,5,8,0:0:0:0:
292,145,302436,1,8,0:0:0:0:
350,205,302536,1,8,0:0:0:0:
307,277,302636,1,8,0:0:0:0:
368,335,302736,6,0,P|389:294|262:206,1,210.000008010865,8|0,0:0|0:0,0:0:0:0:
204,290,303036,2,0,P|256:291|306:277,1,105.000004005432,8|0,0:0|0:0,0:0:0:0:
478,116,303236,1,8,0:0:0:0:
419,55,303336,1,8,0:0:0:0:
334,48,303436,1,8,0:0:0:0:
266,101,303536,6,0,P|239:171|310:280,1,210.000008010865,12|0,0:0|0:0,0:0:0:0:
453,193,303836,1,12,0:0:0:0:
453,193,303936,2,0,P|406:172|354:173,1,105.000004005432
273,382,304136,2,0,P|325:382|372:361,1,105.000004005432,8|8,0:0|0:0,0:0:0:0:
424,87,304336,5,2,0:3:0:0:
227,298,304636,5,8,0:0:0:0:
166,17,304936,5,2,0:3:0:0:
130,152,305136,6,0,P|154:170|180:182,1,56,4|0,0:0|0:0,0:0:0:0:
227,298,305436,2,0,P|254:286|277:269,1,56
401,286,305736,2,0,P|404:256|401:227,1,56
477,129,306036,2,0,P|453:110|427:98,1,56
317,0,306336,6,0,B|343:37|310:83|310:83|300:122|321:165,1,167.999994873047,0|0,0:0|0:0,0:0:0:0:
373,251,306736,6,0,P|310:210|168:206,1,195.999994018555,6|0,0:0|0:0,0:0:0:0:
153,366,307336,2,0,P|191:337|212:290,2,97.9999970092774,8|2|2,0:0|0:0|0:0,0:0:0:0:
23,255,307936,2,0,L|126:273,1,97.9999970092774,8|0,0:0|0:0,0:0:0:0:
243,113,308336,5,2,0:0:0:0:
243,113,308536,2,0,L|146:129,1,97.9999970092774,8|0,0:0|0:0,0:0:0:0:
43,152,308936,1,8,0:0:0:0:
156,205,309136,2,0,P|183:249|181:297,1,97.9999970092774,2|0,0:0|0:0,0:0:0:0:
40,131,309536,2,0,P|39:82|65:41,1,97.9999970092774,8|2,0:0|0:0,0:0:0:0:
263,121,309936,6,0,B|170:129|170:129|106:99,2,146.999995513916,2|0|8,0:0|0:0|0:0,0:0:0:0:
398,0,310736,2,0,P|368:42|351:91,1,97.9999970092774,2|2,0:0|0:0,0:0:0:0:
481,195,311136,1,8,0:0:0:0:
341,244,311336,1,0,0:0:0:0:
421,131,311536,5,2,0:0:0:0:
421,131,311736,2,0,P|469:110|523:122,2,97.9999970092774,8|0|8,0:0|0:0|0:0,0:0:0:0:
309,160,312336,2,0,P|293:109|267:66,1,97.9999970092774,2|0,0:0|0:0,0:0:0:0:
480,198,312736,2,0,P|455:240|436:342,1,146.999995513916,8|0,0:0|0:0,0:0:0:0:
421,382,313136,6,0,B|374:367|341:377|341:377|309:354|309:354|275:371|232:367,1,195.999994018555,2|0,0:0|0:0,0:0:0:0:
154,275,313736,2,0,P|89:261|46:278,2,97.9999970092774,8|2|2,0:0|0:0|0:0,0:0:0:0:
256,244,314336,2,0,P|287:184|282:132,1,97.9999970092774,8|0,0:0|0:0,0:0:0:0:
176,16,314736,6,0,L|200:167,2,146.999995513916,2|0|8,0:0|0:0|0:0,0:0:0:0:
112,100,315536,1,2,0:0:0:0:
273,135,315736,1,8,0:0:0:0:
132,256,315936,1,8,0:0:0:0:
277,154,316136,2,0,L|290:209,1,48.9999985046387,2|0,0:0|0:0,0:0:0:0:
305,302,316336,6,0,P|360:261|456:265,2,146.999995513916,2|0|8,0:0|0:0|0:0,0:0:0:0:
235,384,317036,1,2,0:0:0:0:
235,384,317136,1,2,0:0:0:0:
380,341,317336,1,2,0:0:0:0:
197,243,317536,1,8,0:0:0:0:
384,327,317736,1,0,0:0:0:0:
376,96,317936,6,0,L|368:158,1,48.9999985046387,2|0,0:0|0:0,0:0:0:0:
479,236,318136,2,0,L|485:187,1,48.9999985046387,2|0,0:0|0:0,0:0:0:0:
448,28,318336,5,8,0:0:0:0:
406,2,318436,1,8,0:0:0:0:
357,0,318536,1,8,0:0:0:0:
313,17,318636,1,8,0:0:0:0:
279,53,318736,5,0,3:0:0:0:
281,66,318836,1,0,3:0:0:0:
284,79,318936,1,0,3:0:0:0:
286,92,319036,1,0,3:0:0:0:
288,107,319136,5,12,0:0:0:0:
286,164,319236,1,0,0:0:0:0:
251,210,319336,1,8,0:0:0:0:
195,224,319436,1,0,0:0:0:0:
141,202,319536,6,0,P|82:151|6:128,1,140,6|0,0:0|0:0,0:0:0:0:
3,213,319836,1,2,0:0:0:0:
3,213,319936,1,0,0:0:0:0:
170,354,320136,2,0,P|229:302|305:279,1,140,2|0,0:0|0:0,0:0:0:0:
308,364,320436,1,2,0:0:0:0:
308,364,320536,1,0,0:0:0:0:
228,188,320736,1,8,0:0:0:0:
308,364,320936,1,8,0:0:0:0:
490,261,321136,6,0,P|398:217|356:149,1,140,2|0,0:0|0:0,0:0:0:0:
393,106,321436,1,2,0:0:0:0:
393,106,321536,1,0,0:0:0:0:
254,0,321736,2,0,L|274:81,1,70,2|0,0:0|0:0,0:0:0:0:
228,188,321936,1,0,0:0:0:0:
228,188,322036,2,0,B|182:169|182:169|85:188,1,140,2|0,0:0|0:0,0:0:0:0:
13,203,322336,1,8,0:0:0:0:
135,80,322536,1,8,0:0:0:0:
90,299,322736,6,0,P|26:263|14:195,1,140,2|0,0:0|0:0,0:0:0:0:
46,126,323036,1,2,0:0:0:0:
46,126,323136,1,0,0:0:0:0:
228,188,323336,2,0,P|262:253|235:316,1,140,2|0,0:0|0:0,0:0:0:0:
170,357,323636,1,2,0:0:0:0:
170,357,323736,1,0,0:0:0:0:
99,214,323936,1,8,0:0:0:0:
319,131,324136,1,8,0:0:0:0:
203,11,324336,6,0,P|210:51|228:86,1,70,2|0,0:0|0:0,0:0:0:0:
395,90,324536,1,0,0:0:0:0:
399,55,324636,1,2,0:0:0:0:
372,31,324736,2,0,L|294:22,1,70,0|0,0:0|0:0,0:0:0:0:
228,188,324936,2,0,L|306:179,1,70,2|0,0:0|0:0,0:0:0:0:
491,164,325136,5,8,0:0:0:0:
485,219,325236,1,8,0:0:0:0:
479,275,325336,1,0,0:0:0:0:
473,331,325436,2,0,B|386:350|429:288|316:307,1,140,8|8,0:0|0:0,0:0:0:0:
215,364,325736,1,8,0:0:0:0:
249,319,325836,1,2,0:0:0:0:
235,264,325936,6,0,P|209:173|185:117,1,140,2|0,0:0|0:0,0:0:0:0:
129,76,326236,1,2,0:0:0:0:
129,76,326336,1,0,0:0:0:0:
313,152,326536,2,0,P|387:93|439:62,1,140,2|0,0:0|0:0,0:0:0:0:
509,62,326836,1,2,0:0:0:0:
509,62,326936,1,0,0:0:0:0:
411,198,327136,1,8,0:0:0:0:
239,70,327336,1,8,0:0:0:0:
405,5,327536,6,0,P|390:37|376:94,1,70,2|0,0:0|0:0,0:0:0:0:
411,198,327736,1,0,0:0:0:0:
398,195,327836,1,2,0:0:0:0:
385,192,327936,1,0,0:0:0:0:
238,167,328136,1,2,0:0:0:0:
458,118,328336,1,0,0:0:0:0:
458,118,328436,2,0,P|499:194|498:267,1,140,2|0,0:0|0:0,0:0:0:0:
457,317,328736,1,8,0:0:0:0:
313,206,328936,1,8,0:0:0:0:
188,352,329136,6,0,L|360:322,1,140,2|0,0:0|0:0,0:0:0:0:
383,265,329436,1,2,0:0:0:0:
383,265,329536,1,0,0:0:0:0:
294,122,329736,2,0,L|122:92,1,140,2|0,0:0|0:0,0:0:0:0:
99,35,330036,1,2,0:0:0:0:
99,35,330136,1,0,0:0:0:0:
41,193,330336,1,8,0:0:0:0:
199,26,330536,1,8,0:0:0:0:
300,214,330736,6,0,L|322:304,1,70,2|0,0:0|0:0,0:0:0:0:
488,274,330936,1,0,0:0:0:0:
485,294,331036,1,2,0:0:0:0:
481,314,331136,2,0,L|459:404,1,70,0|0,0:0|0:0,0:0:0:0:
295,268,331336,2,0,L|278:200,1,70,2|0,0:0|0:0,0:0:0:0:
390,15,331536,5,0,0:0:0:0:
351,72,331636,1,0,0:0:0:0:
287,97,331736,1,10,0:1:0:0:
220,81,331836,1,10,0:1:0:0:
167,34,331936,5,10,0:1:0:0:
208,106,332036,1,2,0:0:0:0:
195,187,332136,1,8,0:0:0:0:
19,231,332336,6,0,P|94:212|165:275,1,167.999994873047,6|8,0:0|0:0,0:0:0:0:
89,383,332636,1,0,0:0:0:0:
89,383,332736,2,0,P|74:344|76:303,1,83.9999974365235,2|0,0:0|0:0,0:0:0:0:
238,201,332936,2,0,P|276:217|304:248,1,83.9999974365235,8|0,0:0|0:0,0:0:0:0:
349,373,333136,5,2,0:0:0:0:
476,196,333336,2,0,L|392:185,1,83.9999974365235,8|0,0:0|0:0,0:0:0:0:
232,88,333536,1,2,0:0:0:0:
288,37,333636,1,0,0:0:0:0:
363,32,333736,2,0,P|400:49|433:86,1,83.9999974365235,8|0,0:0|0:0,0:0:0:0:
285,247,333936,6,0,P|269:212|280:145,1,83.9999974365235,2|0,0:0|0:0,0:0:0:0:
482,280,334136,2,0,P|483:321|467:359,1,83.9999974365235,8|0,0:0|0:0,0:0:0:0:
302,264,334336,6,0,P|295:226|323:164,1,83.9999974365235,2|0,0:0|0:0,0:0:0:0:
470,257,334536,2,0,P|463:294|415:343,1,83.9999974365235,8|0,0:0|0:0,0:0:0:0:
224,348,334736,6,0,B|265:353|265:353|308:379,1,83.9999974365235,2|0,0:0|0:0,0:0:0:0:
380,237,334936,2,0,B|343:259|343:259|302:264,1,83.9999974365235,8|0,0:0|0:0,0:0:0:0:
119,186,335136,1,2,0:0:0:0:
132,103,335236,1,2,0:0:0:0:
195,47,335336,1,10,0:0:0:0:
278,45,335436,1,2,0:0:0:0:
345,97,335536,6,0,P|363:188|329:255,1,167.999994873047,2|8,0:0|0:0,0:0:0:0:
193,294,335836,1,0,0:0:0:0:
193,294,335936,2,0,P|153:271|131:239,1,83.9999974365235,2|0,0:0|0:0,0:0:0:0:
238,103,336136,2,0,P|233:144|211:179,1,83.9999974365235,8|0,0:0|0:0,0:0:0:0:
32,229,336336,5,2,0:0:0:0:
289,350,336536,2,0,P|290:304|266:255,1,83.9999974365235,8|0,0:0|0:0,0:0:0:0:
403,200,336736,2,0,P|364:176|309:172,1,83.9999974365235,2|0,0:0|0:0,0:0:0:0:
330,26,336936,2,0,P|290:47|259:93,1,83.9999974365235,8|0,0:0|0:0,0:0:0:0:
118,330,337136,6,0,L|208:325,1,83.9999974365235,2|0,0:0|0:0,0:0:0:0:
150,102,337336,2,0,L|60:97,1,83.9999974365235,8|0,0:0|0:0,0:0:0:0:
183,362,337536,2,0,L|268:333,1,83.9999974365235,2|0,0:0|0:0,0:0:0:0:
200,156,337736,2,0,L|114:128,1,83.9999974365235,8|0,0:0|0:0,0:0:0:0:
23,294,337936,6,0,P|60:309|109:310,1,83.9999974365235,2|0,0:0|0:0,0:0:0:0:
362,215,338136,2,0,P|322:219|274:208,1,83.9999974365235,8|0,0:0|0:0,0:0:0:0:
105,47,338336,5,2,0:0:0:0:
185,22,338436,1,2,0:0:0:0:
261,55,338536,1,10,0:0:0:0:
299,130,338636,1,2,0:0:0:0:
280,210,338736,6,0,P|261:154|335:61,1,167.999994873047,2|8,0:0|0:0,0:0:0:0:
435,142,339036,1,0,0:0:0:0:
435,142,339136,2,0,P|395:154|354:153,1,83.9999974365235,2|0,0:0|0:0,0:0:0:0:
181,87,339336,2,0,P|170:188|199:254,1,167.999994873047,8|2,0:0|0:0,0:0:0:0:
480,323,339736,5,8,0:0:0:0:
441,247,339836,1,0,0:0:0:0:
359,228,339936,2,0,P|313:239|273:270,1,83.9999974365235,2|0,0:0|0:0,0:0:0:0:
167,362,340136,2,0,P|148:324|117:296,1,83.9999974365235,8|0,0:0|0:0,0:0:0:0:
16,155,340336,6,0,P|53:169|109:167,1,83.9999974365235,2|0,0:0|0:0,0:0:0:0:
210,48,340536,2,0,P|247:34|303:36,1,83.9999974365235,8|0,0:0|0:0,0:0:0:0:
3,107,340736,6,0,P|35:130|89:142,1,83.9999974365235,2|0,0:0|0:0,0:0:0:0:
235,64,340936,2,0,P|276:59|317:70,1,83.9999974365235,8|0,0:0|0:0,0:0:0:0:
278,305,341136,6,0,P|241:222|283:148,1,167.999994873047,2|8,0:0|0:0,0:0:0:0:
414,208,341436,1,0,0:0:0:0:
414,208,341536,2,0,P|376:225|335:229,1,83.9999974365235,2|2,0:0|0:0,0:0:0:0:
143,143,341736,5,10,0:0:0:0:
156,60,341836,1,2,0:0:0:0:
229,19,341936,2,0,P|269:12|325:23,1,83.9999974365235,0|0,0:0|0:0,0:0:0:0:
250,232,342136,2,0,P|208:238|167:231,1,83.9999974365235,2|0,0:3|0:0,0:0:0:0:
34,82,342336,5,12,0:0:0:0:
107,41,342436,1,0,0:0:0:0:
189,56,342536,1,0,0:0:0:0:
242,120,342636,1,0,0:0:0:0:
241,204,342736,5,8,0:0:0:0:
211,125,342836,1,8,0:0:0:0:
239,47,342936,1,8,0:0:0:0:
311,5,343036,1,8,0:0:0:0:
394,19,343136,6,0,L|385:109,1,83.9999974365235,2|8,0:3|0:0,0:0:0:0:
249,287,343336,2,0,L|240:197,1,83.9999974365235,8|0,0:0|0:0,0:0:0:0:
86,51,343536,6,0,P|174:97|260:58,1,167.999994873047,2|0,0:3|0:0,0:0:0:0:
330,1,343836,1,2,0:3:0:0:
330,1,343936,2,0,P|351:35|357:80,1,83.9999974365235,0|0,0:0|0:0,0:0:0:0:
240,203,344136,5,2,0:3:0:0:
308,264,344236,2,0,L|302:309,1,41.9999987182618,0|8,0:0|0:0,0:0:0:0:
265,344,344336,5,10,0:3:0:0:
96,179,344636,5,2,0:3:0:0:
374,50,344936,5,2,0:3:0:0:
217,258,345136,6,0,P|189:200|194:132,1,125.999996154785,6|0,0:0|0:0,0:0:0:0:
236,104,345336,2,0,P|217:142|215:184,1,83.9999974365235,10|0,0:1|0:0,0:0:0:0:
327,288,345536,2,0,P|380:251|409:190,1,125.999996154785,2|0,0:0|0:0,0:0:0:0:
387,145,345736,2,0,P|383:186|365:224,1,83.9999974365235,10|0,0:1|0:0,0:0:0:0:
217,258,345936,1,2,0:0:0:0:
124,20,346136,5,10,0:1:0:0:
117,95,346236,1,0,0:0:0:0:
111,170,346336,2,0,L|103:264,1,83.9999974365235,2|0,0:0|0:0,0:0:0:0:
48,126,346536,1,10,0:1:0:0:
262,61,346736,6,0,L|272:215,1,125.999996154785,2|0,0:0|0:0,0:0:0:0:
303,232,346936,2,0,L|310:124,1,83.9999974365235,10|0,0:1|0:0,0:0:0:0:
467,60,347136,2,0,L|457:214,1,125.999996154785,2|0,0:0|0:0,0:0:0:0:
426,231,347336,2,0,L|419:123,1,83.9999974365235,10|0,0:1|0:0,0:0:0:0:
244,70,347536,6,0,L|259:301,1,167.999994873047,2|10,0:0|0:1,0:0:0:0:
337,342,347836,1,0,0:0:0:0:
337,342,347936,2,0,L|342:258,1,83.9999974365235,2|0,0:0|0:0,0:0:0:0:
159,162,348136,2,0,L|164:245,1,83.9999974365235,10|0,0:1|0:0,0:0:0:0:
398,150,348336,6,0,P|362:132|312:128,1,83.9999974365235,2|0,0:0|0:0,0:0:0:0:
90,58,348536,2,0,P|126:40|176:36,1,83.9999974365235,10|0,0:1|0:0,0:0:0:0:
374,158,348736,6,0,P|334:149|285:159,1,83.9999974365235,2|0,0:0|0:0,0:0:0:0:
114,66,348936,2,0,P|153:57|202:67,1,83.9999974365235,10|0,0:1|0:0,0:0:0:0:
317,245,349136,6,0,P|239:233|201:144,1,167.999994873047,2|10,0:0|0:1,0:0:0:0:
292,73,349436,1,0,0:0:0:0:
292,73,349536,2,0,P|298:114|291:156,1,83.9999974365235,2|0,0:0|0:0,0:0:0:0:
154,300,349736,2,0,P|136:262|130:220,1,83.9999974365235,10|0,0:1|0:0,0:0:0:0:
399,118,349936,6,0,L|413:214,1,83.9999974365235,2|0,0:0|0:0,0:0:0:0:
340,348,350136,2,0,L|327:264,1,83.9999974365235,10|0,0:1|0:0,0:0:0:0:
472,146,350336,6,0,L|436:236,1,83.9999974365235,2|0,0:0|0:0,0:0:0:0:
302,342,350536,2,0,L|250:277,1,83.9999974365235,10|0,0:1|0:0,0:0:0:0:
202,23,350736,5,10,3:1:0:0:
282,0,350836,1,0,3:1:0:0:
351,46,350936,1,0,3:1:0:0:
369,128,351036,5,10,3:1:0:0:
366,135,351136,1,0,3:1:0:0:
363,143,351236,1,0,3:1:0:0:
296,191,351336,5,10,3:1:0:0:
299,199,351436,1,0,3:1:0:0:
302,207,351536,6,0,P|309:268|281:328,1,125.999996154785,6|0,0:0|0:0,0:0:0:0:
227,330,351736,2,0,P|261:307|277:269,1,83.9999974365235,10|0,0:1|0:0,0:0:0:0:
206,150,351936,2,0,P|148:174|112:225,1,125.999996154785,2|0,0:0|0:0,0:0:0:0:
136,276,352136,2,0,P|138:234|163:202,1,83.9999974365235,10|0,0:1|0:0,0:0:0:0:
429,108,352336,6,0,P|374:107|320:62,1,125.999996154785,2|0,0:0|0:0,0:0:0:0:
283,19,352536,2,0,P|306:64|309:100,1,83.9999974365235,10|0,0:1|0:0,0:0:0:0:
298,221,352736,2,0,P|269:173|203:149,1,125.999996154785,2|0,0:0|0:0,0:0:0:0:
147,139,352936,2,0,P|197:136|230:121,1,83.9999974365235,10|0,0:1|0:0,0:0:0:0:
413,33,353136,6,0,P|495:70|502:122,1,125.999996154785,2|0,0:0|0:0,0:0:0:0:
483,149,353336,2,0,P|486:102|466:68,1,83.9999974365235,10|0,0:1|0:0,0:0:0:0:
331,75,353536,2,0,P|322:164|363:196,1,125.999996154785,2|0,0:0|0:0,0:0:0:0:
396,193,353736,2,0,P|353:172|334:137,1,83.9999974365235,10|0,0:1|0:0,0:0:0:0:
283,2,353936,6,0,P|197:4|158:76,1,167.999994873047,2|10,0:0|0:1,0:0:0:0:
242,155,354236,1,0,0:0:0:0:
242,155,354336,2,0,P|251:114|241:74,1,83.9999974365235,2|0,0:0|0:0,0:0:0:0:
76,80,354536,2,0,P|65:120|75:160,1,83.9999974365235,10|0,0:1|0:0,0:0:0:0:
286,211,354736,6,0,P|253:185|197:169,1,83.9999974365235,2|0,0:0|0:0,0:0:0:0:
31,216,354936,2,0,P|63:190|119:174,1,83.9999974365235,10|0,0:1|0:0,0:0:0:0:
311,275,355136,6,0,P|305:234|277:183,1,83.9999974365235,2|0,0:0|0:0,0:0:0:0:
6,280,355336,2,0,P|11:239|39:188,1,83.9999974365235,10|0,0:1|0:0,0:0:0:0:
241,97,355536,6,0,P|165:61|99:102,1,167.999994873047,2|10,0:0|0:1,0:0:0:0:
171,228,355836,1,0,0:0:0:0:
171,228,355936,2,0,L|172:145,1,83.9999974365235,2|0,0:0|0:0,0:0:0:0:
324,20,356136,2,0,L|325:103,1,83.9999974365235,10|0,0:1|0:0,0:0:0:0:
323,313,356336,6,0,P|371:226|316:263,1,262.500010013581,8|0,0:0|0:0,0:0:0:0:
312,217,356636,2,0,P|401:204|425:346,1,262.500010013581,2|0,0:0|0:0,0:0:0:0:
327,372,356936,2,0,P|334:320|368:281,1,105.000004005432,8|0,0:1|0:0,0:0:0:0:
512,210,357136,5,0,3:0:0:0:
435,105,357236,1,2,3:2:0:0:
435,105,357336,2,0,P|386:90|332:112,1,105.000004005432,0|0,3:0|0:0,0:0:0:0:
233,306,357536,2,0,P|270:271|278:213,1,105.000004005432,8|0,0:0|0:0,0:0:0:0:
154,37,357736,2,0,P|165:86|211:122,1,105.000004005432,8|0,0:0|0:0,0:0:0:0:
177,227,357936,6,0,P|119:262|38:246,1,125.999996154785,6|0,0:0|0:0,0:0:0:0:
28,284,358136,2,0,P|23:325|33:366,1,83.9999974365235,10|0,0:1|0:0,0:0:0:0:
174,90,358336,2,0,P|232:125|313:109,1,125.999996154785,2|0,0:0|0:0,0:0:0:0:
323,147,358536,2,0,P|327:188|317:229,1,83.9999974365235,10|0,0:1|0:0,0:0:0:0:
245,331,358736,1,2,0:0:0:0:
480,384,358936,5,10,0:1:0:0:
512,306,359036,1,0,0:0:0:0:
479,228,359136,2,0,L|390:209,1,83.9999974365235,2|0,0:0|0:0,0:0:0:0:
232,181,359336,1,10,0:1:0:0:
295,66,359536,6,0,B|331:49|368:65|347:83|383:93|431:74,1,125.999996154785,2|0,0:0|0:0,0:0:0:0:
477,28,359736,2,0,P|431:1|379:9,1,83.9999974365235,10|0,0:1|0:0,0:0:0:0:
232,181,359936,2,0,B|196:164|159:180|180:198|144:208|96:189,1,125.999996154785,2|0,0:0|0:0,0:0:0:0:
50,143,360136,2,0,P|96:116|148:124,1,83.9999974365235,10|0,0:1|0:0,0:0:0:0:
81,350,360336,6,0,P|-4:313|11:240,1,167.999994873047,2|10,0:0|0:1,0:0:0:0:
154,290,360636,1,0,0:0:0:0:
154,290,360736,2,0,P|169:333|169:378,1,83.9999974365235,2|0,0:0|0:0,0:0:0:0:
50,143,360936,2,0,P|51:101|65:61,1,83.9999974365235,10|0,0:1|0:0,0:0:0:0:
291,173,361136,6,0,P|266:210|205:234,1,83.9999974365235,2|0,0:0|0:0,0:0:0:0:
333,349,361336,2,0,P|289:357|229:331,1,83.9999974365235,10|0,0:1|0:0,0:0:0:0:
115,115,361536,6,0,P|155:104|196:113,1,83.9999974365235,2|0,0:0|0:0,0:0:0:0:
95,233,361737,2,0,P|130:254|153:289,1,83.9999974365235,10|0,0:1|0:0,0:0:0:0:
333,349,361936,6,0,P|435:289|420:236,1,167.999994873047,2|10,0:0|0:1,0:0:0:0:
381,150,362236,1,0,0:0:0:0:
381,150,362336,2,0,L|479:139,1,83.9999974365235,2|0,0:0|0:0,0:0:0:0:
327,29,362536,2,0,L|229:18,1,83.9999974365235,10|0,0:1|0:0,0:0:0:0:
70,10,362736,6,0,P|107:46|120:81,1,83.9999974365235,2|0,0:0|0:0,0:0:0:0:
228,48,362936,2,0,P|228:99|213:133,1,83.9999974365235,10|0,0:1|0:0,0:0:0:0:
110,341,363136,6,0,P|111:289|129:256,1,83.9999974365235,2|0,0:0|0:0,0:0:0:0:
32,198,363336,2,0,P|69:162|105:151,1,83.9999974365235,10|0,0:1|0:0,0:0:0:0:
302,16,363536,5,10,3:1:0:0:
359,75,363636,1,0,3:1:0:0:
351,158,363736,1,0,3:1:0:0:
306,228,363836,5,10,3:1:0:0:
313,229,363936,1,0,3:1:0:0:
322,230,364036,1,0,3:1:0:0:
398,221,364136,5,10,3:1:0:0:
404,227,364236,1,0,3:1:0:0:
408,232,364336,6,0,P|429:296|404:359,1,125.999996154785,6|0,0:0|0:0,0:0:0:0:
441,379,364536,2,0,L|530:362,1,83.9999974365235,10|0,0:1|0:0,0:0:0:0:
233,167,364736,2,0,P|212:231|237:294,1,125.999996154785,2|0,0:0|0:0,0:0:0:0:
191,298,364936,2,0,L|104:286,1,83.9999974365235,10|0,0:1|0:0,0:0:0:0:
319,374,365136,1,2,0:0:0:0:
512,247,365336,5,10,0:1:0:0:
495,164,365436,1,0,0:0:0:0:
476,82,365536,2,0,L|458:-1,1,83.9999974365235,2|0,0:0|0:0,0:0:0:0:
364,148,365736,1,10,0:1:0:0:
172,11,365936,6,0,P|225:6|285:66,1,125.999996154785,2|0,0:0|0:0,0:0:0:0:
291,90,366136,2,0,P|304:54|330:13,1,83.9999974365235,10|0,0:1|0:0,0:0:0:0:
164,137,366336,2,0,P|111:132|51:192,1,125.999996154785,2|0,0:0|0:0,0:0:0:0:
45,216,366536,2,0,P|32:180|6:139,1,83.9999974365235,10|0,0:1|0:0,0:0:0:0:
6,324,366736,6,0,L|174:300,1,167.999994873047,2|10,0:0|0:1,0:0:0:0:
248,173,367036,1,0,0:0:0:0:
248,173,367136,2,0,P|253:125|233:77,1,83.9999974365235,2|0,0:0|0:0,0:0:0:0:
356,291,367336,2,0,P|351:339|371:387,1,83.9999974365235,10|0,0:1|0:0,0:0:0:0:
499,172,367536,6,0,P|461:158|397:173,1,83.9999974365235,2|0,0:0|0:0,0:0:0:0:
199,247,367736,2,0,P|237:261|301:246,1,83.9999974365235,10|0,0:1|0:0,0:0:0:0:
284,18,367936,6,0,L|298:109,1,83.9999974365235,2|0,0:0|0:0,0:0:0:0:
432,322,368136,2,0,L|444:238,1,83.9999974365235,10|0,0:1|0:0,0:0:0:0:
449,45,368336,6,0,B|461:31|487:29|487:29|405:5|351:56,1,167.999994873047,2|10,0:0|0:1,0:0:0:0:
114,137,368636,1,0,0:0:0:0:
114,137,368736,2,0,B|102:123|76:121|76:121|158:97|212:148,1,167.999994873047,2|10,0:0|0:1,0:0:0:0:
432,370,369136,6,0,B|457:268|483:336|517:220,1,167.999994873047,12|0,0:0|0:0,0:0:0:0:
374,248,369436,2,0,B|319:158|386:187|328:81,1,167.999994873047,2|0,0:0|0:0,0:0:0:0:
246,234,369736,2,0,B|144:208|211:183|96:148,1,167.999994873047,12|0,0:1|0:0,0:0:0:0:
176,328,370036,2,0,B|86:382|115:315|9:373,1,167.999994873047,2|0,0:2|0:0,0:0:0:0:
0,189,370336,6,0,P|35:215|53:277,1,105.000004005432,8|0,0:0|0:0,0:0:0:0:
170,90,370536,2,0,P|183:40|223:7,1,105.000004005432,8|0,0:0|0:0,0:0:0:0:
390,103,370736,6,0,P|433:109|469:128,1,83.9999974365235,6|0,0:0|0:0,0:0:0:0:
246,234,370936,2,0,P|204:228|167:209,1,83.9999974365235,10|0,0:1|0:0,0:0:0:0:
295,97,371136,2,0,B|302:195|348:154|354:253,1,167.999994873047,2|10,0:0|0:1,0:0:0:0:
414,351,371536,6,0,L|427:267,1,83.9999974365235,2|0,0:0|0:0,0:0:0:0:
512,287,371736,2,0,L|500:371,1,83.9999974365235,10|0,0:1|0:0,0:0:0:0:
246,234,371936,6,0,L|233:150,1,83.9999974365235,2|0,0:0|0:0,0:0:0:0:
148,170,372136,2,0,L|160:253,1,83.9999974365235,10|0,0:1|0:0,0:0:0:0:
32,298,372336,6,0,B|74:281|122:302|93:328|140:342|188:330,1,167.999994873047,2|10,0:0|0:1,0:0:0:0:
336,282,372636,1,0,0:0:0:0:
336,282,372736,2,0,P|355:329|354:366,1,83.9999974365235,2|0,0:0|0:0,0:0:0:0:
233,150,372936,2,0,P|234:108|251:70,1,83.9999974365235,10|0,0:1|0:0,0:0:0:0:
485,127,373136,6,0,B|457:121|427:139|427:139|407:129|387:124|387:124|358:139|297:135,1,167.999994873047,2|10,0:0|0:1,0:0:0:0:
127,112,373436,1,0,0:0:0:0:
127,112,373536,5,2,0:0:0:0:
168,104,373636,1,0,0:0:0:0:
207,118,373736,1,10,0:1:0:0:
233,150,373836,1,0,0:0:0:0:
240,191,373936,5,2,0:0:0:0:
240,191,374136,2,0,P|282:172|332:168,1,83.9999974365235,10|0,0:1|0:0,0:0:0:0:
145,273,374336,2,0,P|107:246|79:204,1,83.9999974365235,2|0,0:0|0:0,0:0:0:0:
243,300,374536,2,0,L|257:405,1,83.9999974365235,10|0,0:1|0:0,0:0:0:0:
479,319,374736,6,0,P|437:334|393:330,1,83.9999974365235,2|0,0:0|0:0,0:0:0:0:
240,191,374936,1,10,0:1:0:0:
240,191,375036,1,0,0:0:0:0:
319,163,375136,2,0,P|352:191|368:238,1,83.9999974365235,2|0,0:0|0:0,0:0:0:0:
114,383,375336,2,0,P|130:344|162:317,1,83.9999974365235,10|0,0:1|0:0,0:0:0:0:
84,123,375536,6,0,L|-6:133,1,83.9999974365235,2|0,0:0|0:0,0:0:0:0:
6,247,375736,2,0,L|89:237,1,83.9999974365235,10|0,0:1|0:0,0:0:0:0:
256,212,375936,5,2,0:0:0:0:
306,147,376036,1,0,0:0:0:0:
298,66,376136,1,10,0:1:0:0:
235,13,376236,1,0,0:0:0:0:
150,4,376336,5,10,3:1:0:0:
216,55,376436,1,0,3:1:0:0:
298,66,376536,1,0,3:1:0:0:
380,53,376636,5,10,3:1:0:0:
388,55,376736,1,0,3:1:0:0:
396,57,376836,1,0,3:1:0:0:
468,98,376936,5,10,3:1:0:0:
475,94,377036,1,0,3:1:0:0:
481,92,377136,6,0,P|482:52|462:7,1,83.9999974365235,6|0,0:0|0:0,0:0:0:0:
306,148,377336,2,0,P|289:186|290:228,1,83.9999974365235,10|0,0:1|0:0,0:0:0:0:
394,345,377536,2,0,B|465:367|506:316|473:228|346:251|395:317|344:356|231:328,1,335.999989746094,2|2,0:0|0:0,0:0:0:0:
153,185,378136,6,0,P|189:216|205:265,1,83.9999974365235,10|0,0:1|0:0,0:0:0:0:
0,277,378336,2,0,P|8:230|43:191,1,83.9999974365235,2|0,0:0|0:0,0:0:0:0:
160,358,378536,2,0,P|115:373|64:363,1,83.9999974365235,10|0,0:1|0:0,0:0:0:0:
246,331,378736,6,0,P|290:315|341:325,1,83.9999974365235,2|0,0:0|0:0,0:0:0:0:
501,242,378936,2,0,P|456:257|405:247,1,83.9999974365235,10|0,0:1|0:0,0:0:0:0:
248,89,379136,6,0,P|290:109|318:152,1,83.9999974365235,2|0,0:0|0:0,0:0:0:0:
512,0,379336,2,0,P|497:39|502:80,1,83.9999974365235,10|0,0:1|0:0,0:0:0:0:
425,175,379536,6,0,B|410:143|415:109|415:109|389:84|389:84|393:54|364:-15,1,167.999994873047,2|10,0:0|0:1,0:0:0:0:
296,223,379836,2,0,B|343:204|390:223|360:249|415:262|454:247,1,167.999994873047,0|0,0:0|0:0,0:0:0:0:
256,296,380136,2,0,P|220:259|218:206,1,83.9999974365235,10|0,0:1|0:0,0:0:0:0:
259,13,380336,6,0,P|219:34|169:38,1,83.9999974365235,2|0,0:0|0:0,0:0:0:0:
0,73,380536,2,0,P|39:94|90:98,1,83.9999974365235,10|0,0:1|0:0,0:0:0:0:
317,92,380736,6,0,P|287:126|241:147,1,83.9999974365235,2|0,0:0|0:0,0:0:0:0:
14,262,380936,2,0,P|58:268|106:253,1,83.9999974365235,10|0,0:1|0:0,0:0:0:0:
145,109,381136,6,0,B|180:140|175:184|175:184|152:222|184:284,1,167.999994873047,2|10,0:0|0:1,0:0:0:0:
256,296,381436,1,0,0:0:0:0:
336,264,381536,2,0,B|360:222|337:184|337:184|332:140|367:109,1,167.999994873047,2|10,0:0|0:1,0:0:0:0:
452,371,381936,6,0,P|413:301|286:267,1,167.999994873047,12|0,0:0|0:0,0:0:0:0:
60,371,382236,2,0,P|99:301|226:267,1,167.999994873047,2|0,0:0|0:0,0:0:0:0:
458,63,382536,2,0,P|373:112|328:193,1,167.999994873047,12|0,0:1|0:0,0:0:0:0:
54,63,382836,2,0,P|139:112|184:193,1,167.999994873047,2|0,0:0|0:0,0:0:0:0:
256,384,383136,6,0,B|255:366|262:345|262:345|249:324|249:324|258:304|256:275,1,105.000004005432,12|0,0:0|0:0,0:0:0:0:
256,0,383336,2,0,B|257:18|250:39|250:39|263:60|263:60|254:80|256:108,1,105.000004005432,8|0,0:0|0:0,0:0:0:0:
170,51,383536,5,0,0:0:0:0:
129,42,383639,1,2,0:0:0:0:
335,96,383846,5,0,0:0:0:0:
376,87,383949,1,2,0:0:0:0:
130,186,384156,5,0,0:0:0:0:
89,177,384259,1,2,0:0:0:0:
353,231,384459,5,0,0:0:0:0:
394,222,384556,1,2,0:0:0:0:
99,332,384750,5,0,0:0:0:0:
58,323,384846,1,2,0:0:0:0:
368,354,385040,5,0,0:0:0:0:
409,345,385137,2,0,L|488:326,2,70,2|0|0,0:0|0:0|0:0,0:0:0:0:
256,192,385449,12,2,388157,0:0:0:0:
256,192,388611,5,2,0:0:0:0:
104,98,390866,5,2,0:0:0:0:
101,114,391606,1,2,0:0:0:0:
235,157,393856,5,2,0:0:0:0:
238,173,394616,2,0,P|203:174|145:202,1,70,2|0,0:0|0:0,0:0:0:0:
51,252,395366,2,0,P|84:263|118:264,1,70,0|0,0:0|0:0,0:0:0:0:
220,246,396116,2,0,L|238:399,1,140,0|2,0:0|0:0,0:0:0:0:
288,177,397616,6,0,P|255:166|219:127,1,70,2|0,0:0|0:0,0:0:0:0:
384,106,398366,2,0,P|442:98|524:148,1,140,0|0,0:0|0:0,0:0:0:0:
409,236,399866,1,2,0:0:0:0:
299,96,400616,1,2,0:0:0:0:
256,192,400803,12,2,405866,0:0:0:0:
234,42,406616,5,2,0:0:0:0:
239,65,407727,1,2,0:0:0:0:
245,91,408859,1,2,0:0:0:0:
300,180,409602,5,2,0:0:0:0:
323,199,410852,5,2,0:0:0:0:
355,195,412378,5,2,0:0:0:0:
460,100,413773,5,2,0:0:0:0:
256,192,413955,12,0,416699,0:0:0:0:
