osu file format v14

[General]
AudioFilename: audio.mp3
AudioLeadIn: 0
PreviewTime: 124607
Countdown: 0
SampleSet: Soft
StackLeniency: 0.3
Mode: 0
LetterboxInBreaks: 0
WidescreenStoryboard: 0

[Editor]
Bookmarks: 43102,68547,96244,156871,176602,202724,231881,257311,282741,308172,333602,365390,378106
DistanceSpacing: 0.7
BeatDivisor: 4
GridSize: 16
TimelineZoom: 2.999999

[Metadata]
Title:Shoujo Hishou Kyoku ~ Everlasting Longing
TitleUnicode:少女飛翔曲 ~ Everlasting Longing
Artist:Diao Ye Zong feat. Meramipop
ArtistUnicode:凋叶棕 feat. めらみぽっぷ
Creator:Deca
Version:Deliverance
Source:東方文花帖 ~ Shoot the Bullet
Tags:aya shameimaru rd-sounds tatoe comiket c88 maiden's flight 東方Project zun
BeatmapID:1586397
BeatmapSetID:753483

[Difficulty]
HPDrainRate:4
CircleSize:4
OverallDifficulty:8
ApproachRate:9.5
SliderMultiplier:2.4
SliderTickRate:1

[Events]
//Background and Video events
0,0,"aya2.png",0,0
//Break Periods
2,21051,29465
2,153447,156346
2,307577,329899
//Storyboard Layer 0 (Background)
//Storyboard Layer 1 (Fail)
//Storyboard Layer 2 (Pass)
//Storyboard Layer 3 (Foreground)
//Storyboard Sound Samples

[TimingPoints]
189,397.350993377483,4,2,1,60,1,0
1778,-333.333333333333,4,2,1,40,0,0
29990,-200,4,2,1,40,0,0
30387,-200,4,2,1,35,0,0
41513,-142.857142857143,4,2,1,40,0,0
43102,-83.3333333333333,4,2,1,40,0,0
55023,-142.857142857143,4,2,1,40,0,0
68533,-200,4,2,1,30,0,0
70122,408.163265306122,4,2,1,30,1,0
70122,-200,4,2,1,30,0,0
82979,-142.857142857143,4,2,1,40,0,0
96244,-200,4,2,2,40,0,0
102775,-125,4,2,2,45,0,0
108693,-125,4,2,1,35,0,0
109305,402.684563758389,4,2,1,50,1,0
121788,-83.3333333333333,4,2,1,55,0,0
124607,397.350993377483,4,2,1,60,1,0
125401,397.350993377483,4,2,1,65,1,1
125401,-66.6666666666667,4,2,1,65,0,1
148447,-76.9230769230769,4,2,1,60,0,1
148844,-90.9090909090909,4,2,1,60,0,1
149838,-166.666666666667,4,2,1,60,0,0
150831,402.684563758389,4,2,1,60,1,0
150831,-285.714285714286,4,2,1,60,0,0
156871,-200,4,2,2,30,0,0
173381,-125,4,2,2,40,0,0
176602,408.163265306122,4,2,1,30,1,0
176602,-200,4,2,1,30,0,0
188030,-142.857142857143,4,2,1,30,0,0
189663,-125,4,2,1,45,0,0
199867,-90.9090909090909,4,2,1,50,0,0
201908,-125,4,2,1,50,0,0
202112,-142.857142857143,4,2,1,50,0,0
202316,-166.666666666667,4,2,1,50,0,0
202520,-200,4,2,1,50,0,0
202724,-200,4,2,2,40,0,0
209050,-125,4,2,2,45,0,0
215173,-125,4,2,1,35,0,0
215785,402.684563758389,4,2,1,50,1,0
228268,-83.3333333333333,4,2,1,55,0,0
231087,397.350993377483,4,2,1,60,1,0
231881,397.350993377483,4,2,1,65,1,1
231881,-66.6666666666667,4,2,1,65,0,1
254927,-76.9230769230769,4,2,1,55,0,1
256516,-90.9090909090909,4,2,1,40,0,0
257311,-90.9090909090909,4,2,1,40,0,0
258304,-76.9230769230769,4,2,1,40,0,0
279563,-111.111111111111,4,2,1,35,0,0
330424,-200,4,2,1,60,0,0
332808,-200,4,2,1,60,0,1
333602,-62.5,4,2,1,70,0,1
356649,-76.9230769230769,4,2,1,60,0,1
362212,-90.9090909090909,4,2,1,60,0,1
364596,397.350993377483,4,2,1,50,1,0
364596,-100,4,2,1,50,0,0
378304,-125,4,2,1,40,0,0
390821,-200,4,2,1,35,0,0
391615,-250,4,2,1,30,0,0
392410,-333.333333333333,4,2,1,20,0,0
393205,-500,4,2,1,15,0,0
395531,397.350993377483,4,2,1,10,1,0

[Colours]
Combo1 : 236,197,91
Combo2 : 225,60,30
Combo3 : 215,113,51

[HitObjects]
191,165,1778,6,0,L|302:176,1,107.999996704102,2|0,0:0|0:0,0:0:0:0:
427,256,2573,2,0,L|315:267,1,107.999996704102,2|0,0:0|0:0,0:0:0:0:
377,79,3367,2,0,L|388:186,1,107.999996704102,2|0,0:0|0:0,0:0:0:0:
226,384,4162,2,0,L|237:276,1,107.999996704102,2|0,0:0|0:0,0:0:0:0:
269,56,4957,6,0,P|282:103|263:167,1,107.999996704102,2|0,0:0|0:0,0:0:0:0:
139,42,5751,2,0,P|182:59|208:120,1,107.999996704102,2|0,0:0|0:0,0:0:0:0:
47,157,6546,2,0,P|72:123|137:117,1,107.999996704102,2|0,0:0|0:0,0:0:0:0:
149,267,7341,2,0,P|113:244|113:181,1,107.999996704102,2|0,0:0|0:0,0:0:0:0:
269,56,8136,6,0,B|274:124|274:124|266:175,1,107.999996704102,2|0,0:0|0:0,0:0:0:0:
302,342,8930,2,0,B|311:302|311:302|301:235,1,107.999996704102,2|0,0:0|0:0,0:0:0:0:
365,72,9725,2,0,B|379:136|379:136|362:191,1,107.999996704102,2|0,0:0|0:0,0:0:0:0:
404,335,10520,2,0,L|420:292,3,35.9999989013672
512,187,11314,5,2,0:0:0:0:
488,184,11712,1,2,0:0:0:0:
464,181,12109,1,2,0:0:0:0:
440,179,12506,1,2,0:0:0:0:
248,120,12904,5,2,0:0:0:0:
272,117,13302,1,2,0:0:0:0:
296,114,13699,1,2,0:0:0:0:
320,112,14096,1,2,0:0:0:0:
282,269,14493,5,2,0:0:0:0:
279,292,14891,1,2,0:0:0:0:
276,316,15288,1,2,0:0:0:0:
274,340,15685,1,2,0:0:0:0:
108,246,16083,5,2,0:0:0:0:
106,222,16480,1,2,0:0:0:0:
103,198,16877,1,2,0:0:0:0:
100,175,17275,1,2,0:0:0:0:
256,192,17672,5,2,0:0:0:0:
256,192,17771,12,0,20851,0:0:0:0:
33,264,29990,6,0,P|79:263|99:253,1,60
178,195,30387,2,0,B|215:149|289:155|289:155|316:197|356:201,1,180,2|0,0:0|0:0,0:0:0:0:
454,231,31182,2,0,L|460:167,1,60,2|2,0:0|0:0,0:0:0:0:
357,62,31579,2,0,L|363:121,1,60,2|2,0:0|0:0,0:0:0:0:
365,294,31977,6,0,P|407:320|446:223,1,180,2|0,0:0|0:0,0:0:0:0:
329,193,32771,2,0,L|269:199,1,60,2|2,0:0|0:0,0:0:0:0:
142,264,33169,2,0,L|82:257,1,60,2|2,0:0|0:0,0:0:0:0:
43,128,33566,6,0,B|137:91|130:169|225:128,1,180,2|0,0:0|0:0,0:0:0:0:
169,0,34361,2,0,L|175:59,1,60,2|0,0:0|0:0,0:0:0:0:
83,258,34758,2,0,L|89:198,1,60,2|0,0:0|0:0,0:0:0:0:
339,95,35155,5,2,0:0:0:0:
317,208,35354,1,2,0:0:0:0:
218,144,35553,1,2,0:0:0:0:
258,33,35751,1,2,0:0:0:0:
258,33,35851,1,2,0:0:0:0:
258,33,35950,2,0,P|306:-2|378:5,1,120,2|2,0:0|0:0,0:0:0:0:
446,227,36745,6,0,L|457:115,2,90,2|2|2,0:0|0:0|0:0,0:0:0:0:
325,298,37539,2,0,L|313:186,2,90,2|2|2,0:0|0:0|0:0,0:0:0:0:
202,384,38334,2,0,L|213:272,2,90,2|2|2,0:0|0:0|0:0,0:0:0:0:
82,308,39129,1,2,0:0:0:0:
82,308,39526,1,2,0:0:0:0:
82,308,39924,5,2,0:0:0:0:
0,160,40122,1,2,0:0:0:0:
135,255,40321,1,2,0:0:0:0:
90,123,40519,1,2,0:0:0:0:
203,228,40718,1,2,0:0:0:0:
208,100,40916,1,2,0:0:0:0:
287,219,41116,1,2,0:0:0:0:
328,110,41314,1,2,0:0:0:0:
369,224,41513,6,0,P|350:278|314:297,1,83.9999974365235,2|0,0:0|0:0,0:0:0:0:
203,228,41811,2,0,L|286:219,1,83.9999974365235,2|0,0:0|0:0,0:0:0:0:
452,206,42109,2,0,L|456:164,1,41.9999987182618,2|0,0:0|0:0,0:0:0:0:
411,85,42308,5,8,0:0:0:0:
375,40,42408,1,8,0:0:0:0:
319,59,42507,1,8,0:0:0:0:
322,118,42607,1,8,0:0:0:0:
378,134,42706,1,8,0:0:0:0:
223,0,43102,5,4,1:0:0:0:
102,78,43301,1,8,0:0:0:0:
197,263,43500,1,0,1:0:0:0:
248,144,43698,1,8,0:0:0:0:
33,190,43897,5,0,1:0:0:0:
124,313,44096,1,8,0:0:0:0:
320,216,44294,1,0,1:0:0:0:
154,171,44493,1,8,0:0:0:0:
268,343,44692,5,0,1:0:0:0:
389,255,44890,1,8,0:0:0:0:
227,90,45089,1,0,1:0:0:0:
224,214,45288,1,8,0:0:0:0:
416,97,45487,5,0,1:0:0:0:
430,64,45586,1,0,1:0:0:0:
421,30,45685,1,8,0:0:0:0:
393,9,45785,1,0,1:0:0:0:
355,0,45884,1,0,1:0:0:0:
302,8,45983,1,0,1:0:0:0:
266,46,46082,1,8,0:0:0:0:
261,99,46182,1,0,0:0:0:0:
289,143,46281,5,0,0:0:0:0:
311,367,46480,1,8,0:0:0:0:
171,258,46679,1,0,1:0:0:0:
359,226,46877,1,8,0:0:0:0:
223,384,47076,5,0,1:0:0:0:
174,163,47275,1,8,0:0:0:0:
310,285,47473,1,0,1:0:0:0:
112,333,47672,1,8,0:0:0:0:
74,148,47871,6,0,P|113:79|200:63,1,143.999995605469
304,52,48268,1,0,1:0:0:0:
348,72,48367,1,8,0:0:0:0:
364,113,48467,1,0,1:0:0:0:
360,134,48566,1,8,0:0:0:0:
351,145,48665,2,0,L|342:224,1,71.9999978027344,8|0,1:2|0:0,0:0:0:0:
321,383,48864,2,0,L|313:311,1,71.9999978027344,8|0,1:2|0:0,0:0:0:0:
259,126,49063,2,0,L|250:205,1,71.9999978027344,8|0,1:2|0:0,0:0:0:0:
222,384,49262,2,0,L|214:312,1,71.9999978027344,8|0,1:2|0:0,0:0:0:0:
180,107,49460,5,0,1:0:0:0:
134,295,49659,1,8,0:0:0:0:
313,311,49857,1,0,1:0:0:0:
193,226,50056,5,8,0:0:0:0:
193,226,50155,1,0,0:0:0:0:
193,226,50255,2,0,P|109:205|51:250,1,143.999995605469,0|8,1:0|0:0,0:0:0:0:
1,371,50652,1,0,1:0:0:0:
134,295,50851,1,8,0:0:0:0:
1,119,51049,5,0,1:0:0:0:
36,275,51248,1,8,0:0:0:0:
107,26,51447,1,0,1:0:0:0:
76,196,51645,1,8,0:0:0:0:
280,0,51844,5,0,1:0:0:0:
134,118,52043,1,8,0:0:0:0:
414,64,52241,1,0,1:0:0:0:
223,84,52440,1,8,0:0:0:0:
365,139,52639,6,0,P|416:208|398:274,1,143.999995605469,0|8,1:0|0:0,0:0:0:0:
260,354,53036,1,0,1:0:0:0:
184,237,53235,1,8,0:0:0:0:
184,237,53334,1,2,0:0:0:0:
184,237,53434,2,0,L|327:221,1,143.999995605469,0|8,1:0|0:0,0:0:0:0:
505,202,53831,5,0,1:0:0:0:
506,184,53930,1,0,0:0:0:0:
508,166,54029,1,8,0:0:0:0:
510,148,54129,1,0,0:0:0:0:
512,130,54228,5,8,0:0:0:0:
468,99,54327,1,0,0:0:0:0:
415,92,54426,1,0,1:0:0:0:
365,111,54526,1,0,1:0:0:0:
329,151,54625,1,0,1:0:0:0:
288,186,54725,1,8,0:0:0:0:
236,199,54824,1,0,1:0:0:0:
184,187,54924,1,0,1:0:0:0:
142,155,55023,2,0,L|136:107,3,41.9999987182618,8|2|0|2,0:0|0:0|1:0|0:0,0:0:0:0:
58,136,55420,2,0,L|53:178,3,41.9999987182618,0|0|0|0,1:0|1:0|1:0|1:0,0:0:0:0:
53,177,55818,5,4,1:0:0:0:
136,301,56016,1,8,0:0:0:0:
136,301,56116,2,0,L|139:269,2,20.9999993591309,2|2|0,0:0|0:0|1:0,0:0:0:0:
257,323,56414,2,0,L|257:344,1,20.9999993591309,8|2,0:0|0:0,0:0:0:0:
289,320,56513,2,0,L|300:343,1,20.9999993591309,2|2,0:0|0:0,0:0:0:0:
317,303,56612,1,0,1:0:0:0:
322,266,56712,1,2,0:0:0:0:
309,236,56811,1,8,0:0:0:0:
281,219,56910,1,2,0:0:0:0:
251,206,57010,1,0,1:0:0:0:
235,177,57109,1,2,0:0:0:0:
240,144,57209,1,8,0:0:0:0:
263,121,57308,1,2,0:0:0:0:
296,116,57407,5,0,1:0:0:0:
259,96,57506,1,2,0:0:0:0:
218,92,57605,1,0,0:0:0:0:
178,103,57705,2,0,L|169:85,1,20.9999993591309,2|2,0:0|0:0,0:0:0:0:
145,129,57804,1,0,1:0:0:0:
125,166,57903,1,2,0:0:0:0:
120,207,58003,1,8,0:0:0:0:
131,247,58102,1,2,0:0:0:0:
141,288,58202,2,0,L|161:290,1,20.9999993591309,0|2,1:0|0:0,0:0:0:0:
126,326,58301,2,0,L|142:338,1,20.9999993591309,2|2,0:0|0:0,0:0:0:0:
92,350,58401,1,8,0:0:0:0:
51,351,58500,1,2,0:0:0:0:
16,329,58599,1,0,1:0:0:0:
0,290,58699,1,2,0:0:0:0:
8,250,58798,1,8,0:0:0:0:
37,221,58897,2,0,L|78:216,1,41.9999987182618,2|0,0:0|1:0,0:0:0:0:
224,185,59195,5,8,0:0:0:0:
257,189,59294,1,2,0:0:0:0:
284,208,59393,1,0,1:0:0:0:
300,237,59493,1,2,0:0:0:0:
302,270,59592,1,8,0:0:0:0:
289,300,59692,1,2,0:0:0:0:
293,334,59791,1,0,1:0:0:0:
310,362,59890,1,2,0:0:0:0:
338,380,59990,1,8,0:0:0:0:
371,384,60089,1,2,0:0:0:0:
403,374,60188,1,0,1:0:0:0:
427,351,60288,1,2,0:0:0:0:
438,320,60387,1,8,0:0:0:0:
435,287,60486,1,2,0:0:0:0:
415,259,60586,5,0,1:0:0:0:
453,243,60685,1,2,0:0:0:0:
481,212,60784,1,8,0:0:0:0:
492,172,60884,1,2,0:0:0:0:
484,131,60983,1,0,1:0:0:0:
447,151,61082,1,2,0:0:0:0:
406,154,61181,1,8,0:0:0:0:
367,140,61281,1,2,0:0:0:0:
336,111,61381,2,0,P|331:70|348:44,2,41.9999987182618,4|8|0,1:0|0:0|0:0,0:0:0:0:
453,1,61679,1,8,0:0:0:0:
453,1,61778,2,0,P|439:54|386:84,1,83.9999974365235,0|8,1:0|0:0,0:0:0:0:
247,114,62175,5,0,1:0:0:0:
75,182,62374,1,8,0:0:0:0:
75,182,62473,2,0,L|77:151,2,20.9999993591309,2|2|0,0:0|0:0|1:0,0:0:0:0:
92,286,62771,2,0,L|65:298,1,20.9999993591309,8|2,0:0|0:0,0:0:0:0:
117,307,62871,2,0,L|98:339,1,20.9999993591309,2|2,0:0|0:0,0:0:0:0:
148,318,62969,1,0,1:0:0:0:
182,316,63069,1,2,0:0:0:0:
212,302,63168,1,8,0:0:0:0:
234,277,63267,1,2,0:0:0:0:
245,245,63367,1,0,1:0:0:0:
242,212,63466,1,2,0:0:0:0:
257,182,63565,1,8,0:0:0:0:
285,164,63665,1,2,0:0:0:0:
318,162,63765,5,0,1:0:0:0:
328,203,63864,1,2,0:0:0:0:
316,243,63963,1,8,0:0:0:0:
287,272,64063,2,0,L|297:293,1,20.9999993591309,2|2,0:0|0:0,0:0:0:0:
246,282,64162,1,0,1:0:0:0:
206,272,64261,1,2,0:0:0:0:
177,242,64361,1,8,0:0:0:0:
165,203,64460,1,2,0:0:0:0:
142,169,64559,2,0,L|155:153,1,20.9999993591309,0|2,1:0|0:0,0:0:0:0:
104,152,64659,2,0,L|106:123,1,20.9999993591309,2|2,0:0|0:0,0:0:0:0:
63,158,64758,1,8,0:0:0:0:
31,185,64857,1,2,0:0:0:0:
18,224,64956,1,0,1:0:0:0:
27,264,65056,1,2,0:0:0:0:
56,294,65155,1,8,0:0:0:0:
97,303,65255,2,0,L|138:298,1,41.9999987182618,2|0,0:0|1:0,0:0:0:0:
276,244,65553,5,8,0:0:0:0:
293,215,65652,1,2,0:0:0:0:
296,182,65751,1,0,1:0:0:0:
283,151,65851,1,2,0:0:0:0:
257,130,65950,1,8,0:0:0:0:
225,123,66049,1,2,0:0:0:0:
192,121,66148,1,0,1:0:0:0:
165,101,66247,1,2,0:0:0:0:
154,70,66347,1,8,0:0:0:0:
163,38,66446,1,2,0:0:0:0:
188,16,66546,5,0,1:0:0:0:
221,41,66645,1,2,0:0:0:0:
260,56,66744,1,8,0:0:0:0:
302,59,66844,1,2,0:0:0:0:
343,52,66943,5,0,1:0:0:0:
326,89,67042,1,2,0:0:0:0:
326,131,67141,1,8,0:0:0:0:
345,168,67241,1,2,0:0:0:0:
378,193,67341,5,0,1:0:0:0:
375,213,67440,1,2,0:0:0:0:
373,234,67539,1,8,0:0:0:0:
371,255,67639,1,2,0:0:0:0:
317,263,67738,5,0,1:0:0:0:
319,279,67837,1,2,0:0:0:0:
321,295,67936,1,8,0:0:0:0:
322,312,68036,1,8,0:0:0:0:
368,325,68136,5,0,1:0:0:0:
366,337,68235,1,8,0:0:0:0:
365,349,68334,1,8,0:0:0:0:
363,362,68434,1,8,0:0:0:0:
361,375,68533,6,0,P|313:377|276:354,2,90,0|2|2,0:0|0:0|0:0,0:0:0:0:
465,259,69328,2,0,L|475:163,2,90,2|2|2,0:0|0:0|0:0,0:0:0:0:
454,357,70122,5,6,0:0:0:0:
218,170,70734,1,2,0:0:0:0:
286,230,70938,2,0,P|310:177|299:128,2,90,2|2|2,0:0|0:0|0:0,0:0:0:0:
406,332,71754,1,2,0:0:0:0:
399,207,71958,2,0,B|385:112|450:24|450:24|404:70|346:69,1,300,2|0,0:0|0:0,0:0:0:0:
211,72,73183,5,2,0:0:0:0:
109,46,73387,2,0,P|56:60|69:132,1,120,2|0,0:0|0:0,0:0:0:0:
185,232,73999,1,2,0:0:0:0:
255,281,74203,2,0,P|215:314|157:313,2,90,2|2|2,0:0|0:0|0:0,0:0:0:0:
348,133,75019,6,0,P|380:116|429:124,1,60,2|0,0:0|0:0,0:0:0:0:
397,204,75428,2,0,P|435:208|459:226,1,60,2|0,0:0|0:0,0:0:0:0:
401,289,75836,2,0,P|424:337|371:384,1,120,2|0,0:0|0:0,0:0:0:0:
225,336,76448,5,2,0:0:0:0:
133,267,76652,2,0,B|100:216|148:198|110:142,1,120,2|0,0:0|0:0,0:0:0:0:
0,193,77264,1,2,0:0:0:0:
209,225,77468,2,0,L|298:234,2,90,2|2|2,0:0|0:0|0:0,0:0:0:0:
306,140,78285,2,0,L|395:130,2,90,2|2|2,0:0|0:0|0:0,0:0:0:0:
108,241,79101,2,0,P|118:289|201:318,1,120,2|0,0:0|0:0,0:0:0:0:
331,291,79713,5,2,0:0:0:0:
359,195,79917,1,2,0:0:0:0:
262,219,80121,1,2,0:0:0:0:
234,315,80326,1,2,0:0:0:0:
164,242,80530,1,2,0:0:0:0:
192,144,80734,1,2,0:0:0:0:
122,71,80938,1,2,0:0:0:0:
94,169,81142,2,0,L|64:172,1,30,2|0,0:0|0:0,0:0:0:0:
87,183,81346,2,0,L|57:186,1,30,0|0,0:0|0:0,0:0:0:0:
78,198,81550,5,2,0:0:0:0:
142,348,81754,1,2,0:0:0:0:
301,140,81958,1,2,0:0:0:0:
214,229,82162,1,2,0:0:0:0:
214,229,82264,1,2,0:0:0:0:
214,229,82366,2,0,P|276:249|286:247,2,60,0|8|8,0:0|0:0|0:0,0:0:0:0:
216,119,82979,5,2,0:0:0:0:
233,79,83081,1,0,0:0:0:0:
274,63,83183,2,0,P|310:57|358:76,2,83.9999974365235,4|0|0,1:0|0:0|0:0,0:0:0:0:
204,209,83795,1,2,0:0:0:0:
298,219,83999,2,0,L|308:115,1,83.9999974365235,2|0,0:0|0:0,0:0:0:0:
388,234,84305,1,2,0:0:0:0:
388,234,84407,2,0,L|392:275,1,41.9999987182618,0|0,1:0|0:0,0:0:0:0:
476,247,84611,1,2,0:0:0:0:
377,122,84815,5,2,0:0:0:0:
298,219,85019,1,2,0:0:0:0:
286,103,85224,1,0,0:0:0:0:
392,275,85428,1,0,0:0:0:0:
468,38,85632,1,0,0:0:0:0:
444,166,85836,1,0,0:0:0:0:
509,263,86040,1,0,1:0:0:0:
422,356,86244,2,0,P|395:361|353:355,1,41.9999987182618,2|0,0:0|0:0,0:0:0:0:
265,332,86448,5,2,0:0:0:0:
225,185,86652,1,0,0:0:0:0:
281,61,86856,2,0,L|286:108,1,41.9999987182618,2|0,0:0|0:0,0:0:0:0:
320,264,87060,2,0,L|324:222,1,41.9999987182618,2|0,0:0|0:0,0:0:0:0:
389,89,87264,2,0,P|423:56|507:79,1,125.999996154785
495,66,87673,1,0,0:0:0:0:
394,214,88081,5,2,0:0:0:0:
412,322,88285,1,0,0:0:0:0:
311,208,88489,1,2,0:0:0:0:
218,279,88693,1,0,0:0:0:0:
327,111,88897,1,2,0:0:0:0:
203,116,89101,5,0,1:0:0:0:
170,121,89203,1,0,1:0:0:0:
141,138,89305,1,0,1:0:0:0:
120,165,89407,1,0,0:0:0:0:
110,196,89509,1,0,1:0:0:0:
111,230,89611,1,0,1:0:0:0:
125,260,89713,6,0,L|135:355,2,83.9999974365235,0|0|0,1:0|0:0|0:0,0:0:0:0:
261,250,90326,1,2,0:0:0:0:
343,187,90530,2,0,P|375:171|444:188,1,83.9999974365235,2|0,0:0|0:0,0:0:0:0:
400,287,90836,1,2,0:0:0:0:
400,287,90938,2,0,L|394:239,1,41.9999987182618,0|0,1:0|0:0,0:0:0:0:
421,99,91142,2,0,L|426:51,1,41.9999987182618,2|0,0:0|0:0,0:0:0:0:
282,0,91346,2,0,L|295:127,2,125.999996154785,2|2|2,0:0|0:0|0:0,0:0:0:0:
201,75,92162,1,2,0:0:0:0:
374,125,92366,5,0,1:0:0:0:
374,125,92468,1,0,1:0:0:0:
374,125,92570,1,0,1:0:0:0:
451,156,92775,2,0,P|414:200|371:213,2,83.9999974365235,2|2|2,0:0|0:0|0:0,0:0:0:0:
322,297,93387,2,0,L|406:305,2,83.9999974365235,4|2|2,1:0|0:0|0:0,0:0:0:0:
119,300,93999,2,0,P|147:327|190:337,1,83.9999974365235,0|2,1:0|0:0,0:0:0:0:
235,245,94407,5,0,0:0:0:0:
235,245,94509,1,0,0:0:0:0:
235,245,94611,2,0,P|220:185|188:156,1,83.9999974365235,0|2,1:0|0:0,0:0:0:0:
122,126,95019,1,0,1:0:0:0:
0,187,95224,1,0,1:0:0:0:
2,211,95326,1,0,1:0:0:0:
4,236,95428,1,0,1:0:0:0:
159,310,95632,1,0,1:0:0:0:
161,285,95734,1,0,1:0:0:0:
163,261,95836,2,0,L|204:256,1,41.9999987182618
179,163,96040,5,0,1:0:0:0:
260,161,96244,2,0,P|305:161|352:180,2,90,6|2|2,0:0|0:0|0:0,0:0:0:0:
175,262,97060,2,0,P|248:269|291:239,1,120,2|2,0:0|0:1,0:0:0:0:
348,86,97673,1,2,0:0:0:0:
258,92,97877,2,0,L|168:101,2,90,2|2|2,0:0|0:0|0:0,0:0:0:0:
348,86,98693,2,0,P|403:104|429:180,1,120,2|2,0:0|0:1,0:0:0:0:
400,282,99305,5,2,0:0:0:0:
285,229,99509,2,0,P|320:182|368:163,2,90,2|2|2,0:0|0:0|0:0,0:0:0:0:
156,201,100326,2,0,L|166:290,2,90,2|2|2,0:0|0:0|0:0,0:0:0:0:
167,371,101142,2,0,P|126:363|103:344,2,60,2|2|2,0:0|0:0|0:0,0:0:0:0:
284,376,101754,1,2,0:0:0:0:
284,376,101856,2,0,P|346:342|357:304,1,90,2|0,0:0|0:0,0:0:0:0:
371,246,102366,1,2,0:1:0:0:
325,161,102570,1,2,0:0:0:0:
211,132,102775,6,0,P|154:182|211:226,1,144,2|2,0:0|0:0,0:0:0:0:
188,224,103183,1,2,0:1:0:0:
296,241,103387,1,2,0:0:0:0:
413,166,103591,2,0,P|392:102|276:89,1,192,2|2,0:0|0:1,0:0:0:0:
117,150,104203,5,2,0:0:0:0:
110,247,104407,2,0,P|146:306|235:297,1,144,2|2,0:0|0:0,0:0:0:0:
215,310,104815,1,2,0:1:0:0:
296,241,105019,1,2,0:0:0:0:
179,80,105224,2,0,P|95:61|21:145,1,192,2|2,0:0|0:1,0:0:0:0:
117,291,105836,5,2,0:0:0:0:
215,310,106040,2,0,L|358:294,1,144,2|2,0:0|0:0,0:0:0:0:
358,294,106448,1,2,0:1:0:0:
382,104,106652,1,2,0:0:0:0:
273,45,106856,6,0,L|283:140,1,96,2|2,0:0|0:0,0:0:0:0:
211,251,107264,2,0,L|200:346,1,96,2|2,0:1|0:0,0:0:0:0:
34,376,107673,1,2,0:0:0:0:
105,200,107877,1,2,0:0:0:0:
129,304,108081,1,2,0:1:0:0:
0,257,108285,1,2,0:0:0:0:
56,128,108489,1,2,0:0:0:0:
23,27,108693,5,0,1:0:0:0:
54,20,108795,1,8,0:0:0:0:
85,24,108897,1,0,1:0:0:0:
114,38,108999,1,0,1:0:0:0:
137,60,109101,1,0,1:0:0:0:
152,88,109203,1,0,1:0:0:0:
158,119,109305,6,0,P|200:166|274:168,1,120,4|8,1:0|0:0,0:0:0:0:
341,43,109607,2,0,P|277:56|235:104,1,120,2|0,0:0|0:0,0:0:0:0:
350,178,109909,2,0,P|335:146|304:109,1,60,8|0,0:0|0:0,0:0:0:0:
202,0,110110,5,0,1:0:0:0:
61,187,110311,1,8,0:0:0:0:
254,181,110513,1,0,1:0:0:0:
49,109,110714,2,0,P|8:128|-9:157,1,60,8|0,0:0|0:0,0:0:0:0:
164,277,110915,6,0,L|283:264,1,120,0|8,1:0|0:0,0:0:0:0:
315,87,111217,2,0,P|267:126|256:198,1,120,2|0,0:0|0:0,0:0:0:0:
409,184,111519,2,0,L|345:177,1,60,8|0,0:0|0:0,0:0:0:0:
170,160,111721,5,0,1:0:0:0:
308,349,111922,1,8,0:0:0:0:
304,112,112123,1,0,1:0:0:0:
95,133,112325,2,0,P|91:176|99:199,1,60,8|0,0:0|0:0,0:0:0:0:
390,359,112526,6,0,P|360:282|323:265,1,120,0|8,1:0|0:0,0:0:0:0:
168,338,112828,2,0,L|231:344,2,60,2|0|0,0:0|1:0|0:0,0:0:0:0:
5,278,113130,2,0,L|0:218,1,60,8|0,0:0|0:0,0:0:0:0:
100,73,113331,6,0,L|94:132,1,60,0|0,1:0|0:0,0:0:0:0:
183,56,113533,1,8,0:0:0:0:
183,56,113633,2,0,L|197:205,1,120,2|0,0:0|0:0,0:0:0:0:
275,47,113935,2,0,L|269:106,1,60,8|0,0:0|0:0,0:0:0:0:
295,279,114137,6,0,P|309:234|330:209,1,60,0|0,1:0|0:0,0:0:0:0:
440,239,114338,1,8,0:0:0:0:
439,254,114438,1,0,0:0:0:0:
438,269,114539,2,0,P|409:277|379:277,1,60,2|0,0:0|0:0,0:0:0:0:
134,202,114741,5,0,1:0:0:0:
134,202,114841,1,2,0:0:0:0:
134,202,114942,2,0,P|179:148|246:149,1,120,8|8,0:0|0:0,0:0:0:0:
202,332,115345,1,8,0:0:0:0:
158,321,115445,1,8,0:0:0:0:
116,301,115546,1,8,0:0:0:0:
81,274,115647,1,8,0:0:0:0:
51,240,115747,6,0,P|51:168|90:121,1,120,4|8,1:0|0:0,0:0:0:0:
253,189,116049,2,0,L|133:201,1,120,2|0,0:0|0:0,0:0:0:0:
51,86,116351,2,0,L|57:22,1,60,8|0,0:0|0:0,0:0:0:0:
206,0,116553,5,0,1:0:0:0:
384,84,116754,1,8,0:0:0:0:
253,189,116956,1,0,0:0:0:0:
322,29,117157,2,0,P|358:3|388:-2,1,60,8|0,0:0|0:0,0:0:0:0:
397,169,117358,6,0,P|324:153|298:95,1,120,0|8,1:0|0:0,0:0:0:0:
495,90,117660,2,0,P|496:188|446:235,1,120,2|0,0:0|0:0,0:0:0:0:
257,248,117962,2,0,L|252:188,1,60,8|0,0:0|0:0,0:0:0:0:
242,0,118164,5,0,1:0:0:0:
371,97,118365,1,8,0:0:0:0:
159,138,118566,2,0,L|99:143,1,60,0|0,1:0|0:0,0:0:0:0:
0,230,118768,2,0,L|60:235,1,60,8|0,0:0|0:0,0:0:0:0:
239,319,118969,6,0,P|304:309|341:243,1,120,0|0,1:0|0:0,0:0:0:0:
268,69,119372,2,0,P|272:128|281:196,1,120,0|0,1:0|0:0,0:0:0:0:
466,222,119774,2,0,P|458:159|506:122,1,120,0|8,1:0|0:0,0:0:0:0:
324,0,120177,2,0,P|383:48|391:121,1,120,0|0,1:0|0:0,0:0:0:0:
217,208,120580,5,0,1:0:0:0:
287,91,120781,1,8,0:0:0:0:
400,279,120982,1,0,1:0:0:0:
300,176,121184,1,8,0:0:0:0:
446,58,121385,1,0,1:0:0:0:
384,165,121586,1,8,0:0:0:0:
201,0,121788,2,0,L|208:75,1,71.9999978027344,8|8,0:0|0:0,0:0:0:0:
280,19,121989,2,0,L|287:94,1,71.9999978027344,8|8,0:0|0:0,0:0:0:0:
381,103,122190,5,4,1:0:0:0:
414,116,122290,1,2,0:0:0:0:
438,142,122391,1,0,1:0:0:0:
450,176,122492,1,0,1:0:0:0:
446,211,122592,1,0,1:0:0:0:
428,242,122693,1,0,1:0:0:0:
399,263,122794,1,0,1:0:0:0:
364,269,122894,1,0,1:0:0:0:
329,261,122996,5,8,0:0:0:0:
298,232,123096,1,8,0:0:0:0:
286,192,123197,1,8,0:0:0:0:
280,150,123297,1,8,0:0:0:0:
254,117,123398,1,8,0:0:0:0:
216,101,123499,1,8,0:0:0:0:
175,106,123599,1,8,0:0:0:0:
141,130,123700,1,8,0:0:0:0:
124,168,123801,5,8,1:2:0:0:
120,216,123901,1,8,1:2:0:0:
142,258,124002,1,8,1:2:0:0:
184,281,124103,1,8,1:2:0:0:
231,279,124203,1,8,1:2:0:0:
270,252,124304,1,8,1:2:0:0:
288,208,124405,1,8,1:2:0:0:
288,160,124506,1,8,1:2:0:0:
267,129,124607,1,12,1:2:0:0:
8,258,125401,6,0,P|35:270|103:284,1,90.0000034332277,4|0,1:0|0:0,0:0:0:0:
229,261,125599,2,0,P|221:199|207:150,1,90.0000034332277,8|0,0:0|0:0,0:0:0:0:
114,91,125798,2,0,P|164:69|205:72,1,90.0000034332277,0|0,1:0|0:0,0:0:0:0:
350,102,125997,2,0,P|325:150|300:180,1,90.0000034332277,8|0,0:0|0:0,0:0:0:0:
142,303,126195,6,0,P|40:316|11:235,1,180.000006866455,0|8,1:0|0:0,0:0:0:0:
114,91,126493,1,0,0:0:0:0:
114,91,126593,2,0,B|141:137|123:179|123:179|75:210|87:268,1,180.000006866455,0|0,1:0|0:0,0:0:0:0:
196,372,126891,5,0,0:0:0:0:
196,372,126990,2,0,P|265:361|292:341,1,90.0000034332277,0|0,1:0|0:0,0:0:0:0:
422,218,127189,2,0,P|359:224|326:249,1,90.0000034332277,8|0,0:0|0:0,0:0:0:0:
382,384,127387,2,0,L|392:288,1,90.0000034332277,0|0,1:0|0:0,0:0:0:0:
214,205,127586,2,0,L|223:294,1,90.0000034332277,8|0,0:0|0:0,0:0:0:0:
481,267,127785,6,0,P|500:216|406:142,1,180.000006866455,0|8,1:0|0:0,0:0:0:0:
309,356,128083,1,0,1:0:0:0:
309,356,128182,2,0,P|379:288|428:201,1,180.000006866455,0|8,1:0|0:0,0:0:0:0:
460,64,128480,5,0,0:0:0:0:
460,64,128579,2,0,L|370:73,1,90.0000034332277,0|0,1:0|0:0,0:0:0:0:
253,131,128778,2,0,L|163:121,1,90.0000034332277,8|0,0:0|0:0,0:0:0:0:
35,62,128977,2,0,L|124:52,1,90.0000034332277,0|0,1:0|0:0,0:0:0:0:
239,0,129175,2,0,L|328:9,1,90.0000034332277,8|0,0:0|0:0,0:0:0:0:
391,125,129374,6,0,B|431:175|431:175|445:244|393:318,1,180.000006866455,0|8,1:0|0:0,0:0:0:0:
308,231,129672,1,0,0:0:0:0:
308,231,129771,2,0,B|308:292|308:292|268:344|181:338,1,180.000006866455,0|8,1:0|0:0,0:0:0:0:
196,206,130069,5,0,0:0:0:0:
196,206,130169,2,0,P|130:202|98:179,1,90.0000034332277,0|0,1:0|0:0,0:0:0:0:
215,19,130367,2,0,P|283:5|322:25,1,90.0000034332277,8|0,0:0|0:0,0:0:0:0:
273,169,130566,1,0,1:0:0:0:
273,169,130665,1,0,1:0:0:0:
273,169,130765,2,0,L|263:73,1,90.0000034332277,8|0,0:0|0:0,0:0:0:0:
423,61,130963,6,0,L|512:70,1,90.0000034332277
387,182,131162,2,0,L|476:172,1,90.0000034332277,8|0,0:0|0:0,0:0:0:0:
345,292,131361,2,0,L|434:301,1,90.0000034332277,8|0,0:0|0:0,0:0:0:0:
222,373,131559,2,0,P|175:382|132:383,1,90.0000034332277,8|0,0:0|0:0,0:0:0:0:
28,275,131758,6,0,P|4:175|57:121,1,180.000006866455,4|8,1:0|0:0,0:0:0:0:
222,151,132056,1,0,0:0:0:0:
222,151,132155,2,0,P|149:222|71:197,1,180.000006866455,0|8,1:0|0:0,0:0:0:0:
128,48,132453,5,0,0:0:0:0:
128,48,132553,2,0,L|137:137,1,90.0000034332277,0|0,1:0|0:0,0:0:0:0:
285,0,132751,1,8,0:0:0:0:
285,0,132851,2,0,L|276:89,1,90.0000034332277,0|0,1:0|0:0,0:0:0:0:
414,58,133050,1,0,0:0:0:0:
414,58,133150,2,0,L|423:147,1,90.0000034332277,8|0,0:0|0:0,0:0:0:0:
420,329,133348,6,0,P|354:303|369:204,1,180.000006866455,0|8,1:0|0:0,0:0:0:0:
481,285,133646,1,0,0:0:0:0:
400,337,133745,2,0,P|340:292|369:194,1,180.000006866455,0|8,1:0|0:0,0:0:0:0:
481,285,134043,1,0,0:0:0:0:
374,336,134142,6,0,P|328:281|371:186,1,180.000006866455,0|8,1:0|0:0,0:0:0:0:
466,308,134440,1,0,0:0:0:0:
354,332,134540,2,0,P|318:269|375:176,1,180.000006866455,0|8,1:0|0:0,0:0:0:0:
466,308,134838,1,0,0:0:0:0:
340,332,134937,6,0,B|310:298|309:266|309:266|254:238|192:292,1,180.000006866455,0|8,1:2|0:0,0:0:0:0:
68,326,135235,1,0,0:0:0:0:
68,326,135334,2,0,P|105:380|123:297,1,180.000006866455,0|8,1:2|0:0,0:0:0:0:
49,222,135632,5,0,0:0:0:0:
49,222,135732,2,0,B|3:176|25:128|25:128|71:115|86:73,1,180.000006866455,0|0,1:0|0:0,0:0:0:0:
174,62,136030,1,0,0:0:0:0:
174,62,136129,2,0,P|151:23|113:0,1,90.0000034332277,8|0,1:2|0:0,0:0:0:0:
10,47,136328,1,8,0:0:0:0:
10,47,136427,1,8,0:0:0:0:
10,47,136526,1,8,0:0:0:0:
138,148,136725,5,0,1:0:0:0:
150,157,136824,1,0,1:0:0:0:
162,166,136923,1,0,1:0:0:0:
174,175,137023,1,0,1:0:0:0:
186,184,137122,2,0,L|195:298,1,90.0000034332277,8|0,0:0|0:0,0:0:0:0:
300,248,137321,5,8,0:0:0:0:
295,220,137420,1,0,0:0:0:0:
301,160,137520,1,0,1:0:0:0:
299,125,137619,1,0,0:0:0:0:
259,50,137718,2,0,P|341:49|383:141,1,180.000006866455,8|8,0:0|0:0,0:0:0:0:
376,256,138016,5,8,0:0:0:0:
376,256,138116,2,0,L|367:370,1,90.0000034332277,4|0,1:0|0:0,0:0:0:0:
204,295,138314,1,8,0:0:0:0:
204,295,138414,2,0,L|213:409,2,90.0000034332277,0|0|0,0:0|1:0|0:0,0:0:0:0:
114,193,138712,2,0,L|121:103,1,90.0000034332277,8|0,0:0|0:0,0:0:0:0:
224,0,138910,6,0,P|272:69|286:175,1,180.000006866455,0|8,1:0|0:0,0:0:0:0:
145,277,139208,1,0,0:0:0:0:
145,277,139308,2,0,P|66:265|41:158,1,180.000006866455,0|8,1:0|0:0,0:0:0:0:
115,28,139606,5,0,0:0:0:0:
115,28,139705,2,0,P|168:54|195:84,1,90.0000034332277,0|0,1:0|0:0,0:0:0:0:
261,201,139904,1,8,0:0:0:0:
305,193,140003,1,0,0:0:0:0:
342,169,140102,2,0,P|380:125|382:85,1,90.0000034332277,0|0,1:0|0:0,0:0:0:0:
273,0,140301,2,0,L|281:109,1,90.0000034332277,8|0,0:0|0:0,0:0:0:0:
276,295,140500,6,0,P|194:270|168:182,1,180.000006866455,0|8,1:0|0:0,0:0:0:0:
350,257,140798,1,0,1:0:0:0:
350,257,140897,2,0,P|344:350|269:380,1,180.000006866455,0|8,1:0|0:0,0:0:0:0:
107,379,141195,5,0,0:0:0:0:
107,379,141295,2,0,B|77:342|68:302|68:302|112:252|88:187,1,180.000006866455,0|0,1:0|0:0,0:0:0:0:
0,140,141593,2,0,P|3:202|23:249,2,90.0000034332277,0|0|0,0:0|0:0|0:0,0:0:0:0:
76,0,141891,2,0,P|123:28|139:69,1,90.0000034332277,8|0,0:0|0:0,0:0:0:0:
170,223,142089,6,0,P|191:286|207:310,1,90.0000034332277,0|0,1:0|1:0,0:0:0:0:
370,333,142288,2,0,P|349:270|333:246,1,90.0000034332277,8|0,0:0|0:0,0:0:0:0:
268,125,142487,1,0,1:0:0:0:
286,76,142586,1,0,1:0:0:0:
336,62,142685,1,8,0:0:0:0:
376,95,142785,1,0,1:0:0:0:
373,147,142884,6,0,B|362:179|337:195|337:195|290:191|256:241|264:291,1,180.000006866455,0|0,1:0|0:0,0:0:0:0:
353,384,143182,2,0,B|372:330|346:273|346:273|368:315|425:322,1,180.000006866455,0|0,1:0|0:0,0:0:0:0:
512,247,143480,2,0,P|448:233|424:244,1,90.0000034332277,0|0,1:0|0:0,0:0:0:0:
255,337,143679,1,0,1:0:0:0:
116,311,143877,5,0,1:0:0:0:
89,304,143976,1,0,1:0:0:0:
65,293,144075,1,0,1:0:0:0:
44,276,144175,1,0,1:0:0:0:
27,256,144274,1,0,1:0:0:0:
14,232,144373,1,0,1:0:0:0:
8,205,144473,2,0,P|7:157|17:115,1,90.0000034332277,4|0,1:0|0:0,0:0:0:0:
174,8,144672,2,0,P|174:55|164:97,1,90.0000034332277,8|0,0:0|0:0,0:0:0:0:
0,34,144871,2,0,L|95:44,1,90.0000034332277,0|0,1:0|0:0,0:0:0:0:
176,168,145069,2,0,L|87:178,1,90.0000034332277,8|0,0:0|0:0,0:0:0:0:
0,329,145268,6,0,P|45:325|84:281,1,90.0000034332277,0|0,1:0|0:0,0:0:0:0:
208,288,145467,2,0,P|249:285|301:318,1,90.0000034332277,8|0,0:0|0:0,0:0:0:0:
386,384,145665,2,0,P|433:366|458:326,1,90.0000034332277,0|0,1:0|0:0,0:0:0:0:
453,160,145864,6,0,L|443:71,1,90.0000034332277,8|0,0:0|0:0,0:0:0:0:
301,17,146063,2,0,B|280:67|295:128|295:128|257:140|241:191,1,180.000006866455,0|8,1:0|0:0,0:0:0:0:
287,312,146361,1,0,0:0:0:0:
287,312,146460,2,0,P|359:246|306:201,1,180.000006866455,0|8,1:0|0:0,0:0:0:0:
175,145,146758,5,0,0:0:0:0:
175,145,146857,2,0,L|102:198,1,90.0000034332277,0|0,1:0|0:0,0:0:0:0:
1,54,147056,1,8,0:0:0:0:
1,54,147155,2,0,L|83:89,1,90.0000034332277,0|0,0:0|1:0,0:0:0:0:
10,250,147354,1,0,0:0:0:0:
10,250,147453,2,0,L|0:161,1,90.0000034332277,8|0,0:0|0:0,0:0:0:0:
76,0,147652,2,0,L|165:10,1,90.0000034332277,4|0,1:0|0:0,0:0:0:0:
276,25,147851,5,8,0:0:0:0:
226,60,147950,1,8,0:0:0:0:
210,120,148049,1,8,0:0:0:0:
234,176,148149,1,8,0:0:0:0:
289,204,148248,1,8,0:0:0:0:
350,191,148347,1,8,0:0:0:0:
388,143,148447,2,0,P|326:77|272:131,1,155.999992858887,4|0,1:0|1:0,0:0:0:0:
151,333,148844,5,8,0:0:0:0:
122,357,148943,1,8,0:0:0:0:
83,357,149042,1,8,0:0:0:0:
55,331,149142,1,8,0:0:0:0:
52,293,149242,2,0,B|108:171|-9:188|64:32,1,264.000008056641,4|0,1:0|0:0,0:0:0:0:
127,111,149838,6,0,L|136:197,1,71.9999978027344,0|0,0:0|0:0,0:0:0:0:
223,134,150235,2,0,L|213:220,1,71.9999978027344,0|0,0:0|0:0,0:0:0:0:
305,162,150632,1,0,0:0:0:0:
431,164,150831,2,0,B|492:170|556:117|518:7|432:1|373:43|367:101|387:131|387:131|400:171|380:219|380:219|339:255|354:305,1,503.999984619141,0|0,0:0|0:0,0:0:0:0:
91,180,156871,5,2,0:0:0:0:
111,174,156971,1,2,0:0:0:0:
131,170,157072,1,2,0:0:0:0:
152,170,157173,1,2,0:0:0:0:
173,172,157273,2,0,P|183:205|165:260,2,90,2|2|2,0:0|0:0|0:0,0:0:0:0:
235,309,158079,2,0,P|207:334|139:338,2,90,2|2|2,0:0|0:0|0:0,0:0:0:0:
365,384,158884,6,0,L|355:294,2,90,2|2|2,0:0|0:0|0:0,0:0:0:0:
291,236,159690,2,0,L|300:146,2,90,2|2|2,0:0|0:0|0:0,0:0:0:0:
189,88,160495,6,0,P|142:77|102:96,1,90,2|2,0:0|0:0,0:0:0:0:
156,218,160898,2,0,L|151:149,1,60,2|2,0:0|0:0,0:0:0:0:
316,164,161300,5,2,0:0:0:0:
314,178,161400,1,2,0:0:0:0:
312,193,161501,1,2,0:0:0:0:
311,208,161602,1,2,0:0:0:0:
332,236,161703,5,2,0:0:0:0:
334,250,161803,1,2,0:0:0:0:
336,265,161904,1,2,0:0:0:0:
337,280,162005,1,2,0:0:0:0:
319,300,162106,6,0,L|289:303,3,30,2|2|2|2,0:0|0:0|0:0|0:0,0:0:0:0:
198,354,162508,2,0,L|227:357,3,30,2|2|2|2,0:0|0:0|0:0|0:0,0:0:0:0:
120,277,162911,2,0,L|123:306,1,30,2|0,0:0|0:0,0:0:0:0:
42,304,163112,2,0,L|38:333,1,30,2|0,0:0|0:0,0:0:0:0:
126,171,163314,2,0,L|122:200,1,30,2|0,0:0|0:0,0:0:0:0:
206,197,163515,2,0,L|209:226,1,30,2|0,0:0|0:0,0:0:0:0:
64,96,163716,6,0,P|110:74|187:92,1,120,0|2,1:0|0:1,0:0:0:0:
206,197,164522,1,0,1:0:0:0:
205,281,164723,1,2,0:0:0:0:
127,306,164924,1,2,0:1:0:0:
76,239,165126,1,2,0:0:0:0:
126,171,165327,2,0,P|174:122|229:120,1,120,0|2,1:0|0:1,0:0:0:0:
286,224,166133,5,0,1:0:0:0:
285,308,166334,1,2,0:0:0:0:
207,333,166535,1,2,0:1:0:0:
156,266,166737,1,2,0:0:0:0:
206,197,166938,2,0,L|212:133,1,60,0|0,1:0|0:0,0:0:0:0:
354,94,167341,5,2,0:1:0:0:
286,224,167542,1,2,0:0:0:0:
286,224,167743,1,0,1:0:0:0:
385,193,167945,1,2,0:0:0:0:
385,193,168146,1,2,0:1:0:0:
283,137,168347,1,2,0:0:0:0:
283,137,168549,1,0,1:0:0:0:
219,176,168750,1,2,0:0:0:0:
219,176,168951,5,2,0:1:0:0:
192,188,169051,1,2,0:0:0:0:
162,187,169152,1,2,0:0:0:0:
136,172,169253,1,2,0:0:0:0:
121,147,169354,2,0,P|124:96|184:70,1,120,0|2,1:0|0:1,0:0:0:0:
318,183,170159,6,0,B|330:244|330:244|317:281,2,90,0|2|2,1:0|0:0|0:0,0:0:0:0:
246,240,170965,2,0,B|192:272|192:272|153:272,2,90,0|2|2,1:0|0:0|0:0,0:0:0:0:
166,191,171770,2,0,B|117:151|117:151|103:115,2,90,0|2|2,1:0|0:0|0:0,0:0:0:0:
212,74,172575,1,0,1:0:0:0:
212,74,172978,1,2,0:1:0:0:
445,324,173582,5,2,0:0:0:0:
444,339,173682,1,2,0:0:0:0:
442,354,173783,1,2,0:1:0:0:
336,288,173985,5,2,0:0:0:0:
334,273,174086,1,2,0:0:0:0:
332,257,174186,1,0,1:0:0:0:
339,228,174286,1,2,0:0:0:0:
359,206,174387,1,2,0:0:0:0:
387,197,174488,1,2,0:0:0:0:
416,203,174588,1,0,0:0:0:0:
443,215,174690,1,2,0:0:0:0:
473,213,174791,1,2,0:0:0:0:
498,197,174892,1,0,0:0:0:0:
512,171,174992,2,0,B|511:134|488:112|488:112|442:101|422:56,2,144,8|8|8,0:0|0:0|0:0,0:0:0:0:
454,312,175797,5,0,1:0:0:0:
454,312,176200,1,8,0:0:0:0:
322,273,176602,6,0,B|322:216|372:234|372:148,1,120,6|0,0:0|0:0,0:0:0:0:
286,157,177214,1,2,0:0:0:0:
201,155,177418,2,0,P|210:113|252:79,2,90,2|2|2,0:0|0:0|0:0,0:0:0:0:
231,245,178234,1,2,0:0:0:0:
269,318,178540,2,0,B|347:310|364:250|363:215|363:215|362:272|417:320,1,270
495,204,179663,5,2,0:0:0:0:
457,120,179867,2,0,P|407:95|332:118,1,120,2|0,0:0|0:0,0:0:0:0:
299,229,180479,1,2,0:0:0:0:
385,273,180683,2,0,L|395:177,2,90,2|2|2,0:0|0:0|0:0,0:0:0:0:
243,285,181499,6,0,P|220:248|223:216,1,60,2|0,0:0|0:0,0:0:0:0:
122,196,181908,2,0,P|142:157|171:144,1,60,2|0,0:0|0:0,0:0:0:0:
138,46,182316,2,0,P|181:48|246:99,1,120,2|0,0:0|0:0,0:0:0:0:
308,231,182928,5,2,0:0:0:0:
241,312,183132,2,0,P|211:276|213:198,1,120,2|0,0:0|0:0,0:0:0:0:
311,147,183744,1,2,0:0:0:0:
410,65,183948,2,0,B|389:9|389:9|342:-6,2,90,2|2|2,0:0|0:0|0:0,0:0:0:0:
308,231,184765,2,0,P|343:227|388:184,2,90,2|2|2,0:0|0:0|0:0,0:0:0:0:
174,179,185581,2,0,P|99:191|69:234,1,120,2|0,0:0|0:0,0:0:0:0:
100,310,186193,5,2,0:0:0:0:
198,314,186397,1,2,0:0:0:0:
261,253,186602,1,2,0:0:0:0:
334,372,186806,1,2,0:0:0:0:
345,287,187010,1,2,0:0:0:0:
454,285,187214,1,2,0:0:0:0:
323,162,187418,1,2,0:0:0:0:
416,175,187622,2,0,P|402:214|366:239,1,60,2|0,0:0|0:0,0:0:0:0:
193,232,188030,6,0,L|104:240,1,83.9999974365235,2|2,0:0|0:0,0:0:0:0:
104,107,188438,1,2,0:0:0:0:
237,96,188642,1,2,0:0:0:0:
237,96,188744,2,0,L|298:108,1,41.9999987182618,2|0,0:0|0:0,0:0:0:0:
428,137,189050,1,8,0:0:0:0:
433,170,189152,1,8,0:0:0:0:
416,200,189254,1,8,0:0:0:0:
383,211,189356,1,8,0:0:0:0:
352,197,189458,1,2,0:0:0:0:
337,166,189560,1,2,0:0:0:0:
345,133,189663,6,0,P|346:75|304:48,1,96,0|0,1:0|0:0,0:0:0:0:
129,139,190071,1,0,0:0:0:0:
149,340,190275,2,0,L|138:244,1,96,0|2,1:0|0:0,0:0:0:0:
324,270,190683,1,0,0:0:0:0:
350,68,190887,2,0,L|339:163,1,96,0|2,1:0|0:0,0:0:0:0:
217,187,191295,1,2,0:0:0:0:
379,350,191499,2,0,L|332:345,1,48,2|0,0:0|0:0,0:0:0:0:
487,240,191704,6,0,P|488:263|492:287,3,48,0|0|0|0,0:0|0:0|0:0|0:0,0:0:0:0:
417,74,192112,2,0,L|411:121,3,48,0|0|0|0,1:0|0:0|0:0|0:0,0:0:0:0:
279,133,192520,2,0,L|284:180,1,48,0|0,1:0|0:0,0:0:0:0:
175,181,192724,2,0,L|169:228,1,48,2|0,0:0|0:0,0:0:0:0:
319,277,192928,6,0,L|223:287,1,96,2|0,0:0|0:0,0:0:0:0:
399,144,193336,1,2,0:0:0:0:
183,122,193540,2,0,L|278:132,1,96,0|2,1:0|0:0,0:0:0:0:
126,251,193948,1,0,0:0:0:0:
349,229,194153,2,0,L|265:237,1,83.9999974365235,0|0,1:0|0:0,0:0:0:0:
347,350,194561,1,2,0:0:0:0:
466,239,194765,6,0,L|471:191,1,48,0|0,0:0|0:0,0:0:0:0:
477,71,194969,2,0,P|453:71|429:76,3,48,2|0|0|0,0:0|0:0|0:0|0:0,0:0:0:0:
257,81,195377,2,0,L|304:86,3,48,2|0|0|0,0:0|0:0|1:0|1:0,0:0:0:0:
172,225,195785,2,0,L|166:177,1,48,0|0,1:0|0:0,0:0:0:0:
118,39,195989,2,0,P|86:59|75:73,1,48,0|0,1:0|1:0,0:0:0:0:
46,258,196193,6,0,L|56:162,1,96,0|0,1:0|0:0,0:0:0:0:
265,384,196806,2,0,L|254:288,1,96,0|2,1:0|0:0,0:0:0:0:
466,283,197418,2,0,L|476:187,1,96,0|2,1:0|0:0,0:0:0:0:
348,84,197826,2,0,P|302:124|312:214,2,144,2|2|2,0:0|0:0|0:0,0:0:0:0:
437,75,198642,1,2,0:0:0:0:
422,233,198846,1,0,1:0:0:0:
422,233,198948,1,0,1:0:0:0:
422,233,199050,1,0,1:0:0:0:
179,270,199255,5,2,0:0:0:0:
292,384,199459,1,2,0:0:0:0:
335,230,199663,1,2,0:0:0:0:
104,213,199867,2,0,P|85:281|113:341,2,132.00000402832,0|2|2,1:0|0:0|0:0,0:0:0:0:
422,233,200479,2,0,P|392:297|330:320,2,132.00000402832,0|2|0,1:0|0:0|0:0,0:0:0:0:
179,270,201091,5,0,1:0:0:0:
335,230,201295,1,2,0:0:0:0:
179,270,201499,1,0,1:0:0:0:
343,239,201704,5,0,1:0:0:0:
343,239,201806,1,0,1:0:0:0:
343,239,201908,2,0,L|334:318,1,48,0|0,1:0|0:0,0:0:0:0:
179,125,202112,2,0,L|187:204,1,41.9999987182618,0|0,1:0|1:0,0:0:0:0:
62,165,202316,2,0,L|56:212,1,35.9999989013672,0|0,1:0|1:0,0:0:0:0:
2,264,202520,2,0,L|7:311,1,30,0|0,1:0|0:0,0:0:0:0:
16,370,202724,6,0,L|111:380,2,90,2|2|2,0:0|0:0|0:0,0:0:0:0:
110,277,203540,2,0,P|169:281|214:236,1,120,2|2,0:0|0:1,0:0:0:0:
233,74,204153,1,2,0:0:0:0:
171,119,204357,2,0,P|137:187|142:224,2,90,2|2|2,0:0|0:0|0:0,0:0:0:0:
317,42,205173,2,0,B|340:98|294:111|320:166,1,120,2|2,0:0|0:1,0:0:0:0:
390,235,205785,5,2,0:0:0:0:
473,169,205989,2,0,P|429:134|376:129,2,90,2|2|2,0:0|0:0|0:0,0:0:0:0:
382,342,206806,2,0,P|338:330|305:300,2,90,2|2|2,0:0|0:0|0:0,0:0:0:0:
449,241,207622,2,0,L|385:234,1,60,2|2,0:0|0:0,0:0:0:0:
259,201,208030,2,0,L|199:207,1,60,2|2,0:0|0:0,0:0:0:0:
108,214,208336,1,2,0:0:0:0:
108,214,208438,2,0,P|127:148|175:119,1,120,2|2,0:0|0:1,0:0:0:0:
337,173,209050,5,2,0:0:0:0:
344,254,209255,2,0,P|294:310|208:320,1,144,2|2,0:0|0:0,0:0:0:0:
228,323,209663,1,2,0:1:0:0:
149,266,209867,1,2,0:0:0:0:
97,165,210071,2,0,P|201:169|259:253,1,192,2|2,0:0|0:1,0:0:0:0:
335,165,210683,5,2,0:0:0:0:
402,122,210887,2,0,P|430:74|388:-5,1,144,2|2,0:0|0:0,0:0:0:0:
395,0,211295,1,2,0:1:0:0:
287,0,211499,1,2,0:0:0:0:
190,109,211704,2,0,P|227:172|335:164,1,192,2|2,0:0|0:1,0:0:0:0:
408,302,212316,5,2,0:0:0:0:
415,215,212520,2,0,L|430:71,1,144,2|2,0:0|0:0,0:0:0:0:
430,71,212928,1,2,0:1:0:0:
273,104,213132,1,2,0:0:0:0:
121,136,213336,5,2,0:0:0:0:
128,223,213540,2,0,L|143:366,1,144,2|0,0:0|0:0,0:0:0:0:
143,366,213948,1,2,0:0:0:0:
346,384,214153,1,2,0:0:0:0:
269,222,214357,1,2,0:0:0:0:
216,310,214561,1,2,0:1:0:0:
405,208,214765,1,2,0:0:0:0:
200,156,214969,1,0,0:0:0:0:
113,90,215173,5,0,1:0:0:0:
136,68,215275,1,8,0:0:0:0:
164,53,215377,1,0,1:0:0:0:
195,44,215479,1,0,1:0:0:0:
227,43,215581,1,0,1:0:0:0:
258,50,215683,1,0,1:0:0:0:
288,64,215785,6,0,P|282:140|274:191,1,120,4|8,1:0|0:0,0:0:0:0:
91,206,216087,2,0,L|200:157,1,120,2|0,0:0|0:0,0:0:0:0:
259,288,216389,2,0,L|210:252,1,60,8|0,0:0|0:0,0:0:0:0:
145,68,216590,5,0,1:0:0:0:
397,79,216791,1,8,0:0:0:0:
339,244,216993,1,0,1:0:0:0:
200,157,217194,2,0,L|263:163,1,60,8|0,0:0|0:0,0:0:0:0:
419,229,217395,6,0,P|406:293|349:328,1,120,0|8,1:0|0:0,0:0:0:0:
215,293,217697,1,2,0:0:0:0:
215,293,217798,2,0,L|221:233,1,60,0|0,1:0|0:0,0:0:0:0:
315,54,217999,2,0,L|321:113,1,60,8|0,0:0|0:0,0:0:0:0:
364,324,218201,5,0,1:0:0:0:
217,159,218402,1,8,0:0:0:0:
423,153,218603,1,0,1:0:0:0:
215,293,218805,2,0,P|253:284|280:254,1,60,8|0,0:0|0:0,0:0:0:0:
341,115,219006,6,0,P|394:68|454:71,1,120,0|8,1:0|0:0,0:0:0:0:
442,242,219308,2,0,P|371:231|335:183,1,120,2|0,0:0|0:0,0:0:0:0:
482,146,219610,2,0,L|422:152,1,60,8|0,0:0|0:0,0:0:0:0:
217,159,219811,6,0,P|218:191|226:229,1,60,0|0,1:0|0:0,0:0:0:0:
65,209,220013,2,0,P|63:241|56:279,1,60,8|2,0:0|0:0,0:0:0:0:
241,197,220214,2,0,P|242:229|250:267,1,60,0|0,1:0|0:0,0:0:0:0:
42,237,220416,2,0,P|40:269|33:307,1,60,8|0,0:0|0:0,0:0:0:0:
324,222,220617,6,0,L|384:228,1,60,0|0,1:0|0:0,0:0:0:0:
265,84,220818,2,0,P|231:70|195:73,1,60,8|0,0:0|0:0,0:0:0:0:
191,229,221019,2,0,P|229:208|247:189,1,60,2|0,0:0|0:0,0:0:0:0:
370,121,221221,1,0,1:0:0:0:
370,121,221321,1,2,0:0:0:0:
370,121,221422,2,0,P|363:183|310:226,1,120,8|8,0:0|0:0,0:0:0:0:
126,231,221825,5,8,0:0:0:0:
97,193,221925,1,8,0:0:0:0:
106,147,222026,1,8,0:0:0:0:
145,122,222127,1,8,0:0:0:0:
190,134,222227,2,0,P|252:132|248:60,1,120,4|8,1:0|0:0,0:0:0:0:
180,0,222529,6,0,B|223:25|223:25|244:9|277:4|310:22,1,120,2|0,0:0|0:0,0:0:0:0:
364,132,222831,2,0,P|350:85|354:63,1,60,8|0,0:0|0:0,0:0:0:0:
430,0,223033,5,0,1:0:0:0:
512,191,223234,1,8,0:0:0:0:
327,205,223436,1,0,0:0:0:0:
512,86,223637,2,0,L|452:79,1,60,8|0,0:0|0:0,0:0:0:0:
247,66,223838,6,0,P|171:106|155:161,1,120,0|8,1:0|0:0,0:0:0:0:
83,72,224140,2,0,P|78:147|99:201,1,120,2|0,0:0|0:0,0:0:0:0:
5,215,224442,2,0,P|33:260|55:277,1,60,8|0,0:0|0:0,0:0:0:0:
0,341,224644,1,0,1:0:0:0:
196,257,224845,1,8,0:0:0:0:
8,127,225046,2,0,L|1:63,1,60,0|0,1:0|0:0,0:0:0:0:
245,147,225248,2,0,L|251:206,1,60,8|0,0:0|0:0,0:0:0:0:
83,363,225449,6,0,B|86:316|59:288|59:288|81:237,1,120,0|0,1:0|0:0,0:0:0:0:
174,89,225852,2,0,P|225:57|305:75,1,120,0|0,1:0|0:0,0:0:0:0:
295,251,226254,2,0,P|248:178|251:111,1,120,0|8,1:0|0:0,0:0:0:0:
471,146,226657,2,0,L|351:158,1,120,0|0,1:0|0:0,0:0:0:0:
115,181,227060,5,0,1:0:0:0:
0,113,227261,1,8,0:0:0:0:
236,108,227462,1,0,1:0:0:0:
176,239,227664,1,8,0:0:0:0:
83,0,227865,1,0,1:0:0:0:
159,131,228066,1,8,0:0:0:0:
0,284,228268,2,0,L|10:188,1,71.9999978027344,8|8,0:0|0:0,0:0:0:0:
89,329,228469,2,0,L|99:233,1,71.9999978027344,8|8,0:0|0:0,0:0:0:0:
189,376,228670,5,4,1:0:0:0:
178,341,228770,1,2,0:0:0:0:
182,306,228871,1,0,1:0:0:0:
201,276,228972,1,0,1:0:0:0:
231,256,229072,1,0,1:0:0:0:
266,251,229173,1,0,1:0:0:0:
300,262,229274,1,0,1:0:0:0:
327,286,229374,1,0,1:0:0:0:
341,319,229476,5,8,0:0:0:0:
361,356,229576,1,8,0:0:0:0:
398,378,229677,1,8,0:0:0:0:
441,377,229778,1,8,0:0:0:0:
477,354,229878,1,8,0:0:0:0:
496,316,229979,1,8,0:0:0:0:
492,274,230080,1,8,0:0:0:0:
467,239,230180,1,8,0:0:0:0:
428,223,230281,5,8,0:0:0:0:
379,212,230382,1,8,0:0:0:0:
345,177,230483,1,8,0:0:0:0:
336,128,230584,1,8,0:0:0:0:
356,82,230684,1,8,0:0:0:0:
398,56,230785,1,8,0:0:0:0:
448,58,230886,1,8,0:0:0:0:
488,87,230986,1,8,0:0:0:0:
502,127,231087,1,12,0:0:0:0:
314,107,231881,6,0,P|299:157|295:212,1,90.0000034332277,4|0,1:0|0:0,0:0:0:0:
418,317,232079,2,0,P|397:244|358:226,1,90.0000034332277,8|0,0:0|0:0,0:0:0:0:
213,219,232278,2,0,P|159:232|119:235,1,90.0000034332277,0|0,1:0|0:0,0:0:0:0:
276,370,232477,2,0,P|313:341|346:298,1,90.0000034332277,8|0,0:0|0:0,0:0:0:0:
393,136,232675,6,0,P|390:69|283:30,1,180.000006866455,0|8,1:0|0:0,0:0:0:0:
186,79,232973,1,0,0:0:0:0:
186,79,233073,2,0,B|206:126|252:154|252:154|287:116|335:97,1,180.000006866455,0|0,1:0|0:0,0:0:0:0:
460,20,233371,5,0,0:0:0:0:
460,20,233470,2,0,P|464:70|470:115,1,90.0000034332277,0|0,1:0|0:0,0:0:0:0:
427,227,233669,2,0,P|418:283|416:322,1,90.0000034332277,8|0,0:0|0:0,0:0:0:0:
276,370,233867,2,0,P|272:321|266:280,1,90.0000034332277,0|0,1:0|0:0,0:0:0:0:
176,168,234066,2,0,P|178:124|185:78,1,90.0000034332277,8|0,0:0|0:0,0:0:0:0:
331,0,234265,6,0,P|337:69|255:37,1,180.000006866455,0|8,1:0|0:0,0:0:0:0:
102,17,234563,1,0,1:0:0:0:
102,17,234662,2,0,B|82:63|50:93|50:93|39:130|59:185,1,180.000006866455,0|8,1:0|0:0,0:0:0:0:
162,337,234960,5,0,0:0:0:0:
162,337,235059,2,0,P|226:328|255:295,1,90.0000034332277,0|0,1:0|0:0,0:0:0:0:
176,168,235258,2,0,L|186:263,1,90.0000034332277,8|0,0:0|0:0,0:0:0:0:
337,336,235457,1,0,1:0:0:0:
337,336,235556,1,0,1:0:0:0:
337,336,235655,2,0,P|323:269|293:235,1,90.0000034332277,8|0,0:0|0:0,0:0:0:0:
241,118,235854,6,0,P|227:58|312:84,1,180.000006866455,0|8,1:0|0:0,0:0:0:0:
396,197,236152,1,0,0:0:0:0:
396,197,236251,2,0,P|465:206|441:104,1,180.000006866455,0|8,1:0|0:0,0:0:0:0:
329,56,236549,5,0,0:0:0:0:
329,56,236649,2,0,P|337:121|312:158,1,90.0000034332277,0|0,1:0|0:0,0:0:0:0:
167,155,236847,2,0,P|219:115|263:118,1,90.0000034332277,8|0,0:0|1:0,0:0:0:0:
334,246,237046,2,0,P|273:220|254:180,1,90.0000034332277,0|0,1:0|1:0,0:0:0:0:
123,80,237245,2,0,P|84:132|82:166,1,90.0000034332277,8|0,0:0|0:0,0:0:0:0:
121,302,237443,6,0,L|25:291,1,90.0000034332277,8|0,0:0|0:0,0:0:0:0:
243,375,237642,2,0,L|153:384,1,90.0000034332277,8|0,0:0|0:0,0:0:0:0:
377,318,237841,2,0,L|287:308,1,90.0000034332277,8|0,0:0|0:0,0:0:0:0:
512,381,238039,2,0,P|498:340|512:293,1,90.0000034332277,8|0,0:0|0:0,0:0:0:0:
496,128,238238,6,0,P|479:54|415:100,1,180.000006866455,4|8,1:0|0:0,0:0:0:0:
336,218,238536,1,0,0:0:0:0:
336,218,238635,2,0,P|240:271|169:249,1,180.000006866455,0|8,1:0|0:0,0:0:0:0:
44,180,238933,5,0,0:0:0:0:
44,180,239033,2,0,L|54:84,1,90.0000034332277,0|0,1:0|0:0,0:0:0:0:
207,109,239231,1,8,0:0:0:0:
207,109,239331,2,0,L|119:148,1,90.0000034332277,0|0,1:0|1:0,0:0:0:0:
64,3,239530,1,0,0:0:0:0:
64,3,239630,2,0,L|141:59,1,90.0000034332277,8|0,0:0|0:0,0:0:0:0:
262,47,239828,6,0,B|279:27|309:10|309:10|367:18|448:3,1,180.000006866455,0|8,1:0|0:0,0:0:0:0:
207,109,240126,1,0,0:0:0:0:
286,118,240225,2,0,P|354:105|464:134,1,180.000006866455,0|8,1:0|0:0,0:0:0:0:
207,109,240523,1,0,0:0:0:0:
166,181,240622,6,0,B|152:203|145:237|145:237|170:289|181:371,1,180.000006866455,0|8,1:0|0:0,0:0:0:0:
207,109,240920,1,0,0:0:0:0:
240,181,241019,2,0,P|248:249|310:345,1,180.000006866455,0|8,1:0|0:0,0:0:0:0:
207,109,241317,1,0,0:0:0:0:
315,191,241417,6,0,L|481:287,1,180.000006866455,0|8,1:2|0:0,0:0:0:0:
505,141,241715,1,0,0:0:0:0:
505,141,241814,2,0,P|499:91|384:20,1,180.000006866455,0|8,1:2|0:0,0:0:0:0:
264,54,242112,5,0,0:0:0:0:
264,54,242212,2,0,B|284:106|339:105|339:105|395:128|411:197,1,180.000006866455,0|0,1:0|0:0,0:0:0:0:
319,266,242510,1,0,0:0:0:0:
319,266,242609,2,0,L|308:170,1,90.0000034332277,8|0,1:2|0:0,0:0:0:0:
340,31,242808,1,8,0:0:0:0:
340,31,242907,1,8,0:0:0:0:
340,31,243006,1,8,0:0:0:0:
409,246,243205,5,0,1:0:0:0:
413,299,243304,1,0,1:0:0:0:
387,345,243403,1,0,1:0:0:0:
339,370,243503,1,0,1:0:0:0:
286,364,243602,2,0,P|198:340|108:381,1,180.000006866455,8|8,0:0|0:0,0:0:0:0:
64,245,244000,5,0,1:0:0:0:
61,222,244099,1,0,0:0:0:0:
54,151,244198,1,8,0:0:0:0:
98,153,244297,1,0,0:0:0:0:
133,180,244396,1,8,0:0:0:0:
149,221,244496,1,8,0:0:0:0:
141,265,244596,6,0,P|150:336|244:372,1,180.000006866455,4|8,1:0|0:0,0:0:0:0:
230,204,244894,2,0,L|219:299,2,90.0000034332277,0|0|0,0:0|1:0|0:0,0:0:0:0:
252,86,245192,2,0,P|296:98|327:129,1,90.0000034332277,8|0,0:0|0:0,0:0:0:0:
376,253,245390,6,0,P|352:317|302:254,1,180.000006866455,0|8,1:0|0:0,0:0:0:0:
404,150,245688,1,0,0:0:0:0:
404,150,245788,2,0,B|476:89|476:89|395:49,1,180.000006866455,0|8,1:0|0:0,0:0:0:0:
236,0,246086,5,0,0:0:0:0:
236,0,246185,2,0,P|182:33|166:74,1,90.0000034332277,0|0,1:0|0:0,0:0:0:0:
161,203,246384,1,8,0:0:0:0:
161,203,246483,2,0,P|232:180|248:77,1,180.000006866455,0|0,0:0|0:0,0:0:0:0:
83,148,246781,2,0,P|68:192|78:238,1,90.0000034332277,8|0,0:0|0:0,0:0:0:0:
204,323,246980,6,0,B|251:338|296:320|296:320|308:280|282:212,1,180.000006866455,0|8,1:0|0:0,0:0:0:0:
165,97,247278,1,0,1:0:0:0:
165,97,247377,2,0,P|83:52|-1:103,1,180.000006866455,0|8,1:0|0:0,0:0:0:0:
73,237,247675,5,0,0:0:0:0:
73,237,247775,2,0,L|84:125,1,90.0000034332277,0|0,1:0|0:0,0:0:0:0:
234,3,247973,1,8,0:0:0:0:
234,3,248073,2,0,L|243:92,2,90.0000034332277,0|0|0,0:0|0:0|0:0,0:0:0:0:
369,67,248371,2,0,L|360:156,1,90.0000034332277,8|0,0:0|0:0,0:0:0:0:
306,330,248569,6,0,P|258:312|222:264,1,90.0000034332277,0|0,1:0|1:0,0:0:0:0:
68,253,248768,1,8,0:0:0:0:
68,253,248867,1,0,0:0:0:0:
68,253,248967,2,0,P|88:195|131:160,1,90.0000034332277,0|0,1:0|1:0,0:0:0:0:
119,17,249165,2,0,P|157:34|201:76,1,90.0000034332277,8|0,0:0|1:0,0:0:0:0:
301,204,249364,6,0,B|271:235|271:235|327:303|444:263,1,180.000006866455,0|0,1:0|0:0,0:0:0:0:
390,141,249662,2,0,P|308:96|218:140,1,180.000006866455,0|0,1:0|0:0,0:0:0:0:
148,295,249960,2,0,L|243:305,1,90.0000034332277,0|0,1:0|0:0,0:0:0:0:
465,245,250159,5,0,1:0:0:0:
484,171,250258,1,0,0:0:0:0:
467,97,250357,1,0,1:0:0:0:
418,40,250457,1,0,1:0:0:0:
348,12,250556,1,0,1:0:0:0:
303,8,250655,1,0,1:0:0:0:
261,22,250754,1,0,1:0:0:0:
227,51,250854,1,0,1:0:0:0:
208,92,250953,6,0,P|208:155|248:201,1,90.0000034332277,4|0,1:0|0:0,0:0:0:0:
305,240,251152,2,0,P|347:258|412:253,1,90.0000034332277,8|0,0:0|0:0,0:0:0:0:
278,127,251351,2,0,P|326:167|387:166,1,90.0000034332277,0|0,1:0|0:0,0:0:0:0:
443,155,251550,2,0,P|483:134|521:81,1,90.0000034332277,8|0,0:0|0:0,0:0:0:0:
353,93,251748,6,0,P|395:87|434:47,1,90.0000034332277,0|0,1:0|0:0,0:0:0:0:
214,81,251947,1,8,0:0:0:0:
214,81,252046,2,0,P|198:120|213:174,1,90.0000034332277,0|0,0:0|1:0,0:0:0:0:
375,287,252245,1,0,0:0:0:0:
375,287,252344,2,0,P|348:253|294:239,1,90.0000034332277,8|0,0:0|0:0,0:0:0:0:
159,218,252543,6,0,B|55:213|83:287|-4:284,1,180.000006866455,0|8,1:0|0:0,0:0:0:0:
0,118,252841,1,0,0:0:0:0:
0,118,252940,2,0,L|10:213,1,90.0000034332277,0|0,1:0|0:0,0:0:0:0:
124,384,253139,2,0,L|133:294,1,90.0000034332277,8|0,0:0|0:0,0:0:0:0:
136,107,253337,6,0,P|146:33|248:3,1,180.000006866455,0|8,1:0|0:0,0:0:0:0:
316,221,253635,2,0,P|246:158|211:54,1,180.000006866455,0|0,0:0|0:0,0:0:0:0:
412,109,253933,2,0,L|322:118,1,90.0000034332277,8|0,0:0|0:0,0:0:0:0:
136,107,254132,1,4,1:0:0:0:
81,245,254331,5,8,0:0:0:0:
69,305,254430,1,8,0:0:0:0:
98,359,254529,1,8,0:0:0:0:
156,382,254629,1,8,0:0:0:0:
214,363,254728,1,8,0:0:0:0:
248,311,254827,1,8,0:0:0:0:
240,250,254927,2,0,P|160:236|132:303,1,155.999992858887,4|0,1:0|1:0,0:0:0:0:
368,348,255324,5,8,0:0:0:0:
373,302,255423,1,8,0:0:0:0:
378,255,255522,1,8,0:0:0:0:
382,208,255622,1,8,0:0:0:0:
387,162,255722,1,4,1:0:0:0:
371,125,255821,1,8,0:0:0:0:
339,103,255920,1,8,0:0:0:0:
300,100,256020,1,8,0:0:0:0:
266,119,256119,1,8,0:0:0:0:
247,153,256218,1,0,0:0:0:0:
248,192,256318,1,8,0:0:0:0:
273,303,256516,6,0,P|239:364|117:351,2,198.000006042481,8|8|8,0:0|0:0|0:0,0:0:0:0:
266,119,257311,1,4,1:0:0:0:
0,147,257510,1,8,0:0:0:0:
187,290,257708,1,0,1:0:0:0:
188,0,257907,1,8,0:0:0:0:
20,231,258106,1,0,1:0:0:0:
293,226,258304,2,0,L|388:236,1,77.9999964294435,8|0,0:0|0:0,0:0:0:0:
154,161,258503,2,0,L|77:170,1,77.9999964294435,0|0,1:0|0:0,0:0:0:0:
302,88,258702,2,0,L|379:96,1,77.9999964294435,8|0,0:0|0:0,0:0:0:0:
125,0,258900,5,0,1:0:0:0:
217,107,259099,1,8,0:0:0:0:
317,0,259298,1,0,1:0:0:0:
50,90,259496,2,0,L|58:169,1,77.9999964294435,8|0,0:0|0:0,0:0:0:0:
72,285,259695,1,0,1:0:0:0:
261,175,259894,1,8,0:0:0:0:
139,83,260092,1,0,1:0:0:0:
206,252,260291,2,0,P|234:271|278:275,1,77.9999964294435,8|0,0:0|0:0,0:0:0:0:
434,190,260490,5,0,1:0:0:0:
342,39,260688,1,8,0:0:0:0:
113,156,260887,1,0,1:0:0:0:
261,180,261086,1,8,0:0:0:0:
115,55,261284,2,0,P|41:87|13:164,1,155.999992858887,0|8,1:0|0:0,0:0:0:0:
168,344,261582,2,0,L|184:184,1,155.999992858887,0|0,0:0|1:0,0:0:0:0:
267,95,261880,2,0,P|321:119|341:157,1,77.9999964294435,8|0,0:0|1:0,0:0:0:0:
354,246,262079,6,0,L|362:325,1,77.9999964294435,0|0,1:0|0:0,0:0:0:0:
504,114,262278,2,0,L|512:36,1,77.9999964294435,8|0,0:0|1:0,0:0:0:0:
261,180,262675,6,0,L|181:188,1,77.9999964294435,8|0,0:0|0:0,0:0:0:0:
354,246,262874,2,0,L|401:310,1,77.9999964294435,0|0,1:0|0:0,0:0:0:0:
365,133,263073,1,0,1:0:0:0:
365,133,263172,2,0,L|397:59,1,77.9999964294435,0|0,1:0|1:0,0:0:0:0:
170,35,263371,1,0,0:0:0:0:
170,35,263470,2,0,L|201:106,1,77.9999964294435,8|0,0:0|0:0,0:0:0:0:
263,269,263669,5,4,1:0:0:0:
423,230,263867,1,8,0:0:0:0:
272,92,264066,1,0,1:0:0:0:
354,246,264265,1,8,0:0:0:0:
409,29,264463,1,0,1:0:0:0:
192,183,264662,2,0,L|112:174,1,77.9999964294435,8|0,0:0|0:0,0:0:0:0:
309,317,264861,2,0,P|348:332|386:325,1,77.9999964294435,0|0,1:0|0:0,0:0:0:0:
353,85,265059,2,0,B|357:137|357:137|392:175,1,77.9999964294435,8|0,0:0|1:0,0:0:0:0:
470,250,265258,5,0,1:0:0:0:
275,89,265457,1,8,0:0:0:0:
354,246,265655,1,0,1:0:0:0:
451,91,265854,2,0,P|465:63|462:18,1,77.9999964294435,8|0,0:0|0:0,0:0:0:0:
242,3,266053,1,0,1:0:0:0:
351,158,266251,1,8,0:0:0:0:
386,40,266450,1,0,1:0:0:0:
192,98,266649,6,0,L|200:177,1,77.9999964294435,8|0,0:0|0:0,0:0:0:0:
215,301,266847,1,0,1:0:0:0:
351,158,267046,1,8,0:0:0:0:
278,356,267245,1,0,1:0:0:0:
278,105,267443,1,8,0:0:0:0:
354,381,267642,2,0,P|406:342|398:244,1,155.999992858887,0|8,1:0|0:0,0:0:0:0:
298,236,267940,1,2,0:0:0:0:
298,236,268039,2,0,P|325:286|353:310,1,77.9999964294435,0|0,1:0|0:0,0:0:0:0:
505,384,268238,2,0,P|487:325|508:294,1,77.9999964294435,8|0,0:0|0:0,0:0:0:0:
504,212,268437,5,0,1:0:0:0:
440,56,268635,1,0,1:0:0:0:
440,56,268735,2,0,L|431:135,1,77.9999964294435,0|2,1:0|0:0,0:0:0:0:
311,0,268933,1,0,1:0:0:0:
311,0,269033,2,0,L|319:79,1,77.9999964294435,0|0,1:0|0:0,0:0:0:0:
184,85,269231,5,0,1:0:0:0:
195,113,269330,1,0,0:0:0:0:
187,143,269429,1,8,0:0:0:0:
163,162,269529,1,0,0:0:0:0:
133,162,269628,1,8,0:0:0:0:
79,157,269728,1,8,0:0:0:0:
37,189,269827,1,8,0:0:0:0:
29,242,269927,1,8,0:0:0:0:
58,286,270026,1,4,1:0:0:0:
280,223,270225,5,8,0:0:0:0:
158,71,270424,1,0,1:0:0:0:
156,265,270622,1,8,0:0:0:0:
345,104,270821,1,0,1:0:0:0:
77,64,271020,2,0,P|92:118|122:141,1,77.9999964294435,8|0,0:0|0:0,0:0:0:0:
113,329,271218,2,0,P|167:342|202:328,1,77.9999964294435,0|0,1:0|0:0,0:0:0:0:
377,384,271417,2,0,P|415:343|421:305,1,77.9999964294435,8|0,0:0|0:0,0:0:0:0:
432,147,271616,5,0,1:0:0:0:
213,87,271814,1,8,0:0:0:0:
344,310,272013,1,0,1:0:0:0:
367,49,272212,2,0,L|358:126,1,77.9999964294435,8|0,0:0|0:0,0:0:0:0:
350,212,272410,5,0,1:0:0:0:
263,380,272609,1,8,0:0:0:0:
186,178,272808,1,0,1:0:0:0:
344,310,273006,2,0,P|392:302|425:266,1,77.9999964294435,8|0,0:0|0:0,0:0:0:0:
512,143,273205,5,0,1:0:0:0:
367,49,273404,1,0,1:0:0:0:
350,212,273602,1,8,0:0:0:0:
186,178,273801,1,0,1:0:0:0:
224,314,274000,2,0,L|68:330,1,155.999992858887,8|0,0:0|1:0,0:0:0:0:
0,117,274298,2,0,P|86:134|106:219,1,155.999992858887,0|0,0:0|0:0,0:0:0:0:
40,266,274596,2,0,L|31:186,1,77.9999964294435,0|0,1:0|0:0,0:0:0:0:
139,35,274794,5,12,0:0:0:0:
218,43,275092,1,8,0:0:0:0:
298,51,275390,1,0,1:0:0:0:
377,152,275589,2,0,L|385:231,2,77.9999964294435,12|0|0,0:0|0:0|0:0,0:0:0:0:
266,163,275887,2,0,L|257:242,2,77.9999964294435,8|0|0,0:0|0:0|0:0,0:0:0:0:
154,174,276185,2,0,L|162:253,1,77.9999964294435,8|0,0:0|0:0,0:0:0:0:
174,342,276384,5,0,1:0:0:0:
257,240,276582,1,8,0:0:0:0:
77,151,276781,1,0,1:0:0:0:
64,272,276980,1,8,0:0:0:0:
199,52,277179,1,0,1:0:0:0:
85,73,277377,2,0,L|76:152,1,77.9999964294435,8|0,0:0|0:0,0:0:0:0:
248,162,277576,2,0,L|256:241,1,77.9999964294435,0|0,1:0|0:0,0:0:0:0:
377,237,277775,2,0,L|368:316,1,77.9999964294435,8|0,0:0|0:0,0:0:0:0:
480,304,277973,5,0,1:0:0:0:
279,350,278172,1,8,0:0:0:0:
349,47,278371,1,0,1:0:0:0:
416,165,278569,2,0,P|451:204|457:247,1,77.9999964294435,8|0,0:0|0:0,0:0:0:0:
437,379,278768,1,0,1:0:0:0:
233,267,278967,1,8,0:0:0:0:
462,73,279165,1,0,1:0:0:0:
377,237,279364,2,0,P|342:198|336:155,1,77.9999964294435,8|0,0:0|0:0,0:0:0:0:
349,47,279563,5,4,1:0:0:0:
224,10,279761,1,8,0:0:0:0:
180,0,279860,1,8,0:0:0:0:
138,20,279959,1,8,0:0:0:0:
118,61,280059,1,8,0:0:0:0:
128,106,280158,1,8,0:0:0:0:
163,136,280257,1,8,0:0:0:0:
209,137,280357,2,0,P|249:145|278:219,1,107.999996704102,12|0,0:0|1:0,0:0:0:0:
180,291,280655,1,2,0:0:0:0:
180,291,280755,2,0,L|186:354,2,53.9999983520508,0|0|8,1:0|0:0|0:0,0:0:0:0:
84,217,281152,5,4,1:0:0:0:
7,113,281351,1,8,0:0:0:0:
1,81,281450,1,0,0:0:0:0:
12,51,281549,1,0,1:0:0:0:
36,30,281649,1,8,0:0:0:0:
68,25,281748,1,8,0:0:0:0:
98,36,281847,1,8,0:0:0:0:
118,61,281947,1,0,1:0:0:0:
84,209,282245,1,0,1:0:0:0:
7,113,282543,1,0,1:0:0:0:
209,193,282741,6,0,P|290:182|304:158,1,107.999996704102,4|8,1:0|0:0,0:0:0:0:
376,21,283139,2,0,B|343:110|414:92|383:195,1,161.999995056153,0|0,1:0|0:0,0:0:0:0:
364,288,283536,2,0,L|370:351,1,53.9999983520508,0|0,1:0|0:0,0:0:0:0:
220,331,283735,2,0,L|213:394,1,53.9999983520508,8|0,0:0|0:0,0:0:0:0:
220,331,283933,1,0,1:0:0:0:
7,254,284132,2,0,L|0:190,1,53.9999983520508,8|0,0:0|0:0,0:0:0:0:
89,38,284331,2,0,L|83:91,1,53.9999983520508,0|0,1:0|0:0,0:0:0:0:
172,269,284530,2,0,L|165:205,1,53.9999983520508,8|0,0:0|0:0,0:0:0:0:
262,35,284728,2,0,L|256:88,1,53.9999983520508,0|0,1:0|0:0,0:0:0:0:
304,248,284927,2,0,P|385:197|400:257,1,161.999995056153,8|0,0:0|0:0,0:0:0:0:
276,323,285324,6,0,L|226:344,1,53.9999983520508,8|0,0:0|0:0,0:0:0:0:
123,383,285523,2,0,L|128:329,1,53.9999983520508,0|0,1:0|0:0,0:0:0:0:
136,204,285722,2,0,L|179:235,1,53.9999983520508,8|0,0:0|0:0,0:0:0:0:
136,204,285920,1,0,1:0:0:0:
4,384,286218,5,0,1:0:0:0:
4,384,286318,2,0,L|-1:330,1,53.9999983520508,0|0,1:0|0:0,0:0:0:0:
131,257,286516,2,0,L|136:203,1,53.9999983520508,8|0,0:0|0:0,0:0:0:0:
0,107,286715,2,0,L|53:101,1,53.9999983520508,0|0,1:0|1:0,0:0:0:0:
190,5,286914,2,0,L|137:0,1,53.9999983520508,8|0,0:0|0:0,0:0:0:0:
248,120,287112,2,0,L|301:114,1,53.9999983520508,0|0,1:0|1:0,0:0:0:0:
446,5,287311,2,0,L|393:0,1,53.9999983520508,8|0,0:0|1:0,0:0:0:0:
478,149,287510,6,0,P|480:228|459:282,1,107.999996704102,0|8,1:0|0:0,0:0:0:0:
263,243,287808,2,0,P|330:201|387:192,1,107.999996704102,8|0,0:0|1:0,0:0:0:0:
476,384,288106,2,0,P|406:346|370:301,1,107.999996704102,8|0,0:0|1:0,0:0:0:0:
265,159,288503,1,8,0:0:0:0:
136,107,288702,1,8,0:0:0:0:
105,81,288801,1,0,1:0:0:0:
66,72,288900,1,8,0:0:0:0:
27,84,289000,1,0,0:0:0:0:
0,112,289099,1,4,1:0:0:0:
173,194,289298,5,8,0:0:0:0:
220,211,289397,1,0,0:0:0:0:
249,255,289496,1,0,1:0:0:0:
236,346,289596,5,2,0:0:0:0:
276,312,289695,1,8,0:0:0:0:
327,310,289794,1,2,0:0:0:0:
400,366,289894,5,0,1:0:0:0:
390,315,289993,1,2,0:0:0:0:
415,270,290092,1,8,0:0:0:0:
500,233,290192,5,2,0:0:0:0:
450,217,290291,1,0,1:0:0:0:
423,173,290390,1,2,0:0:0:0:
434,82,290490,5,8,0:0:0:0:
396,116,290589,1,2,0:0:0:0:
345,117,290688,1,0,1:0:0:0:
268,61,290788,5,2,0:0:0:0:
280,111,290887,1,8,0:0:0:0:
255,158,290986,1,2,0:0:0:0:
337,214,291086,5,0,1:0:0:0:
491,129,291284,2,0,P|508:93|507:72,1,53.9999983520508,8|0,0:0|0:0,0:0:0:0:
356,9,291483,2,0,L|344:120,1,107.999996704102,0|8,1:0|0:0,0:0:0:0:
182,207,291781,2,0,L|171:99,1,107.999996704102,2|0,0:0|1:0,0:0:0:0:
27,0,292079,2,0,L|15:111,1,107.999996704102,8|0,0:0|1:0,0:0:0:0:
117,346,292477,6,0,B|163:304|181:362|245:306,1,107.999996704102,8|0,0:0|1:0,0:0:0:0:
211,107,292775,2,0,B|224:167|165:154|185:228,1,107.999996704102,2|0,0:0|0:0,0:0:0:0:
404,321,293073,2,0,L|366:269,1,53.9999983520508,0|0,1:0|1:0,0:0:0:0:
421,130,293271,2,0,L|394:188,1,53.9999983520508,8|0,0:0|0:0,0:0:0:0:
252,208,293470,2,0,L|315:201,1,53.9999983520508,0|0,1:0|1:0,0:0:0:0:
459,245,293669,2,0,L|522:238,1,53.9999983520508,8|0,0:0|1:0,0:0:0:0:
448,56,293867,6,0,P|364:72|348:95,1,107.999996704102,0|8,0:0|0:0,0:0:0:0:
239,286,294165,2,0,P|191:265|175:191,1,107.999996704102,8|8,0:0|0:0,0:0:0:0:
0,103,294463,2,0,L|111:114,1,107.999996704102,8|8,0:0|0:0,0:0:0:0:
256,154,294861,2,0,L|251:213,1,53.9999983520508,8|0,0:0|0:0,0:0:0:0:
351,384,295059,1,0,1:1:0:0:
327,355,295158,1,0,0:0:0:0:
332,318,295257,1,8,0:0:0:0:
361,296,295357,1,8,0:0:0:0:
397,302,295456,1,4,1:0:0:0:
486,141,295655,6,0,L|492:204,1,53.9999983520508,8|0,0:0|0:0,0:0:0:0:
356,45,295854,2,0,L|349:108,1,53.9999983520508,0|0,1:0|0:0,0:0:0:0:
190,176,296053,1,8,0:0:0:0:
190,176,296152,1,2,0:0:0:0:
190,176,296251,2,0,P|219:108|269:90,1,107.999996704102,0|8,1:0|0:0,0:0:0:0:
363,224,296549,2,0,P|315:256|248:242,1,107.999996704102,2|0,0:0|0:0,0:0:0:0:
86,203,296847,2,0,L|80:149,1,53.9999983520508,8|0,0:0|1:0,0:0:0:0:
64,0,297046,1,0,1:0:0:0:
305,47,297245,6,0,P|322:90|313:119,1,53.9999983520508,8|0,0:0|0:0,0:0:0:0:
458,93,297443,2,0,P|442:141|423:161,1,53.9999983520508,0|0,1:0|0:0,0:0:0:0:
512,243,297642,2,0,P|455:268|389:248,1,107.999996704102,8|0,0:0|1:0,0:0:0:0:
198,227,298039,1,8,0:0:0:0:
198,227,298139,2,0,P|241:176|300:180,1,107.999996704102,0|0,1:0|0:0,0:0:0:0:
391,216,298437,5,8,0:0:0:0:
388,251,298536,1,2,0:0:0:0:
386,291,298635,1,0,1:0:0:0:
344,347,298735,1,2,0:0:0:0:
277,326,298835,1,8,0:0:0:0:
277,255,298934,1,2,0:0:0:0:
344,234,299033,1,0,1:0:0:0:
239,120,299231,5,8,0:0:0:0:
218,53,299330,1,2,0:0:0:0:
147,53,299429,1,0,1:0:0:0:
126,120,299529,1,2,0:0:0:0:
182,162,299629,1,8,0:0:0:0:
222,164,299728,1,0,0:0:0:0:
257,167,299828,2,0,L|320:160,1,53.9999983520508,0|0,1:0|1:0,0:0:0:0:
512,216,300026,2,0,L|448:209,1,53.9999983520508,8|0,0:0|1:0,0:0:0:0:
440,275,300225,6,0,L|445:328,1,53.9999983520508,0|0,1:0|0:0,0:0:0:0:
315,330,300424,2,0,L|309:383,1,53.9999983520508,8|0,0:0|0:0,0:0:0:0:
164,275,300622,2,0,L|169:328,1,53.9999983520508,0|0,1:0|1:0,0:0:0:0:
39,329,300821,2,0,L|33:382,1,53.9999983520508,8|0,0:0|1:0,0:0:0:0:
6,164,301020,6,0,L|0:110,1,53.9999983520508,0|0,1:0|0:0,0:0:0:0:
122,123,301218,1,8,0:0:0:0:
289,73,301417,2,0,L|236:68,1,53.9999983520508,0|0,1:0|1:0,0:0:0:0:
432,152,301615,2,0,L|486:147,1,53.9999983520508,0|0,1:0|1:0,0:0:0:0:
179,190,301814,6,0,P|148:256|205:281,1,107.999996704102,4|8,1:0|0:0,0:0:0:0:
280,289,302112,2,0,B|301:282|302:265|302:265|339:287|394:280,1,107.999996704102,2|0,0:0|0:0,0:0:0:0:
485,147,302410,2,0,L|431:152,1,53.9999983520508,8|0,0:0|0:0,0:0:0:0:
245,133,302609,2,0,B|156:88|169:164|89:118,1,161.999995056153,0|0,1:0|0:0,0:0:0:0:
128,0,303006,2,0,L|133:53,1,53.9999983520508,0|0,1:0|0:0,0:0:0:0:
194,195,303205,1,8,0:0:0:0:
231,349,303404,6,0,P|239:284|297:309,1,107.999996704102,0|8,1:0|0:0,0:0:0:0:
404,322,303702,2,0,L|415:210,1,107.999996704102,2|0,0:0|0:0,0:0:0:0:
357,72,304000,1,8,0:0:0:0:
357,72,304099,2,0,P|416:86|428:144,1,107.999996704102,0|0,0:0|0:0,0:0:0:0:
297,201,304397,1,8,0:0:0:0:
271,210,304496,1,0,0:0:0:0:
244,212,304595,1,0,1:0:0:0:
218,207,304695,1,0,1:0:0:0:
194,195,304794,2,0,P|169:186|97:219,1,107.999996704102,8|0,0:0|1:0,0:0:0:0:
40,384,305192,5,8,0:0:0:0:
162,335,305390,2,0,L|169:262,2,71.9999978027344,0|0|0,1:0|0:0|0:0,0:0:0:0:
322,378,305788,2,0,P|347:336|410:348,1,107.999996704102,0|8,1:0|0:0,0:0:0:0:
502,230,306086,2,0,P|472:185|502:137,1,107.999996704102,0|0,0:0|1:0,0:0:0:0:
381,41,306384,5,8,0:0:0:0:
389,71,306483,1,0,1:0:0:0:
374,99,306582,1,8,0:0:0:0:
342,142,306681,1,8,0:0:0:0:
330,194,306780,1,8,0:0:0:0:
340,247,306880,1,0,1:0:0:0:
370,291,306979,1,8,0:0:0:0:
379,342,307079,1,8,0:0:0:0:
345,381,307178,1,8,0:0:0:0:
293,377,307278,1,8,0:0:0:0:
264,333,307377,1,4,1:0:0:0:
153,187,330424,6,0,P|198:171|232:107,1,120,2|0,0:0|0:0,0:0:0:0:
98,17,331218,2,0,P|109:82|159:111,1,120,2|0,0:0|0:0,0:0:0:0:
184,27,332013,5,0,1:0:0:0:
184,27,332410,1,0,1:0:0:0:
184,27,332808,1,8,0:0:0:0:
143,95,332907,1,8,0:0:0:0:
169,171,333006,1,8,0:0:0:0:
243,200,333106,1,8,0:0:0:0:
314,162,333205,1,8,0:0:0:0:
389,110,333304,1,8,0:0:0:0:
468,157,333403,1,8,0:0:0:0:
455,249,333503,1,8,0:0:0:0:
367,274,333602,6,0,L|271:284,1,96,4|0,1:0|0:0,0:0:0:0:
73,160,333801,2,0,L|168:170,1,96,8|0,0:0|0:0,0:0:0:0:
204,372,334000,2,0,P|183:302|204:255,1,96,0|0,1:0|0:0,0:0:0:0:
258,109,334198,2,0,P|262:156|242:199,1,96,8|0,0:0|0:0,0:0:0:0:
86,286,334397,6,0,P|30:335|118:351,1,192,0|8,1:0|0:0,0:0:0:0:
264,308,334695,1,0,0:0:0:0:
264,308,334794,2,0,B|367:270|360:385|468:314,1,192,0|8,1:0|0:0,0:0:0:0:
414,165,335092,5,0,0:0:0:0:
414,165,335192,2,0,L|403:260,1,96,0|0,1:0|0:0,0:0:0:0:
304,207,335390,2,0,L|293:111,1,96,8|0,0:0|0:0,0:0:0:0:
207,0,335589,2,0,L|196:95,1,96,0|0,1:0|0:0,0:0:0:0:
91,149,335788,2,0,L|80:53,1,96,8|0,0:0|0:0,0:0:0:0:
3,181,335986,6,0,P|64:242|172:197,1,192,0|8,1:0|0:0,0:0:0:0:
293,111,336284,1,0,1:0:0:0:
293,111,336384,2,0,P|391:80|417:175,1,192,0|8,1:0|0:0,0:0:0:0:
402,289,336682,5,0,0:0:0:0:
402,289,336781,2,0,L|306:278,1,96,0|0,1:0|0:0,0:0:0:0:
185,346,336980,2,0,L|89:356,1,96,8|0,0:0|0:0,0:0:0:0:
0,227,337179,2,0,L|95:237,1,96,0|0,1:0|0:0,0:0:0:0:
233,197,337377,2,0,L|328:186,1,96,8|0,0:0|0:0,0:0:0:0:
466,237,337576,6,0,P|477:326|372:371,1,192,0|8,1:0|0:0,0:0:0:0:
251,294,337874,1,0,0:0:0:0:
251,294,337973,2,0,B|220:264|178:262|178:262|129:209|168:143,1,192,0|8,1:0|0:0,0:0:0:0:
246,4,338271,5,0,0:0:0:0:
246,4,338371,2,0,P|305:10|347:44,1,96,0|0,1:0|0:0,0:0:0:0:
368,189,338569,2,0,P|309:183|267:149,1,96,8|0,0:0|1:0,0:0:0:0:
476,114,338768,1,0,1:0:0:0:
476,114,338867,1,0,1:0:0:0:
476,114,338967,2,0,P|509:163|510:217,1,96,8|0,0:0|0:0,0:0:0:0:
399,364,339165,6,0,L|389:268,1,96,8|0,0:0|0:0,0:0:0:0:
257,278,339364,2,0,L|247:374,1,96,0|8,1:0|0:0,0:0:0:0:
121,384,339563,2,0,L|111:288,1,96,8|0,0:0|0:0,0:0:0:0:
0,161,339761,2,0,L|96:171,1,96,8|0,0:0|0:0,0:0:0:0:
96,0,339960,6,0,B|193:55|111:109|221:156,1,192,4|8,1:0|0:0,0:0:0:0:
371,78,340258,1,0,0:0:0:0:
371,78,340357,2,0,P|303:23|225:85,1,192,0|8,1:0|0:0,0:0:0:0:
270,188,340655,5,0,0:0:0:0:
270,188,340755,2,0,L|281:283,1,96,0|0,1:0|0:0,0:0:0:0:
130,331,340953,1,8,0:0:0:0:
130,331,341053,2,0,L|206:273,1,96,0|0,1:0|0:0,0:0:0:0:
321,384,341251,1,0,0:0:0:0:
321,384,341351,2,0,L|233:346,1,96,8|0,0:0|0:0,0:0:0:0:
109,219,341549,6,0,P|91:167|107:3,1,192,0|8,1:0|0:0,0:0:0:0:
169,39,341847,1,0,0:0:0:0:
198,221,341947,6,0,P|167:162|176:23,1,192,0|0,1:0|0:0,0:0:0:0:
248,48,342245,1,0,0:0:0:0:
301,215,342344,6,0,P|246:154|251:43,1,192,0|8,1:0|0:0,0:0:0:0:
343,33,342642,1,0,0:0:0:0:
388,172,342741,6,0,P|322:134|346:32,1,192,0|8,1:0|0:0,0:0:0:0:
467,103,343039,1,0,0:0:0:0:
492,177,343139,6,0,P|449:270|362:270,1,192,0|0,1:2|0:0,0:0:0:0:
190,218,343437,1,0,0:0:0:0:
190,218,343536,2,0,B|90:247|90:247|159:318,1,192,0|8,1:2|0:0,0:0:0:0:
297,333,343834,5,0,0:0:0:0:
297,333,343933,2,0,P|300:223|379:163,1,192,0|8,1:0|0:0,0:0:0:0:
494,86,344231,1,0,0:0:0:0:
494,86,344331,2,0,P|446:73|398:75,1,96,8|0,1:2|0:0,0:0:0:0:
211,129,344530,1,8,0:0:0:0:
211,129,344629,1,8,0:0:0:0:
211,129,344728,1,8,0:0:0:0:
66,170,344927,5,0,1:0:0:0:
87,188,345026,1,0,1:0:0:0:
101,213,345125,1,0,1:0:0:0:
103,242,345225,1,0,1:0:0:0:
95,269,345324,2,0,P|76:330|97:368,1,96,8|0,0:0|0:0,0:0:0:0:
211,361,345523,5,8,0:0:0:0:
233,350,345622,1,0,1:0:0:0:
265,307,345722,1,0,1:0:0:0:
291,313,345821,1,0,1:0:0:0:
329,347,345920,2,0,P|359:294|310:152,1,192,8|8,0:0|0:0,0:0:0:0:
157,104,346218,5,8,0:0:0:0:
157,104,346318,2,0,P|173:204|253:182,1,192,4|0,1:0|0:0,0:0:0:0:
296,32,346616,1,0,0:0:0:0:
296,32,346715,2,0,L|306:127,1,96,0|0,1:0|0:0,0:0:0:0:
402,82,346914,2,0,L|391:177,1,96,8|0,0:0|0:0,0:0:0:0:
492,158,347112,6,0,P|500:263|477:363,1,192,0|8,1:0|0:0,0:0:0:0:
335,269,347410,1,0,0:0:0:0:
335,269,347510,2,0,P|324:172|408:214,1,192,0|8,1:0|0:0,0:0:0:0:
406,318,347808,5,0,0:0:0:0:
406,318,347907,2,0,B|332:395|306:301|210:390,1,192,0|8,1:0|0:0,0:0:0:0:
112,350,348205,2,0,B|88:312|35:283|35:283|59:235|43:171,1,192,0|0,0:0|0:0,0:0:0:0:
173,75,348503,2,0,L|183:170,1,96,8|0,0:0|0:0,0:0:0:0:
222,278,348702,6,0,P|305:278|327:179,1,192,0|8,1:0|0:0,0:0:0:0:
260,61,349000,1,0,1:0:0:0:
260,61,349099,2,0,P|311:12|342:110,1,192,0|8,1:0|0:0,0:0:0:0:
264,215,349397,5,0,0:0:0:0:
264,215,349496,2,0,P|156:214|109:282,1,192,0|8,1:0|0:0,0:0:0:0:
231,350,349794,1,0,0:0:0:0:
273,348,349894,1,0,1:0:0:0:
300,332,349993,1,0,0:0:0:0:
319,307,350092,2,0,P|338:271|346:194,1,96,8|0,0:0|0:0,0:0:0:0:
354,98,350291,5,0,1:0:0:0:
325,61,350390,1,0,1:0:0:0:
279,60,350489,1,8,0:0:0:0:
249,95,350589,1,0,0:0:0:0:
259,141,350688,1,0,1:0:0:0:
264,215,350787,1,0,1:0:0:0:
213,269,350886,1,8,0:0:0:0:
138,267,350986,1,0,1:0:0:0:
90,210,351086,6,0,B|87:156|129:134|129:134|88:159|17:136,1,192,0|0,1:0|0:0,0:0:0:0:
39,15,351384,2,0,P|45:62|95:-3,1,192,0|0,1:0|0:0,0:0:0:0:
184,66,351682,2,0,P|212:111|211:163,1,96,0|0,1:0|0:0,0:0:0:0:
213,269,351880,2,0,B|252:228|292:235|292:235|329:275|406:276,1,192,0|0,1:0|0:0,0:0:0:0:
352,100,352179,2,0,P|373:196|438:154,1,192,0|0,1:0|0:0,0:0:0:0:
444,0,352477,2,0,L|454:95,1,96,0|0,1:0|0:0,0:0:0:0:
474,244,352675,5,4,1:0:0:0:
240,384,352874,1,8,0:0:0:0:
243,102,353073,1,0,1:0:0:0:
440,328,353271,1,8,0:0:0:0:
154,291,353470,1,0,1:0:0:0:
352,100,353669,1,8,0:0:0:0:
324,384,353867,6,0,L|334:288,1,96,0|0,1:0|0:0,0:0:0:0:
214,160,354066,2,0,L|224:255,1,96,8|0,0:0|0:0,0:0:0:0:
72,384,354265,2,0,P|82:273|129:175,1,192,0|8,1:0|0:0,0:0:0:0:
211,81,354563,1,0,0:0:0:0:
211,81,354662,2,0,B|279:88|296:157|296:157|325:192|390:187,1,192,0|8,1:0|0:0,0:0:0:0:
488,64,354960,5,0,0:0:0:0:
488,64,355059,2,0,P|425:32|361:126,1,192,0|8,1:0|0:0,0:0:0:0:
347,289,355357,1,2,0:0:0:0:
347,289,355457,2,0,L|358:384,1,96,0|0,1:0|0:0,0:0:0:0:
477,351,355655,2,0,L|488:256,1,96,8|0,0:0|0:0,0:0:0:0:
512,66,355854,1,4,1:0:0:0:
356,43,356053,5,8,0:0:0:0:
300,31,356152,1,8,0:0:0:0:
248,55,356251,1,8,0:0:0:0:
221,104,356351,1,8,0:0:0:0:
227,161,356450,1,8,0:0:0:0:
266,202,356549,1,8,0:0:0:0:
322,213,356649,2,0,P|383:217|402:326,1,155.999992858887,4|0,1:0|1:0,0:0:0:0:
213,384,357046,5,0,1:0:0:0:
181,363,357145,1,0,1:0:0:0:
162,329,357244,1,8,0:0:0:0:
162,291,357344,1,0,1:0:0:0:
179,257,357443,5,4,1:0:0:0:
180,243,357542,1,0,0:0:0:0:
181,229,357641,1,8,0:0:0:0:
183,216,357741,1,0,1:0:0:0:
147,204,357841,5,0,1:0:0:0:
145,190,357940,1,0,1:0:0:0:
144,176,358040,1,8,0:0:0:0:
142,163,358139,1,0,1:0:0:0:
179,147,358238,5,0,1:0:0:0:
181,133,358337,1,0,1:0:0:0:
182,119,358437,1,8,0:0:0:0:
184,106,358536,1,0,1:0:0:0:
136,84,358635,5,0,1:0:0:0:
315,35,358834,2,0,L|410:45,1,77.9999964294435,8|0,0:0|1:0,0:0:0:0:
480,148,359033,6,0,P|446:211|394:228,1,77.9999964294435,4|0,1:0|0:0,0:0:0:0:
319,252,359231,2,0,P|266:249|222:215,1,77.9999964294435,8|0,0:0|0:0,0:0:0:0:
309,104,359430,2,0,P|304:167|285:197,1,77.9999964294435,0|0,1:0|0:0,0:0:0:0:
186,287,359629,2,0,P|136:306|84:303,1,77.9999964294435,8|0,0:0|0:0,0:0:0:0:
120,155,359828,6,0,L|130:250,1,77.9999964294435,0|0,1:0|0:0,0:0:0:0:
109,69,360026,1,8,0:0:0:0:
109,69,360126,2,0,L|21:29,1,77.9999964294435,2|0,0:0|1:0,0:0:0:0:
181,109,360324,1,0,0:0:0:0:
181,109,360424,2,0,L|258:52,1,77.9999964294435,8|0,0:0|0:0,0:0:0:0:
366,38,360622,6,0,P|396:111|306:189,1,155.999992858887,0|8,1:0|0:0,0:0:0:0:
210,221,360920,1,0,0:0:0:0:
210,221,361020,2,0,P|229:291|293:247,1,155.999992858887,0|8,1:0|0:0,0:0:0:0:
311,108,361318,5,0,0:0:0:0:
311,108,361417,2,0,B|223:99|245:168|143:147,1,155.999992858887,0|8,1:0|0:0,0:0:0:0:
170,2,361715,1,2,0:0:0:0:
170,2,361814,2,0,L|180:97,1,77.9999964294435,0|0,1:0|0:0,0:0:0:0:
286,191,362013,2,0,L|296:286,1,77.9999964294435,8|0,0:0|0:0,0:0:0:0:
212,384,362212,5,4,1:0:0:0:
442,292,362410,1,8,0:0:0:0:
486,264,362509,1,8,0:0:0:0:
490,211,362608,1,8,0:0:0:0:
449,178,362708,1,8,0:0:0:0:
398,163,362808,1,8,0:0:0:0:
375,115,362907,1,8,0:0:0:0:
395,66,363006,2,0,P|470:47|499:104,1,132.00000402832,4|0,1:0|1:0,0:0:0:0:
320,214,363404,6,0,L|254:220,1,66.0000020141602,0|0,1:0|1:0,0:0:0:0:
86,238,363602,1,8,0:0:0:0:
86,238,363702,1,0,1:0:0:0:
86,238,363801,2,0,B|87:172|133:101|187:150|242:103|243:26,1,264.000008056641,4|0,1:0|0:0,0:0:0:0:
0,148,364397,1,2,0:0:0:0:
472,230,365390,5,4,1:0:0:0:
322,96,365589,1,8,0:0:0:0:
281,286,365788,1,0,1:0:0:0:
434,111,365986,1,8,0:0:0:0:
166,137,366185,5,0,1:0:0:0:
366,276,366384,1,8,0:0:0:0:
316,54,366582,1,0,1:0:0:0:
164,282,366781,1,8,0:0:0:0:
371,361,366980,6,0,P|425:335|440:254,1,120,0|8,1:0|0:0,0:0:0:0:
274,134,367377,1,0,1:0:0:0:
237,346,367576,1,8,0:0:0:0:
366,276,367774,2,0,L|238:262,1,120,0|8,1:0|0:0,0:0:0:0:
84,238,368172,1,0,1:0:0:0:
84,238,368271,1,0,0:0:0:0:
84,238,368370,2,0,P|84:158|123:131,1,120,8|0,0:0|1:0,0:0:0:0:
246,113,368768,5,8,0:0:0:0:
162,225,368966,1,0,1:0:0:0:
152,35,369165,1,8,0:0:0:0:
330,121,369364,1,0,1:0:0:0:
330,121,369463,1,0,0:0:0:0:
330,121,369562,1,8,0:0:0:0:
235,264,369761,1,0,3:0:0:0:
216,287,369860,1,0,3:0:0:0:
191,302,369959,1,8,3:2:0:0:
161,307,370059,1,0,3:0:0:0:
133,300,370158,1,0,3:0:0:0:
123,189,370357,6,0,L|116:125,1,60,8|0,0:0|0:0,0:0:0:0:
52,295,370556,1,0,1:0:0:0:
37,181,370754,2,0,L|30:117,1,60,8|0,0:0|0:0,0:0:0:0:
161,23,370953,6,0,L|220:29,1,60,0|0,1:0|0:0,0:0:0:0:
376,69,371152,2,0,L|316:75,1,60,0|0,1:0|0:0,0:0:0:0:
150,106,371350,2,0,L|209:112,1,60,0|0,1:0|0:0,0:0:0:0:
366,150,371549,2,0,L|306:156,1,60,0|0,1:0|0:0,0:0:0:0:
141,191,371748,5,4,1:0:0:0:
232,361,371946,1,8,0:0:0:0:
398,235,372145,1,0,1:0:0:0:
232,250,372344,1,8,0:0:0:0:
450,374,372543,5,0,1:0:0:0:
489,237,372741,1,8,0:0:0:0:
290,186,372940,1,0,1:0:0:0:
364,305,373139,1,8,0:0:0:0:
500,122,373337,5,0,1:0:0:0:
436,3,373536,1,8,0:0:0:0:
402,167,373735,1,0,1:0:0:0:
371,51,373933,1,8,0:0:0:0:
288,194,374132,1,0,1:0:0:0:
295,65,374331,1,8,0:0:0:0:
158,212,374529,1,0,1:0:0:0:
212,72,374728,1,8,0:0:0:0:
0,130,374927,5,0,1:0:0:0:
136,112,375125,1,8,0:0:0:0:
35,286,375324,1,0,1:0:0:0:
73,182,375523,1,8,0:0:0:0:
73,182,375622,1,2,0:0:0:0:
73,182,375721,2,0,P|120:203|211:170,1,120,0|8,1:0|0:0,0:0:0:0:
280,86,376119,1,0,1:0:0:0:
136,112,376317,1,8,0:0:0:0:
122,283,376516,5,8,0:0:0:0:
217,245,376715,1,0,1:0:0:0:
319,218,376913,1,0,1:0:0:0:
319,218,377013,1,0,1:0:0:0:
319,218,377112,1,0,1:0:0:0:
409,184,377311,1,0,1:0:0:0:
507,154,377509,5,0,1:0:0:0:
492,121,377608,1,0,0:0:0:0:
467,95,377707,1,0,1:0:0:0:
435,80,377807,1,0,1:0:0:0:
399,76,377906,1,0,1:0:0:0:
364,85,378005,1,0,1:0:0:0:
335,105,378105,1,4,1:0:0:0:
319,218,378304,5,8,0:0:0:0:
319,218,378403,1,0,0:0:0:0:
319,218,378503,2,0,L|313:265,1,48,0|0,1:0|0:0,0:0:0:0:
238,233,378701,2,0,L|232:280,1,48,8|0,0:0|0:0,0:0:0:0:
95,312,378900,5,0,1:0:0:0:
80,216,379099,2,0,L|32:221,1,48,8|0,0:0|0:0,0:0:0:0:
66,125,379298,2,0,L|18:130,1,48,0|0,1:0|0:0,0:0:0:0:
48,35,379496,2,0,L|0:40,1,48,8|0,0:0|1:0,0:0:0:0:
220,47,379695,6,0,L|226:0,1,48,0|0,1:0|0:0,0:0:0:0:
211,155,379894,1,8,0:0:0:0:
211,155,379993,1,0,0:0:0:0:
211,155,380092,1,0,1:0:0:0:
314,92,380291,2,0,L|309:45,1,48,8|0,0:0|0:0,0:0:0:0:
328,193,380490,1,0,1:0:0:0:
433,117,380688,1,8,0:0:0:0:
433,117,380788,1,0,1:0:0:0:
433,117,380887,2,0,L|439:70,1,48,0|0,1:0|1:0,0:0:0:0:
416,232,381086,1,8,0:0:0:0:
463,358,381284,6,0,L|510:352,1,48,0|0,1:0|0:0,0:0:0:0:
339,309,381483,1,8,0:0:0:0:
339,309,381582,1,0,0:0:0:0:
339,309,381682,2,0,L|386:315,1,48,0|0,1:0|1:0,0:0:0:0:
85,342,381880,2,0,L|132:336,1,48,8|0,0:0|0:0,0:0:0:0:
33,269,382079,5,0,1:0:0:0:
65,250,382178,1,0,1:0:0:0:
84,217,382277,1,8,0:0:0:0:
85,179,382377,1,0,0:0:0:0:
66,146,382476,1,8,0:0:0:0:
51,90,382575,1,8,0:0:0:0:
86,44,382674,1,8,0:0:0:0:
144,43,382774,1,8,0:0:0:0:
180,89,382873,1,0,1:0:0:0:
249,263,383172,1,0,1:0:0:0:
395,130,383470,1,0,1:0:0:0:
191,202,383668,5,4,1:0:0:0:
175,220,383767,1,0,1:0:0:0:
165,242,383867,2,0,L|138:236,1,24,8|0,0:0|0:0,0:0:0:0:
162,265,383966,1,8,0:0:0:0:
166,289,384065,1,8,0:0:0:0:
177,310,384164,1,8,0:0:0:0:
193,328,384264,1,8,0:0:0:0:
213,340,384363,1,8,0:0:0:0:
236,346,384463,2,0,L|188:351,1,48,4|0,1:0|0:0,0:0:0:0:
296,268,384662,5,8,0:0:0:0:
296,268,384761,1,0,1:0:0:0:
296,268,384860,2,0,L|248:262,1,48,0|0,1:0|0:0,0:0:0:0:
429,216,385059,1,8,0:0:0:0:
366,123,385258,2,0,L|413:128,3,48,0|0|8|0,1:0|0:0|0:0|0:0,0:0:0:0:
222,63,385655,5,0,1:0:0:0:
190,47,385754,1,0,1:0:0:0:
157,59,385853,1,8,0:0:0:0:
142,91,385953,1,0,1:0:0:0:
155,123,386052,2,0,L|160:170,3,48,0|0|8|0,1:0|0:0|0:0|1:0,0:0:0:0:
246,264,386450,5,0,1:0:0:0:
246,264,386549,1,0,1:0:0:0:
246,264,386648,2,0,L|240:311,1,48,8|0,0:0|0:0,0:0:0:0:
319,160,386847,1,0,1:0:0:0:
319,160,386946,1,0,1:0:0:0:
319,160,387046,2,0,L|324:207,1,48,8|0,0:0|1:0,0:0:0:0:
435,224,387245,2,0,L|429:271,1,48,0|0,1:0|1:0,0:0:0:0:
507,104,387443,2,0,L|512:151,1,48,8|0,0:0|0:0,0:0:0:0:
337,37,387642,6,0,L|384:31,1,48,0|0,1:0|0:0,0:0:0:0:
488,21,387841,1,8,0:0:0:0:
290,110,388039,2,0,L|337:115,1,48,0|0,1:0|1:0,0:0:0:0:
239,209,388238,1,8,0:0:0:0:
239,209,388337,1,0,0:0:0:0:
239,209,388437,2,0,L|286:203,1,48,0|0,1:0|1:0,0:0:0:0:
378,191,388635,1,8,0:0:0:0:
189,297,388834,5,0,1:0:0:0:
152,267,388933,1,0,1:0:0:0:
133,223,389032,1,8,0:0:0:0:
136,176,389132,1,0,1:0:0:0:
161,135,389231,1,0,1:0:0:0:
331,81,389529,1,0,1:0:0:0:
161,135,389827,1,0,1:0:0:0:
132,271,390026,5,8,0:0:0:0:
157,311,390125,1,8,0:0:0:0:
192,329,390225,1,8,0:0:0:0:
225,325,390324,1,8,0:0:0:0:
251,309,390423,1,8,0:0:0:0:
256,291,390523,1,8,0:0:0:0:
249,280,390622,1,8,0:0:0:0:
240,275,390721,1,8,0:0:0:0:
233,273,390821,1,2,0:0:0:0:
103,364,391019,6,0,P|58:380|-3:342,1,120,2|0,0:0|0:0,0:0:0:0:
0,226,391615,2,0,L|9:136,2,72,2|2|2,0:0|0:0|0:0,0:0:0:0:
109,225,392410,2,0,L|103:171,2,53.9999983520508,2|2|2,0:0|0:0|0:0,0:0:0:0:
200,222,393205,2,0,L|204:185,2,36,2|2|2,0:0|0:0|0:0,0:0:0:0:
297,207,393999,1,2,0:0:0:0:
256,192,395531,2,0,L|256:160,4,30,2|2|2|2|0,0:0|0:0|0:0|0:0|0:0,0:0:0:0:
256,192,395779,12,0,397269,0:0:0:0:
