osu file format v14

[General]
AudioFilename: audio.mp3
AudioLeadIn: 0
PreviewTime: 51213
Countdown: 0
SampleSet: Soft
StackLeniency: 0.7
Mode: 0
LetterboxInBreaks: 0
WidescreenStoryboard: 1

[Editor]
Bookmarks: 16991,39985,62800,93159,116153,138967,173638,196452
DistanceSpacing: 1.5
BeatDivisor: 4
GridSize: 16
TimelineZoom: 2.2

[Metadata]
Title:Sekaijuu no Dare yori mo
TitleUnicode:世界中の誰よりも
Artist:Diao Ye Zong feat. Meramipop
ArtistUnicode:凋叶棕 feat. めらみぽっぷ
Creator:Nao Tomori
Version:Collab Hard
Source:東方風神録 ~ Mountain of Faith.
Tags:touhou project fuujinroku japanese rock cocona rd-sounds 東風谷 早苗 sanae kochiya 信仰は儚き人間の為に faith is for the Transient People reitaisai 16 奏
BeatmapID:2801194
BeatmapSetID:1346056

[Difficulty]
HPDrainRate:4.5
CircleSize:3.8
OverallDifficulty:6
ApproachRate:7.5
SliderMultiplier:1.3
SliderTickRate:1

[Events]
//Background and Video events
0,0,"sanae bg.jpg",0,0
//Break Periods
//Storyboard Layer 0 (Background)
//Storyboard Layer 1 (Fail)
//Storyboard Layer 2 (Pass)
//Storyboard Layer 3 (Foreground)
//Storyboard Layer 4 (Overlay)
//Storyboard Sound Samples

[TimingPoints]
-3128,359.281437125748,4,2,1,70,1,0
14117,-133.333333333333,4,2,1,70,0,0
16991,-117.647058823529,4,2,1,55,0,0
38369,-100,4,2,1,55,0,0
39985,-117.647058823529,4,2,1,55,0,0
51482,-100,4,2,1,75,0,1
74476,-133.333333333333,4,2,1,70,0,0
77171,-133.333333333333,4,2,1,70,0,0
78788,-100,4,2,1,70,0,0
90285,-133.333333333333,4,2,1,70,0,0
93159,-117.647058823529,4,2,1,55,0,0
114536,-100,4,2,1,55,0,0
116153,-117.647058823529,4,2,1,55,0,0
127650,-100,4,2,1,75,0,1
150644,-133.333333333333,4,2,1,70,0,0
156392,-100,4,2,1,70,0,0
170764,-133.333333333333,4,2,1,70,0,0
173638,-117.647058823529,4,2,1,55,0,0
185135,-100,4,2,1,75,0,1
208129,-133.333333333333,4,2,1,70,0,0
212440,-100,4,2,1,70,0,0
223937,-133.333333333333,4,2,1,70,0,0

[Colours]
Combo1 : 245,173,124
Combo2 : 132,220,249
Combo3 : 216,173,239
Combo4 : 172,251,180

[HitObjects]
443,48,1183,5,2,2:3:0:0:
443,48,1542,1,2,2:3:0:0:
443,48,1901,2,0,P|453:86|461:122,2,65,2|0|8,2:3|2:2|2:2,0:0:0:0:
364,25,2440,1,0,3:2:0:0:
305,91,2620,6,0,P|271:112|192:67,1,130,6|8,3:2|2:2,0:0:0:0:
196,77,3159,1,2,2:2:0:0:
131,141,3339,2,0,L|137:205,2,65,2|2|8,3:2|3:2|2:2,0:0:0:0:
59,84,3877,5,2,2:2:0:0:
106,283,4237,1,2,2:2:0:0:
106,283,4416,2,0,P|145:292|185:272,1,65,10|0,2:2|2:2,0:0:0:0:
241,228,4776,2,0,P|278:208|364:260,1,130,2|10,2:2|2:2,0:0:0:0:
408,314,5315,1,0,2:2:0:0:
473,245,5494,6,0,L|465:162,1,65,2|0,3:2|0:0,0:0:0:0:
398,307,5854,2,0,L|404:371,1,65,10|0,2:2|0:0,0:0:0:0:
309,344,6213,2,0,B|275:338|275:338|229:361,2,65,2|2|8,3:2|3:2|2:2,0:0:0:0:
324,253,6752,2,0,P|324:198|327:101,1,130,2|0,2:2|2:2,0:0:0:0:
380,47,7291,1,10,2:2:0:0:
380,47,7470,1,0,2:2:0:0:
445,113,7650,2,0,P|488:118|512:107,2,65,2|0|8,3:2|3:2|2:2,0:0:0:0:
204,28,8369,6,0,P|152:19|129:28,1,65,6|0,3:2|3:2,0:0:0:0:
68,87,8728,2,0,P|59:139|68:162,1,65,10|0,2:2|2:2,0:0:0:0:
132,207,9087,1,2,3:2:0:0:
132,207,9267,2,0,P|182:195|201:191,1,65,2|8,3:2|2:2,0:0:0:0:
278,147,9626,2,0,P|315:176|387:223,1,130,2|2,2:2|2:2,0:0:0:0:
480,199,10165,1,10,2:2:0:0:
284,352,10524,1,2,3:2:0:0:
69,243,10883,1,8,2:2:0:0:
265,90,11243,6,0,P|270:139|273:172,1,65,2|0,3:2|2:2,0:0:0:0:
186,199,11602,2,0,P|181:150|178:117,1,65,10|0,2:2|2:2,0:0:0:0:
120,72,11961,2,0,P|84:57|42:57,2,65,2|2|8,3:2|3:2|2:2,0:0:0:0:
188,12,12500,2,0,P|243:35|317:6,1,130,2|0,2:2|2:2,0:0:0:0:
397,53,13039,2,0,B|427:66|427:66|449:112|445:165,1,130,10|2,2:2|3:2,0:0:0:0:
398,244,13578,1,8,2:2:0:0:
398,244,13668,1,8,2:2:0:0:
398,244,13758,2,0,P|359:235|324:230,1,65,8|4,2:3|2:3,0:0:0:0:
249,284,14117,6,0,P|199:308|108:340,1,146.250005578995,6|6,3:2|3:2,0:0:0:0:
48,172,15195,2,0,P|98:148|189:116,1,146.250005578995,14|6,2:2|3:2,0:0:0:0:
385,204,16273,2,0,P|332:186|282:170,1,97.50000371933,14|14,2:2|2:2,0:0:0:0:
209,222,16812,1,8,2:2:0:0:
209,222,16901,1,8,2:2:0:0:
209,222,16991,6,0,P|166:199|144:184,1,55.2500010538101,6|0,3:2|2:2,0:0:0:0:
86,150,17351,1,10,2:2:0:0:
86,150,17530,1,0,2:2:0:0:
119,66,17710,2,0,P|151:61|187:52,1,55.2500010538101,2|0,3:2|0:0,0:0:0:0:
262,55,18069,1,10,2:2:0:0:
321,116,18249,2,0,P|300:186|326:231,1,110.50000210762,2|0,2:2|2:2,0:0:0:0:
404,181,18788,1,10,2:2:0:0:
404,181,18967,1,0,2:2:0:0:
471,241,19147,2,0,P|464:303|405:333,1,110.50000210762,2|8,3:2|2:2,0:0:0:0:
333,321,19686,5,0,3:2:0:0:
250,359,19866,1,2,3:2:0:0:
250,359,20045,2,0,L|171:367,1,55.2500010538101,2|8,2:2|0:0,0:0:0:0:
111,329,20404,1,2,2:2:0:0:
188,272,20584,2,0,P|169:222|115:209,1,110.50000210762,2|8,3:2|2:2,0:0:0:0:
253,171,21123,2,0,B|289:189|289:189|357:168,1,110.50000210762,2|2,2:2|2:2,0:0:0:0:
450,115,21662,1,10,2:2:0:0:
500,178,21842,1,0,2:2:0:0:
445,105,22021,2,0,P|396:76|327:62,1,110.50000210762,2|8,3:2|2:2,0:0:0:0:
257,98,22560,5,2,3:2:0:0:
192,32,22740,1,2,3:3:0:0:
192,32,22919,2,0,P|157:30|113:93,1,110.50000210762,2|0,2:2|2:2,0:0:0:0:
140,169,23458,2,0,L|110:288,1,110.50000210762,2|8,3:2|2:2,0:0:0:0:
156,365,23997,1,2,2:2:0:0:
305,153,24357,1,2,2:2:0:0:
459,362,24716,1,2,2:2:0:0:
424,271,24895,2,0,L|488:265,1,55.2500010538101,2|0,3:2|3:2,0:0:0:0:
339,320,25255,2,0,L|275:314,1,55.2500010538101,8|0,2:2|3:2,0:0:0:0:
161,324,25614,6,0,P|217:281|217:229,1,110.50000210762,2|8,3:2|2:2,0:0:0:0:
168,160,26153,1,2,2:2:0:0:
234,80,26333,1,0,3:2:0:0:
234,80,26512,1,2,2:2:0:0:
158,3,26692,1,8,2:2:0:0:
486,4,27051,5,2,3:2:0:0:
462,84,27231,1,2,2:2:0:0:
501,159,27410,2,0,P|495:214|447:256,2,110.50000210762,2|2|2,2:3|2:3|2:3,0:0:0:0:
411,170,28309,1,0,3:2:0:0:
350,118,28488,5,6,3:2:0:0:
350,118,28668,2,0,L|226:133,1,110.50000210762,2|0,2:2|2:2,0:0:0:0:
173,188,29207,2,0,P|151:146|171:78,1,110.50000210762,2|8,3:2|2:2,0:0:0:0:
152,1,29746,2,0,P|97:-14|40:19,1,110.50000210762,2|2,2:2|2:2,0:0:0:0:
12,91,30285,1,10,2:2:0:0:
12,91,30464,1,0,2:2:0:0:
40,180,30644,2,0,B|76:200|76:200|100:283,1,110.50000210762,2|8,3:2|2:2,0:0:0:0:
182,295,31183,1,2,2:2:0:0:
292,260,31363,5,2,3:2:0:0:
292,260,31542,2,0,P|254:220|262:151,1,110.50000210762,2|0,2:2|2:2,0:0:0:0:
361,93,32081,2,0,L|347:160,1,55.2500010538101,2|0,3:2|2:2,0:0:0:0:
417,214,32440,1,10,2:2:0:0:
479,151,32620,1,0,2:2:0:0:
424,236,32800,2,0,L|438:300,1,55.2500010538101,2|2,2:2|2:2,0:0:0:0:
371,371,33159,2,0,L|356:316,1,55.2500010538101,8|2,2:2|2:2,0:0:0:0:
288,245,33518,2,0,B|257:239|257:239|215:260,2,55.2500010538101,2|0|8,3:2|3:2|2:2,0:0:0:0:
254,331,34057,1,0,3:2:0:0:
137,366,34237,6,0,P|150:308|99:263,1,110.50000210762,6|8,3:2|2:2,0:0:0:0:
25,235,34776,2,0,P|17:167|15:117,1,110.50000210762,2|0,2:2|3:2,0:0:0:0:
108,82,35315,1,10,2:2:0:0:
32,25,35494,1,2,2:2:0:0:
120,94,35674,6,0,P|162:91|167:13,1,110.50000210762,2|8,3:2|2:2,0:0:0:0:
287,0,36213,2,0,B|340:-6|340:-6|391:17,1,110.50000210762,2|0,2:2|3:2,0:0:0:0:
439,104,36752,1,10,2:2:0:0:
389,185,36931,1,2,2:2:0:0:
468,246,37111,6,0,L|464:370,2,110.50000210762,2|8|0,3:2|2:2|3:2,0:0:0:0:
379,291,38009,1,8,2:2:0:0:
379,291,38189,1,8,2:2:0:0:
293,213,38369,6,0,B|310:169|310:169|308:116|260:87,1,130,6|2,3:2|3:2,0:0:0:0:
171,83,38907,1,8,2:2:0:0:
171,83,39087,1,2,2:2:0:0:
102,161,39267,2,0,L|63:173,2,32.5,0|8|8,3:2|2:2|0:0,0:0:0:0:
189,214,39626,1,8,2:2:0:0:
133,295,39806,1,0,3:2:0:0:
133,295,39895,1,8,2:2:0:0:
133,295,39985,6,0,P|76:315|16:337,1,110.50000210762,6|10,3:2|2:2,0:0:0:0:
226,326,40524,1,2,2:2:0:0:
226,326,40704,2,0,P|283:346|343:368,1,110.50000210762,2|8,3:2|2:2,0:0:0:0:
407,294,41243,2,0,P|427:261|407:187,1,110.50000210762,2|2,2:2|2:2,0:0:0:0:
346,145,41782,1,10,2:2:0:0:
346,145,41961,1,0,2:2:0:0:
392,73,42141,2,0,L|455:85,2,55.2500010538101,2|0|8,3:2|0:0|2:2,0:0:0:0:
329,14,42680,5,2,2:2:0:0:
329,14,42860,2,0,P|294:42|226:81,1,110.50000210762,2|10,3:2|2:2,0:0:0:0:
159,125,43398,1,2,2:2:0:0:
159,125,43578,2,0,P|124:97|56:58,1,110.50000210762,2|8,3:2|2:2,0:0:0:0:
1,133,44117,6,0,B|-7:152|-7:152|22:198|28:246,1,110.50000210762,2|0,2:2|2:2,0:0:0:0:
6,322,44656,2,0,P|43:344|79:336,1,55.2500010538101,10|2,2:2|2:2,0:0:0:0:
192,271,45015,2,0,P|164:280|144:363,1,110.50000210762,2|8,3:2|2:2,0:0:0:0:
229,379,45554,1,0,3:2:0:0:
286,300,45734,6,0,L|268:179,1,110.50000210762,6|8,3:2|2:2,0:0:0:0:
412,81,46452,2,0,L|424:162,2,82.8750015807152,2|2|2,3:2|2:2|2:2,0:0:0:0:
327,62,47171,2,0,L|339:143,2,82.8750015807152,2|2|2,3:2|2:2|2:2,0:0:0:0:
256,18,47889,1,2,3:2:0:0:
256,18,48159,1,2,2:2:0:0:
256,18,48428,1,2,2:2:0:0:
204,81,48608,6,0,P|175:95|89:75,2,110.50000210762,2|8|0,3:2|2:2|3:2,0:0:0:0:
277,144,49506,1,0,0:0:0:0:
225,216,49686,1,8,2:2:0:0:
225,216,49776,1,8,2:2:0:0:
225,216,49866,1,0,3:2:0:0:
283,296,50045,5,0,3:2:0:0:
283,296,50225,2,0,P|321:310|353:324,1,55.2500010538101,2|0,2:2|3:2,0:0:0:0:
398,251,50584,1,8,2:2:0:0:
120,351,50943,1,8,2:2:0:0:
120,351,51123,2,0,P|116:328|108:294,1,55.2500010538101,8|0,2:2|3:2,0:0:0:0:
38,243,51482,6,0,P|18:204|72:137,1,130,6|8,3:2|2:2,0:0:0:0:
155,173,52021,1,2,2:2:0:0:
229,111,52201,2,0,L|215:24,1,65,2|2,3:2|2:2,0:0:0:0:
218,46,52560,1,8,2:2:0:0:
336,87,52740,6,0,L|326:219,1,130,2|0,2:2|2:2,0:0:0:0:
444,306,53279,2,0,P|421:281|370:276,1,65,10|0,2:2|3:2,0:0:0:0:
303,305,53638,2,0,P|280:330|229:335,1,65,2|0,2:2|0:0,0:0:0:0:
175,298,53997,1,8,2:2:0:0:
138,369,54177,6,0,L|123:232,1,130,2|2,2:2|2:2,0:0:0:0:
180,171,54716,1,10,2:2:0:0:
113,109,54895,1,0,2:2:0:0:
202,174,55075,2,0,P|251:165|279:146,1,65,2|0,3:2|3:2,0:0:0:0:
305,80,55434,1,8,2:2:0:0:
396,57,55614,6,0,P|430:69|458:162,1,130,2|2,2:2|2:2,0:0:0:0:
415,230,56153,1,8,2:2:0:0:
333,211,56333,1,2,3:2:0:0:
272,275,56512,2,0,B|286:338,1,65,2|0,2:2|0:0,0:0:0:0:
186,308,56871,2,0,B|171:244,1,65,8|2,2:2|2:2,0:0:0:0:
76,162,57231,6,0,P|94:209|182:198,1,130,2|10,3:2|2:2,0:0:0:0:
226,143,57770,1,0,2:2:0:0:
145,39,57949,2,0,L|153:113,1,65,2|2,3:2|3:2,0:0:0:0:
151,103,58309,1,8,2:2:0:0:
76,162,58488,6,0,P|61:208|41:300,1,130,2|2,2:2|2:2,0:0:0:0:
112,347,59027,1,8,2:2:0:0:
112,347,59207,1,2,3:2:0:0:
185,280,59386,2,0,B|209:283|231:268|231:268|259:299|315:296,1,130,2|8,2:2|2:2,0:0:0:0:
400,264,59925,5,0,2:2:0:0:
467,343,60105,1,2,3:2:0:0:
413,276,60285,2,0,P|424:230|430:192,1,65,2|8,2:2|2:2,0:0:0:0:
496,166,60644,2,0,P|478:120|413:48,1,130,2|2,2:2|3:2,0:0:0:0:
426,58,61183,1,8,2:2:0:0:
356,120,61363,1,2,2:2:0:0:
272,54,61542,6,0,B|193:63|232:98|141:109,1,130,2|8,3:2|2:2,0:0:0:0:
77,59,62081,1,2,3:2:0:0:
42,145,62261,2,0,L|-19:153,2,32.5,0|0|8,3:2|3:2|2:2,0:0:0:0:
123,204,62620,1,8,2:2:0:0:
81,292,62800,6,0,B|113:319|113:319|154:319|224:287,1,130,6|2,3:2|3:2,0:0:0:0:
280,244,63339,1,10,2:2:0:0:
365,290,63518,1,0,2:2:0:0:
443,237,63698,2,0,L|453:161,2,65,2|2|8,3:2|3:2|2:2,0:0:0:0:
512,95,64237,6,0,P|452:72|393:96,1,130,2|2,2:2|2:2,0:0:0:0:
350,183,64776,1,10,2:2:0:0:
350,183,64955,1,0,3:0:0:0:
255,138,65135,2,0,L|266:61,1,65,2|0,0:0|3:0,0:0:0:0:
189,23,65494,1,8,2:2:0:0:
130,108,65674,6,0,P|139:165|149:248,1,130,2|2,2:2|2:2,0:0:0:0:
83,311,66213,1,8,2:2:0:0:
160,367,66392,1,2,2:2:0:0:
71,300,66572,2,0,P|51:272|46:228,1,65,2|0,3:2|3:2,0:0:0:0:
81,153,66931,1,8,2:2:0:0:
166,229,67111,6,0,B|206:243|206:243|252:225|272:181,1,130,2|2,2:2|2:2,0:0:0:0:
234,103,67650,1,8,2:2:0:0:
280,22,67830,1,2,3:2:0:0:
349,91,68009,2,0,P|383:96|428:87,1,65,2|0,2:2|3:2,0:0:0:0:
512,10,68369,2,0,P|478:5|433:14,1,65,8|2,2:2|2:2,0:0:0:0:
424,114,68728,6,0,L|437:261,1,130,0|8,3:2|2:2,0:0:0:0:
501,316,69267,1,2,2:2:0:0:
414,371,69446,2,0,L|329:386,1,65,2|0,3:2|3:2,0:0:0:0:
349,382,69806,1,10,2:2:0:0:
264,339,69985,1,0,2:2:0:0:
311,250,70165,6,0,L|303:318,1,65,2|2,3:2|0:0,0:0:0:0:
205,220,70524,2,0,L|213:152,1,65,8|0,0:0|3:2,0:0:0:0:
285,89,70883,1,2,3:0:0:0:
203,31,71063,1,8,2:3:0:0:
203,31,71153,1,8,2:3:0:0:
203,31,71243,2,0,L|195:-1,3,32.5,8|4|4|4,2:3|2:3|2:3|2:3,0:0:0:0:
277,44,71602,5,6,3:2:0:0:
63,68,71961,1,6,3:2:0:0:
29,315,72321,2,0,L|89:291,1,65,2|2,3:2|3:2,0:0:0:0:
89,290,72680,1,8,2:2:0:0:
172,356,72860,6,0,P|229:333|291:355,1,130,6|0,3:2|0:0,0:0:0:0:
377,316,73398,1,10,2:2:0:0:
311,253,73578,1,2,2:2:0:0:
400,209,73758,1,0,3:2:0:0:
400,209,73848,1,8,2:3:0:0:
400,209,73937,1,8,2:3:0:0:
400,209,74027,1,8,2:3:0:0:
400,209,74117,2,0,L|406:251,3,32.5,0|4|4|4,3:2|2:3|2:3|2:3,0:0:0:0:
440,129,74476,6,0,P|390:92|303:43,1,146.250005578995,6|6,3:2|3:2,0:0:0:0:
79,84,75554,2,0,P|129:121|216:170,1,146.250005578995,14|6,2:2|3:2,0:0:0:0:
274,335,76632,2,0,P|224:298|191:279,1,97.50000371933,10|2,2:2|3:2,0:0:0:0:
107,259,77171,1,14,2:2:0:0:
243,34,77710,5,0,3:2:0:0:
17,16,78069,1,0,3:2:0:0:
56,95,78249,1,2,2:2:0:0:
56,95,78428,1,0,3:2:0:0:
20,185,78608,1,0,3:2:0:0:
20,185,78698,1,0,3:2:0:0:
20,185,78788,6,0,P|18:246|24:261,1,65,6|2,3:2|2:2,0:0:0:0:
87,336,79147,2,0,P|145:352|161:350,1,65,10|0,2:2|2:2,0:0:0:0:
243,283,79506,1,2,3:2:0:0:
243,283,79686,2,0,L|251:214,1,65,0|8,3:2|2:2,0:0:0:0:
188,113,80045,5,2,2:2:0:0:
364,10,80404,1,0,2:2:0:0:
364,10,80584,2,0,P|332:4|293:10,1,65,10|0,2:2|3:2,0:0:0:0:
406,108,80943,2,0,P|475:106|514:56,1,130,2|10,2:2|2:2,0:0:0:0:
438,34,81482,1,2,2:2:0:0:
401,128,81662,6,0,L|392:212,1,65,2|0,3:2|0:0,0:0:0:0:
290,246,82021,2,0,L|296:181,1,65,10|0,2:2|0:0,0:0:0:0:
375,313,82380,2,0,B|408:305|408:305|466:310,2,65,2|2|8,3:2|3:2|2:2,0:0:0:0:
288,364,82919,2,0,L|148:356,1,130,2|0,2:2|2:2,0:0:0:0:
91,283,83458,1,10,2:2:0:0:
91,283,83638,1,2,3:2:0:0:
173,218,83818,2,0,P|189:254|184:294,2,65,2|0|10,2:2|3:2|2:2,0:0:0:0:
88,26,84536,6,0,P|49:20|13:28,1,65,2|2,3:2|3:2,0:0:0:0:
127,107,84895,2,0,P|166:113|202:105,1,65,8|2,2:2|2:2,0:0:0:0:
279,45,85255,2,0,L|355:51,1,65,2|2,2:2|3:2,0:0:0:0:
425,121,85614,1,8,2:2:0:0:
425,121,85794,2,0,P|362:158|365:219,1,130,2|2,3:2|2:2,0:0:0:0:
430,277,86333,1,10,2:2:0:0:
219,189,86692,1,2,2:2:0:0:
62,334,87051,1,8,2:2:0:0:
62,334,87231,1,2,2:2:0:0:
150,360,87410,6,0,L|236:353,1,65,2|0,3:2|2:2,0:0:0:0:
270,264,87770,2,0,L|205:269,1,65,10|0,2:2|2:2,0:0:0:0:
117,228,88129,2,0,P|103:181|109:142,2,65,2|2|8,3:2|3:2|2:2,0:0:0:0:
195,173,88668,2,0,L|206:38,1,130,2|0,2:2|2:2,0:0:0:0:
341,0,89207,2,0,B|320:44|320:44|350:137,1,130,10|0,2:2|3:2,0:0:0:0:
420,197,89746,1,8,2:2:0:0:
420,197,89836,1,8,2:2:0:0:
420,197,89925,2,0,L|509:194,1,65,8|4,2:3|2:3,0:0:0:0:
357,287,90285,6,0,P|289:298|195:320,1,146.250005578995,6|6,3:2|3:2,0:0:0:0:
5,248,91363,2,0,P|77:236|148:219,1,146.250005578995,14|6,2:2|3:2,0:0:0:0:
307,72,92440,2,0,P|235:88|190:93,1,97.50000371933,10|10,2:2|2:2,0:0:0:0:
112,44,92979,1,8,2:2:0:0:
112,44,93069,1,8,2:2:0:0:
112,44,93159,5,6,3:2:0:0:
38,106,93339,2,0,P|24:145|23:213,1,110.50000210762,2|0,2:2|2:2,0:0:0:0:
79,291,93877,2,0,P|133:292|186:276,1,110.50000210762,2|8,3:2|2:2,0:0:0:0:
269,224,94416,2,0,P|323:222|376:238,1,110.50000210762,2|2,2:2|2:2,0:0:0:0:
447,300,94955,1,8,2:2:0:0:
447,300,95135,1,2,2:2:0:0:
494,225,95315,2,0,P|477:172|479:117,1,110.50000210762,2|8,3:2|2:2,0:0:0:0:
479,117,95854,1,2,2:2:0:0:
423,49,96033,5,2,3:2:0:0:
380,122,96213,2,0,B|260:154,1,110.50000210762,2|0,2:2|2:2,0:0:0:0:
198,98,96752,2,0,B|91:126,1,110.50000210762,2|8,3:2|2:2,0:0:0:0:
23,73,97291,1,2,2:2:0:0:
183,300,97650,1,0,2:2:0:0:
183,300,97830,2,0,P|198:252|202:228,1,55.2500010538101,10|2,2:2|2:2,0:0:0:0:
289,236,98189,2,0,P|295:263|305:289,1,55.2500010538101,2|0,3:2|3:2,0:0:0:0:
395,325,98548,2,0,P|438:336|462:342,1,55.2500010538101,8|0,2:2|3:2,0:0:0:0:
512,275,98907,5,2,3:3:0:0:
477,180,99087,2,0,P|448:198|370:242,1,110.50000210762,2|0,2:2|2:2,0:0:0:0:
312,168,99626,2,0,P|275:179|209:140,1,110.50000210762,2|8,3:2|2:2,0:0:0:0:
247,27,100165,2,0,P|263:52|265:91,1,55.2500010538101,2|0,2:2|3:2,0:0:0:0:
145,197,100524,1,2,2:2:0:0:
145,197,100704,2,0,P|129:172|127:133,1,55.2500010538101,10|0,2:2|2:2,0:0:0:0:
168,60,101063,2,0,L|172:2,2,55.2500010538101,2|0|10,3:2|3:2|2:2,0:0:0:0:
60,243,101782,6,0,P|97:271|114:273,1,55.2500010538101,2|0,3:2|0:0,0:0:0:0:
188,231,102141,2,0,P|225:203|242:201,1,55.2500010538101,10|0,2:2|0:0,0:0:0:0:
322,232,102500,1,0,3:2:0:0:
322,232,102680,2,0,L|309:308,1,55.2500010538101,2|8,3:2|2:2,0:0:0:0:
393,340,103039,2,0,B|409:350|409:350|462:333,1,55.2500010538101,2|0,2:2|3:2,0:0:0:0:
482,257,103398,1,2,2:2:0:0:
482,257,103578,2,0,P|461:213|460:187,1,55.2500010538101,2|0,2:3|2:2,0:0:0:0:
494,66,103937,2,0,P|487:92|473:116,1,55.2500010538101,2|0,2:3|2:2,0:0:0:0:
389,151,104297,2,0,P|357:148|274:135,1,110.50000210762,2|6,2:3|3:2,0:0:0:0:
210,198,104836,5,2,2:2:0:0:
210,198,105195,1,0,2:2:0:0:
131,152,105374,2,0,P|112:102|156:44,1,110.50000210762,2|8,3:2|2:2,0:0:0:0:
224,28,105913,2,0,P|249:51|333:46,1,110.50000210762,2|2,2:2|2:2,0:0:0:0:
400,7,106452,1,8,2:2:0:0:
400,7,106632,1,2,2:2:0:0:
468,68,106812,2,0,B|455:95|455:95|492:126|491:178,1,110.50000210762,0|8,3:2|2:2,0:0:0:0:
444,241,107351,1,2,3:2:0:0:
494,325,107530,5,2,3:2:0:0:
494,325,107710,2,0,P|464:348|428:350,1,55.2500010538101,2|8,2:2|2:2,0:0:0:0:
366,310,108069,2,0,B|339:307|318:293|318:293|304:324|268:336,1,110.50000210762,2|2,2:2|2:2,0:0:0:0:
192,303,108608,1,8,2:2:0:0:
109,342,108788,2,0,P|99:300|131:232,1,110.50000210762,2|0,2:2|2:2,0:0:0:0:
209,186,109327,2,0,L|281:202,2,55.2500010538101,10|2|2,2:2|2:2|3:2,0:0:0:0:
155,111,109866,1,0,2:2:0:0:
81,156,110045,2,0,B|54:168|54:168|64:132,1,55.2500010538101,8|0,2:2|3:2,0:0:0:0:
149,92,110404,6,0,B|184:72|184:72|208:101|266:97,1,110.50000210762,6|8,3:2|2:2,0:0:0:0:
327,57,110943,2,0,P|362:45|421:99,1,110.50000210762,2|2,2:2|3:2,0:0:0:0:
396,171,111482,2,0,L|331:182,1,55.2500010538101,10|0,2:2|2:2,0:0:0:0:
434,265,111842,2,0,B|467:274|478:273|478:273|509:241|493:200,1,110.50000210762,2|8,3:2|2:2,0:0:0:0:
408,184,112380,2,0,L|287:200,1,110.50000210762,2|2,0:0|3:0,0:0:0:0:
238,265,112919,1,8,0:0:0:0:
238,265,113099,1,2,2:2:0:0:
301,337,113279,6,0,P|342:324|403:370,2,110.50000210762,2|8|0,3:2|2:2|3:2,0:0:0:0:
225,374,114177,1,0,3:2:0:0:
151,338,114357,1,8,2:2:0:0:
6,373,114536,6,0,L|76:386,1,65,2|0,2:2|3:2,0:0:0:0:
155,313,114895,2,0,L|91:301,1,65,2|8,2:2|2:2,0:0:0:0:
6,229,115255,2,0,L|76:216,1,65,2|0,2:2|3:2,0:0:0:0:
69,217,115524,1,2,2:2:0:0:
69,217,115614,1,2,0:0:0:0:
91,133,115794,2,0,L|148:143,3,32.5,8|8|8|8,2:2|0:0|2:2|2:2,0:0:0:0:
57,121,116153,6,0,P|40:87|85:28,1,110.50000210762,6|0,3:2|3:2,0:0:0:0:
157,8,116692,1,2,2:2:0:0:
225,66,116871,1,8,0:0:0:0:
225,66,117051,2,0,L|286:78,1,55.2500010538101,0|0,3:2|2:2,0:0:0:0:
423,11,117410,2,0,P|377:37|373:107,1,110.50000210762,6|2,3:2|2:2,0:0:0:0:
438,154,117949,1,2,3:2:0:0:
438,154,118129,1,0,2:2:0:0:
412,246,118309,2,0,L|422:168,1,55.2500010538101,2|0,3:2|2:2,0:0:0:0:
467,320,118668,1,8,2:2:0:0:
396,366,118848,5,0,2:2:0:0:
396,366,119027,2,0,L|273:362,1,110.50000210762,6|0,3:2|3:2,0:0:0:0:
206,319,119566,1,2,2:2:0:0:
276,256,119746,2,0,L|285:192,2,55.2500010538101,10|0|0,2:2|3:2|2:2,0:0:0:0:
362,221,120285,1,6,3:2:0:0:
266,169,120464,6,0,L|196:160,1,55.2500010538101,2|0,0:0|3:2,0:0:0:0:
108,90,120824,2,0,L|177:81,1,55.2500010538101,2|0,3:2|2:2,0:0:0:0:
243,32,121183,1,8,2:3:0:0:
243,32,121273,1,8,2:3:0:0:
243,32,121363,1,4,2:3:0:0:
243,32,121452,1,4,2:3:0:0:
243,32,121542,2,0,L|282:27,3,27.6250005269051,8|8|4|4,2:2|2:2|2:3|2:3,0:0:0:0:
211,40,121901,6,0,B|216:107|216:107|256:140,1,110.50000210762,6|8,3:2|2:2,0:0:0:0:
215,315,122620,2,0,L|306:331,2,82.8750015807152,2|2|2,3:2|2:2|2:2,0:0:0:0:
175,220,123339,2,0,L|266:236,2,82.8750015807152,2|2|2,3:2|2:2|2:2,0:0:0:0:
92,237,124057,1,2,3:2:0:0:
92,237,124327,1,2,2:2:0:0:
92,237,124596,1,2,2:2:0:0:
14,146,124776,6,0,P|59:151|88:153,1,55.2500010538101,2|0,3:2|0:0,0:0:0:0:
137,104,125135,2,0,P|189:90|238:113,1,110.50000210762,8|0,2:2|3:2,0:0:0:0:
294,190,125674,1,0,2:2:0:0:
379,176,125854,1,8,2:2:0:0:
379,176,125943,1,8,2:2:0:0:
379,176,126033,1,8,2:2:0:0:
400,96,126213,5,2,3:2:0:0:
400,96,126392,1,2,2:2:0:0:
241,195,126752,1,10,2:2:0:0:
287,377,127111,1,8,2:2:0:0:
343,306,127291,1,8,2:2:0:0:
343,306,127470,1,2,3:2:0:0:
421,357,127650,6,0,B|451:345|451:345|477:308|469:242,1,130,6|10,3:2|2:2,0:0:0:0:
425,176,128189,1,0,2:2:0:0:
425,176,128369,2,0,L|437:102,2,65,2|2|8,3:2|3:2|2:2,0:0:0:0:
339,243,128907,6,0,L|310:107,1,130,2|0,2:2|2:2,0:0:0:0:
224,84,129446,2,0,L|290:99,1,65,10|0,2:2|3:2,0:0:0:0:
167,146,129806,2,0,L|101:161,1,65,2|0,2:2|3:2,0:0:0:0:
234,211,130165,1,8,2:2:0:0:
230,303,130345,6,0,P|225:254|143:251,1,130,2|0,2:2|2:2,0:0:0:0:
90,316,130883,1,2,3:2:0:0:
58,221,131063,1,0,2:2:0:0:
70,325,131243,2,0,L|0:361,2,65,2|2|8,3:2|3:2|2:2,0:0:0:0:
174,353,131782,6,0,B|225:360|225:360|303:322,1,130,2|0,2:2|2:2,0:0:0:0:
375,304,132321,1,10,2:2:0:0:
446,357,132500,1,0,3:2:0:0:
507,292,132680,2,0,L|519:155,1,130,2|8,2:2|2:2,0:0:0:0:
499,85,133219,1,2,3:2:0:0:
417,157,133398,6,0,B|360:131|360:131|273:142,1,130,0|10,0:0|2:2,0:0:0:0:
228,206,133937,1,0,2:2:0:0:
170,135,134117,2,0,L|166:56,1,65,2|2,3:2|3:2,0:0:0:0:
166,70,134476,1,8,2:2:0:0:
80,178,134656,6,0,L|126:313,1,130,2|0,2:2|2:2,0:0:0:0:
72,372,135195,1,10,2:2:0:0:
72,372,135374,1,2,3:2:0:0:
141,293,135554,2,0,P|193:279|253:330,1,130,2|8,2:2|2:2,0:0:0:0:
357,310,136093,5,2,2:2:0:0:
429,260,136273,1,2,3:2:0:0:
352,218,136452,2,0,L|319:161,1,65,2|8,2:2|2:2,0:0:0:0:
240,107,136812,2,0,P|180:133|110:91,1,130,2|2,2:2|3:2,0:0:0:0:
182,53,137351,1,8,2:2:0:0:
182,53,137530,1,2,2:2:0:0:
72,31,137710,6,0,P|39:68|46:154,1,130,2|8,3:2|2:2,0:0:0:0:
102,206,138249,1,2,3:2:0:0:
54,274,138428,2,0,L|18:291,2,32.5,0|0|8,3:2|3:2|2:2,0:0:0:0:
120,319,138788,1,8,2:2:0:0:
199,268,138967,6,0,B|216:286|216:286|255:250|221:177,1,130,6|0,3:2|3:2,0:0:0:0:
182,113,139506,1,8,2:2:0:0:
239,51,139686,1,2,2:2:0:0:
316,86,139866,1,2,3:2:0:0:
316,86,140045,2,0,P|356:98|386:86,1,65,0|8,3:2|2:2,0:0:0:0:
452,32,140404,6,0,P|489:49|486:150,1,130,2|2,2:2|2:2,0:0:0:0:
449,263,140943,2,0,P|436:243|443:194,1,65,10|0,2:2|3:2,0:0:0:0:
507,334,141303,2,0,B|459:358|459:358|379:333,1,130,2|8,2:2|2:2,0:0:0:0:
301,282,141842,6,0,B|226:291|259:331|171:348,1,130,2|2,2:2|2:2,0:0:0:0:
106,300,142380,1,10,2:2:0:0:
30,344,142560,1,0,2:2:0:0:
108,278,142740,2,0,P|108:226|91:132,1,130,2|10,3:2|2:2,0:0:0:0:
0,53,143279,6,0,P|20:104|98:116,1,130,2|2,2:2|2:2,0:0:0:0:
166,60,143818,1,10,2:2:0:0:
259,95,143997,1,0,3:2:0:0:
363,31,144177,2,0,P|354:67|347:115,2,65,2|0|8,2:2|3:2|2:2,0:0:0:0:
460,28,144716,6,0,P|475:81|486:110,1,65,2|0,2:2|3:2,0:0:0:0:
512,188,145075,2,0,P|497:241|486:270,1,65,2|8,2:2|2:2,0:0:0:0:
424,310,145434,1,2,2:2:0:0:
336,266,145614,2,0,P|316:230|358:148,1,130,2|8,3:2|2:2,0:0:0:0:
427,100,146153,1,2,2:2:0:0:
368,28,146333,6,0,L|289:39,1,65,2|0,3:2|2:2,0:0:0:0:
228,95,146692,2,0,L|149:106,1,65,2|0,2:2|3:2,0:0:0:0:
86,59,147051,1,2,3:2:0:0:
23,128,147231,1,8,2:3:0:0:
23,128,147321,1,8,2:3:0:0:
23,128,147410,2,0,L|13:178,3,32.5,8|4|4|4,2:3|2:3|2:3|2:3,0:0:0:0:
8,188,147770,5,6,3:2:0:0:
185,291,148129,1,6,3:2:0:0:
362,188,148488,1,2,3:2:0:0:
362,188,148668,2,0,L|353:105,1,65,2|8,2:2|2:2,0:0:0:0:
279,232,149027,6,0,L|293:361,1,130,6|2,3:2|2:2,0:0:0:0:
293,361,149566,1,10,2:2:0:0:
373,316,149746,1,2,2:2:0:0:
461,345,149925,2,0,L|471:382,3,32.5,8|8|8|8,2:2|2:2|2:3|2:3,0:0:0:0:
462,288,150285,2,0,L|472:325,3,32.5,4|4|4|4,2:3|2:3|2:3|2:3,0:0:0:0:
463,231,150644,6,0,P|476:200|426:96,1,146.250005578995,6|6,3:2|3:2,0:0:0:0:
165,185,151722,2,0,P|152:216|202:320,1,146.250005578995,12|6,2:2|3:2,0:0:0:0:
317,205,152800,2,0,L|298:98,1,97.50000371933,8|8,2:2|2:2,0:0:0:0:
74,29,153518,6,0,L|57:125,2,97.50000371933,4|4|4,2:3|2:3|2:3,0:0:0:0:
74,29,154416,1,4,2:3:0:0:
214,146,154776,2,0,P|195:175|123:182,1,97.50000371933,2|2,2:2|2:2,0:0:0:0:
136,187,155315,1,2,2:2:0:0:
309,107,155674,2,0,L|318:164,1,48.750001859665,2|0,2:2|2:2,0:0:0:0:
389,205,156033,2,0,L|382:250,3,24.3750009298325,8|8|8|8,2:2|2:2|2:2|2:2,0:0:0:0:
399,258,156392,6,0,P|434:290|472:298,1,65,6|0,3:2|0:0,0:0:0:0:
350,351,156752,2,0,P|304:365|278:394,1,65,10|0,2:2|2:2,0:0:0:0:
230,302,157111,2,0,P|175:296|124:220,1,130,2|8,3:2|2:2,0:0:0:0:
186,123,157650,6,0,L|197:199,1,65,2|0,2:2|3:2,0:0:0:0:
100,153,158009,2,0,L|90:88,1,65,2|8,2:2|2:2,0:0:0:0:
198,91,158369,2,0,L|209:167,1,65,2|0,2:2|3:2,0:0:0:0:
112,121,158728,2,0,L|102:56,1,65,2|8,2:2|2:2,0:0:0:0:
210,59,159087,6,0,B|308:51|286:142|413:132,1,195,2|0,2:2|0:0,0:0:0:0:
464,73,159806,1,2,2:2:0:0:
464,73,159895,1,2,2:2:0:0:
464,73,159985,1,0,3:2:0:0:
504,150,160165,2,0,P|489:184|481:225,1,65,0|10,3:2|2:2,0:0:0:0:
509,310,160524,5,0,2:2:0:0:
436,371,160704,2,0,B|406:380|406:380|363:360,2,65,2|2|8,2:2|2:2|2:2,0:0:0:0:
343,283,161243,2,0,L|191:310,1,130,2|2,2:2|2:2,0:0:0:0:
215,305,161692,1,2,2:2:0:0:
215,305,161782,1,0,3:2:0:0:
135,225,161961,2,0,L|262:202,1,130,2|2,2:2|2:2,0:0:0:0:
326,137,162500,1,10,2:2:0:0:
251,85,162680,1,0,2:2:0:0:
313,26,162860,6,0,P|355:29|383:45,2,65,2|2|8,3:2|2:2|2:2,0:0:0:0:
245,97,163398,2,0,B|169:85|199:142|99:123,1,130,2|0,2:2|2:2,0:0:0:0:
52,77,163937,2,0,L|37:9,2,65,10|0|2,2:2|3:2|2:2,0:0:0:0:
40,166,164476,6,0,B|19:187|19:187|33:249,1,65,2|8,2:2|2:2,0:0:0:0:
126,330,164836,2,0,B|133:295|133:295|112:274,1,65,2|0,2:2|3:2,0:0:0:0:
179,200,165195,2,0,L|258:188,1,65,2|8,2:2|2:2,0:0:0:0:
383,244,165554,2,0,L|319:254,1,65,2|0,2:2|3:2,0:0:0:0:
436,169,165913,6,0,P|469:205|455:303,2,130,2|2|2,2:2|2:2|2:2,0:0:0:0:
348,147,166812,1,8,2:2:0:0:
385,56,166991,1,2,3:2:0:0:
385,56,167171,2,0,L|451:68,1,65,2|0,3:2|3:2,0:0:0:0:
337,154,167530,2,0,L|273:142,1,65,8|8,2:2|2:2,0:0:0:0:
204,211,167889,5,6,3:2:0:0:
121,175,168069,1,0,3:0:0:0:
49,232,168249,2,0,P|40:268|41:308,1,65,10|0,2:2|2:2,0:0:0:0:
113,358,168608,1,2,3:2:0:0:
195,316,168788,1,2,3:2:0:0:
278,359,168967,1,8,2:2:0:0:
278,359,169147,6,0,P|323:375|396:317,1,130,2|2,3:2|2:2,0:0:0:0:
480,323,169686,2,0,L|462:243,1,65,10|0,2:2|3:2,0:0:0:0:
366,247,170045,2,0,L|380:310,1,65,2|0,2:2|3:2,0:0:0:0:
400,166,170404,1,8,2:2:0:0:
400,166,170494,1,8,2:2:0:0:
400,166,170584,1,8,2:2:0:0:
400,166,170674,1,8,2:2:0:0:
400,166,170764,6,0,P|402:82|446:40,2,146.250005578995,6|6|0,3:2|3:2|3:2,0:0:0:0:
484,126,172021,1,2,3:2:0:0:
392,295,172380,1,2,3:2:0:0:
199,299,172740,1,2,3:2:0:0:
99,133,173099,1,2,3:2:0:0:
42,199,173279,2,0,L|102:226,1,48.750001859665,2|0,3:2|2:2,0:0:0:0:
171,270,173638,5,6,3:2:0:0:
171,270,173818,1,0,2:2:0:0:
216,197,173997,2,0,P|222:163|223:130,1,55.2500010538101,10|0,2:2|2:2,0:0:0:0:
172,56,174357,2,0,L|45:66,1,110.50000210762,2|8,3:2|2:2,0:0:0:0:
270,16,174895,2,0,L|403:32,1,110.50000210762,2|2,2:2|2:2,0:0:0:0:
446,89,175434,1,10,2:2:0:0:
446,89,175614,1,0,2:2:0:0:
389,148,175794,2,0,L|396:202,1,55.2500010538101,2|0,3:2|0:0,0:0:0:0:
485,259,176153,2,0,L|477:204,1,55.2500010538101,8|2,2:2|2:2,0:0:0:0:
403,305,176512,6,0,P|346:299|309:257,1,110.50000210762,2|8,3:2|2:2,0:0:0:0:
249,188,177051,1,2,2:2:0:0:
249,188,177231,2,0,P|206:205|184:275,1,110.50000210762,2|8,3:2|2:2,0:0:0:0:
103,324,177770,2,0,L|85:206,1,110.50000210762,2|0,2:2|2:2,0:0:0:0:
7,151,178309,2,0,L|0:205,1,55.2500010538101,10|2,2:2|2:2,0:0:0:0:
72,80,178668,2,0,P|118:55|187:67,1,110.50000210762,2|8,3:2|2:2,0:0:0:0:
228,128,179207,1,0,2:2:0:0:
307,90,179386,6,0,L|426:94,1,110.50000210762,2|8,3:3|2:2,0:0:0:0:
512,262,180105,2,0,L|505:344,2,82.8750015807152,2|2|2,3:2|2:2|2:2,0:0:0:0:
409,298,180824,2,0,L|402:380,2,82.8750015807152,2|2|2,3:2|2:2|2:2,0:0:0:0:
328,239,181541,1,2,3:2:0:0:
328,239,181812,1,0,0:0:0:0:
328,239,182080,1,2,2:2:0:0:
236,278,182261,6,0,P|211:227|227:159,1,110.50000210762,2|8,3:2|2:2,0:0:0:0:
291,128,182800,1,0,0:0:0:0:
208,80,182979,2,0,P|181:73|146:74,1,55.2500010538101,0|0,3:2|3:2,0:0:0:0:
57,110,183339,1,8,2:2:0:0:
57,110,183428,1,8,2:2:0:0:
57,110,183518,1,8,2:2:0:0:
117,212,183698,5,8,2:2:0:0:
117,212,183877,2,0,L|105:280,1,55.2500010538101,2|0,2:2|0:0,0:0:0:0:
51,343,184237,1,10,2:2:0:0:
268,282,184596,1,10,2:2:0:0:
268,282,184776,2,0,L|339:283,1,55.2500010538101,8|2,2:2|3:2,0:0:0:0:
188,310,185135,6,0,P|181:254|234:204,1,130,6|10,3:2|2:2,0:0:0:0:
274,135,185674,1,0,2:2:0:0:
202,61,185854,2,0,P|188:94|184:142,1,65,2|2,3:2|3:2,0:0:0:0:
183,122,186213,1,8,2:2:0:0:
289,48,186392,6,0,L|427:55,1,130,2|2,2:2|2:2,0:0:0:0:
488,127,186931,2,0,L|407:144,1,65,10|0,2:2|3:2,0:0:0:0:
359,230,187291,2,0,L|422:216,1,65,2|0,2:2|3:2,0:0:0:0:
501,255,187650,1,8,2:2:0:0:
442,354,187830,6,0,B|418:319|418:319|317:303,1,130,2|2,3:2|2:2,0:0:0:0:
247,351,188369,1,10,2:2:0:0:
185,297,188548,1,2,2:2:0:0:
254,247,188728,2,0,B|282:211|282:211|290:101,1,130,2|8,3:2|2:2,0:0:0:0:
217,31,189267,6,0,B|191:60|191:60|184:171,1,130,2|2,2:2|2:2,0:0:0:0:
124,218,189806,1,8,2:2:0:0:
72,145,189985,1,2,3:2:0:0:
129,235,190165,2,0,L|112:322,1,65,2|0,2:2|0:0,0:0:0:0:
20,333,190524,2,0,L|32:269,1,65,8|2,2:2|2:2,0:0:0:0:
140,322,190883,6,0,P|200:347|278:335,1,130,0|10,3:0|2:2,0:0:0:0:
341,379,191422,1,0,2:2:0:0:
418,340,191602,2,0,L|426:249,1,65,2|2,3:2|3:2,0:0:0:0:
423,275,191961,1,8,2:2:0:0:
512,207,192141,6,0,P|492:141|465:87,1,130,2|2,2:2|2:2,0:0:0:0:
386,36,192680,1,10,2:2:0:0:
386,36,192860,1,2,2:2:0:0:
393,123,193039,2,0,B|316:139|346:88|244:106,1,130,0|8,3:2|2:2,0:0:0:0:
192,158,193578,1,2,2:2:0:0:
270,202,193758,1,2,3:2:0:0:
200,247,193937,2,0,L|211:310,1,65,2|8,2:2|2:2,0:0:0:0:
88,375,194297,6,0,L|107:246,1,130,2|2,2:2|3:2,0:0:0:0:
84,167,194836,1,8,2:2:0:0:
84,167,195015,1,2,2:2:0:0:
0,124,195195,6,0,P|44:81|117:80,1,130,2|8,3:2|2:2,0:0:0:0:
178,136,195734,1,2,3:2:0:0:
247,78,195913,2,0,L|252:35,2,32.5,2|0|8,3:2|3:2|2:2,0:0:0:0:
322,130,196273,1,8,2:2:0:0:
390,64,196452,6,0,B|431:76|431:76|452:101|453:159,1,130,6|0,3:2|3:2,0:0:0:0:
403,239,196991,1,10,2:2:0:0:
403,239,197171,1,2,2:2:0:0:
449,314,197351,2,0,B|476:324|476:324|518:301,1,65,2|0,3:2|3:2,0:0:0:0:
384,370,197710,1,8,2:2:0:0:
384,370,197889,6,0,P|334:357|240:341,1,130,2|2,2:2|2:2,0:0:0:0:
168,366,198428,2,0,P|120:377|85:393,1,65,10|0,2:2|3:2,0:0:0:0:
21,277,198788,2,0,P|51:287|83:293,2,65,2|0|8,3:2|0:0|2:2,0:0:0:0:
7,174,199327,6,0,P|29:147|131:140,1,130,2|2,2:2|2:2,0:0:0:0:
195,185,199866,1,10,2:2:0:0:
281,133,200045,1,0,2:2:0:0:
355,191,200225,2,0,L|337:337,1,130,2|8,3:2|2:2,0:0:0:0:
447,187,200764,6,0,B|430:152|430:152|456:63,1,130,2|2,2:2|2:2,0:0:0:0:
382,8,201303,1,8,2:2:0:0:
382,8,201482,1,2,3:2:0:0:
310,63,201662,1,2,2:2:0:0:
310,63,201842,2,0,P|272:80|238:73,1,65,0|8,3:2|2:2,0:0:0:0:
170,32,202201,6,0,P|122:14|40:72,2,130,2|2|2,2:2|2:2|2:2,0:0:0:0:
130,168,203099,2,0,L|121:90,1,65,2|0,3:2|3:2,0:0:0:0:
220,189,203458,1,10,2:2:0:0:
220,189,203638,1,0,2:2:0:0:
147,251,203818,6,0,P|104:267|66:257,1,65,2|2,3:2|2:2,0:0:0:0:
212,373,204177,2,0,P|219:327|247:299,1,65,8|2,2:2|3:2,0:0:0:0:
315,264,204536,1,2,3:2:0:0:
396,314,204716,1,8,2:3:0:0:
396,314,204806,1,8,2:3:0:0:
396,314,204895,2,0,L|390:357,3,32.5,8|4|4|4,2:3|2:3|2:3|2:3,0:0:0:0:
413,366,205255,5,6,3:2:0:0:
485,164,205614,1,6,3:2:0:0:
318,32,205973,2,0,P|305:69|301:104,1,65,2|0,3:2|3:2,0:0:0:0:
301,94,206333,1,8,2:2:0:0:
388,115,206512,6,0,P|413:193|415:256,1,130,6|0,3:2|0:0,0:0:0:0:
356,313,207051,1,10,2:2:0:0:
276,280,207231,1,2,2:2:0:0:
209,341,207410,2,0,P|172:357|136:349,1,65,2|0,3:2|3:2,0:0:0:0:
79,296,207770,1,8,2:2:0:0:
79,296,207860,1,0,3:2:0:0:
79,296,207949,1,0,3:2:0:0:
79,296,208039,1,0,3:2:0:0:
79,296,208129,6,0,L|99:134,1,146.250005578995,6|6,3:2|3:2,0:0:0:0:
298,377,209207,2,0,L|318:215,1,146.250005578995,14|6,2:2|3:2,0:0:0:0:
473,147,210285,2,0,L|458:86,1,48.750001859665,2|8,3:2|2:2,0:0:0:0:
461,99,210554,1,8,2:2:0:0:
461,99,210644,2,0,L|467:40,1,48.750001859665,2|2,2:2|2:2,0:0:0:0:
512,315,211363,5,0,3:2:0:0:
408,232,211722,2,0,L|403:291,1,48.750001859665,0|0,3:2|0:0,0:0:0:0:
347,345,212081,2,0,P|308:355|287:345,1,48.750001859665,0|0,3:2|3:2,0:0:0:0:
301,353,212351,1,0,3:2:0:0:
301,353,212440,5,6,3:2:0:0:
230,312,212620,2,0,L|222:233,2,65,0|10|0,2:2|2:2|2:2,0:0:0:0:
162,376,213159,1,2,3:2:0:0:
90,334,213339,2,0,L|82:255,1,65,2|8,3:2|2:2,0:0:0:0:
25,192,213698,6,0,P|14:132|87:96,1,130,2|2,2:2|2:2,0:0:0:0:
136,144,214237,1,8,2:2:0:0:
302,70,214596,1,2,2:2:0:0:
452,181,214955,1,8,2:2:0:0:
452,181,215135,1,2,2:2:0:0:
378,233,215315,6,0,P|369:272|365:318,1,65,2|0,3:2|2:2,0:0:0:0:
291,353,215674,2,0,P|270:321|296:232,1,130,10|2,2:2|3:2,0:0:0:0:
246,155,216213,1,2,3:2:0:0:
170,212,216392,1,8,2:2:0:0:
88,161,216572,6,0,P|77:234|62:296,1,130,2|0,2:2|2:2,0:0:0:0:
104,364,217111,1,10,2:2:0:0:
104,364,217291,2,0,B|115:346|115:346|104:280,1,65,0|2,3:2|2:2,0:0:0:0:
179,247,217650,1,0,3:2:0:0:
249,302,217830,2,0,B|238:320|238:320|245:363,1,65,8|0,2:2|2:2,0:0:0:0:
338,381,218189,6,0,P|381:372|404:352,1,65,2|0,3:2|2:2,0:0:0:0:
464,290,218548,2,0,P|455:247|435:224,1,65,10|0,2:2|2:2,0:0:0:0:
362,203,218907,1,2,3:2:0:0:
412,123,219087,2,0,L|492:130,1,65,2|8,3:2|2:2,0:0:0:0:
370,41,219446,6,0,P|335:30|280:106,1,130,2|0,0:0|0:0,0:0:0:0:
215,152,219985,2,0,L|232:232,1,65,10|0,2:2|2:2,0:0:0:0:
126,126,220345,2,0,L|112:62,1,65,2|0,3:2|3:2,0:0:0:0:
206,183,220704,2,0,L|223:263,1,65,10|0,2:2|0:0,0:0:0:0:
252,335,221063,5,2,3:2:0:0:
369,131,221422,1,10,2:2:0:0:
501,327,221782,2,0,P|456:345|426:337,1,65,2|2,3:2|3:2,0:0:0:0:
376,282,222141,1,8,2:2:0:0:
473,125,222321,6,0,L|452:270,1,130,2|2,2:2|2:2,0:0:0:0:
368,293,222860,2,0,L|386:164,1,130,10|2,2:2|3:2,0:0:0:0:
329,92,223398,1,8,2:2:0:0:
329,92,223488,1,8,2:2:0:0:
329,92,223578,2,0,P|283:80|254:86,1,65,8|4,2:3|2:3,0:0:0:0:
194,139,223937,6,0,B|154:160|154:160|39:137,1,146.250005578995,6|6,3:2|3:2,0:0:0:0:
326,236,225015,2,0,B|366:257|366:257|481:234,1,146.250005578995,14|6,2:2|3:2,0:0:0:0:
259,376,226093,2,0,L|252:260,1,97.50000371933,10|10,2:2|2:2,0:0:0:0:
193,219,226632,1,8,2:2:0:0:
193,219,226722,1,8,2:2:0:0:
193,219,226812,6,0,B|111:233|151:282|62:289,1,146.250005578995,6|6,3:2|3:2,0:0:0:0:
281,78,227889,2,0,B|363:92|323:141|412:148,1,146.250005578995,14|6,2:2|3:2,0:0:0:0:
233,0,228967,5,14,2:2:0:0:
188,72,229147,1,8,2:2:0:0:
268,166,229327,1,8,2:3:0:0:
223,238,229507,1,4,2:3:0:0:
