osu file format v14

[General]
AudioFilename: audio.mp3
AudioLeadIn: 0
PreviewTime: 305063
Countdown: 0
SampleSet: Drum
StackLeniency: 0.2
Mode: 0
LetterboxInBreaks: 0
WidescreenStoryboard: 0

[Editor]
Bookmarks: 1978,20023,41677,47920,54154,66622,79089,85323,97790,104024,116492,122725,135193,141427,147661,160128,172596,185063,191297,203764,209998,222466,228699,241167,247401,259868,272336,284803,297271,305063,317531,323764,329998,337790,350258,357271
DistanceSpacing: 1
BeatDivisor: 3
GridSize: 32
TimelineZoom: 3.099999

[Metadata]
Title:Saifu 'Kamiasobi no Uta'
TitleUnicode:祭符「神遊びの唄」
Artist:Diao Ye Zong feat. Meramipop
ArtistUnicode:凋叶棕 feat. めらみぽっぷ
Creator:Crissa
Version:Froggy Braves the Elements
Source:東方風神録 ~ Mountain of Faith.
Tags:ネイティブフェイス 東方Project touhou project video game folk rock japanese the 5th Native Faith Extra Stage Theme 洩矢 諏訪子 Suwako Moriya 明日ハレの日、ケの昨日 Tomorrow is Special; Yesterday Was Not 凋叶棕 掲 光収容 RD-Sounds Hikarisyuyo ZUN 上海アリス幻樂団 team shanghai alice Reitaisai 13 博麗神社例大祭13 Kakage 掲
BeatmapID:3504030
BeatmapSetID:1714912

[Difficulty]
HPDrainRate:5.6
CircleSize:4.3
OverallDifficulty:9.2
ApproachRate:9.6
SliderMultiplier:1.4
SliderTickRate:1

[Events]
//Background and Video events
0,0,"bg2662.jpg",0,0
//Break Periods
2,187650,190247
//Storyboard Layer 0 (Background)
//Storyboard Layer 1 (Fail)
//Storyboard Layer 2 (Pass)
//Storyboard Layer 3 (Foreground)
//Storyboard Layer 4 (Overlay)
//Storyboard Sound Samples

[TimingPoints]
234,451.127819548873,4,3,1,50,1,0
1587,-125,4,2,1,50,0,0
2038,-50,4,3,1,60,0,0
2489,-166.666666666667,4,3,1,60,0,0
2940,-50,4,3,1,60,0,0
3391,-166.666666666667,4,3,1,60,0,0
3843,-50,4,3,1,60,0,0
4970,-50,4,2,1,5,0,0
5046,-50,4,3,1,60,0,0
6098,-166.666666666667,4,3,1,60,0,0
6549,-50,4,3,1,60,0,0
7000,-166.666666666667,4,3,1,60,0,0
7452,-50,4,3,1,60,0,0
9707,-166.666666666667,4,3,1,60,0,0
10158,-50,4,3,1,60,0,0
10609,-166.666666666667,4,3,1,60,0,0
11061,-50,4,3,1,60,0,0
12188,-50,4,2,1,5,0,0
12264,-50,4,3,1,60,0,0
15121,-45.4545454545455,4,3,1,60,0,0
15572,-41.6666666666667,4,3,1,60,0,0
16023,-71.4285714285714,4,3,1,60,0,0
16474,-50,4,3,1,60,0,0
16925,-55.5555555555556,4,3,1,60,0,0
17376,-71.4285714285714,4,3,1,60,0,0
17827,-100,4,3,1,60,0,0
18279,-50,4,3,1,60,0,0
19331,-50,4,3,4,60,0,0
20083,-333.333333333333,4,3,2,60,0,0
20985,-333.333333333333,4,3,1,60,0,0
21888,-111.111111111111,4,3,1,60,0,0
22339,-90.9090909090908,4,3,1,60,0,0
22790,-76.9230769230769,4,3,1,60,0,0
23692,-90.9090909090908,4,3,2,60,0,0
24594,-90.9090909090908,4,3,1,60,0,0
25497,-71.4285714285714,4,3,1,60,0,0
25948,-62.5,4,3,1,60,0,0
26399,-55.5555555555556,4,3,1,60,0,0
27301,-41.6666666666667,4,3,2,70,0,0
27752,-62.5,4,3,1,70,0,0
28203,-41.6666666666667,4,3,1,70,0,0
28655,-62.5,4,3,1,70,0,0
29106,-38.4615384615385,4,3,1,70,0,0
29557,-45.4545454545455,4,3,1,70,0,0
30008,-55.5555555555556,4,3,1,70,0,0
30459,-71.4285714285714,4,3,1,70,0,0
30910,-33.3333333333333,4,3,2,70,0,0
31361,-41.6666666666667,4,3,1,70,0,0
31812,-33.3333333333333,4,3,1,70,0,0
32264,-41.6666666666667,4,3,1,70,0,0
32715,-33.3333333333333,4,3,1,70,0,0
34519,-33.3333333333333,4,3,2,70,0,0
34970,-55.5555555555556,4,3,1,70,0,0
35421,-33.3333333333333,4,3,1,70,0,0
35873,-45.4545454545455,4,3,1,70,0,0
36324,-31.25,4,3,1,70,0,0
38128,-31.25,4,3,2,70,0,0
38579,-55.5555555555556,4,3,1,70,0,0
39030,-31.25,4,3,1,70,0,0
39482,-45.4545454545455,4,3,1,70,0,0
39933,-31.25,4,3,1,70,0,0
40384,-71.4285714285714,4,3,1,70,0,0
40835,-31.25,4,3,1,70,0,0
41737,389.61038961039,4,2,1,40,1,0
44464,-100,4,2,1,5,0,0
44853,-76.9230769230769,4,2,1,50,0,0
46509,-55.5555555555556,4,2,1,50,0,0
46801,-76.9230769230769,4,2,1,50,0,0
47581,-41.6666666666667,4,2,3,50,0,0
47970,-41.6666666666667,4,3,4,60,0,0
48360,-66.6666666666667,4,3,4,60,0,0
51087,-50,4,3,4,60,0,0
52646,-62.5,4,3,4,70,0,0
52792,-62.5,4,3,4,5,0,0
52840,-41.6666666666667,4,3,5,70,0,0
53425,-41.6666666666667,4,3,5,80,0,0
54204,-31.25,4,3,4,80,0,0
55957,-41.6666666666667,4,3,4,80,0,0
57321,-35.7142857142857,4,3,4,80,0,0
58100,-41.6666666666667,4,3,4,80,0,0
59853,-31.25,4,3,1,80,0,0
60438,-31.25,4,3,4,80,0,0
62191,-41.6666666666667,4,3,4,80,0,0
62386,-31.25,4,3,4,80,0,0
63165,-41.6666666666667,4,3,4,80,0,0
63555,-31.25,4,3,4,80,0,0
64334,-41.6666666666667,4,3,4,80,0,0
66282,-29.4117647058824,4,3,4,80,0,0
66477,-166.666666666667,4,3,4,80,0,0
66672,-100,4,2,4,60,0,0
69788,-200,4,2,4,60,0,0
71347,-66.6666666666667,4,2,4,60,0,0
72905,-100,4,2,4,60,0,0
76022,-200,4,2,4,60,0,0
77581,-66.6666666666667,4,3,4,70,0,0
79918,-200,4,3,4,70,0,0
80308,-66.6666666666667,4,3,4,70,0,0
80698,-200,4,3,4,70,0,0
81087,-66.6666666666667,4,3,4,70,0,0
81477,-200,4,3,4,70,0,0
81866,-66.6666666666667,4,3,4,70,0,0
82256,-200,4,3,4,70,0,0
82646,-66.6666666666667,4,3,4,70,0,0
83035,-200,4,3,4,70,0,0
83425,-66.6666666666667,4,3,4,70,0,0
83814,-200,4,3,4,70,0,0
84009,-50,4,3,4,70,0,0
84204,-200,4,3,4,70,0,0
84399,-40,4,3,4,70,0,0
84594,-33.3333333333333,4,3,4,70,0,0
84788,-28.5714285714286,4,3,4,70,0,0
85373,-125,4,3,1,60,0,0
86152,-83.3333333333333,4,3,1,60,0,0
86931,-100,4,3,1,60,0,0
87321,-71.4285714285714,4,3,1,60,0,0
87711,-55.5555555555556,4,3,1,60,0,0
88490,-83.3333333333333,4,3,1,60,0,0
89269,-62.5,4,3,1,60,0,0
91217,-38.4615384615385,4,3,1,60,0,0
91607,-100,4,3,1,60,0,0
92386,-62.5,4,3,1,60,0,0
93165,-83.3333333333333,4,3,1,60,0,0
93555,-62.5,4,3,1,60,0,0
93944,-50,4,3,1,60,0,0
94724,-50,4,3,1,60,0,0
95503,-62.5,4,3,1,60,0,0
97451,-83.3333333333333,4,3,4,60,0,0
97840,-200,4,3,4,70,0,0
98230,-66.6666666666667,4,3,4,70,0,0
98620,-200,4,3,4,70,0,0
99009,-66.6666666666667,4,3,4,70,0,0
99399,-200,4,3,4,70,0,0
99788,-66.6666666666667,4,3,4,70,0,0
100178,-200,4,3,4,70,0,0
100568,-66.6666666666667,4,3,4,70,0,0
100957,-200,4,3,4,70,0,0
101347,-66.6666666666667,4,3,4,70,0,0
101737,-200,4,3,4,70,0,0
102126,-66.6666666666667,4,3,4,70,0,0
102516,-200,4,3,4,70,0,0
102711,-50,4,3,4,70,0,0
102905,-200,4,3,4,70,0,0
103100,-40,4,3,4,70,0,0
103295,-33.3333333333333,4,3,4,70,0,0
103490,-28.5714285714286,4,3,4,70,0,0
109529,-50,4,3,4,70,0,0
116542,-50,4,2,4,70,0,0
116931,-100,4,2,4,70,0,0
119659,-50,4,2,4,70,0,0
120438,-100,4,2,4,70,0,0
120827,-40,4,2,4,70,0,0
121607,-83.3333333333333,4,3,4,70,0,0
121996,-71.4285714285714,4,3,4,70,0,0
122386,-27.7777777777778,4,3,4,70,0,0
122775,-38.4615384615385,4,3,4,90,0,1
122970,-33.3333333333333,4,3,4,90,0,1
123555,-29.4117647058824,4,3,4,90,0,1
124334,-33.3333333333333,4,3,4,90,0,1
125113,-29.4117647058824,4,3,4,90,0,1
125259,-29.4117647058824,4,2,4,5,0,1
125308,-33.3333333333333,4,3,4,90,0,1
125892,-31.25,4,3,4,90,0,1
127451,-33.3333333333333,4,3,4,90,0,1
127840,-27.7777777777778,4,3,4,90,0,1
128425,-29.4117647058824,4,3,4,90,0,1
133685,-26.3157894736843,4,3,4,90,0,1
135243,-29.4117647058824,4,3,4,90,0,1
135389,-29.4117647058824,4,3,4,5,0,1
135438,-29.4117647058824,4,3,4,90,0,1
135633,-29.4117647058824,4,3,1,90,0,1
135730,-29.4117647058824,4,3,4,90,0,1
136022,-29.4117647058824,4,3,1,90,0,1
136119,-29.4117647058824,4,3,4,90,0,1
136412,-29.4117647058824,4,3,1,90,0,1
136509,-29.4117647058824,4,3,4,90,0,1
136801,-29.4117647058824,4,3,1,90,0,1
136898,-29.4117647058824,4,3,4,90,0,1
137191,-29.4117647058824,4,3,1,90,0,1
137288,-29.4117647058824,4,3,4,90,0,1
137581,-29.4117647058824,4,3,1,90,0,1
137678,-29.4117647058824,4,3,4,90,0,1
137970,-29.4117647058824,4,3,1,90,0,1
138067,-29.4117647058824,4,3,4,90,0,1
138360,-29.4117647058824,4,3,1,90,0,1
138506,-29.4117647058824,4,3,4,5,0,1
138555,-29.4117647058824,4,3,4,90,0,1
138749,-29.4117647058824,4,3,1,90,0,1
138846,-29.4117647058824,4,3,4,90,0,1
139139,-29.4117647058824,4,3,1,90,0,1
139236,-29.4117647058824,4,3,4,90,0,1
139529,-29.4117647058824,4,3,1,90,0,1
139626,-29.4117647058824,4,3,4,90,0,1
139918,-29.4117647058824,4,3,1,90,0,1
140015,-29.4117647058824,4,3,4,90,0,1
140308,-29.4117647058824,4,3,1,90,0,1
140405,-29.4117647058824,4,3,4,90,0,1
140698,-29.4117647058824,4,3,1,90,0,1
140795,-29.4117647058824,4,3,4,90,0,1
141477,-25,4,3,66,80,0,0
141574,-25,4,3,4,5,0,0
141866,-25,4,3,66,80,0,0
141964,-25,4,3,4,5,0,0
142256,-25,4,3,66,80,0,0
142353,-25,4,3,4,5,0,0
142645,-25,4,3,66,80,0,0
142743,-25,4,3,4,5,0,0
142840,-25,4,3,1,80,0,0
143035,-25,4,3,66,80,0,0
143133,-25,4,3,4,5,0,0
143230,-25,4,3,1,80,0,0
143425,-25,4,3,66,80,0,0
143522,-25,4,3,4,5,0,0
143619,-25,4,3,1,80,0,0
143814,-25,4,3,66,80,0,0
143912,-25,4,3,4,5,0,0
144009,-25,4,3,66,80,0,0
144301,-25,4,3,4,5,0,0
144398,-25,4,3,1,80,0,0
144594,-25,4,3,66,80,0,0
144691,-25,4,3,4,5,0,0
144788,-25,4,3,1,80,0,0
144983,-25,4,3,66,80,0,0
145081,-25,4,3,4,5,0,0
145178,-25,4,3,1,80,0,0
145373,-25,4,3,66,80,0,0
145470,-25,4,3,4,5,0,0
145567,-25,4,3,1,80,0,0
145762,-25,4,3,66,80,0,0
145860,-25,4,3,4,5,0,0
145957,-25,4,3,1,80,0,0
146152,-27.7777777777778,4,3,4,80,0,0
146444,-27.7777777777778,4,2,4,5,0,0
146542,-27.7777777777778,4,3,4,80,0,0
146834,-27.7777777777778,4,2,4,5,0,0
146932,-27.7777777777778,4,3,4,80,0,0
147029,-27.7777777777778,4,2,4,5,0,0
147127,-27.7777777777778,4,3,4,80,0,0
147711,-27.7777777777778,4,3,66,80,0,0
148490,-35.7142857142857,4,3,66,80,0,0
148685,-27.7777777777778,4,3,66,80,0,0
152775,-33.3333333333333,4,3,66,80,0,0
153165,-29.4117647058824,4,3,66,80,0,0
153555,-26.3157894736842,4,3,66,80,0,0
153944,-33.3333333333333,4,3,4,80,0,0
154334,-31.25,4,3,66,80,0,0
158620,-29.4117647058824,4,3,66,80,0,0
159399,-25,4,3,66,80,0,0
159788,-25,4,3,4,80,0,0
160178,-41.6666666666667,4,2,4,70,0,0
160957,-62.5,4,2,4,70,0,0
163685,-125,4,2,4,70,0,0
164074,-62.5,4,2,4,70,0,0
166022,-125,4,2,4,70,0,0
166412,-41.6666666666667,4,2,4,70,0,0
166801,-125,4,2,4,70,0,0
167191,-62.5,4,2,4,70,0,0
168749,-100,4,2,4,70,0,0
169529,-62.5,4,2,4,70,0,0
169918,-125,4,2,4,70,0,0
170308,-62.5,4,2,4,70,0,0
172646,-35.7142857142857,4,3,4,80,0,0
173035,-100,4,3,4,80,0,0
173230,-35.7142857142857,4,3,4,80,0,0
173814,-100,4,3,4,80,0,0
174009,-35.7142857142857,4,3,4,80,0,0
174594,-33.3333333333333,4,3,4,80,0,0
174983,-35.7142857142857,4,3,4,80,0,0
176152,-100,4,3,4,80,0,0
176347,-35.7142857142857,4,3,4,80,0,0
176931,-100,4,3,4,80,0,0
177126,-35.7142857142857,4,3,4,80,0,0
177516,-100,4,3,4,80,0,0
177711,-35.7142857142857,4,3,4,80,0,0
178295,-27.7777777777778,4,3,4,80,0,0
178879,-35.7142857142857,4,3,4,80,0,0
179269,-100,4,3,4,80,0,0
179464,-35.7142857142857,4,3,4,80,0,0
179951,-100,4,3,4,80,0,0
180243,-35.7142857142857,4,3,4,80,0,0
180827,-33.3333333333333,4,3,4,80,0,0
181607,-100,4,3,4,80,0,0
181801,-35.7142857142857,4,3,4,80,0,0
182288,-100,4,3,4,80,0,0
182581,-35.7142857142857,4,3,4,80,0,0
183068,-100,4,3,4,80,0,0
183360,-35.7142857142857,4,3,4,80,0,0
183944,-100,4,3,4,80,0,0
184139,-35.7142857142857,4,3,4,80,0,0
184529,-27.7777777777778,4,3,66,80,0,0
185113,-142.857142857143,4,3,4,60,0,0
191347,-100,4,2,4,70,0,0
194464,-200,4,2,4,70,0,0
196022,-66.6666666666667,4,2,4,70,0,0
197581,-100,4,2,4,70,0,0
200698,-200,4,2,4,70,0,0
202256,-66.6666666666667,4,3,1,70,0,0
203230,-66.6666666666667,4,3,4,70,0,0
204594,-200,4,3,4,70,0,0
204983,-50,4,3,4,70,0,0
205373,-200,4,3,4,70,0,0
206542,-50,4,3,4,70,0,0
206931,-200,4,3,4,70,0,0
207321,-66.6666666666667,4,3,4,70,0,0
207711,-200,4,3,4,70,0,0
208100,-66.6666666666667,4,3,4,70,0,0
208490,-200,4,3,4,70,0,0
208685,-50,4,3,4,70,0,0
208879,-33.3333333333333,4,3,4,70,0,0
210048,-125,4,3,1,60,0,0
210827,-83.3333333333333,4,3,1,60,0,0
211607,-100,4,3,1,60,0,0
211996,-71.4285714285714,4,3,1,60,0,0
212386,-55.5555555555556,4,3,1,60,0,0
213165,-83.3333333333333,4,3,1,60,0,0
213944,-62.5,4,3,1,60,0,0
216282,-100,4,3,1,60,0,0
217061,-62.5,4,3,1,60,0,0
217840,-100,4,3,1,60,0,0
218230,-71.4285714285714,4,3,1,60,0,0
218620,-55.5555555555556,4,3,1,60,0,0
219399,-62.5,4,3,1,60,0,0
220178,-83.3333333333333,4,3,1,60,0,0
222516,-200,4,3,4,70,0,0
222905,-66.6666666666667,4,3,4,70,0,0
223295,-200,4,3,4,70,0,0
223685,-66.6666666666667,4,3,4,70,0,0
224074,-200,4,3,4,70,0,0
224464,-66.6666666666667,4,3,4,70,0,0
224853,-200,4,3,4,70,0,0
225243,-66.6666666666667,4,3,4,70,0,0
225633,-200,4,3,4,70,0,0
226801,-66.6666666666667,4,3,4,70,0,0
227191,-200,4,3,4,70,0,0
227386,-50,4,3,4,70,0,0
227581,-200,4,3,4,70,0,0
227775,-40,4,3,4,70,0,0
227970,-33.3333333333333,4,3,4,70,0,0
228165,-28.5714285714286,4,3,4,70,0,0
241217,-100,4,2,4,60,0,0
244334,-50,4,2,4,60,0,0
245113,-100,4,2,4,60,0,0
245503,-40,4,2,4,60,0,0
246282,-66.6666666666667,4,3,4,70,0,0
246672,-50,4,3,4,70,0,0
247061,-27.7777777777778,4,3,4,80,0,0
247451,-38.4615384615385,4,3,4,90,0,1
247646,-31.25,4,3,4,90,0,1
248230,-27.7777777777778,4,3,4,90,0,1
249009,-33.3333333333333,4,3,4,90,0,1
249788,-26.3157894736842,4,3,4,90,0,1
249935,-26.3157894736842,4,3,4,5,0,1
249983,-31.25,4,3,4,90,0,1
250373,-33.3333333333333,4,3,4,90,0,1
250568,-29.4117647058824,4,3,4,90,0,1
251347,-29.4117647058825,4,3,4,90,0,1
251639,-31.2500000000002,4,3,4,90,0,1
251931,-50,4,3,4,90,0,1
252126,-33.3333333333333,4,3,4,90,0,1
252516,-27.7777777777778,4,3,4,90,0,1
253490,-25,4,3,4,90,0,1
253685,-50,4,3,4,90,0,1
253879,-27.7777777777778,4,3,4,90,0,1
255243,-29.4117647058824,4,3,4,90,0,1
256412,-35.7142857142857,4,3,4,90,0,1
256801,-31.25,4,3,4,90,0,1
258360,-26.3157894736842,4,3,4,90,0,1
258944,-31.25,4,3,4,90,0,1
259918,-27.7777777777778,4,3,4,90,0,1
260064,-27.7777777777778,4,3,4,5,0,1
260113,-29.4117647058824,4,3,4,90,0,1
260308,-29.4117647058824,4,3,1,90,0,1
260405,-29.4117647058824,4,3,4,90,0,1
260698,-29.4117647058824,4,3,1,90,0,1
260795,-29.4117647058824,4,3,4,90,0,1
261087,-29.4117647058824,4,3,1,90,0,1
261184,-29.4117647058824,4,3,4,90,0,1
261477,-29.4117647058824,4,3,1,90,0,1
261574,-29.4117647058824,4,3,4,90,0,1
261866,-29.4117647058824,4,3,1,90,0,1
261963,-29.4117647058824,4,3,4,90,0,1
262256,-29.4117647058824,4,3,1,90,0,1
262353,-29.4117647058824,4,3,4,90,0,1
262646,-29.4117647058824,4,3,1,90,0,1
262743,-29.4117647058824,4,3,4,90,0,1
263035,-29.4117647058824,4,3,1,90,0,1
263181,-29.4117647058824,4,3,4,5,0,1
263230,-29.4117647058824,4,3,4,90,0,1
263425,-29.4117647058824,4,3,1,90,0,1
263522,-29.4117647058824,4,3,4,90,0,1
263814,-29.4117647058824,4,3,1,90,0,1
263911,-29.4117647058824,4,3,4,90,0,1
264204,-29.4117647058824,4,3,1,90,0,1
264301,-29.4117647058824,4,3,4,90,0,1
264594,-29.4117647058824,4,3,1,90,0,1
264691,-29.4117647058824,4,3,4,90,0,1
264983,-29.4117647058824,4,3,1,90,0,1
265080,-29.4117647058824,4,3,4,90,0,1
265373,-29.4117647058824,4,3,1,90,0,1
265470,-29.4117647058824,4,3,4,90,0,1
266152,-29.4117647058824,4,3,1,90,0,1
266298,-29.4117647058824,4,3,4,5,0,1
266347,-29.4117647058824,4,3,4,90,0,1
266542,-27.7777777777779,4,3,1,90,0,1
266688,-27.7777777777779,4,3,4,5,0,1
266737,-27.7777777777779,4,3,4,90,0,1
266931,-27.7777777777779,4,3,1,90,0,1
267029,-27.7777777777779,4,3,4,90,0,1
267321,-27.7777777777779,4,3,1,90,0,1
267419,-27.7777777777779,4,3,4,90,0,1
267711,-27.7777777777779,4,3,1,90,0,1
267809,-27.7777777777779,4,3,4,90,0,1
268100,-27.7777777777779,4,3,1,90,0,1
268198,-27.7777777777779,4,3,4,90,0,1
268490,-27.7777777777779,4,3,1,90,0,1
268588,-27.7777777777779,4,3,4,90,0,1
268879,-27.7777777777779,4,3,1,90,0,1
268977,-27.7777777777779,4,3,4,90,0,1
269269,-27.7777777777779,4,3,1,90,0,1
269367,-27.7777777777779,4,3,4,90,0,1
269659,-27.7777777777779,4,3,1,90,0,1
269757,-27.7777777777779,4,3,4,90,0,1
270048,-27.7777777777779,4,3,1,90,0,1
270146,-27.7777777777779,4,3,4,90,0,1
270438,-27.7777777777779,4,3,1,90,0,1
270536,-27.7777777777779,4,3,4,90,0,1
272386,-35.7142857142857,4,3,4,80,0,0
273944,-62.5,4,3,4,80,0,0
274139,-35.7142857142857,4,3,4,80,0,0
274334,-62.5,4,3,4,80,0,0
274529,-35.7142857142857,4,3,4,80,0,0
274724,-31.25,4,3,4,80,0,0
274918,-35.7142857142857,4,3,4,80,0,0
275113,-45.4545454545455,4,3,4,80,0,0
277451,-38.4615384615385,4,3,4,80,0,0
278035,-33.3333333333333,4,3,4,80,0,0
278814,-41.6666666666667,4,3,4,80,0,0
279594,-38.4615384615385,4,3,4,80,0,0
279788,-34.4827586206897,4,3,4,80,0,0
280178,-31.25,4,3,4,80,0,0
280957,-29.4117647058824,4,3,4,80,0,0
281103,-29.4117647058824,4,3,4,5,0,0
281152,-33.3333333333333,4,3,4,80,0,0
284659,-50,4,3,4,80,0,0
284853,-27.7777777777778,4,3,4,90,0,1
285633,-26.3157894736842,4,3,4,90,0,1
290698,-38.4615384615385,4,3,4,90,0,1
291477,-26.3157894736842,4,3,4,90,0,1
292792,-26.3157894736842,4,2,4,5,0,1
292840,-26.3157894736842,4,3,4,90,0,1
293766,-26.3157894736842,4,2,4,5,0,1
293814,-26.3157894736842,4,3,4,90,0,1
294350,-26.3157894736842,4,2,4,5,0,1
294398,-26.3157894736842,4,3,4,90,0,1
296542,-25,4,3,4,90,0,1
296931,-50,4,3,4,90,0,1
297321,-50,4,3,4,80,0,0
297516,-166.666666666667,4,3,4,80,0,0
297711,-62.5,4,2,4,70,0,0
298295,-45.4545454545455,4,2,4,70,0,0
298879,-35.7142857142857,4,2,4,70,0,0
301607,-41.6666666666667,4,2,4,70,0,0
301996,-50,4,2,4,70,0,0
302386,-62.5,4,2,4,70,0,0
303555,-500,4,3,4,70,0,0
304139,-33.3333333333333,4,3,1,80,0,0
304529,-33.3333333333333,4,3,4,80,0,0
305113,-38.4615384615385,4,3,4,90,0,1
305308,-31.25,4,3,4,90,0,1
305892,-27.7777777777778,4,3,4,90,0,1
306672,-27.7777777777778,4,3,4,90,0,1
307451,-26.3157894736842,4,3,4,90,0,1
307597,-26.3157894736842,4,3,4,5,0,1
307646,-31.25,4,3,4,90,0,1
309788,-35.7142857142857,4,3,4,90,0,1
310178,-31.25,4,3,4,90,0,1
311347,-33.3333333333333,4,3,4,90,0,1
311542,-27.7777777777778,4,3,4,90,0,1
312711,-25,4,3,4,90,0,1
312905,-22.7272727272727,4,3,4,90,0,1
313198,-25,4,3,4,90,0,1
313490,-22.7272727272727,4,3,4,90,0,1
314269,-45.4545454545455,4,3,4,90,0,1
314464,-25,4,3,4,90,0,1
314853,-31.25,4,3,4,90,0,1
315048,-27.7777777777778,4,3,4,90,0,1
315243,-31.25,4,3,4,90,0,1
315633,-26.3157894736842,4,3,4,90,0,1
316022,-23.8095238095238,4,3,4,90,0,1
316607,-38.4615384615385,4,3,4,90,0,1
317581,-27.7777777777778,4,3,4,90,0,1
317727,-27.7777777777778,4,3,4,5,0,1
317775,-27.7777777777778,4,3,4,90,0,1
317970,-27.7777777777778,4,3,1,90,0,1
318068,-27.7777777777778,4,3,4,90,0,1
318360,-27.7777777777778,4,3,1,90,0,1
318458,-27.7777777777778,4,3,4,90,0,1
318749,-27.7777777777778,4,3,1,90,0,1
318847,-27.7777777777778,4,3,4,90,0,1
319139,-27.7777777777778,4,3,1,90,0,1
319237,-27.7777777777778,4,3,4,90,0,1
319529,-27.7777777777778,4,3,1,90,0,1
319627,-27.7777777777778,4,3,4,90,0,1
319918,-27.7777777777778,4,3,1,90,0,1
320016,-27.7777777777778,4,3,4,90,0,1
320308,-27.7777777777778,4,3,1,90,0,1
320406,-27.7777777777778,4,3,4,90,0,1
320698,-27.7777777777778,4,3,1,90,0,1
320796,-27.7777777777778,4,3,4,90,0,1
321087,-27.7777777777778,4,3,1,90,0,1
321185,-27.7777777777778,4,3,4,90,0,1
321477,-27.7777777777778,4,3,1,90,0,1
321575,-27.7777777777778,4,3,4,90,0,1
321866,-27.7777777777778,4,3,1,90,0,1
321964,-27.7777777777778,4,3,4,90,0,1
322256,-27.7777777777778,4,3,1,90,0,1
322354,-27.7777777777778,4,3,4,90,0,1
322646,-27.7777777777778,4,3,1,90,0,1
322744,-27.7777777777778,4,3,4,90,0,1
323814,-26.3157894736842,4,3,66,80,0,0
323912,-26.3157894736842,4,3,66,5,0,0
324009,-26.3157894736842,4,3,66,80,0,0
324301,-26.3157894736842,4,3,66,5,0,0
324398,-26.3157894736842,4,3,66,80,0,0
324691,-26.3157894736842,4,3,66,5,0,0
324788,-26.3157894736842,4,3,66,80,0,0
325081,-26.3157894736842,4,3,66,5,0,0
325178,-26.3157894736842,4,3,1,80,0,0
325373,-26.3157894736842,4,3,66,80,0,0
325470,-26.3157894736842,4,3,66,5,0,0
325567,-26.3157894736842,4,3,1,80,0,0
325762,-26.3157894736842,4,3,66,80,0,0
325860,-26.3157894736842,4,3,66,5,0,0
325957,-26.3157894736842,4,3,1,80,0,0
326152,-26.3157894736842,4,3,66,80,0,0
326249,-26.3157894736842,4,3,66,5,0,0
326346,-26.3157894736842,4,3,66,80,0,0
326639,-26.3157894736842,4,3,66,5,0,0
326736,-26.3157894736842,4,3,1,80,0,0
326931,-26.3157894736842,4,3,66,80,0,0
327029,-26.3157894736842,4,3,66,5,0,0
327126,-26.3157894736842,4,3,1,80,0,0
327321,-26.3157894736842,4,3,66,80,0,0
327418,-26.3157894736842,4,3,66,5,0,0
327515,-26.3157894736842,4,3,1,80,0,0
327711,-26.3157894736842,4,3,66,80,0,0
327808,-26.3157894736842,4,3,66,5,0,0
327905,-26.3157894736842,4,3,1,80,0,0
328100,-26.3157894736842,4,3,66,80,0,0
328198,-26.3157894736842,4,3,66,5,0,0
328295,-26.3157894736842,4,3,1,80,0,0
328490,-29.4117647058824,4,3,4,80,0,0
328685,-29.4117647058824,4,3,66,80,0,0
328879,-29.4117647058824,4,3,4,80,0,0
329074,-29.4117647058824,4,3,66,80,0,0
329269,-29.4117647058824,4,3,4,80,0,0
330048,-125,4,2,4,60,0,0
334724,-500,4,2,4,60,0,0
337061,-500,4,2,4,5,0,0
337646,-500,4,2,4,60,0,0
337840,-27.7777777777778,4,3,4,90,0,1
338230,-33.3333333333333,4,3,4,90,0,1
344074,-33.3333333333333,4,3,1,90,0,1
344172,-33.3333333333333,4,3,4,90,0,1
344464,-41.6666666666667,4,3,1,90,0,1
344561,-41.6666666666667,4,3,4,90,0,1
344853,-41.6666666666667,4,3,1,90,0,1
344951,-41.6666666666667,4,3,4,90,0,1
345048,-37.037037037037,4,3,4,90,0,1
345243,-33.3333333333333,4,3,1,90,0,1
345340,-33.3333333333333,4,3,4,90,0,1
345633,-41.6666666666667,4,3,1,90,0,1
345731,-41.6666666666667,4,3,4,90,0,1
346022,-41.6666666666667,4,3,1,90,0,1
346120,-41.6666666666667,4,3,4,90,0,1
346412,-41.6666666666667,4,3,1,90,0,1
346510,-41.6666666666667,4,3,4,90,0,1
346607,-37.037037037037,4,3,4,90,0,1
346801,-33.3333333333333,4,3,1,90,0,1
346899,-33.3333333333333,4,3,4,90,0,1
347191,-41.6666666666667,4,3,1,90,0,1
347289,-41.6666666666667,4,3,4,90,0,1
347581,-41.6666666666667,4,3,1,90,0,1
347678,-41.6666666666667,4,3,4,90,0,1
347970,-41.6666666666667,4,3,1,90,0,1
348068,-41.6666666666667,4,3,4,90,0,1
348165,-37.037037037037,4,3,4,90,0,1
348360,-33.3333333333333,4,3,1,90,0,1
348457,-33.3333333333333,4,3,4,90,0,1
348749,-35.7142857142857,4,3,4,90,0,1
350211,-100,4,3,4,90,0,1
350308,-62.5,4,3,4,60,0,0
350503,-71.4285714285714,4,2,4,60,0,0
353425,-500,4,2,4,60,0,0
357321,-500,4,2,4,5,0,0

[Colours]
Combo1 : 181,181,181
Combo2 : 132,215,142
Combo3 : 255,223,98
Combo4 : 187,240,128
Combo5 : 117,141,255
Combo6 : 255,193,111

[HitObjects]
89,354,1587,6,0,P|69:324|27:314,1,74.6666666666667,2|0,0:2|0:0,0:0:0:0:
435,319,2038,6,0,P|365:337|302:240,1,186.666666666667,8|2,0:1|0:2,0:0:0:0:
385,164,2489,2,0,L|379:231,1,55.9999982910157,2|2,0:2|0:2,0:0:0:0:
106,140,2940,6,0,P|209:155|219:232,1,186.666666666667,8|2,0:1|0:2,0:0:0:0:
143,311,3391,2,0,L|133:246,1,55.9999982910157,2|0,0:2|0:0,0:0:0:0:
119,243,3767,1,0,0:0:0:0:
119,243,3843,6,0,L|331:268,1,186.666666666667,8|2,0:1|0:2,0:0:0:0:
11,169,4294,2,0,L|206:145,1,186.666666666667,8|2,0:1|0:2,0:0:0:0:
28,342,4745,6,0,B|95:365|95:365|138:285,1,140,8|0,0:1|0:0,0:0:0:0:
119,296,5046,1,2,0:1:0:0:
429,347,5196,1,2,0:1:0:0:
340,313,5497,5,0,0:0:0:0:
338,308,5572,1,0,0:0:0:0:
336,303,5647,2,0,P|359:234|469:237,1,186.666666666667,8|2,0:1|0:2,0:0:0:0:
449,369,6098,2,0,L|437:303,1,55.9999982910157,2|2,0:2|0:2,0:0:0:0:
276,360,6549,6,0,P|187:303|218:221,1,186.666666666667,8|2,0:1|0:2,0:0:0:0:
297,177,7000,2,0,L|288:254,1,55.9999982910157,2|0,0:2|0:0,0:0:0:0:
305,248,7376,1,0,0:0:0:0:
305,248,7452,6,0,L|91:264,1,186.666666666667,8|2,0:1|0:2,0:0:0:0:
433,186,7903,2,0,L|247:151,1,186.666666666667,8|2,0:1|0:2,0:0:0:0:
229,334,8354,6,0,B|317:368|317:368|388:287,1,186.666666666667,8|2,0:1|0:2,0:0:0:0:
285,242,8805,1,2,0:2:0:0:
263,145,9106,5,0,0:0:0:0:
267,144,9181,1,0,0:0:0:0:
271,143,9256,2,0,P|238:223|137:202,1,186.666666666667,8|2,0:1|0:2,0:0:0:0:
105,112,9707,2,0,L|175:119,1,55.9999982910157,2|2,0:2|0:2,0:0:0:0:
3,322,10158,6,0,P|7:217|87:197,1,186.666666666667,8|2,0:1|0:2,0:0:0:0:
170,280,10609,2,0,L|102:268,1,55.9999982910157,2|0,0:2|0:0,0:0:0:0:
99,284,10985,5,0,0:0:0:0:
99,284,11061,2,0,L|90:92,1,186.666666666667,8|2,0:1|0:2,0:0:0:0:
224,355,11512,2,0,L|248:161,1,186.666666666667,8|2,0:1|0:2,0:0:0:0:
408,342,11963,6,0,B|434:274|434:274|364:209,1,140,8|0,0:1|0:0,0:0:0:0:
370,236,12264,1,2,0:1:0:0:
68,274,12414,1,2,0:1:0:0:
173,312,12715,5,0,0:0:0:0:
177,311,12790,1,0,0:0:0:0:
181,310,12865,2,0,B|211:260|174:212|157:237|116:186|137:139,1,186.666666666667,8|0,0:1|0:0,0:0:0:0:
190,73,13316,1,0,0:0:0:0:
190,73,13617,1,2,0:2:0:0:
0,211,13767,6,0,P|79:127|143:150,1,186.666666666667,8|0,0:1|0:0,0:0:0:0:
173,228,14218,1,0,0:0:0:0:
189,350,14519,5,2,0:2:0:0:
185,346,14594,1,0,0:0:0:0:
181,342,14670,2,0,P|246:296|368:304,1,186.666666666667,8|0,0:1|0:0,0:0:0:0:
201,46,15121,2,0,P|219:145|319:193,1,205.33333959961,8|0,0:1|0:0,0:0:0:0:
0,291,15572,2,0,P|71:204|173:231,1,223.999993164063,8|0,0:1|0:0,0:0:0:0:
262,372,16023,6,0,P|198:373|168:315,1,130.666662679037,2|0,0:2|0:0,0:0:0:0:
182,316,16399,1,0,0:0:0:0:
182,316,16474,2,0,P|195:224|286:193,1,186.666666666667,8|0,0:1|0:0,0:0:0:0:
302,6,16925,2,0,P|222:36|217:112,1,167.999994873047,2|0,0:2|0:0,0:0:0:0:
441,114,17376,6,0,P|381:121|319:80,1,130.666662679037,8|0,0:1|0:0,0:0:0:0:
455,0,17827,2,0,P|501:27|498:71,1,93.3333333333333,2|0,0:2|0:0,0:0:0:0:
512,84,18203,5,0,0:0:0:0:
512,84,18279,2,0,P|456:164|460:281,1,186.666666666667,8|0,0:1|0:0,0:0:0:0:
330,196,18730,2,0,P|341:293|412:375,1,186.666666666667,8|0,0:1|0:0,0:0:0:0:
280,93,19181,2,0,P|234:113|210:178,1,93.3333333333333,8|8,0:1|0:0,0:0:0:0:
214,226,19406,1,8,0:0:0:0:
217,235,19482,1,8,0:0:0:0:
368,39,19632,5,4,0:0:0:0:
344,216,19782,1,4,0:0:0:0:
328,326,19933,1,4,0:0:0:0:
177,40,20083,6,0,P|157:25|125:25,1,55.9999982910157,6|0,0:0|0:0,0:0:0:0:
58,64,20835,1,0,0:0:0:0:
390,145,20985,6,0,P|412:135|428:107,1,55.9999982910157,6|0,0:0|0:0,0:0:0:0:
416,35,21737,1,0,0:0:0:0:
192,276,21888,6,0,P|187:308|216:352,1,83.9999974365235,6|0,0:0|0:0,0:0:0:0:
126,148,22339,2,0,P|94:125|33:130,1,102.666669799805,6|0,0:0|0:0,0:0:0:0:
269,154,22790,2,0,P|313:140|335:68,1,121.333327779134,6|8,0:0|0:2,0:0:0:0:
296,5,23166,1,8,0:2:0:0:
287,0,23241,1,8,0:2:0:0:
206,88,23542,1,8,0:2:0:0:
406,311,23692,6,0,P|462:304|487:161,1,205.33333959961,6|0,0:0|0:0,0:0:0:0:
437,118,24444,1,0,0:0:0:0:
215,150,24594,6,0,P|269:136|344:261,1,205.33333959961,6|0,0:0|0:0,0:0:0:0:
313,319,25346,1,0,0:0:0:0:
82,248,25497,6,0,P|119:300|221:280,1,130.666662679037,6|0,0:0|0:0,0:0:0:0:
176,70,25948,2,0,P|139:159|160:209,1,149.333333333333,6|0,0:0|0:0,0:0:0:0:
408,91,26399,2,0,P|315:82|249:116,1,167.999994873047,6|8,0:0|0:2,0:0:0:0:
237,200,26775,1,8,0:2:0:0:
241,211,26850,5,8,0:2:0:0:
347,252,27000,1,2,0:2:0:0:
186,311,27151,1,8,0:2:0:0:
440,351,27301,6,0,B|496:308|455:236|436:249|407:193|452:144,1,223.999993164063,6|0,0:0|0:0,0:0:0:0:
397,22,27752,2,0,P|340:82|367:136,1,149.333333333333,2|0,0:2|0:0,0:0:0:0:
174,23,28203,6,0,P|66:27|31:143,1,223.999993164063,6|0,0:0|0:0,0:0:0:0:
208,214,28655,2,0,P|193:127|131:96,1,149.333333333333,2|0,0:2|0:0,0:0:0:0:
58,337,29106,6,0,P|155:266|299:264,1,242.666655558269,6|0,0:0|0:0,0:0:0:0:
154,90,29557,2,0,P|268:123|332:198,1,205.33333959961,6|0,0:0|0:0,0:0:0:0:
448,64,30008,2,0,P|446:149|402:225,1,167.999994873047,6|8,0:0|0:2,0:0:0:0:
331,263,30384,1,8,0:2:0:0:
318,260,30459,1,8,0:2:0:0:
245,161,30760,1,8,0:2:0:0:
401,98,30910,6,0,B|462:68|442:-21|442:-21|349:-22|331:46,1,280.000010681153,6|0,0:0|0:0,0:0:0:0:
362,254,31361,2,0,B|398:292|467:252|467:252|444:177|385:187,1,223.999993164063,2|0,0:2|0:0,0:0:0:0:
188,265,31812,2,0,B|155:324|224:387|224:387|300:333|276:267,1,280.000010681153,6|0,0:0|0:0,0:0:0:0:
115,124,32264,2,0,B|58:117|32:184|32:184|96:231|136:189,1,223.999993164063,2|0,0:2|0:0,0:0:0:0:
303,95,32715,6,0,B|337:84|351:-5|224:-34|127:90|259:180|271:183,1,280.000010681153,6|0,0:0|0:0,0:0:0:0:
384,296,33166,2,0,B|376:330|447:388|535:292|476:146|332:215|323:223,1,280.000010681153,6|0,0:0|0:0,0:0:0:0:
170,264,33617,2,0,B|143:240|57:272|96:397|253:419|265:259|262:248,1,280.000010681153,6|8,0:0|0:2,0:0:0:0:
265,187,33993,1,8,0:2:0:0:
260,176,34068,1,8,0:2:0:0:
131,159,34369,1,8,0:2:0:0:
369,228,34519,6,0,B|442:253|515:215|509:135|422:107|361:151,1,280.000010681153,6|0,0:0|0:0,0:0:0:0:
283,260,34970,2,0,B|308:218|268:173|262:185|228:147|250:105,1,167.999994873047,2|0,0:2|0:0,0:0:0:0:
173,240,35421,6,0,B|110:284|23:256|17:176|90:138|163:163,1,280.000010681153,6|0,0:0|0:0,0:0:0:0:
285,277,35873,2,0,B|315:225|267:172|260:186|218:140|245:89,1,205.33333959961,2|0,0:2|0:0,0:0:0:0:
366,274,36324,6,0,B|430:324|517:311|539:227|461:169|384:193,1,298.666666666667,6|0,0:0|0:0,0:0:0:0:
162,261,36775,2,0,B|84:291|52:373|113:434|203:395|222:317,1,298.666666666667,6|0,0:0|0:0,0:0:0:0:
275,90,37226,2,0,B|288:8|233:-61|149:-38|138:58|196:113,1,298.666666666667,6|8,0:0|0:2,0:0:0:0:
254,178,37602,1,8,0:2:0:0:
261,182,37677,1,8,0:2:0:0:
363,98,37978,1,8,0:2:0:0:
77,197,38128,6,0,B|17:202|-9:104|107:47|215:162|137:257,1,298.666666666667,6|0,0:0|0:0,0:0:0:0:
0,378,38579,2,0,P|-10:340|94:288,1,167.999994873047,2|0,0:2|0:0,0:0:0:0:
336,293,39030,6,0,B|397:299|378:361|291:405|183:384|145:339|199:308,1,298.666666666667,6|0,0:0|0:0,0:0:0:0:
295,219,39482,2,0,P|282:163|231:240,1,205.33333959961,2|0,0:2|0:0,0:0:0:0:
501,270,39933,6,0,P|447:109|323:102,1,298.666666666667,6|0,0:0|0:0,0:0:0:0:
351,279,40384,2,0,P|332:212|395:173,1,130.666662679037,6|0,0:0|0:0,0:0:0:0:
409,382,40835,54,0,P|310:281|146:274,1,298.666666666667,6|8,0:0|0:2,0:0:0:0:
89,310,41211,1,8,0:2:0:0:
85,318,41286,1,8,0:2:0:0:
163,186,41587,1,8,0:2:0:0:
338,128,41737,38,0,B|396:53|355:-26|247:-51|205:55|264:95|264:95|160:52|94:134|94:134|123:78|70:11|-58:38|-49:179|48:200|48:200|-36:293|24:370,1,980,2|0,0:2|0:0,0:0:0:0:
401,357,44853,6,0,P|420:312|392:263,1,90.9999958343508,2|0,0:2|0:0,0:0:0:0:
453,206,45146,1,2,0:2:0:0:
461,197,45243,2,0,P|431:158|375:157,1,90.9999958343508,2|0,0:2|0:0,0:0:0:0:
314,181,45535,1,2,0:2:0:0:
303,187,45633,2,0,L|312:288,1,90.9999958343508,2|0,0:2|0:0,0:0:0:0:
222,248,45925,1,2,0:2:0:0:
211,242,46023,2,0,L|220:141,1,90.9999958343508,2|0,0:2|0:0,0:0:0:0:
230,62,46314,1,2,0:2:0:0:
25,52,46509,5,0,0:0:0:0:
8,90,46607,2,0,P|39:71|67:66,1,62.9999980773926,2|0,0:2|0:0,0:0:0:0:
164,104,46801,2,0,L|171:158,2,45.4999979171754,2|2|0,0:2|0:2|0:0,0:0:0:0:
247,65,47094,2,0,L|240:119,2,45.4999979171754,2|0|0,0:2|0:0|0:0,0:0:0:0:
320,94,47386,2,0,L|356:87,2,30.3333319447836,2|2|2,0:2|0:0|0:2,0:0:0:0:
357,75,47581,6,0,L|334:248,1,167.999994873047,4|0,0:0|0:0,0:0:0:0:
17,338,47970,5,4,0:0:0:0:
15,295,48068,1,2,0:2:0:0:
38,271,48165,1,2,0:2:0:0:
62,267,48262,1,0,0:0:0:0:
142,305,48360,6,0,L|138:364,1,52.5000020027161,4|0,0:0|0:0,0:0:0:0:
219,264,48555,1,2,0:2:0:0:
225,252,48652,2,0,P|211:230|178:221,1,52.5000020027161,2|4,0:2|0:0,0:0:0:0:
77,145,48847,1,2,0:2:0:0:
152,146,48944,2,0,P|125:147|101:171,1,52.5000020027161,2|0,0:2|0:0,0:0:0:0:
123,361,49139,5,4,0:0:0:0:
138,346,49237,1,2,0:2:0:0:
235,352,49334,1,2,0:2:0:0:
217,340,49431,1,0,0:0:0:0:
172,273,49529,6,0,L|164:208,3,52.5000020027161,4|2|0|2,0:0|0:2|0:0|0:2,0:0:0:0:
266,66,49918,2,0,L|243:232,1,157.500006008148,4|2,0:0|0:2,0:0:0:0:
241,303,50308,6,0,L|304:289,1,52.5000020027161,4|0,0:0|0:0,0:0:0:0:
383,269,50503,2,0,L|446:255,1,52.5000020027161,4|0,0:0|0:0,0:0:0:0:
268,209,50698,5,4,0:0:0:0:
293,213,50795,1,2,0:2:0:0:
318,217,50892,1,2,0:2:0:0:
321,213,50990,1,0,0:0:0:0:
324,209,51087,6,0,L|235:217,1,70,4|0,0:0|0:0,0:0:0:0:
134,310,51282,1,2,0:2:0:0:
134,310,51379,1,2,0:2:0:0:
134,310,51477,2,0,B|105:289|105:289|127:177,1,140,4|2,0:0|0:2,0:0:0:0:
194,109,51769,1,2,0:2:0:0:
140,54,51866,5,4,0:0:0:0:
163,70,51964,1,0,0:2:0:0:
190,74,52061,1,2,0:2:0:0:
215,61,52159,1,2,0:2:0:0:
286,114,52256,5,4,0:0:0:0:
301,90,52353,1,0,0:0:0:0:
334,78,52451,1,2,0:2:0:0:
374,86,52548,1,2,0:2:0:0:
451,166,52646,6,0,P|423:170|424:222,1,84,4|0,0:0|2:0,0:0:0:0:
428,225,52840,6,0,P|454:195|464:143,1,84,8|0,0:0|0:0,0:0:0:0:
234,204,53035,2,0,P|256:238|293:259,1,84,4|0,0:0|0:0,0:0:0:0:
398,91,53230,2,0,P|394:45|372:7,1,83.9999974365235,8|0,0:0|0:0,0:0:0:0:
157,110,53425,6,0,P|183:120|223:124,2,55.9999982910157,12|0|0,0:0|0:0|0:0,0:0:0:0:
84,156,53620,2,0,P|79:128|63:91,2,55.9999982910157,8|0|0,0:0|0:0|0:0,0:0:0:0:
161,197,53814,5,12,0:0:0:0:
160,202,53879,1,0,0:0:0:0:
159,207,53944,1,0,0:0:0:0:
158,212,54009,2,0,P|202:204|257:199,1,83.9999974365235,8|0,0:0|0:0,0:0:0:0:
474,198,54204,6,0,B|411:173|359:244|412:252|360:326|292:295,1,224,6|8,0:0|0:2,0:0:0:0:
241,199,54496,1,2,0:2:0:0:
245,363,54594,5,4,0:0:0:0:
212,355,54691,1,2,0:2:0:0:
191,328,54788,1,10,0:2:0:0:
191,294,54886,1,0,0:0:0:0:
319,223,54983,5,4,0:0:0:0:
342,198,55081,1,2,0:2:0:0:
343,164,55178,1,10,0:2:0:0:
323,136,55275,1,4,0:0:0:0:
186,85,55373,5,4,0:0:0:0:
188,51,55470,1,4,0:0:0:0:
217,68,55568,2,0,P|89:77|12:141,1,224,8|4,0:2|0:0,0:0:0:0:
5,259,55860,5,2,0:2:0:0:
146,213,55957,2,0,P|123:191|62:193,1,83.9999974365235,10|0,0:2|0:0,0:0:0:0:
157,322,56152,1,4,0:0:0:0:
165,339,56249,2,0,P|206:339|238:313,1,83.9999974365235,2|8,0:2|0:2,0:0:0:0:
255,146,56444,2,0,P|233:181|240:222,1,83.9999974365235,2|4,0:2|0:0,0:0:0:0:
362,335,56639,1,2,0:2:0:0:
377,320,56737,2,0,P|356:284|318:269,1,83.9999974365235,10|4,0:2|0:0,0:0:0:0:
130,326,56931,5,4,0:0:0:0:
170,357,57029,1,4,0:0:0:0:
211,358,57126,1,10,0:2:0:0:
240,341,57224,1,0,0:0:0:0:
234,254,57321,6,0,P|180:163|178:62,1,195.999994018555,4|8,0:0|0:2,0:0:0:0:
225,0,57613,1,0,0:0:0:0:
76,187,57711,6,0,P|107:78|185:79,1,195.999994018555,4|8,0:0|0:2,0:0:0:0:
253,116,58003,1,0,0:0:0:0:
360,12,58100,2,0,P|317:16|292:50,2,83.9999974365235,4|0|8,0:0|0:0|0:2,0:0:0:0:
416,157,58392,1,4,0:0:0:0:
433,151,58490,2,0,P|429:108|395:83,1,83.9999974365235,4|4,0:0|0:0,0:0:0:0:
325,120,58684,1,8,0:2:0:0:
294,224,58782,2,0,P|337:220|362:186,1,83.9999974365235,0|4,0:0|0:0,0:0:0:0:
189,107,58977,5,0,0:0:0:0:
182,187,59074,2,0,L|169:103,1,83.9999974365235,8|0,0:2|0:0,0:0:0:0:
93,44,59269,2,0,L|80:128,2,83.9999974365235,4|0|8,0:0|0:0|0:2,0:0:0:0:
5,166,59561,2,0,L|18:250,1,83.9999974365235,0|4,0:0|0:0,0:0:0:0:
116,343,59756,5,4,0:0:0:0:
21,359,59853,2,0,P|55:321|119:325,1,112,6|0,0:0|0:0,0:0:0:0:
328,325,60048,5,6,0:0:0:0:
220,283,60146,1,0,0:0:0:0:
425,345,60243,2,0,P|391:307|327:311,1,112,6|0,0:0|0:0,0:0:0:0:
205,384,60438,6,0,B|250:328|199:263|176:298|131:236|159:187,1,224,6|8,0:0|0:2,0:0:0:0:
223,113,60730,1,0,0:0:0:0:
336,217,60827,6,0,P|362:120|262:42,1,224,4|8,0:0|0:2,0:0:0:0:
154,60,61120,1,0,0:0:0:0:
226,206,61217,5,4,0:0:0:0:
257,193,61314,1,0,0:0:0:0:
272,163,61412,1,8,0:2:0:0:
269,129,61509,1,4,0:0:0:0:
105,135,61607,5,4,0:0:0:0:
132,153,61704,1,4,0:0:0:0:
139,120,61801,2,0,P|76:227|94:330,1,224,8|4,0:2|0:0,0:0:0:0:
235,373,62094,5,0,0:0:0:0:
214,239,62191,2,0,P|172:263|169:325,1,83.9999974365235,8|0,0:2|0:0,0:0:0:0:
340,348,62386,6,0,P|343:207|280:161,1,224,4|8,0:0|0:2,0:0:0:0:
192,151,62678,1,0,0:0:0:0:
276,288,62775,2,0,P|356:258|375:97,1,224,4|8,0:0|0:2,0:0:0:0:
368,23,63068,1,4,0:0:0:0:
368,23,63165,2,0,P|331:48|338:94,2,83.9999974365235,4|4|8,0:0|0:0|0:2,0:0:0:0:
469,285,63555,6,0,B|407:304|369:240|413:226|364:158|298:179,1,224,4|8,0:0|0:2,0:0:0:0:
231,232,63847,1,0,0:0:0:0:
224,19,63944,6,0,P|319:82|292:187,1,224,4|8,0:0|0:2,0:0:0:0:
219,228,64237,1,0,0:0:0:0:
152,107,64334,2,0,P|197:116|227:154,2,83.9999974365235,4|0|8,0:0|0:0|0:2,0:0:0:0:
59,144,64626,1,4,0:0:0:0:
43,136,64724,2,0,P|52:91|90:61,2,83.9999974365235,4|4|8,0:0|0:0|0:2,0:0:0:0:
86,228,65016,5,0,0:0:0:0:
85,242,65113,2,0,P|124:264|172:255,1,83.9999974365235,8|0,0:0|0:0,0:0:0:0:
244,334,65308,2,0,P|283:310|299:265,1,83.9999974365235,8|0,0:0|0:0,0:0:0:0:
307,75,65503,6,0,B|299:92|299:92|329:132|329:132|323:160,1,83.9999974365235,4|0,0:0|0:0,0:0:0:0:
408,196,65698,2,0,B|416:213|416:213|386:253|386:253|392:281,1,83.9999974365235,4|0,0:3|0:0,0:0:0:0:
322,372,65892,5,8,0:2:0:0:
295,300,65990,1,8,0:2:0:0:
298,224,66087,1,10,0:2:0:0:
336,158,66185,1,8,0:2:0:0:
400,118,66282,6,0,P|454:144|435:220,1,119.000002269745,12|0,0:2|0:0,0:0:0:0:
244,358,66477,2,0,L|210:351,1,20.9999993591309,8|0,0:2|0:0,0:0:0:0:
118,314,66672,6,0,P|180:323|230:272,1,140,4|0,0:3|0:0,0:0:0:0:
228,192,67256,1,2,0:2:0:0:
20,94,67451,6,0,P|88:100|116:165,1,140,4|0,0:3|0:0,0:0:0:0:
24,294,68035,1,2,0:2:0:0:
94,360,68230,6,0,P|135:332|191:323,1,105,4|0,0:3|0:0,0:0:0:0:
197,300,68620,2,0,P|238:328|294:337,1,105,4|0,0:3|0:0,0:0:0:0:
362,307,69009,1,4,0:3:0:0:
362,307,69399,5,2,0:2:0:0:
391,218,69594,1,2,0:2:0:0:
462,153,69788,2,0,P|497:177|503:211,1,70,2|4,0:0|0:3,0:0:0:0:
315,108,70568,2,0,P|344:99|366:66,1,70,2|4,0:0|0:3,0:0:0:0:
182,136,71347,6,0,P|229:151|253:203,1,105.000004005432,4|0,0:3|0:0,0:0:0:0:
46,106,71737,2,0,P|104:88|120:45,1,105.000004005432,4|0,0:3|0:0,0:0:0:0:
0,194,72126,1,4,0:3:0:0:
94,287,72321,5,8,0:0:0:0:
151,285,72418,1,8,0:0:0:0:
197,250,72516,1,4,0:3:0:0:
210,183,72613,1,8,0:0:0:0:
180,109,72711,1,8,0:0:0:0:
98,72,72808,1,8,0:0:0:0:
1,93,72905,6,0,P|-3:169|47:196,1,140,4|0,0:3|0:0,0:0:0:0:
120,166,73490,1,2,0:2:0:0:
282,20,73685,6,0,P|206:33|193:88,1,140,4|0,0:3|0:0,0:0:0:0:
264,228,74269,1,2,0:0:0:0:
365,180,74464,6,0,P|324:150|263:149,1,105,4|0,0:3|0:0,0:0:0:0:
255,136,74853,2,0,P|214:166|153:167,1,105,4|0,0:3|0:0,0:0:0:0:
101,121,75243,1,4,0:3:0:0:
101,121,75633,5,2,0:2:0:0:
51,205,75827,1,2,0:2:0:0:
66,301,76022,2,0,P|101:326|139:322,1,70,2|4,0:0|0:3,0:0:0:0:
233,208,76801,2,0,P|213:237|170:249,1,70,2|4,0:0|0:3,0:0:0:0:
0,188,77581,6,0,P|52:226|91:219,1,105.000004005432,4|0,0:3|0:0,0:0:0:0:
185,71,77970,2,0,P|154:127|116:138,1,105.000004005432,4|0,0:3|0:0,0:0:0:0:
55,5,78360,1,4,0:3:0:0:
13,113,78555,5,8,0:2:0:0:
69,102,78652,1,8,0:2:0:0:
134,132,78749,1,4,0:3:0:0:
155,197,78847,1,8,0:2:0:0:
132,266,78944,1,8,0:2:0:0:
178,329,79042,1,8,0:2:0:0:
261,339,79139,5,4,0:0:0:0:
261,333,79237,1,0,0:0:0:0:
262,327,79334,1,4,0:0:0:0:
263,321,79431,1,0,0:0:0:0:
334,242,79529,5,12,0:2:0:0:
339,288,79626,1,8,0:2:0:0:
345,335,79724,1,8,0:2:0:0:
351,382,79821,1,8,0:2:0:0:
427,344,79918,6,0,L|436:275,1,52.5000020027161,4|4,0:0|0:0,0:0:0:0:
512,226,80308,5,12,0:2:0:0:
465,218,80405,1,8,0:2:0:0:
418,210,80503,1,8,0:2:0:0:
371,203,80600,1,8,0:2:0:0:
421,127,80698,6,0,L|450:123,1,17.5,4|0,0:0|0:0,0:0:0:0:
430,52,80892,2,0,L|412:54,1,17.5,4|0,0:0|0:0,0:0:0:0:
336,0,81087,5,12,0:2:0:0:
329,47,81185,1,8,0:2:0:0:
323,93,81282,1,8,0:2:0:0:
317,139,81379,1,8,0:2:0:0:
247,73,81477,6,0,L|244:41,1,17.5,4|0,0:0|0:0,0:0:0:0:
166,67,81672,5,0,0:0:0:0:
169,82,81769,1,4,0:0:0:0:
240,151,81866,5,12,0:2:0:0:
193,159,81964,1,8,0:2:0:0:
146,167,82061,1,8,0:2:0:0:
99,175,82159,1,8,0:2:0:0:
147,260,82256,6,0,L|173:262,1,17.5,4|0,0:0|0:0,0:0:0:0:
154,335,82451,2,0,L|136:333,1,17.5,4|0,0:0|0:0,0:0:0:0:
53,376,82646,5,12,0:2:0:0:
48,329,82743,1,8,0:2:0:0:
43,282,82840,1,8,0:2:0:0:
38,234,82938,1,8,0:2:0:0:
166,242,83035,6,0,L|112:249,1,52.5,4|4,0:0|0:0,0:0:0:0:
160,161,83425,5,12,0:2:0:0:
206,165,83522,1,8,0:2:0:0:
253,169,83620,1,8,0:2:0:0:
299,173,83717,1,8,0:2:0:0:
248,87,83814,6,0,L|217:91,1,17.5,4|0,0:0|0:0,0:0:0:0:
192,21,84009,2,0,L|264:11,1,70,4|4,0:0|0:0,0:0:0:0:
448,97,84204,6,0,L|453:66,1,17.5,4|0,0:0|0:0,0:0:0:0:
386,30,84399,2,0,L|370:123,1,87.5,8|0,0:2|0:0,0:0:0:0:
302,356,84594,2,0,L|282:235,1,105.000004005432,8|0,0:2|0:0,0:0:0:0:
192,21,84788,2,0,L|169:158,1,122.500001168251,8|0,0:2|0:0,0:0:0:0:
78,363,84983,5,8,0:2:0:0:
33,303,85081,1,8,0:2:0:0:
102,281,85178,1,8,0:2:0:0:
172,259,85275,1,8,0:2:0:0:
172,332,85373,6,0,P|142:323|108:318,2,56,4|2|4,0:0|0:0|0:0,0:0:0:0:
249,384,85957,1,2,0:0:0:0:
403,310,86152,2,0,P|363:310|314:333,2,83.9999974365235,4|2|4,0:0|0:0|0:0,0:0:0:0:
470,82,86737,5,2,0:0:0:0:
384,182,86931,2,0,P|427:164|451:161,1,70,4|2,0:0|0:0,0:0:0:0:
264,66,87321,2,0,P|315:98|369:106,1,97.9999970092774,4|2,0:0|0:0,0:0:0:0:
95,192,87711,2,0,P|159:149|227:146,1,125.999996154785,4|2,0:0|0:0,0:0:0:0:
349,240,88100,5,4,0:0:0:0:
60,302,88295,1,2,0:0:0:0:
214,339,88490,6,0,P|213:300|187:243,1,83.9999974365235,4|2,0:0|0:0,0:0:0:0:
284,117,88879,2,0,P|269:156|267:197,1,83.9999974365235,4|2,0:0|0:0,0:0:0:0:
73,193,89269,6,0,P|131:191|217:152,1,112,4|2,0:0|0:0,0:0:0:0:
404,301,89658,2,0,P|345:278|282:276,1,112,4|2,0:0|0:0,0:0:0:0:
134,356,90048,5,4,0:0:0:0:
143,347,90243,1,2,0:0:0:0:
171,181,90438,5,4,0:0:0:0:
174,193,90633,1,2,0:0:0:0:
304,300,90827,5,4,0:0:0:0:
292,297,91022,1,2,0:0:0:0:
43,170,91217,6,2,B|320:131|45:185|322:146,1,272.999987503052,6|0,0:0|0:0,0:0:0:0:
404,242,91607,6,0,P|369:241|335:225,2,70,4|2|4,0:0|0:0|0:0,0:0:0:0:
486,203,92191,1,2,0:0:0:0:
422,384,92386,2,0,P|436:342|487:292,2,112,4|2|4,0:0|0:0|0:0,0:0:0:0:
486,203,92970,1,2,0:0:0:0:
282,283,93165,6,0,P|328:313|366:307,1,83.9999974365235,4|2,0:0|0:0,0:0:0:0:
217,176,93555,2,0,P|178:235|185:285,1,112,4|2,0:0|0:0,0:0:0:0:
342,110,93944,2,0,P|270:63|210:72,1,140,4|2,0:0|0:0,0:0:0:0:
96,163,94334,5,4,0:0:0:0:
355,222,94529,1,2,0:0:0:0:
197,297,94724,6,0,B|179:262|203:227|211:239|235:201|215:166,1,140,4|2,0:0|0:0,0:0:0:0:
93,19,95113,2,0,B|121:47|108:90|97:80|84:120|110:149,1,140,4|2,0:0|0:0,0:0:0:0:
303,101,95503,6,0,B|278:111|246:96|256:89|223:77|195:87,1,112,4|2,0:0|0:0,0:0:0:0:
8,244,95892,2,0,B|33:254|64:239|54:232|88:220|116:230,1,112,4|2,0:0|0:0,0:0:0:0:
222,346,96282,5,4,0:0:0:0:
248,340,96477,1,2,0:0:0:0:
220,192,96672,5,4,0:0:0:0:
194,186,96867,1,2,0:0:0:0:
234,36,97061,5,4,0:0:0:0:
260,30,97256,1,2,0:0:0:0:
319,143,97451,6,0,P|274:124|236:116,1,83.9999974365235,4|2,0:0|0:2,0:0:0:0:
155,143,97743,1,0,0:0:0:0:
148,152,97840,6,0,P|149:166|154:182,1,17.5,4|0,0:0|0:0,0:0:0:0:
74,169,98035,2,0,P|75:183|80:199,1,17.5,4|0,0:0|0:0,0:0:0:0:
174,277,98230,5,12,0:2:0:0:
122,270,98327,1,8,0:2:0:0:
69,263,98425,1,8,0:2:0:0:
17,257,98522,1,8,0:2:0:0:
50,347,98620,6,0,L|105:339,1,52.5,4|4,0:0|0:0,0:0:0:0:
184,384,99009,5,12,0:2:0:0:
189,331,99107,1,8,0:2:0:0:
194,279,99204,1,8,0:2:0:0:
200,227,99301,1,8,0:2:0:0:
286,296,99399,6,0,P|274:299|257:302,1,17.5,4|0,0:0|0:0,0:0:0:0:
303,368,99594,2,0,P|291:371|274:374,1,17.5,4|0,0:0|0:0,0:0:0:0:
279,213,99788,5,12,0:2:0:0:
331,218,99886,1,8,0:2:0:0:
382,224,99983,1,8,0:2:0:0:
434,230,100081,1,8,0:2:0:0:
383,137,100178,6,0,L|321:141,1,52.5,4|4,0:0|0:0,0:0:0:0:
268,50,100568,5,12,0:2:0:0:
260,101,100665,1,8,0:2:0:0:
253,152,100762,1,8,0:2:0:0:
246,204,100860,1,8,0:2:0:0:
181,119,100957,6,0,P|178:105|177:89,1,17.5,4|0,0:0|0:0,0:0:0:0:
108,129,101152,2,0,P|105:115|104:99,1,17.5,4|0,0:0|0:0,0:0:0:0:
3,190,101347,5,12,0:2:0:0:
54,198,101444,1,8,0:2:0:0:
106,207,101542,1,8,0:2:0:0:
157,215,101639,1,8,0:2:0:0:
63,280,101737,6,0,L|3:283,1,52.5,4|4,0:0|0:0,0:0:0:0:
126,366,102126,5,12,0:2:0:0:
131,313,102224,1,8,0:2:0:0:
137,261,102321,1,8,0:2:0:0:
143,209,102418,1,8,0:2:0:0:
215,282,102516,6,0,L|218:305,1,17.5,4|0,0:0|0:0,0:0:0:0:
293,309,102711,2,0,L|283:239,1,70,4|0,0:0|0:0,0:0:0:0:
212,45,102905,6,0,L|209:69,1,17.5,4|0,0:0|0:0,0:0:0:0:
290,17,103100,2,0,L|277:115,1,87.5,8|0,0:2|0:0,0:0:0:0:
87,250,103295,2,0,L|206:199,1,105.000004005432,8|0,0:2|0:0,0:0:0:0:
408,321,103490,2,0,L|289:231,1,122.500001168251,8|0,0:2|0:0,0:0:0:0:
40,38,103685,5,8,0:2:0:0:
108,157,103782,1,8,0:2:0:0:
134,63,103879,1,8,0:2:0:0:
13,132,103977,1,8,0:2:0:0:
48,50,104074,5,4,0:0:0:0:
212,62,104269,1,4,0:0:0:0:
210,74,104366,1,0,0:0:0:0:
208,86,104464,1,0,0:0:0:0:
309,90,104659,1,4,0:0:0:0:
0,169,104853,5,8,0:2:0:0:
99,105,105048,1,4,0:0:0:0:
123,133,105146,1,4,0:0:0:0:
118,169,105243,1,4,0:0:0:0:
199,266,105438,1,4,0:0:0:0:
194,230,105535,1,4,0:0:0:0:
218,202,105633,5,4,0:0:0:0:
302,256,105827,1,4,0:0:0:0:
390,210,106022,1,0,0:0:0:0:
394,110,106217,1,4,0:0:0:0:
120,61,106412,5,8,0:2:0:0:
230,54,106607,1,4,0:0:0:0:
236,89,106704,1,4,0:0:0:0:
214,118,106801,1,4,0:0:0:0:
183,120,106899,1,2,0:2:0:0:
162,133,106996,1,4,0:0:0:0:
154,150,107094,1,4,0:0:0:0:
155,162,107191,5,4,0:0:0:0:
298,199,107386,1,4,0:0:0:0:
300,187,107483,1,0,0:0:0:0:
302,174,107581,1,0,0:0:0:0:
389,209,107775,1,4,0:0:0:0:
70,256,107970,5,8,0:2:0:0:
174,316,108165,1,4,0:0:0:0:
203,294,108262,1,4,0:0:0:0:
197,257,108360,1,4,0:0:0:0:
269,163,108555,1,4,0:0:0:0:
263,200,108653,1,4,0:0:0:0:
292,222,108750,1,4,0:0:0:0:
292,222,108944,5,4,0:0:0:0:
341,223,109042,1,0,0:0:0:0:
381,250,109139,1,0,0:0:0:0:
397,296,109237,1,0,0:0:0:0:
386,343,109334,1,4,0:0:0:0:
374,346,109431,1,0,0:0:0:0:
306,382,109529,6,0,P|287:350|295:299,1,70,8|0,0:2|0:0,0:0:0:0:
371,142,109724,5,8,0:2:0:0:
419,150,109821,1,8,0:2:0:0:
467,158,109918,1,4,0:3:0:0:
470,172,110016,5,0,0:0:0:0:
407,180,110113,1,8,0:0:0:0:
344,188,110211,1,8,0:0:0:0:
319,226,110308,5,4,0:0:0:0:
264,111,110503,1,4,0:0:0:0:
270,108,110600,1,0,0:0:0:0:
276,105,110698,1,0,0:0:0:0:
235,29,110892,1,4,0:0:0:0:
204,303,111087,5,8,0:2:0:0:
125,227,111282,1,4,0:0:0:0:
139,203,111379,1,4,0:0:0:0:
167,200,111477,1,4,0:0:0:0:
12,142,111672,1,4,0:0:0:0:
26,166,111769,1,4,0:0:0:0:
54,169,111867,5,4,0:0:0:0:
119,96,112061,1,4,0:0:0:0:
214,115,112256,1,0,0:0:0:0:
245,206,112451,1,4,0:0:0:0:
98,369,112646,5,8,0:2:0:0:
79,221,112840,1,4,0:0:0:0:
112,210,112938,1,4,0:0:0:0:
143,224,113035,1,4,0:0:0:0:
150,251,113133,1,2,0:2:0:0:
163,267,113230,1,4,0:0:0:0:
176,271,113327,1,4,0:0:0:0:
243,239,113425,6,0,P|210:258|197:292,1,70,4|0,0:0|0:0,0:0:0:0:
96,159,113620,2,0,P|128:178|142:212,1,70,4|0,0:0|0:0,0:0:0:0:
291,126,113814,2,0,P|254:132|229:160,1,70,0|0,0:0|0:0,0:0:0:0:
129,31,114009,2,0,P|152:59|154:96,1,70,4|0,0:0|0:0,0:0:0:0:
114,335,114204,5,8,0:2:0:0:
259,300,114399,1,4,0:0:0:0:
274,323,114496,1,4,0:0:0:0:
269,350,114594,1,4,0:0:0:0:
352,212,114788,1,4,0:0:0:0:
337,235,114885,1,4,0:0:0:0:
342,262,114983,6,0,P|397:233|486:220,1,140,4|4,0:0|0:0,0:0:0:0:
399,118,115275,1,0,0:0:0:0:
350,107,115373,1,0,0:0:0:0:
311,122,115470,1,0,0:0:0:0:
295,153,115568,1,4,0:0:0:0:
301,165,115665,1,0,0:0:0:0:
243,227,115762,5,8,0:2:0:0:
195,185,115860,1,8,0:2:0:0:
189,122,115957,1,8,0:2:0:0:
230,73,116055,1,4,0:0:0:0:
292,68,116152,1,4,0:0:0:0:
333,104,116249,1,4,0:0:0:0:
325,152,116347,1,8,0:0:0:0:
286,168,116444,1,8,0:0:0:0:
256,149,116542,5,4,0:3:0:0:
358,25,116737,1,2,0:0:0:0:
414,175,116931,2,0,P|385:157|339:147,1,70,4|2,0:3|0:0,0:0:0:0:
512,258,117321,5,4,0:3:0:0:
386,249,117516,1,2,0:0:0:0:
265,296,117711,2,0,P|245:333|239:365,1,70,4|4,0:3|0:3,0:0:0:0:
353,138,118100,5,4,0:3:0:0:
473,92,118295,1,2,0:0:0:0:
348,126,118490,1,4,0:3:0:0:
221,84,118685,1,2,0:0:0:0:
343,114,118879,5,4,0:3:0:0:
243,190,119074,2,0,P|239:210|240:234,1,35,2|4,0:0|0:3,0:0:0:0:
185,292,119269,2,0,P|195:328|221:353,1,70,2|4,0:0|0:3,0:0:0:0:
440,266,119659,6,0,P|346:265|312:300,1,140,4|0,0:3|0:0,0:0:0:0:
377,46,120048,2,0,P|409:119|379:175,1,140,4|0,0:3|0:0,0:0:0:0:
122,165,120438,6,0,P|138:128|200:128,1,105,4|4,0:3|0:3,0:0:0:0:
201,142,120827,2,0,P|124:202|43:182,1,175,2|4,0:0|0:3,0:0:0:0:
251,39,121217,5,4,0:3:0:0:
187,321,121412,1,4,0:3:0:0:
201,311,121607,6,0,P|196:288|189:266,1,41.9999987182618,4|0,0:0|0:0,0:0:0:0:
121,95,121801,2,0,P|126:118|133:140,1,41.9999987182618,4|0,0:0|0:0,0:0:0:0:
309,149,121996,6,0,P|281:155|255:163,1,48.9999985046387,8|0,0:2|0:0,0:0:0:0:
12,254,122190,2,0,P|39:248|66:239,1,48.9999985046387,8|0,0:2|0:0,0:0:0:0:
227,71,122386,6,0,P|151:204|177:310,1,251.999992309571,12|4,0:2|0:0,0:0:0:0:
283,356,122678,5,4,0:0:0:0:
295,350,122775,2,0,P|299:310|255:277,1,90.9999958343508,6|0,0:0|0:0,0:0:0:0:
5,187,122970,6,0,B|39:206|39:206|105:185|128:189|128:189|124:184|124:184|159:184|220:173,1,210.000008010865,10|4,0:2|0:0,0:0:0:0:
290,200,123262,1,0,0:0:0:0:
329,51,123360,2,0,P|273:75|263:127,1,105.000004005432,10|0,0:2|0:0,0:0:0:0:
387,287,123555,6,0,P|386:169|447:34,1,238.00000453949,4|8,0:0|0:2,0:0:0:0:
502,106,123847,1,4,0:0:0:0:
498,123,123944,1,4,0:0:0:0:
512,223,124139,2,0,P|466:200|378:185,1,119.000002269745,10|0,0:2|0:0,0:0:0:0:
192,269,124334,6,0,B|145:274|183:359|258:324|233:225|199:253|172:220|194:171,1,210.000008010865,4|8,0:0|0:2,0:0:0:0:
213,69,124626,2,0,B|240:106|295:31|227:-16|154:55|195:70|180:109|127:115,1,210.000008010865,0|0,0:0|0:0,0:0:0:0:
23,182,124918,2,0,P|85:181|115:222,1,105.000004005432,10|0,0:2|0:0,0:0:0:0:
143,336,125113,6,0,P|132:248|191:169,1,178.500003404617,4|0,0:0|2:0,0:0:0:0:
193,174,125308,2,0,B|236:179|236:179|240:183|240:183|303:192,1,105.000004005432,8|0,0:2|0:0,0:0:0:0:
493,95,125503,1,4,0:0:0:0:
422,74,125600,1,4,0:0:0:0:
380,135,125698,1,10,0:2:0:0:
49,108,125892,6,0,B|45:119|28:131|28:131|136:104|136:104|126:57|154:28,1,224,4|8,0:0|0:2,0:0:0:0:
20,250,126282,2,0,B|3:238|3:238|105:213,1,112,4|0,0:0|0:0,0:0:0:0:
225,140,126477,2,0,B|208:152|208:152|310:177,1,112,10|0,0:2|0:0,0:0:0:0:
448,296,126672,6,0,B|461:268|497:251|497:251|485:250|485:250|493:236|493:236|449:285|379:289,1,224,4|8,0:0|0:2,0:0:0:0:
298,368,126964,2,0,B|254:318|287:258|306:277|351:225|310:162,1,224,4|4,0:0|0:0,0:0:0:0:
228,117,127256,1,10,0:2:0:0:
485,198,127451,6,0,B|518:192|482:112|400:157|398:212|415:224|383:249|351:249,1,210.000008010865,4|8,0:0|0:2,0:0:0:0:
453,83,127840,2,0,B|473:61|427:6|347:99|382:132|402:129|424:211|336:237,1,251.999992309571,4|8,0:0|0:2,0:0:0:0:
202,59,128230,1,4,0:0:0:0:
206,46,128327,1,4,0:0:0:0:
337,63,128425,6,0,B|303:64|279:65|279:65|277:68|277:68|250:69|187:79,1,119.000002269745,12|0,0:2|0:0,0:0:0:0:
50,162,128620,1,4,0:3:0:0:
15,52,128717,1,4,0:3:0:0:
67,155,128814,2,0,B|65:182|59:208|59:208|64:210|64:210|56:237|52:293,1,119.000002269745,12|0,0:2|0:0,0:0:0:0:
261,195,129009,6,0,P|249:167|160:162,1,119.000002269745,6|0,0:0|0:0,0:0:0:0:
81,365,129204,2,0,P|171:297|315:284,1,238.00000453949,10|4,0:2|0:0,0:0:0:0:
422,295,129496,1,0,0:0:0:0:
434,307,129594,2,0,P|417:362|350:363,1,119.000002269745,10|0,0:2|0:0,0:0:0:0:
357,106,129788,6,0,B|486:107|492:232|376:236|380:184,1,238.00000453949,4|8,0:0|0:2,0:0:0:0:
273,127,130081,1,4,0:0:0:0:
270,110,130178,1,4,0:0:0:0:
218,45,130373,2,0,P|246:98|255:164,1,119.000002269745,10|0,0:2|0:0,0:0:0:0:
165,344,130568,6,0,B|150:316|104:312|104:312|120:303|120:303|116:283|116:283|160:337|242:337,1,238.00000453949,4|8,0:0|0:2,0:0:0:0:
329,368,130860,2,0,B|377:346|428:359|428:359|420:349|420:349|433:339|433:339|377:345|333:309,1,238.00000453949,4|4,0:0|0:0,0:0:0:0:
210,229,131152,2,0,B|244:233|262:256|262:256|257:222|282:197,1,119.000002269745,10|0,0:2|0:0,0:0:0:0:
444,129,131347,6,0,B|392:132|367:190|367:190|371:166|371:166|360:166|360:166|383:112|353:68,1,238.00000453949,4|8,0:0|0:2,0:0:0:0:
234,10,131639,1,4,0:0:0:0:
215,18,131737,2,0,P|211:67|267:107,1,119.000002269745,4|0,0:0|0:0,0:0:0:0:
181,206,131931,2,0,P|209:246|278:240,1,119.000002269745,10|0,0:2|0:0,0:0:0:0:
452,145,132126,6,0,B|511:154|560:57|446:-27|342:43|345:147|376:216,1,357.000006809235,4|0,0:0|0:0,0:0:0:0:
422,339,132516,2,0,P|431:280|470:220,1,119.000002269745,4|0,0:0|0:0,0:0:0:0:
247,123,132711,2,0,P|277:173|285:232,1,119.000002269745,10|0,0:2|0:0,0:0:0:0:
276,378,132905,6,0,P|328:352|338:296,1,119.000002269745,4|0,0:0|0:0,0:0:0:0:
204,206,133100,2,0,P|152:232|143:289,1,119.000002269745,10|4,0:2|0:0,0:0:0:0:
347,381,133295,2,0,P|368:244|278:190,1,238.00000453949,4|8,0:0|0:2,0:0:0:0:
15,172,133685,6,0,B|90:204|147:121|105:112|163:38|230:74,2,265.999992897034,4|8|4,0:0|0:2|0:0,0:0:0:0:
56,0,134269,2,0,P|112:12|120:103,1,132.999996448517,10|4,0:2|0:0,0:0:0:0:
8,337,134464,5,6,0:0:0:0:
0,325,134659,1,8,0:2:0:0:
35,254,134756,1,8,0:2:0:0:
112,234,134853,1,8,0:2:0:0:
175,282,134951,1,8,0:2:0:0:
260,287,135048,1,8,0:2:0:0:
323,217,135146,1,8,0:2:0:0:
314,118,135243,6,0,B|307:107|307:107|242:114|197:88|197:88|190:60|161:43,1,178.500003404617,6|0,0:0|2:0,0:0:0:0:
158,57,135438,2,0,P|190:105|175:179,1,119.000002269745,10|0,0:2|0:0,0:0:0:0:
23,282,135633,2,0,P|48:230|120:206,1,119.000002269745,6|0,0:0|0:0,0:0:0:0:
286,287,135827,2,0,P|228:290|171:240,1,119.000002269745,10|0,0:2|0:0,0:0:0:0:
53,86,136022,5,6,0:0:0:0:
83,104,136120,1,2,0:2:0:0:
50,118,136217,1,10,0:2:0:0:
105,32,136314,5,4,0:0:0:0:
87,183,136412,2,0,B|68:200|63:236|63:236|46:201|13:195,1,119.000002269745,6|0,0:0|0:0,0:0:0:0:
186,119,136607,2,0,B|205:136|210:172|210:172|227:137|260:131,1,119.000002269745,8|0,0:2|0:0,0:0:0:0:
183,375,136801,6,0,P|209:322|269:312,1,119.000002269745,6|0,0:0|0:0,0:0:0:0:
295,205,136996,2,0,P|353:201|392:247,1,119.000002269745,10|0,0:2|0:0,0:0:0:0:
159,360,137191,6,0,P|144:302|184:256,1,119.000002269745,6|0,0:0|0:0,0:0:0:0:
135,157,137386,2,0,P|177:116|237:127,1,119.000002269745,10|0,0:2|0:0,0:0:0:0:
58,300,137581,6,0,P|21:258|35:191,1,119.000002269745,6|0,0:0|0:0,0:0:0:0:
123,33,137775,1,10,0:2:0:0:
145,145,137873,1,4,0:0:0:0:
40,52,137970,2,0,B|69:54|91:61|91:61|97:59|97:59|159:69,1,119.000002269745,6|4,0:0|0:0,0:0:0:0:
294,242,138165,2,0,B|265:244|243:251|243:251|237:249|237:249|175:259,1,119.000002269745,8|0,0:2|0:0,0:0:0:0:
270,40,138360,6,0,B|334:18|358:80|342:84|362:129|414:125,1,178.500003404617,6|0,0:0|2:0,0:0:0:0:
414,116,138555,2,0,P|464:87|451:23,1,119.000002269745,8|0,0:2|0:0,0:0:0:0:
241,133,138749,6,0,P|248:188|301:259,1,119.000002269745,6|0,0:0|0:0,0:0:0:0:
131,189,138944,2,0,P|151:240|221:295,1,119.000002269745,10|0,0:2|0:0,0:0:0:0:
453,343,139139,6,0,P|485:292|493:234,1,119.000002269745,6|0,0:0|0:0,0:0:0:0:
373,208,139334,2,0,P|380:267|363:324,1,119.000002269745,10|4,0:2|0:0,0:0:0:0:
119,342,139529,6,0,P|165:308|228:293,1,119.000002269745,6|4,0:0|0:0,0:0:0:0:
76,228,139724,2,0,P|129:207|193:208,1,119.000002269745,10|0,0:2|0:0,0:0:0:0:
437,261,139918,6,0,P|390:271|335:213,1,119.000002269745,6|0,0:0|0:0,0:0:0:0:
386,93,140113,2,0,P|339:83|284:141,1,119.000002269745,10|4,0:2|0:0,0:0:0:0:
228,351,140308,6,0,P|262:294|253:222,1,119.000002269745,6|4,0:0|0:0,0:0:0:0:
129,100,140503,2,0,P|165:145|173:203,1,119.000002269745,10|0,2:2|2:0,0:0:0:0:
91,340,140698,5,6,0:0:0:0:
20,199,140795,2,0,P|161:225|251:296,1,238.00000453949,8|4,0:2|0:0,0:0:0:0:
314,384,141087,5,10,0:2:0:0:
374,325,141185,1,8,0:2:0:0:
338,250,141282,1,8,0:2:0:0:
302,175,141379,1,8,0:2:0:0:
362,116,141477,6,0,B|300:148|300:148|277:71,1,140,6|0,0:3|2:0,0:0:0:0:
501,189,141866,2,0,B|480:256|480:256|419:223,1,140,6|0,0:3|2:0,0:0:0:0:
30,133,142256,6,0,B|99:152|99:152|155:79,1,140,6|0,0:3|2:0,0:0:0:0:
165,305,142646,2,0,B|215:254|215:254|180:169,1,140,6|0,0:3|2:0,0:0:0:0:
97,230,142840,1,2,0:2:0:0:
365,308,143035,6,0,B|430:280|430:280|359:214,1,140,6|0,0:0|2:0,0:0:0:0:
289,249,143230,1,0,0:0:0:0:
287,262,143327,1,2,0:2:0:0:
248,109,143425,2,0,B|314:88|314:88|305:158,1,140,6|0,0:0|2:0,0:0:0:0:
224,197,143620,1,2,0:2:0:0:
88,151,143814,2,0,B|103:83|103:83|160:125,1,140,6|0,0:0|2:0,0:0:0:0:
212,315,144204,6,0,B|157:275|157:275|71:300,1,140,6|0,0:0|2:0,0:0:0:0:
139,376,144399,1,2,0:2:0:0:
231,215,144594,2,0,B|286:175|286:175|372:200,1,140,6|0,0:0|2:0,0:0:0:0:
304,276,144789,1,2,0:2:0:0:
163,157,144983,6,0,B|145:92|145:92|77:115,1,140,6|0,0:0|2:0,0:0:0:0:
90,199,145178,1,2,0:2:0:0:
254,65,145373,6,0,B|272:0|272:0|340:22,1,140,6|0,0:0|2:0,0:0:0:0:
327,106,145568,1,2,0:2:0:0:
324,121,145665,1,2,0:2:0:0:
408,249,145762,2,0,B|455:199|455:199|401:152,1,140,6|0,0:0|2:0,0:0:0:0:
333,207,145957,1,2,0:2:0:0:
393,382,146152,6,0,P|418:187|502:18,1,377.999988464356,6|0,0:0|0:0,0:0:0:0:
243,19,146542,2,0,P|237:194|306:394,1,377.999988464356,6|0,0:0|0:0,0:0:0:0:
139,307,146931,2,0,P|91:249|67:183,1,125.999996154785,4|0,0:0|0:0,0:0:0:0:
150,0,147126,5,8,0:2:0:0:
234,5,147224,1,8,0:2:0:0:
289,72,147321,1,8,0:2:0:0:
270,157,147418,1,8,0:2:0:0:
196,206,147516,1,8,0:2:0:0:
163,287,147613,1,8,0:2:0:0:
190,371,147711,6,0,P|233:353|232:260,1,125.999996154785,6|0,0:0|0:0,0:0:0:0:
65,124,147905,2,0,P|59:170|140:215,1,125.999996154785,10|0,0:2|0:0,0:0:0:0:
341,139,148100,2,0,P|303:110|223:158,1,125.999996154785,6|0,0:0|0:0,0:0:0:0:
149,294,148295,5,8,0:2:0:0:
271,222,148392,1,2,0:0:0:0:
259,210,148490,2,0,P|231:240|238:296,1,97.9999970092774,6|0,0:0|0:0,0:0:0:0:
431,370,148685,2,0,P|391:340|316:325,1,125.999996154785,10|4,0:2|0:0,0:0:0:0:
17,325,148879,5,6,0:0:0:0:
81,361,148977,1,6,0:0:0:0:
103,273,149074,5,8,0:2:0:0:
118,298,149172,1,2,0:0:0:0:
202,345,149269,6,0,P|205:283|228:192,1,125.999996154785,6|0,0:0|0:0,0:0:0:0:
360,124,149464,2,0,P|364:181|298:203,1,125.999996154785,10|0,0:2|0:0,0:0:0:0:
121,134,149659,5,6,0:0:0:0:
156,120,149756,1,2,0:0:0:0:
61,67,149853,5,8,0:2:0:0:
156,85,149951,1,2,0:0:0:0:
25,173,150048,6,0,P|24:228|103:257,1,125.999996154785,6|0,0:0|0:0,0:0:0:0:
67,355,150243,2,0,P|114:383|178:329,1,125.999996154785,10|4,0:2|0:0,0:0:0:0:
239,134,150438,6,0,P|232:191|270:263,1,125.999996154785,6|4,0:0|0:0,0:0:0:0:
327,368,150633,2,0,P|365:319|373:257,1,125.999996154785,10|0,0:2|0:0,0:0:0:0:
364,82,150827,6,0,B|342:59|304:71|304:71|342:74|364:108,1,125.999996154785,6|0,0:0|0:0,0:0:0:0:
421,177,151022,2,0,B|443:154|481:166|481:166|443:169|421:203,1,125.999996154785,10|0,0:2|0:0,0:0:0:0:
325,88,151217,6,0,B|287:73|255:95|255:95|286:105|294:130,1,125.999996154785,6|0,0:0|0:0,0:0:0:0:
460,183,151412,2,0,B|498:168|530:190|530:190|499:200|491:225,1,125.999996154785,10|0,0:2|0:0,0:0:0:0:
272,378,151607,2,0,B|240:318|300:252|311:288|396:256|368:174,1,251.999992309571,6|8,0:0|0:2,0:0:0:0:
0,132,151996,6,0,P|37:172|109:157,1,125.999996154785,6|4,0:0|0:0,0:0:0:0:
171,227,152191,2,0,P|224:214|247:145,1,125.999996154785,10|0,0:2|0:0,0:0:0:0:
87,72,152386,2,0,P|144:207|147:326,1,251.999992309571,6|8,0:0|0:2,0:0:0:0:
236,75,152775,6,0,B|234:4|240:4|217:84,1,105.000004005432,6|0,0:0|0:0,0:0:0:0:
343,181,152970,2,0,B|341:252|347:252|324:172,1,105.000004005432,10|0,0:2|0:0,0:0:0:0:
196,99,153165,6,0,B|167:26|173:24|179:114,1,119.000002269745,6|4,0:0|0:0,0:0:0:0:
306,209,153360,2,0,B|276:283|282:285|288:191,1,119.000002269745,14|0,0:2|0:0,0:0:0:0:
316,39,153555,6,0,B|355:-42|344:-45|340:60,1,132.999996448517,6|4,0:0|0:0,0:0:0:0:
170,244,153749,2,0,B|209:325|198:327|194:221,1,132.999996448517,14|0,0:2|0:0,0:0:0:0:
221,31,153944,6,0,P|257:130|277:247,1,210.000008010865,6|8,0:0|0:2,0:0:0:0:
9,81,154334,2,0,B|-6:3|-12:14|22:78,1,112,6|0,0:0|0:0,0:0:0:0:
96,194,154529,2,0,B|62:256|68:267|83:189,1,112,10|0,0:2|0:0,0:0:0:0:
135,37,154724,6,0,B|143:1|158:12|121:111,1,112,6|0,0:0|0:0,0:0:0:0:
55,320,154918,1,10,0:2:0:0:
156,256,155016,1,6,0:0:0:0:
156,256,155113,2,0,B|177:227|188:243|134:333,1,112,6|4,0:0|0:0,0:0:0:0:
0,239,155308,2,0,P|27:207|108:216,1,112,10|0,0:2|0:0,0:0:0:0:
258,351,155503,6,0,B|248:387|225:355|263:272,1,112,6|0,0:0|0:0,0:0:0:0:
332,96,155698,1,10,0:2:0:0:
363,189,155795,1,2,0:0:0:0:
359,93,155892,2,0,B|364:18|376:17|338:108,1,112,6|0,0:0|0:0,0:0:0:0:
215,175,156087,5,10,0:2:0:0:
219,187,156185,1,0,0:0:0:0:
112,35,156282,5,6,0:0:0:0:
84,83,156379,1,2,0:0:0:0:
123,123,156477,1,10,0:2:0:0:
95,171,156574,1,4,0:0:0:0:
119,251,156672,5,6,0:0:0:0:
79,181,156769,1,6,0:0:0:0:
136,122,156867,1,10,0:2:0:0:
95,52,156964,1,2,0:0:0:0:
182,8,157061,6,0,B|223:-5|192:37|102:21,1,112,6|0,0:0|0:0,0:0:0:0:
0,121,157256,2,0,B|-21:110|15:89|92:143,1,112,10|0,0:2|0:0,0:0:0:0:
166,307,157451,5,6,0:0:0:0:
193,222,157548,1,2,0:0:0:0:
283,226,157646,1,8,0:2:0:0:
287,241,157743,1,2,0:0:0:0:
331,156,157840,6,0,B|343:129|299:132|303:236,1,112,6|0,0:0|0:0,0:0:0:0:
405,327,158035,2,0,B|411:355|444:327|380:245,1,112,10|4,0:2|0:0,0:0:0:0:
193,222,158230,1,6,0:0:0:0:
193,222,158425,5,10,0:2:0:0:
220,148,158522,1,2,0:0:0:0:
166,91,158620,2,0,B|84:66|81:87|185:115,1,119.000002269745,6|0,0:0|0:0,0:0:0:0:
408,175,158814,5,10,0:2:0:0:
408,85,158912,1,2,0:0:0:0:
313,158,159009,2,0,B|290:234|303:242|339:121,1,119.000002269745,6|0,0:0|0:0,0:0:0:0:
236,20,159204,1,10,0:2:0:0:
114,66,159301,1,2,0:0:0:0:
208,158,159399,6,0,B|221:261|245:251|211:75,1,140,6|4,0:0|0:0,0:0:0:0:
119,372,159594,2,0,B|201:308|181:292|45:410,1,140,12|0,0:2|0:0,0:0:0:0:
349,343,159788,2,0,B|252:303|249:328|418:387,1,140,6|4,0:0|0:0,0:0:0:0:
227,257,159983,1,12,0:2:0:0:
457,99,160178,6,0,B|446:61|534:68|539:158|422:215|355:110|402:86|401:-9|285:11,1,335.999989746094,6|0,0:3|0:0,0:0:0:0:
271,110,160762,1,4,3:0:0:0:
380,298,160957,6,0,P|318:235|173:216,1,224,8|0,3:0|0:0,0:0:0:0:
16,278,161542,1,8,0:3:0:0:
154,335,161737,5,4,0:3:0:0:
64,358,161931,1,0,0:0:0:0:
169,351,162126,2,0,L|186:221,1,112,8|4,0:3|0:3,0:0:0:0:
73,55,162516,5,4,0:3:0:0:
59,149,162711,2,0,P|52:165|56:146,1,56,0|2,0:0|0:0,0:0:0:0:
60,44,162905,2,0,L|74:155,1,112,8|4,0:3|0:3,0:0:0:0:
356,119,163295,6,0,B|298:32|314:36|201:102,1,168,4|0,0:3|0:0,0:0:0:0:
250,161,163685,2,0,L|316:179,1,56,0|4,0:0|0:3,0:0:0:0:
37,280,164074,6,0,B|94:193|78:197|191:263,1,168,8|0,0:3|0:0,0:0:0:0:
177,323,164464,2,0,L|60:354,1,112,4|0,0:3|0:0,0:0:0:0:
384,344,164853,5,4,0:3:0:0:
289,292,165048,1,0,0:0:0:0:
512,225,165243,2,0,L|395:256,1,112,8|4,0:3|0:3,0:0:0:0:
418,21,165633,6,0,P|411:46|382:86,1,56,8|0,0:3|0:0,0:0:0:0:
411,153,165827,2,0,P|389:168|341:179,1,56,2|0,0:2|0:0,0:0:0:0:
320,249,166022,2,0,P|293:247|249:224,1,56,4|0,0:3|0:0,0:0:0:0:
26,9,166412,6,0,B|36:37|75:49|75:49|51:237,1,251.999992309571,6|0,0:3|0:0,0:0:0:0:
3,307,166801,2,0,L|17:371,1,56,2|4,0:2|0:3,0:0:0:0:
266,236,167191,6,0,B|226:137|249:143|150:213,1,168,8|0,0:3|0:0,0:0:0:0:
142,280,167581,2,0,L|268:316,1,112,4|0,0:3|0:0,0:0:0:0:
405,122,167970,5,4,0:3:0:0:
382,219,168165,1,2,0:2:0:0:
387,119,168360,2,0,L|400:247,1,112,8|0,0:3|0:0,0:0:0:0:
169,65,168749,6,0,B|205:-1|173:-14|201:73|246:215|212:136|183:105,1,210,4|0,0:3|0:0,0:0:0:0:
11,271,169529,6,0,B|72:188|51:194|151:247,1,168,4|0,0:3|0:0,0:0:0:0:
118,313,169918,2,0,L|43:332,1,56,2|4,0:2|0:3,0:0:0:0:
374,226,170308,6,0,B|313:143|334:149|234:202,1,168,2|0,0:2|0:0,0:0:0:0:
241,272,170698,2,0,L|376:306,1,112,4|0,0:3|0:0,0:0:0:0:
134,55,171087,6,0,B|65:77|71:46|136:190,1,168,4|0,0:3|0:0,0:0:0:0:
150,267,171477,2,0,B|219:286|197:308|221:152,1,168,2|0,0:2|0:0,0:0:0:0:
275,64,171866,6,0,L|288:132,1,56,2|0,0:2|0:0,0:0:0:0:
308,213,172061,2,0,L|321:281,1,56,2|0,0:2|0:0,0:0:0:0:
212,371,172256,5,8,0:0:0:0:
140,326,172353,1,8,0:0:0:0:
159,243,172451,1,8,0:0:0:0:
179,161,172548,1,8,0:0:0:0:
107,116,172646,6,0,B|90:129|86:151|86:151|150:94|240:108,1,195.999994018555,6|8,0:0|0:2,0:0:0:0:
302,56,172938,1,0,0:0:0:0:
314,56,173035,2,0,P|324:72|323:106,1,35,0|0,0:0|0:0,0:0:0:0:
349,140,173230,2,0,P|343:89|310:53,1,97.9999970092774,8|0,0:2|0:0,0:0:0:0:
111,13,173425,6,0,B|87:10|74:25|74:25|169:25|208:100,1,195.999994018555,4|8,0:0|0:2,0:0:0:0:
217,196,173717,1,4,0:0:0:0:
213,186,173814,2,0,P|198:177|175:169,1,35,4|4,0:0|0:0,0:0:0:0:
123,209,174009,2,0,P|165:184|219:188,1,97.9999970092774,8|0,0:2|0:0,0:0:0:0:
443,293,174204,6,0,B|419:301|408:328|408:328|415:290|396:272,1,97.9999970092774,4|0,0:0|0:0,0:0:0:0:
350,206,174399,2,0,B|326:198|315:171|315:171|322:209|303:227,1,97.9999970092774,8|0,0:2|0:0,0:0:0:0:
266,291,174594,2,0,P|383:235|487:220,1,210.000008010865,4|8,0:0|0:2,0:0:0:0:
499,119,174886,5,0,0:0:0:0:
508,110,174983,2,0,B|500:94|496:79|496:79|494:114|471:137,1,97.9999970092774,4|0,0:0|0:0,0:0:0:0:
388,183,175178,2,0,B|380:199|376:214|376:214|374:179|351:156,1,97.9999970092774,8|4,0:2|0:0,0:0:0:0:
250,112,175373,1,4,0:0:0:0:
261,134,175470,1,4,0:0:0:0:
292,41,175568,1,8,0:2:0:0:
235,338,175762,6,0,B|256:343|266:356|266:356|273:257|178:232,1,195.999994018555,4|8,0:0|0:2,0:0:0:0:
75,242,176055,1,0,0:0:0:0:
69,253,176152,2,0,P|76:275|99:294,1,35,4|0,0:0|0:0,0:0:0:0:
114,332,176347,2,0,P|76:295|69:246,1,97.9999970092774,8|0,0:2|0:0,0:0:0:0:
241,78,176542,6,0,B|254:90|275:96|275:96|188:70|126:139,1,195.999994018555,4|8,0:0|0:2,0:0:0:0:
40,110,176834,1,4,0:0:0:0:
32,104,176931,2,0,P|24:123|22:153,1,35,4|4,0:0|0:0,0:0:0:0:
65,192,177126,2,0,P|40:155|32:95,1,97.9999970092774,8|0,0:2|0:0,0:0:0:0:
247,5,177321,6,0,P|279:28|284:98,1,97.9999970092774,4|0,0:0|0:0,0:0:0:0:
242,205,177516,2,0,P|225:200|204:178,1,35,8|0,0:2|0:0,0:0:0:0:
351,142,177711,2,0,P|278:222|195:196,1,195.999994018555,4|8,0:0|0:2,0:0:0:0:
86,54,178100,5,4,0:0:0:0:
92,36,178198,1,4,0:0:0:0:
208,41,178295,2,0,P|139:37|95:82,1,125.999996154785,12|0,0:2|0:0,0:0:0:0:
106,323,178490,5,4,0:0:0:0:
171,222,178587,1,4,0:0:0:0:
51,216,178685,2,0,P|115:215|182:256,1,125.999996154785,12|0,0:2|0:0,0:0:0:0:
384,363,178879,6,0,B|377:342|362:327|362:327|367:260|400:223|400:223|431:224|452:208,1,195.999994018555,6|8,0:0|0:2,0:0:0:0:
497,136,179172,1,0,0:0:0:0:
508,129,179269,2,0,P|506:111|496:89,1,35,4|0,0:0|0:0,0:0:0:0:
482,36,179464,2,0,P|504:82|506:137,1,97.9999970092774,8|0,0:2|0:0,0:0:0:0:
196,173,179659,6,0,B|216:165|228:150|228:150|275:143|342:159|342:159|354:139|384:125,1,195.999994018555,4|8,0:0|0:2,0:0:0:0:
375,43,179951,1,4,0:0:0:0:
374,28,180048,2,0,P|359:18|339:14,1,35,4|4,0:0|0:0,0:0:0:0:
284,62,180243,2,0,P|313:42|377:28,1,97.9999970092774,8|0,0:2|0:0,0:0:0:0:
499,181,180438,6,0,B|486:188|477:205|477:205|487:173|471:139,1,97.9999970092774,4|0,0:0|0:0,0:0:0:0:
385,229,180633,2,0,B|384:243|394:260|394:260|372:235|334:232,1,97.9999970092774,8|0,0:2|0:0,0:0:0:0:
285,365,180827,2,0,P|389:301|495:306,1,210.000008010865,4|8,0:0|0:2,0:0:0:0:
179,279,181217,6,0,B|179:230|121:201|121:201|178:228|226:207,1,210.000008010865,4|8,0:0|0:2,0:0:0:0:
316,168,181509,1,4,0:0:0:0:
326,176,181607,2,0,P|324:200|318:221,1,35,4|4,0:0|0:0,0:0:0:0:
345,270,181801,2,0,P|343:221|319:165,1,97.9999970092774,8|0,0:2|0:0,0:0:0:0:
27,4,181996,6,0,B|23:27|3:43|3:43|21:125|124:110,1,195.999994018555,4|8,0:0|0:2,0:0:0:0:
204,186,182288,1,0,0:0:0:0:
215,184,182386,2,0,P|228:160|231:136,1,35,4|0,0:0|0:0,0:0:0:0:
198,89,182581,2,0,P|215:137|210:200,1,97.9999970092774,8|0,0:2|0:0,0:0:0:0:
1,351,182775,6,0,B|16:334|19:305|19:305|87:242|159:269,1,195.999994018555,4|8,0:0|0:2,0:0:0:0:
258,245,183068,1,4,0:0:0:0:
270,246,183165,2,0,P|276:265|282:300,1,35,4|4,0:0|0:0,0:0:0:0:
247,338,183360,2,0,P|266:300|265:228,1,97.9999970092774,8|0,0:2|0:0,0:0:0:0:
118,81,183555,6,0,B|137:85|152:101|152:101|211:106|263:84|263:84|269:61|292:46,1,195.999994018555,4|8,0:0|0:2,0:0:0:0:
377,86,183847,1,0,0:0:0:0:
387,95,183944,2,0,P|394:77|399:53,1,35,4|0,0:0|0:0,0:0:0:0:
356,5,184139,2,0,P|381:43|381:116,1,97.9999970092774,8|0,0:2|0:0,0:0:0:0:
158,267,184334,5,4,0:0:0:0:
153,251,184431,1,4,0:0:0:0:
282,273,184529,2,0,P|237:275|158:227,1,125.999996154785,10|4,0:2|0:0,0:0:0:0:
131,49,184724,5,6,0:0:0:0:
216,144,184821,1,4,0:0:0:0:
97,172,184918,2,0,P|139:135|210:131,1,125.999996154785,10|0,0:2|0:0,0:0:0:0:
504,261,185113,6,0,B|516:359|369:383|271:303|314:160|430:113|435:159|431:196|494:189|581:138|548:6|430:7|402:57|406:101,1,587.999982055665,2|2,2:2|2:2,2:2:0:0:
20,33,191347,6,0,P|63:33|100:120,1,140,4|0,0:3|0:0,0:0:0:0:
42,173,191931,1,2,0:2:0:0:
278,152,192126,6,0,P|213:144|168:206,1,140,4|0,0:3|0:0,0:0:0:0:
194,384,192711,1,2,0:2:0:0:
314,309,192905,6,0,B|299:317|299:317|269:296|209:285,1,105,4|0,0:3|0:0,0:0:0:0:
204,300,193295,2,0,B|189:292|189:292|159:313|99:324,1,105,4|0,0:3|0:0,0:0:0:0:
34,296,193685,1,4,0:3:0:0:
34,296,194074,5,2,0:2:0:0:
6,178,194269,1,2,0:2:0:0:
43,62,194464,2,0,P|72:46|112:49,1,70,2|4,0:0|0:3,0:0:0:0:
91,212,195243,2,0,P|91:178|114:145,1,70,2|4,0:0|0:3,0:0:0:0:
268,254,196022,6,0,P|215:227|203:175,1,105.000004005432,4|0,0:3|0:0,0:0:0:0:
423,147,196412,2,0,P|374:179|322:163,1,105.000004005432,4|0,0:3|0:0,0:0:0:0:
445,44,196801,1,4,0:3:0:0:
264,55,196996,5,8,0:0:0:0:
220,84,197094,1,8,0:0:0:0:
210,144,197191,1,4,0:3:0:0:
242,206,197288,1,8,0:0:0:0:
319,223,197386,1,8,0:0:0:0:
353,299,197483,1,8,0:0:0:0:
305,372,197581,6,0,P|263:368|232:280,1,140,4|0,0:3|0:0,0:0:0:0:
278,224,198165,1,2,0:2:0:0:
106,275,198360,2,0,P|127:218|209:213,1,140,4|0,0:3|0:0,0:0:0:0:
263,384,198944,1,2,0:0:0:0:
345,323,199139,6,0,B|345:286|365:237|365:237|351:211,1,105,4|0,0:3|0:0,0:0:0:0:
369,210,199529,2,0,B|369:173|349:124|349:124|363:98,1,105,4|0,0:3|0:0,0:0:0:0:
380,37,199918,1,4,0:3:0:0:
380,37,200308,5,2,0:2:0:0:
255,55,200503,1,2,0:2:0:0:
163,143,200698,2,0,P|178:187|211:205,1,70,2|4,0:0|0:3,0:0:0:0:
181,348,201477,2,0,P|162:316|165:280,1,70,2|4,0:0|0:3,0:0:0:0:
36,149,202256,6,0,P|69:211|111:217,1,105.000004005432,6|0,0:3|2:0,0:0:0:0:
5,371,202646,2,0,P|28:315|75:298,1,105.000004005432,6|0,0:3|2:0,0:0:0:0:
258,334,203035,1,6,0:3:0:0:
258,334,203230,5,8,0:2:0:0:
269,261,203327,1,8,0:2:0:0:
280,187,203425,1,4,0:3:0:0:
292,199,203522,5,8,0:2:0:0:
218,191,203620,1,8,0:2:0:0:
134,181,203717,1,8,0:2:0:0:
40,171,203814,5,4,0:0:0:0:
41,176,203912,1,0,0:0:0:0:
42,181,204009,1,4,0:0:0:0:
43,186,204107,1,0,0:0:0:0:
115,247,204204,5,12,0:2:0:0:
120,200,204301,1,8,0:2:0:0:
125,152,204399,1,8,0:2:0:0:
131,105,204496,1,8,0:2:0:0:
198,187,204594,6,0,L|208:250,1,52.5,4|4,0:0|0:0,0:0:0:0:
214,197,204983,6,0,L|236:58,1,140,12|8,0:2|0:2,0:0:0:0:
321,114,205275,1,8,0:2:0:0:
320,124,205373,2,0,L|295:126,1,17.5,4|0,0:0|0:0,0:0:0:0:
323,197,205568,2,0,L|298:199,1,17.5,4|0,0:0|0:0,0:0:0:0:
253,282,205762,5,12,0:2:0:0:
301,275,205860,1,8,0:2:0:0:
349,268,205957,1,8,0:2:0:0:
397,262,206055,1,8,0:2:0:0:
361,358,206152,6,0,L|357:334,1,17.5,4|0,0:0|0:0,0:0:0:0:
290,369,206347,1,0,0:0:0:0:
288,360,206444,1,4,0:0:0:0:
213,384,206542,5,12,0:2:0:0:
215,335,206639,1,8,0:2:0:0:
217,285,206737,1,8,0:2:0:0:
219,236,206834,1,8,0:2:0:0:
125,282,206931,6,0,L|150:285,1,17.5,4|0,0:0|0:0,0:0:0:0:
114,352,207126,2,0,L|139:355,1,17.5,4|0,0:0|0:0,0:0:0:0:
44,307,207321,5,12,0:2:0:0:
38,260,207418,1,8,0:2:0:0:
32,212,207516,1,8,0:2:0:0:
26,165,207613,1,8,0:2:0:0:
119,203,207711,6,0,L|115:256,1,52.5,4|4,0:0|0:0,0:0:0:0:
95,125,208100,5,12,0:2:0:0:
142,119,208198,1,8,0:2:0:0:
188,113,208295,1,8,0:2:0:0:
234,107,208392,1,8,0:2:0:0:
155,42,208490,6,0,L|124:39,1,17.5,4|0,0:0|0:0,0:0:0:0:
114,26,208685,2,0,L|205:34,1,70,4|0,0:0|0:0,0:0:0:0:
373,50,208879,1,4,0:0:0:0:
373,50,209074,6,0,B|350:44|350:44|290:115,1,105.000004005432,8|0,0:2|0:0,0:0:0:0:
308,377,209269,2,0,B|324:360|324:360|294:275,1,105.000004005432,8|0,0:2|0:0,0:0:0:0:
57,157,209464,2,0,B|63:179|63:179|152:195,1,105.000004005432,8|0,0:2|0:0,0:0:0:0:
424,138,209659,5,8,0:2:0:0:
277,213,209756,1,8,0:2:0:0:
388,249,209853,1,8,0:2:0:0:
313,102,209951,1,8,0:2:0:0:
276,197,210048,6,0,L|340:190,2,56,4|2|4,0:0|0:0|0:0,0:0:0:0:
226,272,210633,1,2,0:0:0:0:
148,115,210827,2,0,L|256:126,2,83.9999974365235,4|2|4,0:0|0:0|0:0,0:0:0:0:
95,328,211412,1,2,0:0:0:0:
68,175,211607,6,0,L|113:248,1,70,4|2,0:0|0:0,0:0:0:0:
258,115,211996,2,0,L|173:177,1,97.9999970092774,4|2,0:0|0:0,0:0:0:0:
37,41,212386,2,0,L|168:70,1,125.999996154785,4|2,0:0|0:0,0:0:0:0:
264,230,212775,5,4,0:0:0:0:
338,81,212970,1,2,0:0:0:0:
442,291,213165,6,0,P|400:274|361:267,1,83.9999974365235,4|2,0:0|0:0,0:0:0:0:
191,195,213555,2,0,P|232:187|270:171,1,83.9999974365235,4|2,0:0|0:0,0:0:0:0:
359,65,213944,6,0,P|359:118|372:176,1,112,4|2,0:0|0:0,0:0:0:0:
280,384,214334,2,0,P|280:331|267:273,1,112,4|2,0:0|0:0,0:0:0:0:
90,140,214724,5,4,0:0:0:0:
72,137,214918,1,2,0:0:0:0:
242,103,215113,5,4,0:0:0:0:
253,88,215307,1,2,0:0:0:0:
198,253,215503,5,4,0:0:0:0:
153,99,215698,2,0,P|170:127|183:172,1,56,10|0,0:0|0:0,0:0:0:0:
107,209,215892,2,0,P|102:241|83:284,1,56,12|0,0:0|0:0,0:0:0:0:
5,322,216087,1,2,0:0:0:0:
0,306,216185,1,2,0:0:0:0:
75,276,216282,6,0,L|177:289,2,70,4|10|4,0:0|0:0|0:0,0:0:0:0:
186,210,216866,1,2,0:0:0:0:
280,356,217061,2,0,L|161:370,2,112,12|2|4,0:0|0:0|0:0,0:0:0:0:
222,132,217646,1,10,0:0:0:0:
374,276,217840,6,0,L|285:264,1,70,4|2,0:0|0:0,0:0:0:0:
479,154,218230,2,0,L|370:204,1,97.9999970092774,12|2,0:0|0:0,0:0:0:0:
386,0,218620,2,0,L|348:125,1,125.999996154785,4|2,0:0|0:0,0:0:0:0:
264,0,219009,5,12,0:0:0:0:
313,229,219204,1,2,0:0:0:0:
159,158,219399,6,0,P|182:128|257:120,1,112,4|2,0:0|0:0,0:0:0:0:
221,323,219788,2,0,P|206:288|237:219,1,112,12|2,0:0|0:0,0:0:0:0:
507,188,220178,6,0,P|453:192|422:206,1,83.9999974365235,4|2,0:0|0:0,0:0:0:0:
367,132,220568,2,0,P|332:157|307:202,1,83.9999974365235,12|2,0:0|0:0,0:0:0:0:
347,334,220957,5,12,0:0:0:0:
381,340,221152,1,2,0:0:0:0:
364,337,221249,1,2,0:0:0:0:
347,334,221347,1,12,0:0:0:0:
313,218,221542,1,2,0:0:0:0:
341,213,221639,1,2,0:0:0:0:
370,209,221737,5,12,0:0:0:0:
321,99,221931,1,2,0:0:0:0:
320,94,222029,1,2,0:0:0:0:
319,89,222126,1,4,0:0:0:0:
209,80,222321,2,0,L|219:126,1,41.9999987182618,2|0,0:0|0:0,0:0:0:0:
137,277,222516,6,0,L|158:279,1,17.5,4|0,0:0|0:0,0:0:0:0:
146,204,222711,2,0,L|167:206,1,17.5,4|0,0:0|0:0,0:0:0:0:
236,342,222905,5,12,0:2:0:0:
188,346,223003,1,8,0:2:0:0:
141,351,223100,1,8,0:2:0:0:
93,356,223198,1,8,0:2:0:0:
102,273,223295,6,0,L|167:279,1,52.5,4|4,0:0|0:0,0:0:0:0:
289,190,223685,5,12,0:2:0:0:
241,194,223783,1,8,0:2:0:0:
194,199,223880,1,8,0:2:0:0:
146,204,223978,1,8,0:2:0:0:
228,287,224074,6,0,L|225:257,1,17.5,4|0,0:0|0:0,0:0:0:0:
300,281,224269,2,0,L|297:251,1,17.5,4|0,0:0|0:0,0:0:0:0:
367,361,224464,5,12,0:2:0:0:
372,314,224561,1,8,0:2:0:0:
377,266,224659,1,8,0:2:0:0:
382,219,224756,1,8,0:2:0:0:
458,276,224853,6,0,L|446:331,1,52.5,4|4,0:0|0:0,0:0:0:0:
512,196,225243,5,12,0:2:0:0:
465,199,225340,1,8,0:2:0:0:
417,203,225438,1,8,0:2:0:0:
370,207,225535,1,8,0:2:0:0:
415,113,225633,6,0,L|417:140,1,17.5,4|0,0:0|0:0,0:0:0:0:
486,109,225827,2,0,L|488:136,1,17.5,4|0,0:0|0:0,0:0:0:0:
359,189,226022,5,12,0:2:0:0:
312,186,226119,1,8,0:2:0:0:
264,182,226217,1,8,0:2:0:0:
217,178,226314,1,8,0:2:0:0:
266,267,226412,6,0,L|322:260,1,52.5,4|4,0:0|0:0,0:0:0:0:
205,345,226801,5,12,0:2:0:0:
196,298,226899,1,8,0:2:0:0:
188,251,226996,1,8,0:2:0:0:
179,204,227094,1,8,0:2:0:0:
116,288,227191,6,0,L|112:318,1,17.5,4|0,0:0|0:0,0:0:0:0:
101,319,227386,2,0,L|91:225,1,70,4|0,0:0|0:0,0:0:0:0:
55,102,227581,6,0,L|29:108,1,17.5,4|0,0:0|0:0,0:0:0:0:
30,123,227775,2,0,L|131:134,1,87.5,8|0,0:2|0:0,0:0:0:0:
357,221,227970,2,0,L|245:233,1,105.000004005432,8|0,0:2|0:0,0:0:0:0:
119,374,228165,2,0,L|135:230,1,122.500001168251,8|0,0:2|0:0,0:0:0:0:
233,29,228360,5,8,0:2:0:0:
346,76,228457,1,8,0:2:0:0:
198,163,228555,1,8,0:2:0:0:
217,36,228652,1,8,0:2:0:0:
312,193,228749,5,4,0:0:0:0:
154,248,228944,1,4,0:0:0:0:
150,236,229042,1,0,0:0:0:0:
146,224,229139,1,0,0:0:0:0:
57,268,229334,1,4,0:0:0:0:
385,334,229529,5,8,0:2:0:0:
231,312,229724,1,4,0:0:0:0:
231,275,229821,1,4,0:0:0:0:
259,251,229918,1,4,0:0:0:0:
162,144,230113,1,4,0:0:0:0:
190,168,230210,1,4,0:0:0:0:
190,205,230307,5,4,0:0:0:0:
83,216,230503,1,4,0:0:0:0:
39,117,230698,1,0,0:0:0:0:
119,45,230892,1,4,0:0:0:0:
327,49,231087,5,8,0:2:0:0:
226,74,231282,1,4,0:0:0:0:
196,112,231379,1,4,0:0:0:0:
203,154,231477,1,4,0:0:0:0:
232,175,231574,1,2,0:2:0:0:
262,176,231672,1,4,0:0:0:0:
284,186,231769,1,4,0:0:0:0:
293,201,231866,5,4,0:0:0:0:
143,237,232061,1,4,0:0:0:0:
140,224,232159,1,0,0:0:0:0:
137,211,232256,1,0,0:0:0:0:
38,241,232451,1,4,0:0:0:0:
269,107,232646,5,8,0:2:0:0:
144,45,232840,1,4,0:0:0:0:
121,73,232938,1,4,0:0:0:0:
127,108,233035,1,4,0:0:0:0:
56,216,233230,1,4,0:0:0:0:
62,181,233327,1,4,0:0:0:0:
39,153,233425,1,4,0:0:0:0:
39,153,233620,5,4,0:0:0:0:
20,198,233717,1,0,0:0:0:0:
37,243,233814,1,0,0:0:0:0:
84,257,233912,1,0,0:0:0:0:
131,245,234009,1,4,0:0:0:0:
129,233,234107,1,0,0:0:0:0:
200,193,234204,5,8,0:2:0:0:
272,202,234301,1,8,0:2:0:0:
306,260,234399,1,8,0:2:0:0:
298,320,234496,1,8,0:2:0:0:
257,358,234594,1,4,0:3:0:0:
208,355,234691,1,8,0:2:0:0:
180,321,234788,1,8,0:0:0:0:
182,284,234886,1,8,0:0:0:0:
203,262,234983,5,4,0:0:0:0:
356,218,235178,1,4,0:0:0:0:
357,230,235275,1,0,0:0:0:0:
358,242,235373,1,0,0:0:0:0:
456,217,235568,1,4,0:0:0:0:
165,160,235762,5,8,0:2:0:0:
301,80,235957,1,4,0:0:0:0:
326,106,236055,1,4,0:0:0:0:
318,141,236152,1,4,0:0:0:0:
389,240,236347,1,4,0:0:0:0:
381,205,236444,1,4,0:0:0:0:
406,179,236542,5,4,0:0:0:0:
483,267,236737,1,4,0:0:0:0:
423,367,236931,1,0,0:0:0:0:
309,340,237126,1,4,0:0:0:0:
206,175,237321,5,8,0:2:0:0:
356,198,237516,1,4,0:0:0:0:
349,246,237613,1,4,0:0:0:0:
313,269,237711,1,4,0:0:0:0:
276,267,237808,1,2,0:2:0:0:
251,249,237905,1,4,0:0:0:0:
226,246,238003,1,4,0:0:0:0:
210,256,238100,5,4,0:0:0:0:
169,101,238295,1,4,0:0:0:0:
180,98,238392,1,0,0:0:0:0:
192,95,238490,1,0,0:0:0:0:
158,0,238685,1,4,0:0:0:0:
104,304,238879,5,8,0:2:0:0:
69,168,239074,1,4,0:0:0:0:
105,163,239172,1,4,0:0:0:0:
136,181,239269,1,4,0:0:0:0:
256,91,239464,1,4,0:0:0:0:
225,109,239561,1,4,0:0:0:0:
189,104,239659,1,4,0:0:0:0:
189,104,239853,5,4,0:0:0:0:
213,61,239951,1,0,0:0:0:0:
260,50,240048,1,0,0:0:0:0:
305,69,240146,1,0,0:0:0:0:
323,114,240243,1,4,0:0:0:0:
314,125,240340,1,0,0:0:0:0:
376,186,240438,5,8,0:2:0:0:
454,174,240535,1,8,0:2:0:0:
493,111,240633,1,8,0:2:0:0:
490,43,240730,1,4,0:0:0:0:
442,4,240827,1,4,0:0:0:0:
386,8,240925,1,4,0:0:0:0:
357,47,241022,1,8,0:0:0:0:
363,89,241120,1,8,0:0:0:0:
395,106,241217,5,4,0:3:0:0:
276,39,241412,1,2,0:0:0:0:
139,59,241607,2,0,P|119:100|120:138,1,70,4|2,0:3|0:0,0:0:0:0:
244,303,241996,5,4,0:3:0:0:
320,155,242191,1,2,0:0:0:0:
186,180,242386,2,0,P|217:211|249:222,1,70,4|4,0:3|0:3,0:0:0:0:
442,176,242775,5,4,0:3:0:0:
367,56,242970,1,2,0:0:0:0:
229,53,243165,1,4,0:3:0:0:
360,68,243360,1,2,0:0:0:0:
284,207,243555,5,4,0:3:0:0:
291,224,243749,1,2,0:0:0:0:
356,80,243944,2,0,P|346:108|343:163,1,70,2|4,0:0|0:3,0:0:0:0:
469,368,244334,6,0,P|413:309|358:304,1,140,4|0,0:3|0:0,0:0:0:0:
284,207,244724,2,0,P|212:236|187:306,1,140,4|0,0:3|0:0,0:0:0:0:
54,335,245113,6,0,P|56:291|3:252,1,105,4|4,0:3|0:3,0:0:0:0:
0,264,245503,2,0,P|34:352|128:364,1,175,2|4,0:0|0:3,0:0:0:0:
366,160,245892,5,4,0:3:0:0:
22,92,246087,1,4,0:3:0:0:
318,97,246282,6,0,P|290:100|262:110,1,52.5000020027161,4|0,0:0|0:0,0:0:0:0:
69,157,246477,2,0,P|97:160|125:170,1,52.5000020027161,4|0,0:0|0:0,0:0:0:0:
259,339,246672,6,0,P|245:308|236:259,1,70,8|0,0:2|0:0,0:0:0:0:
200,9,246866,2,0,P|192:43|178:74,1,70,8|0,0:2|0:0,0:0:0:0:
105,368,247061,6,0,P|123:240|222:171,1,251.999992309571,12|4,0:2|0:0,0:0:0:0:
347,199,247353,1,4,0:0:0:0:
360,208,247451,2,0,P|365:249|325:288,1,90.9999958343508,6|0,0:0|0:0,0:0:0:0:
43,127,247646,6,0,B|66:122|81:104|81:104|95:111|95:111|103:90|103:90|130:168|214:157,1,224,10|4,0:2|0:0,0:0:0:0:
291,109,247938,1,4,0:0:0:0:
334,284,248035,2,0,P|295:264|299:188,1,112,10|0,0:2|0:0,0:0:0:0:
362,60,248230,6,0,P|398:219|321:268,1,251.999992309571,4|8,0:0|0:2,0:0:0:0:
205,245,248522,1,4,0:0:0:0:
200,230,248619,1,4,0:0:0:0:
92,338,248814,2,0,P|111:283|119:216,1,125.999996154785,10|0,0:2|0:0,0:0:0:0:
90,57,249009,6,0,B|93:8|42:20|21:-13|21:-13|31:22|-3:61|38:84,1,210.000008010865,4|8,0:0|0:2,0:0:0:0:
171,150,249301,2,0,B|211:177|226:127|266:125|266:125|229:116|214:66|173:91,1,210.000008010865,2|0,0:2|0:0,0:0:0:0:
61,171,249594,2,0,B|42:183|51:204|43:219|43:219|52:206|80:201|78:173,1,105.000004005432,10|0,0:2|0:0,0:0:0:0:
90,57,249788,6,0,P|102:181|158:241,1,199.499994672775,4|0,0:0|2:0,0:0:0:0:
163,233,249983,2,0,B|204:226|204:226|211:221|211:221|275:210,1,112,8|0,0:2|0:0,0:0:0:0:
473,92,250178,1,4,0:0:0:0:
413,24,250275,1,4,0:0:0:0:
317,36,250373,2,0,P|286:74|306:140,1,105.000004005432,10|0,0:2|0:0,0:0:0:0:
504,287,250568,6,0,B|497:260|497:260|405:245|405:245|402:257|402:257|382:248|382:248|375:295|332:309,1,238.00000453949,4|8,0:0|0:2,0:0:0:0:
509,120,250957,2,0,B|489:133|485:154|485:154|410:164,1,119.000002269745,4|0,0:0|0:0,0:0:0:0:
270,238,251152,2,0,B|250:225|246:204|246:204|171:194,1,119.000002269745,10|0,0:2|0:0,0:0:0:0:
13,73,251347,6,0,B|20:45|7:22|7:22|24:29|24:29|49:5|49:5|2:91|62:131,1,238.00000453949,4|8,0:0|0:2,0:0:0:0:
231,184,251639,2,0,B|203:248|124:233|137:197|66:189|40:243,1,224,4|4,0:0|0:0,0:0:0:0:
103,359,251931,2,0,P|106:326|123:276,1,70,10|0,0:2|0:0,0:0:0:0:
426,102,252126,6,0,B|466:79|485:186|332:175|339:23,1,210.000008010865,4|8,0:0|0:2,0:0:0:0:
333,193,252516,2,0,B|349:224|264:257|206:113|343:36,1,251.999992309571,4|8,0:0|0:2,0:0:0:0:
495,281,252905,5,4,0:0:0:0:
480,272,253003,1,4,0:0:0:0:
443,338,253100,2,0,P|449:290|457:198,1,125.999996154785,12|0,0:2|0:0,0:0:0:0:
236,328,253295,5,4,0:3:0:0:
375,165,253392,1,4,0:3:0:0:
333,353,253490,2,0,B|325:299|325:299|317:289|317:289|304:187,1,140,12|0,0:2|0:0,0:0:0:0:
236,31,253685,6,0,P|245:59|294:75,1,70,6|0,0:0|0:0,0:0:0:0:
364,12,253879,2,0,B|291:-28|238:46|280:61|224:124|149:88,1,251.999992309571,10|4,0:2|0:0,0:0:0:0:
100,21,254172,1,0,0:0:0:0:
63,209,254269,2,0,P|39:169|73:94,1,125.999996154785,10|0,0:2|0:0,0:0:0:0:
302,209,254464,6,0,P|165:216|105:311,1,251.999992309571,4|8,0:0|0:2,0:0:0:0:
153,384,254756,1,4,0:0:0:0:
168,375,254853,1,4,0:0:0:0:
343,331,255048,2,0,P|286:333|226:278,1,125.999996154785,10|0,0:2|0:0,0:0:0:0:
170,46,255243,6,0,B|208:45|225:4|225:4|234:6|234:6|249:-5|249:-5|201:51|210:133,1,238.00000453949,4|8,0:0|0:2,0:0:0:0:
280,216,255535,2,0,B|323:186|378:196|378:196|361:190|361:190|376:176|376:176|324:185|284:146,1,238.00000453949,4|4,0:0|0:0,0:0:0:0:
113,218,255827,2,0,B|124:228|124:228|110:242|110:242|142:210|206:207,1,119.000002269745,10|0,0:2|0:0,0:0:0:0:
453,286,256022,6,0,B|397:302|377:376|377:376|376:358|376:358|362:358|362:358|385:319|368:279,1,238.00000453949,4|8,0:0|0:2,0:0:0:0:
329,190,256314,1,4,0:0:0:0:
317,181,256412,2,0,P|275:202|281:284,1,97.9999970092774,4|4,0:0|0:0,0:0:0:0:
234,380,256607,2,0,P|187:342|182:291,1,97.9999970092774,10|0,0:2|0:0,0:0:0:0:
209,91,256801,6,0,B|207:-38|54:26|150:124,1,224,4|8,0:0|0:2,0:0:0:0:
392,127,257191,2,0,P|344:106|267:151,1,112,4|0,0:0|0:0,0:0:0:0:
52,272,257386,2,0,P|76:225|165:213,1,112,10|0,0:2|0:0,0:0:0:0:
344,308,257581,6,0,P|334:255|288:205,1,112,4|0,0:0|0:0,0:0:0:0:
202,271,257775,2,0,P|220:323|212:377,1,112,10|4,0:2|0:0,0:0:0:0:
51,382,257970,5,4,0:0:0:0:
4,304,258068,1,4,0:0:0:0:
24,228,258165,1,10,0:2:0:0:
82,195,258262,1,2,0:2:0:0:
135,211,258360,6,0,B|161:250|250:217|236:137|186:71|90:87,2,265.999992897034,4|8|4,0:0|0:2|0:0,0:0:0:0:
0,57,258944,2,0,P|23:102|39:168,1,112,10|4,0:2|0:0,0:0:0:0:
44,384,259139,1,6,0:0:0:0:
44,384,259334,2,0,P|50:336|85:267,1,112,8|8,0:2|0:2,0:0:0:0:
293,145,259529,5,10,0:2:0:0:
355,190,259626,1,8,0:2:0:0:
350,275,259724,1,8,0:2:0:0:
281,330,259821,1,8,0:2:0:0:
189,305,259918,6,0,B|175:291|172:275|172:275|204:193|204:193|167:174|157:140,1,188.999994232178,6|0,0:0|2:0,0:0:0:0:
168,139,260113,2,0,P|223:186|288:184,1,119.000002269745,10|0,0:2|0:0,0:0:0:0:
443,82,260308,2,0,P|374:106|344:163,1,119.000002269745,6|0,0:0|0:0,0:0:0:0:
354,348,260503,2,0,P|367:276|332:221,1,119.000002269745,10|0,0:2|0:0,0:0:0:0:
96,196,260698,5,6,0:0:0:0:
92,243,260795,1,2,0:2:0:0:
136,225,260892,1,10,0:2:0:0:
36,145,260990,5,4,0:0:0:0:
0,324,261087,2,0,B|14:328|23:347|23:347|31:345|31:345|41:351|41:351|22:319|30:289,1,119.000002269745,6|4,0:0|0:0,0:0:0:0:
248,219,261282,2,0,B|233:223|224:242|224:242|216:240|216:240|206:246|206:246|225:214|217:184,1,119.000002269745,8|0,0:2|0:0,0:0:0:0:
15,3,261477,6,0,P|89:13|134:61,1,119.000002269745,6|0,0:0|0:0,0:0:0:0:
55,113,261672,2,0,P|105:168|108:233,1,119.000002269745,10|0,0:2|0:0,0:0:0:0:
288,366,261866,6,0,P|295:318|331:255,1,119.000002269745,6|0,0:0|0:0,0:0:0:0:
183,331,262061,2,0,P|190:283|226:220,1,119.000002269745,10|0,0:2|0:0,0:0:0:0:
488,142,262256,6,0,P|457:196|379:193,1,119.000002269745,6|0,0:0|0:0,0:0:0:0:
165,137,262451,1,10,0:2:0:0:
248,0,262548,1,4,0:0:0:0:
288,174,262646,2,0,B|255:172|237:166|237:166|232:168|232:168|155:156,1,119.000002269745,6|4,0:0|0:0,0:0:0:0:
19,62,262840,2,0,B|52:60|70:54|70:54|75:56|75:56|152:44,1,119.000002269745,8|0,0:2|0:0,0:0:0:0:
396,52,263035,6,0,B|351:33|304:78|333:87|298:136|246:119,1,178.500003404617,6|0,0:0|2:0,0:0:0:0:
243,108,263230,2,0,P|209:63|229:2,1,119.000002269745,10|0,0:2|0:0,0:0:0:0:
508,158,263425,6,0,P|494:207|453:268,1,119.000002269745,6|0,0:0|0:0,0:0:0:0:
424,135,263620,2,0,P|410:184|369:245,1,119.000002269745,10|0,0:2|0:0,0:0:0:0:
163,333,263814,6,0,P|225:305|294:303,1,119.000002269745,6|0,0:0|0:0,0:0:0:0:
147,198,264009,2,0,P|214:192|280:214,1,119.000002269745,10|4,0:2|0:0,0:0:0:0:
410,346,264204,6,0,P|367:322|357:256,1,119.000002269745,6|4,0:0|0:0,0:0:0:0:
281,199,264399,2,0,P|280:149|332:108,1,119.000002269745,10|0,0:2|0:0,0:0:0:0:
503,163,264594,6,0,P|441:156|375:192,1,119.000002269745,6|0,0:0|0:0,0:0:0:0:
257,328,264788,2,0,P|314:315|357:275,1,119.000002269745,10|0,0:2|0:0,0:0:0:0:
452,15,264983,6,0,P|394:39|355:104,1,119.000002269745,6|0,0:0|0:0,0:0:0:0:
154,315,265178,2,0,P|191:264|192:189,1,119.000002269745,10|0,2:2|2:0,0:0:0:0:
175,62,265373,5,6,0:0:0:0:
292,193,265470,2,0,P|226:101|99:126,1,238.00000453949,8|4,0:2|0:0,0:0:0:0:
29,265,265762,5,10,0:2:0:0:
89,303,265860,1,8,0:2:0:0:
170,286,265957,1,8,0:2:0:0:
214,201,266055,1,8,0:2:0:0:
178,92,266152,6,0,P|92:118|106:206,1,178.500003404617,6|0,0:0|2:0,0:0:0:0:
111,203,266347,2,0,B|157:194|157:194|162:196|162:196|184:187|234:188,1,119.000002269745,8|0,0:2|0:0,0:0:0:0:
402,331,266542,6,0,B|392:280|434:242|448:271|499:232|488:179,1,188.999994232178,6|0,0:0|2:0,0:0:0:0:
474,176,266737,2,0,B|472:152|466:134|466:134|470:128|470:128|468:110|460:49,1,125.999996154785,8|0,0:2|0:0,0:0:0:0:
173,104,266931,6,0,B|151:120|115:118|115:118|166:157|190:130|232:184|232:184|280:137|314:164|350:138|350:138|321:132|305:112,1,377.999988464356,6|0,0:0|0:0,0:0:0:0:
277,1,267321,2,0,B|269:19|269:19|280:53|280:53|283:83|295:140,1,125.999996154785,6|0,0:0|0:0,0:0:0:0:
397,215,267516,2,0,B|381:227|381:227|376:263|376:263|366:291|352:347,1,125.999996154785,10|0,0:2|0:0,0:0:0:0:
112,301,267711,6,0,P|126:258|220:254,1,125.999996154785,6|0,0:0|0:0,0:0:0:0:
273,297,267905,1,10,0:2:0:0:
272,314,268003,1,0,0:2:0:0:
102,377,268100,6,0,P|85:318|109:249,1,125.999996154785,6|0,0:0|0:0,0:0:0:0:
380,155,268295,2,0,P|337:199|265:212,1,125.999996154785,10|0,0:2|0:0,0:0:0:0:
49,26,268490,2,0,P|108:40|156:96,1,125.999996154785,6|0,0:0|0:0,0:0:0:0:
198,255,268685,5,8,0:2:0:0:
190,273,268782,1,4,0:0:0:0:
78,160,268879,2,0,L|219:178,1,125.999996154785,6|4,0:0|0:0,0:0:0:0:
397,281,269074,2,0,L|256:299,1,125.999996154785,10|0,0:2|0:0,0:0:0:0:
269,115,269269,6,0,B|280:96|272:53|272:53|290:94|319:108,1,125.999996154785,6|0,0:0|0:0,0:0:0:0:
414,195,269464,2,0,B|403:176|411:133|411:133|393:174|364:188,1,125.999996154785,10|0,0:2|0:0,0:0:0:0:
182,224,269659,6,0,B|177:207|157:193|157:193|165:191|165:191|192:212|232:228,1,125.999996154785,6|0,0:0|0:0,0:0:0:0:
343,337,269853,2,0,B|352:322|375:315|375:315|368:310|368:310|336:322|293:325,1,125.999996154785,10|0,0:2|0:0,0:0:0:0:
81,346,270048,6,0,B|83:354|95:360|95:360|103:358|103:358|109:369|109:369|96:327|106:283,1,125.999996154785,6|0,0:0|0:0,0:0:0:0:
157,84,270243,1,10,0:2:0:0:
171,214,270340,1,4,0:3:0:0:
51,158,270438,2,0,B|38:133|2:120|2:120|38:133|72:124,1,125.999996154785,6|4,0:0|0:3,0:0:0:0:
290,174,270633,2,0,B|302:198|338:211|338:211|302:198|268:207,1,125.999996154785,10|0,0:2|0:0,0:0:0:0:
187,12,270827,5,6,0:0:0:0:
205,15,271022,1,0,0:0:0:0:
162,347,271217,5,6,0:0:0:0:
146,350,271412,1,0,0:0:0:0:
287,101,271607,5,4,0:0:0:0:
328,260,271704,2,0,P|267:126|170:124,1,251.999992309571,8|4,0:2|0:0,0:0:0:0:
92,214,271996,5,8,0:2:0:0:
153,259,272094,1,8,0:2:0:0:
238,239,272191,1,8,0:2:0:0:
287,151,272288,1,8,0:2:0:0:
261,45,272386,6,0,P|210:64|212:136,1,97.9999970092774,4|0,0:0|0:0,0:0:0:0:
89,117,272581,2,0,P|79:170|143:204,1,97.9999970092774,8|0,0:2|0:0,0:0:0:0:
376,198,272775,6,0,P|331:192|271:160,1,97.9999970092774,4|0,0:0|0:0,0:0:0:0:
179,94,272970,2,0,P|195:135|198:203,1,97.9999970092774,8|0,0:2|0:0,0:0:0:0:
123,368,273165,2,0,P|178:288|272:252,2,195.999994018555,4|8|4,3:0|3:2|3:0,3:3:0:0:
423,329,273749,6,0,P|372:326|321:287,1,97.9999970092774,8|0,0:2|0:0,0:0:0:0:
273,166,273944,2,0,L|287:86,1,56,4|0,0:0|0:0,0:0:0:0:
502,226,274139,6,0,P|456:248|392:240,1,97.9999970092774,8|0,0:2|0:0,0:0:0:0:
202,142,274334,2,0,L|216:62,1,56,4|0,0:0|0:0,0:0:0:0:
296,376,274529,6,0,P|253:347|228:288,1,97.9999970092774,8|0,0:2|0:0,0:0:0:0:
360,102,274724,2,0,L|336:236,1,112,4|0,0:0|0:0,0:0:0:0:
139,300,274918,2,0,L|115:165,1,97.9999970092774,8|4,0:2|0:0,0:0:0:0:
291,60,275113,2,0,L|262:221,1,154.000004699707,4|8,0:0|0:2,0:0:0:0:
13,94,275503,6,0,P|48:100|75:136,1,77.0000023498536,4|0,0:0|0:0,0:0:0:0:
188,128,275698,2,0,P|157:147|146:191,1,77.0000023498536,8|0,0:2|0:0,0:0:0:0:
191,350,275892,5,4,0:0:0:0:
231,325,275990,1,2,0:2:0:0:
153,267,276087,1,10,0:2:0:0:
145,289,276185,1,2,0:2:0:0:
69,313,276282,6,0,P|54:278|44:223,1,77.0000023498536,4|0,0:0|0:0,0:0:0:0:
90,58,276477,2,0,P|132:74|144:115,1,77.0000023498536,8|4,0:2|0:0,0:0:0:0:
134,197,276672,5,4,0:0:0:0:
119,184,276769,1,4,0:0:0:0:
216,211,276866,1,10,0:2:0:0:
234,204,276964,2,0,L|148:188,1,77.0000023498536,2|4,0:2|0:0,0:0:0:0:
444,84,277256,6,0,P|407:82|371:118,1,77.0000023498536,8|0,0:2|0:0,0:0:0:0:
374,295,277451,2,0,B|400:256|354:199|341:224|295:194|307:142,1,181.999991668702,4|8,0:0|0:2,0:0:0:0:
330,16,277743,1,2,0:2:0:0:
321,7,277840,2,0,P|283:22|271:71,1,90.9999958343508,4|0,0:0|0:0,0:0:0:0:
467,215,278035,6,0,B|456:219|456:219|407:202|333:196,1,105.000004005432,12|0,0:2|0:0,0:0:0:0:
153,213,278230,1,6,0:3:0:0:
259,248,278327,1,4,0:3:0:0:
118,105,278425,2,0,B|107:101|107:101|58:118|-16:124,1,105.000004005432,12|0,0:2|0:0,0:0:0:0:
105,373,278620,5,4,0:0:0:0:
105,373,278814,2,0,P|154:370|173:325,1,83.9999974365235,8|0,0:2|0:0,0:0:0:0:
159,175,279009,2,0,P|81:235|93:298,1,167.999994873047,4|8,0:0|0:2,0:0:0:0:
185,361,279301,1,0,0:0:0:0:
201,356,279399,1,4,0:0:0:0:
306,384,279594,6,0,P|312:338|328:286,1,90.9999958343508,10|0,0:2|0:0,0:0:0:0:
456,170,279788,2,0,B|440:186|442:216|442:216|427:189|393:184,1,101.500003097534,4|0,0:0|0:0,0:0:0:0:
301,188,279983,1,10,0:2:0:0:
297,169,280081,1,2,0:2:0:0:
395,61,280178,6,0,P|310:147|203:121,1,224,4|8,0:0|0:2,0:0:0:0:
118,70,280438,1,2,0:2:0:0:
117,62,280503,1,2,0:2:0:0:
116,54,280568,2,0,B|147:71|147:71|130:174,1,112,4|2,0:0|0:2,0:0:0:0:
206,309,280762,2,0,B|175:292|175:292|192:189,1,112,10|2,0:2|0:2,0:0:0:0:
404,87,280957,6,0,P|472:82|493:188,1,178.500003404617,4|0,0:0|2:0,0:0:0:0:
489,191,281152,2,0,B|453:193|453:193|448:198|448:198|416:197|367:204,1,105.000004005432,10|0,0:2|0:0,0:0:0:0:
206,309,281347,5,4,0:0:0:0:
388,356,281444,1,2,0:2:0:0:
302,329,281542,5,10,0:2:0:0:
297,345,281639,1,2,0:2:0:0:
366,266,281737,6,0,B|383:204|328:159|300:205|248:157|262:107,2,210.000008010865,4|8|4,0:0|0:2|0:0,0:0:0:0:
459,39,282321,2,0,P|408:48|382:116,1,105.000004005432,10|0,0:2|0:0,0:0:0:0:
472,259,282516,2,0,P|489:210|443:153,1,105.000004005432,4|0,0:0|0:0,0:0:0:0:
275,122,282711,2,0,P|382:115|449:196,1,210.000008010865,10|4,0:2|0:0,0:0:0:0:
174,322,283100,2,0,P|167:269|143:208,1,105.000004005432,10|0,0:2|0:0,0:0:0:0:
57,38,283295,5,4,0:0:0:0:
31,225,283392,1,2,0:2:0:0:
62,127,283490,5,10,0:2:0:0:
33,131,283587,1,2,0:2:0:0:
111,198,283685,6,0,P|162:191|218:169,1,105.000004005432,4|0,0:0|0:0,0:0:0:0:
378,4,283879,1,8,0:2:0:0:
189,45,283977,1,2,0:2:0:0:
282,34,284074,5,4,0:0:0:0:
282,12,284172,1,2,0:2:0:0:
244,104,284269,6,0,P|298:113|357:140,1,105.000004005432,10|0,0:2|0:0,0:0:0:0:
418,283,284464,1,4,0:0:0:0:
314,254,284561,1,2,0:2:0:0:
484,194,284659,2,0,L|488:154,2,35,10|0|2,0:2|0:0|0:2,0:0:0:0:
463,212,284853,6,2,B|448:211|448:211|407:181|356:211|356:211|356:220|356:220|319:243|322:294|322:294|317:289|317:289|260:275,1,251.999992309571,6|8,0:0|0:2,0:2:0:0:
156,225,285146,2,2,B|164:209|164:209|142:174|150:148|150:148|141:141|141:141|170:133|188:101|188:101|193:112|193:112|209:109|209:109|207:160|232:169,1,251.999992309571,2|0,0:2|0:0,0:2:0:0:
94,295,285438,2,2,B|71:285|51:294|51:294|42:287|42:287|28:290|28:290|60:274|69:242,1,125.999996154785,10|0,0:2|0:0,0:2:0:0:
332,120,285633,6,2,B|306:114|281:132|281:132|209:100|209:100|219:96|219:96|151:72|151:72|126:89|93:82,2,265.999992897034,4|8|4,0:0|0:2|0:0,0:2:0:0:
24,217,286217,2,2,B|39:200|44:185|44:185|86:179|86:179|95:180|95:180|159:165,1,132.999996448517,10|0,0:2|0:0,0:2:0:0:
447,212,286412,6,2,B|466:250|519:263|519:263|482:288|468:335|468:335|449:295|394:283,1,265.999992897034,4|8,0:0|0:2,0:2:0:0:
228,204,286704,2,2,B|208:236|181:254|181:254|189:259|189:259|235:217|304:232|304:232|312:240|312:240|384:199,1,265.999992897034,2|0,0:2|0:0,0:2:0:0:
461,94,286996,2,2,B|447:80|447:80|433:121|406:142|406:142|444:121,1,132.999996448517,10|0,0:2|0:0,0:2:0:0:
139,100,287191,6,2,B|107:93|107:93|152:88|180:57|180:57|178:66|178:66|235:60|267:98|267:98|314:89,1,265.999992897034,4|8,0:0|0:2,0:2:0:0:
375,18,287483,1,4,0:0:0:0:
310,105,287581,2,2,B|234:119|234:119|264:124|279:149,1,132.999996448517,4|4,0:0|0:0,0:2:0:0:
426,246,287775,2,2,B|445:224|475:225|475:225|403:196,1,132.999996448517,10|0,0:2|0:0,0:2:0:0:
99,266,287970,6,2,B|78:231|43:227|43:227|62:221|62:221|53:210|53:210|96:238|155:218|137:201|183:185|241:226|241:226|239:236|239:236|248:241|248:241|208:260|204:300,1,398.999989345551,4|0,0:0|0:0,0:2:0:0:
315,381,288360,2,2,B|325:353|325:353|321:347|321:347|339:294|339:294|336:290|336:290|340:227,1,132.999996448517,4|0,0:0|0:0,0:2:0:0:
290,104,288555,2,2,B|292:71|281:48|281:48|289:52|289:52|291:34|291:34|294:59|309:78,1,132.999996448517,10|0,0:2|0:0,0:2:0:0:
204,297,288749,6,2,B|199:275|153:273|153:273|167:269|167:269|165:256|165:256|207:278|260:256,1,177.333328598023,4|0,0:0|0:0,0:2:0:0:
250,244,288944,2,2,B|272:213|268:180|268:180|259:189|259:189|249:186|249:186|245:200|203:235,1,132.999996448517,10|0,0:2|0:0,0:2:0:0:
85,343,289139,1,4,0:0:0:0:
82,120,289334,6,2,B|47:82|59:21|59:21|52:43|52:43|35:49|35:49|56:91|36:135|23:124|12:176|58:209|58:209|106:205|134:247,1,398.999989345551,10|0,0:2|0:0,0:2:0:0:
215,367,289724,2,2,B|216:339|195:317|195:317|203:312|203:312|210:244|228:176|228:176|238:168|238:168|223:152|215:119,1,265.999992897034,10|4,0:2|0:0,0:2:0:0:
342,214,290016,2,2,B|339:228|339:228|309:260|309:260|298:261|298:261|325:277|329:314,1,132.999996448517,2|8,0:2|0:2,0:2:0:0:
422,37,290308,6,2,B|454:34|458:-3|458:-3|451:8|451:8|439:8|439:8|483:50|426:99|371:53|389:49|369:15|316:30,1,265.999992897034,4|2,0:0|0:2,0:2:0:0:
230,110,290600,1,4,0:3:0:0:
181,40,290698,2,2,P|206:83|216:153,1,90.9999958343508,8|8,0:2|0:2,0:2:0:0:
108,334,290892,1,8,0:2:0:0:
60,168,290990,1,8,0:2:0:0:
129,217,291087,1,4,0:3:0:0:
319,119,291282,5,8,0:2:0:0:
282,0,291379,1,2,0:2:0:0:
305,129,291477,2,2,B|307:143|316:156|316:156|307:161|307:161|298:203|298:203|300:212|300:212|275:269,1,132.999996448517,4|0,0:0|0:0,0:2:0:0:
12,351,291672,5,10,0:2:0:0:
145,319,291769,1,2,0:2:0:0:
21,367,291866,2,2,B|31:360|40:358|40:358|36:348|36:348|49:318|41:286|41:286|46:281|46:281|55:242,1,132.999996448517,4|0,0:0|0:0,0:2:0:0:
44,18,292061,6,2,B|33:26|33:26|48:33|58:54|58:54|64:44|64:44|69:64|69:64|63:38|79:11,1,132.999996448517,10|0,0:2|0:0,0:2:0:0:
214,87,292256,2,2,B|225:95|225:95|210:102|200:123|200:123|194:113|194:113|189:133|189:133|195:107|179:80,1,132.999996448517,4|2,0:3|0:2,0:2:0:0:
38,165,292451,2,2,B|8:167|8:167|34:151|53:163|53:163|59:152|59:152|79:156|98:145,1,132.999996448517,10|0,0:2|0:0,0:2:0:0:
339,208,292646,6,2,B|363:199|349:171|349:171|351:152|351:152|338:180|338:180|335:169|335:169|309:217|247:212,1,199.499994672775,4|0,0:0|0:0,0:2:0:0:
253,231,292840,2,2,B|244:241|244:241|190:196|126:227,1,132.999996448517,10|0,0:2|0:0,0:2:0:0:
40,344,293035,2,2,B|52:356|52:356|62:327|35:307|30:319|2:291|10:256,1,132.999996448517,4|0,0:0|0:0,0:2:0:0:
30,61,293230,1,10,0:2:0:0:
99,145,293327,1,0,0:0:0:0:
88,132,293425,2,2,B|85:124|85:124|114:110|125:84|125:84|129:90|129:90|155:77|196:89,1,132.999996448517,4|0,0:0|0:0,0:2:0:0:
397,114,293620,6,2,B|398:84|410:69|410:69|402:80|402:80|394:74|394:74|390:110|360:130|356:115|327:140|334:184,1,199.499994672775,10|2,0:2|0:2,0:2:0:0:
322,194,293814,2,2,B|334:204|334:204|331:235|347:269|347:269|340:278|340:278|336:262|336:262|310:247,1,132.999996448517,4|0,0:0|0:0,0:2:0:0:
132,224,294009,2,2,B|124:226|124:226|112:241|99:250|99:250|132:251|156:224|156:224|196:217,1,132.999996448517,10|0,0:2|0:0,0:2:0:0:
436,260,294204,6,2,B|450:284|490:292|490:292|475:298|475:298|471:310|471:310|445:280|407:277|407:277|394:289|374:293,1,199.499994672775,4|0,0:0|0:0,0:2:0:0:
371,307,294399,2,2,B|330:308|310:274|310:274|308:283|308:283|276:279|258:295,1,132.999996448517,10|0,0:2|0:0,0:2:0:0:
74,292,294594,6,2,B|91:311|93:336|93:336|97:325|97:325|106:320|106:320|86:294|94:261,1,132.999996448517,4|0,0:3|0:3,0:2:0:0:
161,164,294788,2,2,B|178:145|180:120|180:120|184:131|184:131|193:136|193:136|173:162|181:195,1,132.999996448517,10|2,0:2|0:2,0:2:0:0:
2,241,294983,6,2,B|15:245|15:245|38:229|84:223|84:223|86:218|86:218|125:230|169:230|169:230|171:237|171:237|211:219|267:213,1,265.999992897034,4|10,0:0|0:2,0:2:0:0:
399,250,295275,1,2,0:2:0:0:
301,340,295373,2,2,B|296:347|296:347|305:343|305:343|304:368|304:368|323:343|313:323|304:329|298:301|319:266,1,132.999996448517,4|0,0:0|0:0,0:2:0:0:
357,31,295568,1,10,0:2:0:0:
348,16,295665,2,2,B|342:30|342:30|332:23|332:23|356:58|343:94|343:94|347:108|347:108|340:111|340:111|358:140,1,132.999996448517,2|4,0:2|0:0,0:2:0:0:
310,282,295860,5,2,0:2:0:0:
243,204,295957,2,2,B|250:173|240:148|240:148|248:152|248:152|255:147|255:147|256:177|281:202,1,132.999996448517,10|0,0:2|0:0,0:2:0:0:
408,354,296152,2,2,B|411:339|411:339|424:342|424:342|398:314|390:269|390:269|395:266|395:266|402:228,1,132.999996448517,4|0,0:0|0:0,0:2:0:0:
431,109,296347,2,2,B|447:96|452:50|452:50|457:67|457:67|467:64|467:64|443:74|437:95,1,132.999996448517,10|0,0:2|0:0,0:2:0:0:
310,282,296542,6,2,B|312:265|312:265|301:265|301:265|299:216|330:197|334:205|372:179|359:122|359:122|349:126|349:126|348:108|348:108|302:108|289:61,1,280,4|10,0:0|0:2,0:2:0:0:
243,0,296834,1,2,0:2:0:0:
104,79,296931,6,2,B|110:98|77:123|77:123|90:120|90:120|81:142|81:142|132:102|188:104|188:104|177:98|177:98|183:92|183:92|147:90|137:66,1,280,4|0,0:0|0:0,0:2:0:0:
56,286,297516,6,0,L|62:318,1,20.9999993591309,4|0,0:0|0:0,0:0:0:0:
168,361,297711,5,4,0:3:0:0:
178,357,297775,2,0,P|180:335|169:319,7,37.3333333333333,2|0|4|0|0|0|0|0,0:0|0:0|0:3|0:0|0:0|0:3|0:0|0:0,0:0:0:0:
279,313,298295,1,4,0:3:0:0:
283,295,298360,2,0,P|260:278|235:280,7,51.3333348999024,2|0|4|0|0|2|0|0,0:0|0:0|0:3|0:0|0:0|0:0|0:0|0:0,0:0:0:0:
280,193,298879,5,4,0:3:0:0:
271,169,298944,2,0,P|237:178|220:203,7,65.3333313395183,2|0|4|0|0|2|0|0,0:0|0:0|0:3|0:0|0:0|0:0|0:0|0:0,0:0:0:0:
188,118,299464,2,0,P|156:114|133:91,2,65.3333313395183,4|2|0,0:3|0:0|0:0,0:0:0:0:
116,240,299659,5,4,0:3:0:0:
135,250,299724,2,0,P|143:216|130:189,1,65.3333313395183,2|0,0:0|0:0,0:0:0:0:
52,187,299853,1,6,0:3:0:0:
57,172,299918,2,0,P|28:152|-1:154,4,65.3333313395183,2|0|6|0|0,0:0|0:0|0:3|0:0|0:0,0:0:0:0:
104,53,300243,2,0,P|101:88|117:113,2,65.3333313395183,2|2|0,0:0|0:0|0:0,0:0:0:0:
205,158,300438,5,4,0:3:0:0:
198,140,300503,2,0,P|226:119|256:122,1,65.3333313395183,2|0,0:0|0:0,0:0:0:0:
293,50,300633,1,4,0:3:0:0:
307,37,300698,2,0,P|338:51|351:78,4,65.3333313395183,2|0|2|0|0,0:0|0:0|0:0|0:0|0:0,0:0:0:0:
369,77,301022,1,4,0:3:0:0:
448,270,301217,5,8,0:3:0:0:
433,274,301282,2,0,B|427:290|427:290|440:322|440:322|429:346,4,65.3333313395183,2|0|0|0|0,0:0|0:0|0:0|0:0|0:0,0:0:0:0:
368,236,301607,2,0,B|353:235|353:235|331:254|331:254|309:251,5,55.9999982910157,4|0|0|0|0|0,0:3|0:0|0:0|0:0|0:0|0:0,0:0:0:0:
384,162,301996,2,0,B|380:150|380:150|359:137|359:137|356:119,5,46.6666666666667,4|0|0|0|0|0,0:3|0:0|0:0|0:0|0:0|0:0,0:0:0:0:
459,154,302386,2,0,B|466:148|466:148|470:130|470:130|483:123,5,37.3333333333333,4|0|0|0|0|0,0:3|0:0|0:0|0:0|0:0|0:0,0:0:0:0:
412,41,302775,6,0,B|417:48|417:48|412:66|412:66|415:75,2,37.3333333333333,4|0|0,0:3|0:0|0:0,0:0:0:0:
329,28,302970,2,0,B|336:22|336:22|341:4|341:4|353:-2,2,37.3333333333333,6|0|0,0:3|0:0|0:0,0:0:0:0:
290,93,303165,2,0,B|280:89|270:90|270:90|265:80|254:78|254:78|251:88|236:83|236:83|224:78|224:78|205:70|204:77|204:77|198:86|198:86|186:88|186:88|182:77|169:82|169:82|155:77|147:84|147:84|141:78|110:64,1,168,6|0,0:3|0:0,0:0:0:0:
43,226,303555,6,0,P|53:243|59:258,1,35,4|0,0:2|0:0,0:0:0:0:
68,333,304139,6,0,P|72:283|103:235,1,105.000004005432,6|0,0:3|0:0,0:0:0:0:
196,270,304334,2,0,P|241:248|298:251,1,105.000004005432,6|0,0:3|0:0,0:0:0:0:
475,336,304529,5,8,0:2:0:0:
413,316,304626,1,8,0:2:0:0:
389,246,304724,1,8,0:2:0:0:
428,172,304821,1,8,0:2:0:0:
413,84,304918,1,8,0:2:0:0:
326,44,305016,1,8,0:2:0:0:
225,93,305113,6,0,P|221:130|262:171,1,90.9999958343508,6|0,0:0|0:0,0:0:0:0:
382,231,305308,2,0,B|358:228|344:217|344:217|283:233|266:273|266:273|252:276|252:276|248:288|248:288|229:264|198:256,1,224,10|4,0:2|0:0,0:0:0:0:
111,271,305600,1,0,0:0:0:0:
91,100,305698,2,0,P|126:118|135:199,1,112,10|0,0:2|0:0,0:0:0:0:
49,327,305892,6,0,P|17:188|92:117,1,251.999992309571,4|8,0:0|0:2,0:0:0:0:
219,115,306185,1,4,0:0:0:0:
226,130,306282,1,4,0:0:0:0:
309,76,306477,2,0,B|354:40|317:-6|275:27|297:88,1,125.999996154785,10|0,0:2|0:0,0:0:0:0:
243,220,306672,6,0,B|237:264|268:281|267:266|300:275|316:311|316:311|321:225|265:203,1,251.999992309571,4|8,0:0|0:2,0:0:0:0:
151,166,306964,2,0,B|115:139|85:157|97:164|74:188|35:183|35:183|106:231|154:193,1,251.999992309571,2|0,0:2|0:0,0:0:0:0:
239,112,307256,2,0,B|259:102|248:79|260:57|260:57|221:76|226:106,1,125.999996154785,10|0,0:2|0:0,0:0:0:0:
185,304,307451,6,0,P|189:207|107:116,1,199.499994672775,4|0,0:0|2:0,0:0:0:0:
109,128,307646,1,8,0:2:0:0:
40,267,307743,1,0,0:0:0:0:
6,182,307840,1,4,0:0:0:0:
6,182,308035,2,0,P|53:205|52:270,1,112,10|0,0:2|0:0,0:0:0:0:
0,350,308230,6,0,B|4:306|46:275|104:289|89:310|153:332|187:289,1,224,4|8,0:0|0:2,0:0:0:0:
247,33,308620,2,0,B|258:-10|204:-32|191:21|237:45,1,112,4|0,0:0|0:0,0:0:0:0:
313,156,308814,2,0,P|283:126|209:121,1,112,10|0,0:2|0:0,0:0:0:0:
84,218,309009,6,0,B|142:245|195:182|153:169|210:106|269:134,1,224,4|8,0:0|0:2,0:0:0:0:
316,290,309301,2,0,P|193:273|191:189,1,224,4|4,0:0|0:0,0:0:0:0:
267,116,309594,1,10,0:2:0:0:
485,278,309788,6,0,B|456:297|452:344|452:344|449:324|449:324|439:315|439:315|463:279|452:224,1,195.999994018555,4|8,0:0|0:2,0:0:0:0:
240,235,310178,2,0,B|253:242|261:266|261:266|264:249|264:249|281:244|281:244|296:189|226:174|246:105,1,224,4|8,0:0|0:2,0:0:0:0:
110,300,310568,5,4,0:0:0:0:
96,308,310665,1,4,0:0:0:0:
45,235,310762,2,0,P|73:277|81:359,1,112,12|0,0:2|0:0,0:0:0:0:
261,121,310957,5,4,0:3:0:0:
109,173,311055,1,4,0:3:0:0:
353,239,311152,2,0,B|376:218|373:182|358:186|355:155|371:130,1,112,12|0,0:2|0:0,0:0:0:0:
103,42,311347,6,0,P|157:57|177:108,1,105.000004005432,6|0,0:0|0:0,0:0:0:0:
150,262,311542,2,0,P|175:130|281:109,1,251.999992309571,10|4,0:2|0:0,0:0:0:0:
352,156,311834,1,0,0:0:0:0:
441,0,311931,2,0,P|369:22|359:74,1,125.999996154785,10|0,0:2|0:0,0:0:0:0:
426,382,312126,6,0,B|470:337|461:215|324:186|355:273|220:205|255:117,1,377.999988464356,4|4,0:0|0:0,0:0:0:0:
374,71,312516,5,8,0:2:0:0:
366,252,312613,1,8,0:2:0:0:
103,154,312711,2,0,B|129:150|155:140|155:140|165:144|165:144|262:137,1,140,10|0,0:2|0:0,0:0:0:0:
510,171,312905,6,0,B|497:243|423:264|349:233|392:188|319:179|279:194|259:244,1,308.000009399414,6|0,0:0|0:2,0:0:0:0:
92,318,313198,2,0,B|32:349|102:467|220:362|202:270|139:230,1,280,6|4,0:0|0:0,0:0:0:0:
60,204,313490,2,0,B|12:180|-68:233|45:293|49:215,1,154.000004699707,6|0,0:3|0:0,0:0:0:0:
180,122,313685,5,6,0:0:0:0:
180,122,313879,1,8,0:2:0:0:
223,104,313977,1,8,0:2:0:0:
279,127,314074,1,10,0:2:0:0:
311,195,314172,1,8,0:2:0:0:
389,198,314269,2,0,P|412:167|420:118,1,77.0000023498536,10|0,0:2|0:0,0:0:0:0:
378,6,314464,6,0,B|345:39|355:96|418:135|430:87|487:110|505:179|471:223,1,280,4|8,0:0|0:2,0:0:0:0:
180,136,314853,6,0,P|183:106|253:70,1,112,4|0,0:0|0:0,0:0:0:0:
303,182,315048,2,0,P|276:236|263:311,1,125.999996154785,10|0,0:2|0:0,0:0:0:0:
437,289,315243,6,0,P|432:237|375:205,1,112,4|0,0:0|0:0,0:0:0:0:
283,188,315438,2,0,P|237:158|231:104,1,112,10|4,0:2|0:0,0:0:0:0:
380,90,315633,2,0,P|349:239|245:287,1,265.999992897034,4|8,0:0|0:2,0:0:0:0:
18,127,316022,6,0,B|61:92|114:108|167:158|102:173|164:224|227:231|259:180,2,293.999991027832,4|8|4,0:0|0:2|0:0,0:0:0:0:
295,30,316607,2,0,P|255:56|244:96,1,90.9999958343508,10|4,0:2|0:0,0:0:0:0:
294,368,316801,5,6,0:0:0:0:
294,368,316996,1,8,0:2:0:0:
301,357,317094,1,8,0:2:0:0:
312,352,317191,5,10,0:2:0:0:
349,290,317288,1,8,0:2:0:0:
320,212,317386,1,8,0:2:0:0:
233,185,317483,1,8,0:2:0:0:
139,221,317581,6,0,B|160:227|160:227|136:136|136:136|92:132|75:100,1,188.999994232178,6|0,0:0|2:0,0:0:0:0:
85,90,317775,2,0,P|117:118|206:104,1,125.999996154785,10|0,0:2|0:0,0:0:0:0:
375,44,317970,2,0,P|334:57|302:141,1,125.999996154785,6|0,0:0|0:0,0:0:0:0:
269,318,318165,2,0,P|277:276|220:206,1,125.999996154785,10|0,0:2|0:0,0:0:0:0:
42,225,318360,5,6,0:0:0:0:
35,242,318457,1,0,0:0:0:0:
122,263,318555,5,10,0:2:0:0:
37,139,318652,1,4,0:0:0:0:
8,321,318749,2,0,B|15:338|6:361|6:361|18:354|18:354|22:360|22:360|39:321|75:309,1,125.999996154785,6|0,0:0|0:0,0:0:0:0:
254,260,318944,2,0,B|246:277|255:300|255:300|243:293|243:293|239:299|239:299|222:260|186:248,1,125.999996154785,8|0,0:2|0:0,0:0:0:0:
78,56,319139,6,0,P|135:62|163:145,1,125.999996154785,6|0,0:0|0:0,0:0:0:0:
255,80,319334,2,0,P|294:122|263:203,1,125.999996154785,10|0,0:2|0:0,0:0:0:0:
180,352,319529,6,0,P|150:300|153:228,1,125.999996154785,6|0,0:0|0:0,0:0:0:0:
55,287,319724,2,0,P|55:228|94:167,1,125.999996154785,10|0,0:2|0:0,0:0:0:0:
381,156,319918,6,0,P|349:208|266:198,1,125.999996154785,6|0,0:0|0:0,0:0:0:0:
88,46,320113,1,10,0:2:0:0:
258,88,320211,1,4,0:0:0:0:
88,171,320308,2,0,B|75:130|75:107|75:107|72:104|72:104|63:19,1,125.999996154785,6|4,0:0|0:0,0:0:0:0:
215,163,320503,2,0,B|199:217|199:217|201:220|201:220|192:242|189:285,1,125.999996154785,8|0,0:2|0:0,0:0:0:0:
78,370,320698,6,0,B|32:389|-40:310|80:187|182:298|119:349|268:359|282:266,1,377.999988464356,6|0,0:0|0:0,0:0:0:0:
386,244,321087,6,0,P|379:189|330:119,1,125.999996154785,6|0,0:0|0:0,0:0:0:0:
455,113,321282,2,0,P|421:68|344:32,1,125.999996154785,10|0,0:2|0:0,0:0:0:0:
145,213,321477,6,0,P|201:219|254:166,1,125.999996154785,6|0,0:0|0:0,0:0:0:0:
206,10,321672,2,0,P|150:4|97:57,1,125.999996154785,10|4,0:2|0:0,0:0:0:0:
342,175,321866,6,0,P|375:129|355:57,1,125.999996154785,6|4,0:0|0:0,0:0:0:0:
139,28,322061,2,0,P|105:73|125:145,1,125.999996154785,10|0,0:2|0:0,0:0:0:0:
382,297,322256,6,0,P|333:269|254:248,1,125.999996154785,6|0,0:0|0:0,0:0:0:0:
311,351,322451,2,0,P|256:336|174:336,1,125.999996154785,10|4,0:2|0:0,0:0:0:0:
0,142,322646,6,0,P|62:141|123:126,1,125.999996154785,6|4,0:0|0:0,0:0:0:0:
79,227,322840,2,0,P|139:210|194:179,1,125.999996154785,10|0,2:2|2:0,0:0:0:0:
282,0,323035,5,4,0:0:0:0:
239,63,323133,1,8,0:2:0:0:
265,140,323230,1,8,0:2:0:0:
349,165,323327,1,8,0:2:0:0:
434,122,323425,5,8,0:2:0:0:
510,164,323522,1,8,0:2:0:0:
510,246,323620,1,4,0:3:0:0:
454,297,323717,1,4,0:3:0:0:
382,282,323814,6,0,B|358:247|328:243|328:243|353:214|344:169,1,132.999996448517,6|0,0:0|0:0,0:0:0:0:
291,5,324204,2,0,B|272:42|284:70|284:70|246:62|212:93,1,132.999996448517,6|0,0:0|0:0,0:0:0:0:
97,223,324594,2,0,B|138:220|156:195|156:195|169:232|212:246,1,132.999996448517,6|0,0:0|0:0,0:0:0:0:
482,165,324983,6,0,B|462:159|447:149|447:149|449:203|405:232,1,132.999996448517,6|0,0:0|0:0,0:0:0:0:
307,238,325178,1,2,0:2:0:0:
222,21,325373,6,0,B|241:23|259:20|259:20|237:68|265:112,1,132.999996448517,6|0,0:0|0:0,0:0:0:0:
352,154,325568,1,0,0:0:0:0:
356,141,325665,1,2,0:2:0:0:
199,241,325762,2,0,B|213:255|220:271|220:271|246:224|298:220,1,132.999996448517,6|0,0:0|0:0,0:0:0:0:
391,240,325957,1,2,0:2:0:0:
89,143,326152,2,0,B|101:127|107:109|107:109|137:153|190:150,1,132.999996448517,6|0,0:0|0:0,0:0:0:0:
380,67,326542,6,0,B|370:42|379:3|379:3|365:41|335:59,1,132.999996448517,6|0,0:0|0:0,0:0:0:0:
336,146,326737,1,2,0:2:0:0:
188,150,326931,6,0,B|171:171|133:182|133:182|172:175|203:192,1,132.999996448517,6|0,0:0|0:0,0:0:0:0:
336,146,327126,1,2,0:2:0:0:
438,278,327321,6,0,B|464:281|493:309|493:309|468:278|467:243,1,132.999996448517,6|0,0:0|0:0,0:0:0:0:
336,146,327516,1,2,0:2:0:0:
272,322,327711,6,0,B|282:347|273:386|273:386|287:348|317:330,1,132.999996448517,6|0,0:0|0:0,0:0:0:0:
336,146,327905,1,2,0:2:0:0:
261,175,328003,1,2,0:2:0:0:
319,228,328100,2,0,B|352:214|386:222|386:222|352:214|327:183,1,132.999996448517,6|0,0:0|0:0,0:0:0:0:
176,181,328295,1,2,0:2:0:0:
479,5,328490,6,0,P|355:15|261:98,1,238.00000453949,6|0,0:0|2:0,0:0:0:0:
12,173,328879,2,0,P|178:210|213:283,1,238.00000453949,6|0,0:0|2:0,0:0:0:0:
194,39,329269,6,0,P|131:35|87:88,1,119.000002269745,4|0,0:0|0:0,0:0:0:0:
68,252,329464,1,8,0:2:0:0:
111,292,329561,1,8,0:2:0:0:
182,299,329659,1,8,0:2:0:0:
241,240,329756,1,8,0:2:0:0:
258,146,329853,1,8,0:2:0:0:
334,79,329951,1,8,0:2:0:0:
436,95,330048,6,0,P|407:152|397:212,1,112,2|2,0:2|0:2,0:0:0:0:
243,234,330827,2,0,P|297:250|334:299,1,112,2|2,0:2|0:2,0:0:0:0:
330,382,331412,1,2,0:2:0:0:
321,160,331607,6,0,P|314:141|281:115,1,56,2|2,0:2|0:0,0:0:0:0:
250,38,331899,1,2,0:0:0:0:
245,51,331996,2,0,P|225:54|186:38,1,56,2|2,0:0|0:0,0:0:0:0:
189,236,332386,2,0,P|215:181|201:124,1,112,2|0,0:0|0:0,0:0:0:0:
121,99,332970,1,2,0:0:0:0:
70,302,333165,5,2,0:0:0:0:
58,261,333360,1,2,0:0:0:0:
97,190,333555,1,2,0:0:0:0:
186,165,333749,1,2,0:0:0:0:
345,223,333944,5,2,0:0:0:0:
264,269,334139,1,2,0:0:0:0:
147,247,334334,1,2,0:0:0:0:
69,150,334529,1,2,0:0:0:0:
72,6,334724,6,0,B|123:-8|156:26|136:41|169:85|217:68,1,168,2|0,0:0|0:0,0:0:0:0:
251,0,337646,1,2,0:0:0:0:
302,242,337840,6,0,P|284:147|140:116,1,251.999992309571,6|8,0:0|0:2,0:0:0:0:
131,268,338133,1,0,0:0:0:0:
150,282,338230,2,0,P|193:256|196:200,2,105.000004005432,4|0|8,0:0|0:0|0:2,0:0:0:0:
21,202,338522,1,0,0:0:0:0:
14,179,338620,2,0,P|60:158|105:183,1,105.000004005432,4|0,0:0|0:0,0:0:0:0:
84,352,338814,2,0,P|43:322|42:272,1,105.000004005432,8|4,0:2|0:0,0:0:0:0:
220,122,339009,2,0,P|196:248|117:265,2,210.000008010865,4|8|4,0:0|0:2|0:0,0:0:0:0:
18,23,339594,5,8,0:2:0:0:
105,106,339690,1,0,0:0:0:0:
126,100,339788,2,0,P|142:64|105:10,2,105.000004005432,4|0|8,0:0|0:0|0:2,0:0:0:0:
108,265,340081,1,0,0:0:0:0:
90,252,340178,2,0,P|94:212|153:184,1,105.000004005432,4|0,0:0|0:0,0:0:0:0:
298,144,340373,2,0,P|261:160|207:123,1,105.000004005432,8|4,0:2|0:0,0:0:0:0:
65,112,340568,2,0,P|170:158|180:261,2,210.000008010865,4|8|4,0:0|0:2|0:0,0:0:0:0:
102,374,341152,5,8,0:2:0:0:
6,290,341249,1,0,0:0:0:0:
0,271,341347,2,0,P|22:237|96:244,1,105.000004005432,4|0,0:0|0:0,0:0:0:0:
255,358,341542,2,0,P|204:360|171:321,1,105.000004005432,8|0,0:2|0:0,0:0:0:0:
207,126,341737,6,0,P|218:176|150:219,1,105.000004005432,4|0,0:0|0:0,0:0:0:0:
259,13,341931,2,0,P|263:63|341:83,1,105.000004005432,8|4,0:2|0:0,0:0:0:0:
43,109,342126,2,0,P|99:109|129:157,1,105.000004005432,4|4,0:0|0:0,0:0:0:0:
380,169,342321,2,0,P|324:169|294:217,1,105.000004005432,8|0,0:2|0:0,0:0:0:0:
146,363,342516,6,0,P|139:311|94:277,1,105.000004005432,4|0,0:0|0:0,0:0:0:0:
242,137,342711,2,0,P|202:170|196:221,1,105.000004005432,8|0,0:2|0:0,0:0:0:0:
337,355,342905,6,0,P|305:327|230:308,1,105.000004005432,4|0,0:0|0:0,0:0:0:0:
19,139,343100,2,0,P|59:171|109:185,1,105.000004005432,8|0,0:2|0:0,0:0:0:0:
411,91,343295,5,4,0:0:0:0:
253,28,343392,2,0,P|328:123|326:237,1,210.000008010865,8|4,0:2|0:0,0:0:0:0:
254,325,343685,5,8,0:2:0:0:
180,336,343782,1,8,0:2:0:0:
111,288,343879,1,8,0:2:0:0:
90,195,343977,1,8,0:2:0:0:
154,114,344074,1,6,0:0:0:0:
427,350,344269,5,2,0:2:0:0:
443,257,344366,1,2,0:2:0:0:
460,165,344464,2,0,B|453:180|453:180|463:206|476:265,2,83.9999974365235,6|2|0,0:0|0:2|0:0,0:0:0:0:
353,67,344756,1,2,0:2:0:0:
369,61,344853,2,0,B|376:76|376:76|366:102|353:161,1,83.9999974365235,6|0,0:0|0:0,0:0:0:0:
291,318,345048,2,0,B|312:323|328:344|328:344|321:318|331:290,1,94.5000003604889,2|0,0:2|0:0,0:0:0:0:
120,177,345243,6,2,B|118:204|94:225|94:225|147:226|194:199|194:199|205:203|205:203|199:134|217:110|217:110|225:112|225:112|237:94|257:85,1,315.000012016297,6|0,0:0|0:0,0:2:0:0:
325,36,345633,1,6,0:0:0:0:
479,186,345827,5,2,0:2:0:0:
384,178,345925,1,2,0:2:0:0:
290,171,346022,2,0,B|304:180|304:180|333:159|369:153,2,83.9999974365235,6|2|0,0:0|0:2|0:0,0:0:0:0:
174,271,346314,1,2,0:2:0:0:
169,256,346412,2,0,B|183:247|183:247|212:268|248:274,1,83.9999974365235,6|0,0:0|0:0,0:0:0:0:
438,266,346607,2,0,B|444:243|465:229|465:229|442:244|409:238,1,94.5000003604889,2|0,0:2|0:0,0:0:0:0:
159,90,346801,6,2,B|150:67|121:59|121:59|139:61|139:61|139:51|139:51|180:81|230:74|230:74|212:79|212:79|219:85|219:85|151:103|152:180,1,315.000012016297,6|0,0:0|0:0,0:2:0:0:
169,256,347191,1,6,0:0:0:0:
355,52,347386,5,2,0:2:0:0:
337,144,347483,1,2,0:2:0:0:
319,237,347581,2,0,B|331:221|331:221|315:182|312:140,2,83.9999974365235,6|2|0,0:0|0:2|0:0,0:0:0:0:
433,311,347873,1,2,0:2:0:0:
419,320,347970,2,0,B|407:304|407:304|423:265|426:223,1,83.9999974365235,6|0,0:0|0:0,0:0:0:0:
462,121,348165,2,0,B|450:96|454:74|454:74|449:97|423:114,1,94.5000003604889,2|0,0:2|0:0,0:0:0:0:
275,342,348360,6,0,B|297:346|315:373|315:373|313:343|329:317,1,105.000004005432,6|0,0:0|0:0,0:0:0:0:
286,140,348555,2,0,B|273:121|274:90|274:90|258:116|234:122,1,105.000004005432,2|0,0:2|0:0,0:0:0:0:
52,313,348749,5,6,0:0:0:0:
84,246,348847,1,0,0:0:0:0:
147,208,348944,1,0,0:0:0:0:
220,206,349042,1,0,0:0:0:0:
280,245,349139,5,6,0:0:0:0:
196,238,349237,1,0,0:0:0:0:
146,165,349334,1,0,0:0:0:0:
169,75,349431,1,0,0:0:0:0:
256,28,349529,6,0,P|271:74|275:124,1,97.9999970092774,4|0,0:0|0:0,0:0:0:0:
206,380,349724,1,8,0:2:0:0:
179,306,349821,1,8,0:2:0:0:
227,232,349918,1,8,0:2:0:0:
325,236,350016,1,8,0:2:0:0:
396,155,350113,1,8,0:2:0:0:
385,145,350211,2,0,P|366:141|350:137,1,35,8|0,0:2|0:0,0:0:0:0:
499,287,350503,6,0,P|479:308|464:338,1,48.9999985046387,2|0,0:0|0:0,0:0:0:0:
403,226,350698,2,0,P|401:254|408:287,1,48.9999985046387,2|0,0:0|0:0,0:0:0:0:
290,240,350892,2,0,P|307:263|334:283,1,48.9999985046387,2|2,0:0|0:0,0:0:0:0:
218,359,351087,5,2,0:0:0:0:
226,335,351185,1,0,0:0:0:0:
217,307,351282,1,2,0:0:0:0:
188,288,351379,1,2,0:0:0:0:
97,293,351477,5,2,0:0:0:0:
67,267,351574,1,0,0:0:0:0:
59,223,351672,1,2,0:0:0:0:
81,179,351769,1,0,0:0:0:0:
171,142,351866,5,2,0:0:0:0:
196,93,351964,1,2,0:0:0:0:
180,36,352061,1,2,0:0:0:0:
124,5,352159,1,0,0:0:0:0:
60,29,352256,1,2,0:0:0:0:
37,88,352353,1,0,0:0:0:0:
69,137,352451,1,2,0:0:0:0:
122,140,352548,1,0,0:0:0:0:
156,105,352646,5,2,0:0:0:0:
152,66,352743,1,2,0:0:0:0:
121,49,352840,1,2,0:0:0:0:
91,54,352938,1,0,0:0:0:0:
79,75,353035,1,2,0:0:0:0:
83,94,353133,1,2,0:0:0:0:
95,101,353230,1,2,0:0:0:0:
104,99,353327,1,2,0:0:0:0:
107,95,353425,5,2,0:0:0:0:
256,192,353522,12,0,357321,0:0:0:0:
