osu file format v14

[General]
AudioFilename: audio.mp3
AudioLeadIn: 0
PreviewTime: 90273
Countdown: 0
SampleSet: Soft
StackLeniency: 0.7
Mode: 0
LetterboxInBreaks: 0
WidescreenStoryboard: 0

[Editor]
Bookmarks: 209511,248963
DistanceSpacing: 1.6
BeatDivisor: 4
GridSize: 32
TimelineZoom: 1.5

[Metadata]
Title:Ibun 'Seigi no Mikata'
TitleUnicode:異聞『正義の味方』
Artist:Diao Ye Zong feat. Meramipop
ArtistUnicode:凋叶棕 feat. めらみぽっぷ
Creator:ailv
Version:Advent
Source:東方輝針城 ~ Double Dealing Character.
Tags:sukuna aliv crissa ZUN 2hu touhou project doujin 輝く針の小人族 ~ Little Princess とものは 逆 rd-sounds dyz c94 withered leaf shinmyoumaru
BeatmapID:1725532
BeatmapSetID:823380

[Difficulty]
HPDrainRate:5.8
CircleSize:4.3
OverallDifficulty:8.8
ApproachRate:9.4
SliderMultiplier:2.5
SliderTickRate:1

[Events]
//Background and Video events
0,0,"40487399_p0.jpg",0,0
//Break Periods
2,143957,146505
2,150533,153491
//Storyboard Layer 0 (Background)
//Storyboard Layer 1 (Fail)
//Storyboard Layer 2 (Pass)
//Storyboard Layer 3 (Foreground)
//Storyboard Sound Samples

[TimingPoints]
744,410.958904109589,4,2,3,50,1,0
2387,-166.666666666667,4,2,3,50,0,0
15538,-100,4,1,3,70,0,0
18826,-90.9090909090909,4,1,3,70,0,0
25401,-83.3333333333333,4,1,3,70,0,0
27867,-83.3333333333333,4,1,3,80,0,0
28689,-83.3333333333333,4,1,3,85,0,0
41839,-166.666666666667,4,2,2,60,0,0
54990,-111.111111111111,4,1,3,70,0,0
68141,-166.666666666666,4,1,3,60,0,0
87866,-125,4,1,3,65,0,0
89511,-83.3333333333333,4,1,3,70,0,0
90333,-83.3333333333333,4,1,3,75,0,0
91154,-66.6666666666667,4,1,3,85,0,1
115812,-66.6666666666667,4,1,3,75,0,0
117456,-66.6666666666667,4,1,3,85,0,1
130607,-133.333333333333,4,1,3,55,0,0
137182,-133.333333333333,4,1,3,65,0,0
147045,-133.333333333333,4,2,3,50,0,0
156908,-250,4,2,3,55,0,0
170059,-125,4,2,3,60,0,0
176634,-100,4,2,3,65,0,0
181565,-83.3333333333333,4,1,3,70,0,0
183209,-100,4,1,3,70,0,0
209511,-66.6666666666667,4,1,3,85,0,1
216086,-58.8235294117647,4,1,3,85,0,1
222661,-58.8235294117647,4,1,3,60,0,0
235401,-500,4,1,3,60,0,0
235812,-200,4,1,3,65,0,0
247319,-83.3333333333333,4,1,3,75,0,0
248963,-66.6666666666667,4,1,3,85,0,1
260470,-66.6666666666667,4,1,3,75,0,0
262113,-66.6666666666667,4,1,3,85,0,1
287593,-66.6666666666667,4,1,3,85,0,0
288415,-66.6666666666667,4,1,3,85,0,1
301565,-200,4,2,3,65,0,0
313072,416.666666666667,4,2,3,65,1,0
313905,458.015267175573,4,2,3,65,1,0

[Colours]
Combo1 : 239,169,135
Combo2 : 248,165,248
Combo3 : 111,151,244
Combo4 : 213,166,244

[HitObjects]
367,197,2387,6,0,P|241:179|220:265,1,224.999993133545,4|0,0:0|0:0,0:0:0:0:
151,305,3209,2,0,B|178:363|178:363|193:187,1,224.999993133545,2|0,0:0|0:0,0:0:0:0:
119,94,4031,6,0,P|82:160|192:201,1,224.999993133545,4|0,0:0|0:0,0:0:0:0:
222,104,4853,2,0,L|215:18,1,74.9999977111817,2|0,0:0|0:0,0:0:0:0:
301,24,5264,2,0,L|307:98,1,74.9999977111817,2|0,0:0|0:0,0:0:0:0:
473,187,5675,6,0,P|392:150|337:258,1,224.999993133545,4|0,0:0|0:0,0:0:0:0:
399,363,6497,2,0,B|462:336|462:336|277:325,1,224.999993133545,2|0,0:0|0:0,0:0:0:0:
197,297,7319,6,0,P|191:339|197:381,1,74.9999977111817,2|0,0:0|0:0,0:0:0:0:
146,219,7730,2,0,P|119:252|104:291,1,74.9999977111817,2|0,0:0|0:0,0:0:0:0:
142,119,8141,2,0,P|102:134|69:161,1,74.9999977111817,4|0,0:0|0:0,0:0:0:0:
185,35,8552,2,0,P|143:28|100:35,1,74.9999977111817,2|0,0:0|0:0,0:0:0:0:
265,108,8963,6,0,P|376:97|502:113,1,224.999993133545,4|0,0:0|0:0,0:0:0:0:
309,253,9785,2,0,P|220:198|292:102,1,224.999993133545,2|0,0:0|0:0,0:0:0:0:
425,308,10607,6,0,P|330:270|251:366,1,224.999993133545,4|0,0:0|0:0,0:0:0:0:
134,374,11428,2,0,L|124:299,1,74.9999977111817,2|0,0:0|0:0,0:0:0:0:
41,310,11839,2,0,L|50:384,1,74.9999977111817,2|0,0:0|0:0,0:0:0:0:
72,209,12250,6,0,P|207:180|192:121,1,224.999993133545,4|0,0:0|0:0,0:0:0:0:
126,16,13072,2,0,L|121:98,1,74.9999977111817,2|0,0:0|0:0,0:0:0:0:
29,86,13483,2,0,L|33:11,1,74.9999977111817,2|0,0:0|0:0,0:0:0:0:
90,175,13894,6,0,P|143:178|172:158,1,74.9999977111817,4|0,0:0|0:0,0:0:0:0:
218,93,14305,2,0,P|271:90|300:110,1,74.9999977111817,2|0,0:0|0:0,0:0:0:0:
354,235,14716,2,0,L|360:140,1,74.9999977111817,2|0,0:0|0:0,0:0:0:0:
248,287,15127,2,0,L|252:361,1,74.9999977111817,0|0,0:0|0:0,0:0:0:0:
511,279,15538,6,0,P|441:266|419:272,1,62.5,2|0,0:0|0:0,0:0:0:0:
356,298,15743,1,0,0:0:0:0:
347,282,15846,1,0,0:0:0:0:
345,268,15949,1,0,0:0:0:0:
351,251,16052,1,0,0:0:0:0:
357,235,16154,6,0,P|362:204|356:173,1,62.5,2|0,0:0|0:0,0:0:0:0:
379,100,16360,1,0,0:0:0:0:
363,91,16463,1,0,0:0:0:0:
349,89,16565,1,0,0:0:0:0:
332,95,16668,1,0,0:0:0:0:
316,101,16771,6,0,P|285:106|254:100,1,62.5,2|0,0:0|0:0,0:0:0:0:
172,28,16976,1,0,0:0:0:0:
154,53,17079,1,0,0:0:0:0:
145,83,17182,1,0,0:0:0:0:
145,114,17285,1,0,0:0:0:0:
155,144,17387,6,0,P|121:155|68:153,1,62.5,2|0,0:0|0:0,0:0:0:0:
0,255,17593,1,0,0:0:0:0:
30,247,17696,1,0,0:0:0:0:
61,244,17798,1,0,0:0:0:0:
92,245,17901,1,0,0:0:0:0:
123,251,18004,6,0,P|117:298|119:325,1,62.5,2|0,0:0|0:0,0:0:0:0:
237,362,18209,1,0,0:0:0:0:
263,349,18312,1,0,0:0:0:0:
275,322,18415,6,0,P|281:275|279:248,1,62.5,2|0,0:0|0:0,0:0:0:0:
455,162,18620,1,0,0:0:0:0:
415,155,18723,1,0,0:0:0:0:
371,161,18826,6,0,P|324:166|274:155,1,68.7500020980836,2|0,0:0|0:0,0:0:0:0:
209,52,19031,1,0,0:0:0:0:
178,37,19134,1,0,0:0:0:0:
143,36,19237,1,0,0:0:0:0:
112,48,19339,1,0,0:0:0:0:
87,71,19442,6,0,P|79:105|79:150,1,68.7500020980836,2|0,0:0|0:0,0:0:0:0:
2,299,19648,1,0,0:0:0:0:
29,278,19750,1,0,0:0:0:0:
61,268,19853,1,0,0:0:0:0:
95,272,19956,1,0,0:0:0:0:
126,287,20059,6,0,P|163:294|205:290,1,68.7500020980836,2|0,0:0|0:0,0:0:0:0:
312,360,20264,1,0,0:0:0:0:
325,328,20367,1,0,0:0:0:0:
330,294,20470,1,0,0:0:0:0:
324,260,20572,1,0,0:0:0:0:
309,230,20675,6,0,P|307:180|316:152,1,68.7500020980836,2|0,0:0|0:0,0:0:0:0:
453,41,20880,1,0,0:0:0:0:
425,83,20983,1,0,0:0:0:0:
377,101,21086,1,0,0:0:0:0:
328,89,21189,1,0,0:0:0:0:
295,50,21291,5,2,0:0:0:0:
292,28,21394,1,0,0:0:0:0:
183,145,21600,5,0,0:0:0:0:
186,122,21702,1,2,0:0:0:0:
309,230,21908,5,2,0:0:0:0:
306,207,22011,1,0,0:0:0:0:
246,288,22113,6,0,P|203:285|163:284,1,68.7500020980836,2|0,0:0|0:0,0:0:0:0:
59,355,22319,1,0,0:0:0:0:
43,324,22422,1,0,0:0:0:0:
38,290,22524,1,0,0:0:0:0:
43,256,22627,1,0,0:0:0:0:
59,226,22730,6,0,P|67:175|60:142,1,68.7500020980836,2|0,0:0|0:0,0:0:0:0:
0,42,22935,1,0,0:0:0:0:
31,26,23038,1,0,0:0:0:0:
65,21,23141,1,0,0:0:0:0:
99,26,23244,1,0,0:0:0:0:
129,42,23346,6,0,P|180:50|213:43,1,68.7500020980836,2|0,0:0|0:0,0:0:0:0:
346,158,23552,1,0,0:0:0:0:
319,114,23654,1,0,0:0:0:0:
327,65,23757,1,0,0:0:0:0:
366,32,23860,1,0,0:0:0:0:
416,32,23963,6,0,P|459:35|502:45,1,68.7500020980836,2|0,0:0|0:0,0:0:0:0:
412,201,24168,1,0,0:0:0:0:
361,208,24271,1,0,0:0:0:0:
309,209,24374,1,0,0:0:0:0:
258,205,24476,1,0,0:0:0:0:
207,193,24579,6,0,P|161:188|110:198,1,68.7500020980836,2|0,0:0|0:0,0:0:0:0:
54,118,24785,1,0,0:0:0:0:
35,131,24887,1,0,0:0:0:0:
20,145,24990,6,0,P|5:186|11:222,1,68.7500020980836,2|0,0:0|0:0,0:0:0:0:
171,357,25196,1,0,0:0:0:0:
203,356,25298,1,0,0:0:0:0:
237,353,25401,6,0,P|246:298|229:258,1,74.9999977111817,2|0,0:0|0:0,0:0:0:0:
126,248,25607,1,0,0:0:0:0:
81,190,25709,1,0,0:0:0:0:
102,121,25812,1,0,0:0:0:0:
170,97,25915,1,0,0:0:0:0:
243,111,26017,6,0,L|339:121,1,74.9999977111817,2|0,0:0|0:0,0:0:0:0:
487,321,26223,1,0,0:0:0:0:
425,361,26326,1,0,0:0:0:0:
352,351,26428,1,0,0:0:0:0:
304,296,26531,1,0,0:0:0:0:
304,222,26634,6,0,P|309:173|315:143,1,74.9999977111817,2|0,0:0|0:0,0:0:0:0:
169,27,26839,1,0,0:0:0:0:
208,88,26942,1,0,0:0:0:0:
190,158,27045,1,0,0:0:0:0:
126,192,27148,1,0,0:0:0:0:
57,167,27250,6,0,P|36:126|35:91,1,74.9999977111817,2|0,0:0|0:0,0:0:0:0:
192,14,27456,1,0,0:0:0:0:
266,18,27559,1,0,0:0:0:0:
341,22,27661,1,0,0:0:0:0:
416,27,27764,1,0,0:0:0:0:
491,31,27867,5,10,0:0:0:0:
483,69,27970,1,8,0:0:0:0:
304,222,28175,5,2,0:0:0:0:
296,184,28278,1,8,0:0:0:0:
512,237,28483,5,8,0:0:0:0:
313,321,28689,6,0,B|244:300|236:351|158:327,1,149.999995422363,6|8,0:0|0:0,0:0:0:0:
93,362,28997,1,0,0:0:0:0:
93,362,29100,2,0,P|86:315|105:279,1,74.9999977111817,0|0,0:0|0:0,0:0:0:0:
103,150,29305,1,8,0:0:0:0:
103,105,29408,1,0,0:0:0:0:
70,80,29511,6,0,P|3:143|51:221,1,149.999995422363,2|8,0:0|0:0,0:0:0:0:
192,254,29819,1,0,0:0:0:0:
192,254,29922,2,0,P|192:207|177:169,1,74.9999977111817,0|0,0:0|0:0,0:0:0:0:
250,17,30127,2,0,P|239:52|241:90,1,74.9999977111817,8|0,0:0|0:0,0:0:0:0:
512,146,30333,6,0,P|450:116|413:124,1,74.9999977111817,2|0,0:0|0:0,0:0:0:0:
362,240,30538,2,0,P|398:232|427:210,1,74.9999977111817,8|0,0:0|0:0,0:0:0:0:
357,71,30743,2,0,P|356:102|355:161,1,74.9999977111817,0|0,0:0|0:0,0:0:0:0:
270,285,30949,2,0,P|269:247|268:210,1,74.9999977111817,8|0,0:0|0:0,0:0:0:0:
153,92,31154,5,2,0:0:0:0:
109,73,31257,2,0,P|69:68|28:75,1,74.9999977111817,8|0,0:0|0:0,0:0:0:0:
14,230,31463,1,2,0:0:0:0:
58,249,31565,2,0,P|98:254|139:247,1,74.9999977111817,8|0,0:0|0:0,0:0:0:0:
240,99,31771,2,0,P|207:142|198:180,1,74.9999977111817,8|0,0:0|0:0,0:0:0:0:
341,319,31976,6,0,P|346:220|293:212,1,149.999995422363,2|8,0:0|0:0,0:0:0:0:
194,346,32285,1,0,0:0:0:0:
194,346,32387,2,0,B|275:323|279:373|366:348,1,149.999995422363,0|8,0:0|0:0,0:0:0:0:
501,184,32696,1,0,0:0:0:0:
501,184,32798,2,0,P|429:171|398:257,1,149.999995422363,2|8,0:0|0:0,0:0:0:0:
249,241,33107,1,0,0:0:0:0:
249,241,33209,2,0,P|246:191|252:165,1,74.9999977111817,0|0,0:0|0:0,0:0:0:0:
406,21,33415,2,0,P|409:71|403:97,1,74.9999977111817,8|0,0:0|0:0,0:0:0:0:
183,42,33620,6,0,B|256:27|255:94|366:52,1,149.999995422363,2|8,0:0|0:0,0:0:0:0:
112,126,33928,2,0,P|75:59|-3:38,1,149.999995422363,0|0,0:0|0:0,0:0:0:0:
141,218,34237,2,0,P|102:222|52:188,1,74.9999977111817,8|0,0:0|0:0,0:0:0:0:
246,152,34442,5,2,0:0:0:0:
284,183,34545,1,8,0:0:0:0:
305,227,34648,1,8,0:0:0:0:
305,277,34750,1,2,0:0:0:0:
283,321,34853,1,8,0:0:0:0:
244,352,34956,2,0,P|206:352|154:346,1,74.9999977111817,8|2,0:0|0:0,0:0:0:0:
0,171,35161,5,8,0:0:0:0:
17,146,35264,2,0,P|115:155|119:233,1,149.999995422363,6|8,0:0|0:0,0:0:0:0:
90,257,35572,1,0,0:0:0:0:
90,257,35675,2,0,P|127:269|167:261,1,74.9999977111817,0|0,0:0|0:0,0:0:0:0:
278,51,35880,1,8,0:0:0:0:
242,34,35983,1,0,0:0:0:0:
208,36,36086,6,0,B|186:106|239:115|218:191,1,149.999995422363,2|8,0:0|0:0,0:0:0:0:
356,89,36394,1,0,0:0:0:0:
356,89,36497,2,0,P|317:73|266:75,1,74.9999977111817,0|0,0:0|0:0,0:0:0:0:
430,191,36702,2,0,P|467:188|501:173,1,74.9999977111817,8|0,0:0|0:0,0:0:0:0:
304,350,36908,6,0,P|304:287|296:262,1,74.9999977111817,2|0,0:0|0:0,0:0:0:0:
141,310,37113,2,0,P|141:373|149:398,1,74.9999977111817,8|0,0:0|0:0,0:0:0:0:
375,282,37319,2,0,L|292:275,1,74.9999977111817,0|0,0:0|0:0,0:0:0:0:
93,226,37524,2,0,L|167:219,1,74.9999977111817,8|0,0:0|0:0,0:0:0:0:
262,50,37730,5,2,0:0:0:0:
247,27,37833,2,0,P|216:5|179:0,1,74.9999977111817,8|0,0:0|0:0,0:0:0:0:
237,159,38038,1,2,0:0:0:0:
266,168,38141,2,0,P|302:162|333:140,1,74.9999977111817,8|0,0:0|0:0,0:0:0:0:
149,87,38346,2,0,P|127:126|122:160,1,74.9999977111817,8|0,0:0|0:0,0:0:0:0:
54,357,38552,6,0,P|44:317|44:270,1,74.9999977111817,2|0,0:0|0:0,0:0:0:0:
210,352,38757,2,0,P|220:312|220:265,1,74.9999977111817,8|0,0:0|0:0,0:0:0:0:
22,204,38963,2,0,P|61:245|71:280,1,74.9999977111817,0|0,0:0|0:0,0:0:0:0:
239,203,39168,2,0,P|200:244|190:279,1,74.9999977111817,8|0,0:0|0:0,0:0:0:0:
327,346,39374,6,0,L|253:360,1,74.9999977111817,2|0,0:0|0:0,0:0:0:0:
327,235,39579,2,0,L|243:234,1,74.9999977111817,8|0,0:0|0:0,0:0:0:0:
359,126,39785,2,0,L|277:112,1,74.9999977111817,0|0,0:0|0:0,0:0:0:0:
75,37,39990,5,8,0:0:0:0:
62,82,40093,1,0,0:0:0:0:
74,127,40196,2,0,P|100:127|169:111,1,74.9999977111817,2|0,0:0|0:0,0:0:0:0:
54,278,40401,2,0,P|90:270|128:269,1,74.9999977111817,8|0,0:0|0:0,0:0:0:0:
180,52,40607,2,0,P|151:100|147:130,1,74.9999977111817,0|0,0:0|0:0,0:0:0:0:
160,335,40812,2,0,P|137:304|127:269,1,74.9999977111817,8|0,0:0|0:0,0:0:0:0:
323,119,41017,5,2,0:0:0:0:
323,119,41120,2,0,L|217:113,1,74.9999977111817,8|8,0:0|0:0,0:0:0:0:
402,184,41326,1,2,0:0:0:0:
402,184,41428,2,0,L|508:178,1,74.9999977111817,8|8,0:0|0:0,0:0:0:0:
291,276,41634,2,0,L|185:270,1,74.9999977111817,0|0,0:0|0:0,0:0:0:0:
160,335,41839,6,0,P|87:350|109:223,1,224.999993133545,6|2,0:0|0:0,0:0:0:0:
158,144,42661,2,0,L|65:153,1,74.9999977111817,2|0,0:0|0:0,0:0:0:0:
161,118,42970,2,0,L|254:127,1,74.9999977111817,0|0,0:0|0:0,0:0:0:0:
269,111,43278,1,2,0:0:0:0:
377,150,43483,6,0,P|375:74|324:19,2,149.999995422363,2|0|0,0:0|0:0|0:0,0:0:0:0:
321,235,44511,5,2,0:0:0:0:
321,235,44613,1,0,0:0:0:0:
321,235,44716,1,2,0:0:0:0:
321,235,44819,1,0,0:0:0:0:
321,235,44922,2,0,L|371:239,1,37.4999988555909,0|0,0:0|0:0,0:0:0:0:
340,333,45127,6,0,P|296:320|245:330,1,74.9999977111817,6|0,0:0|0:0,0:0:0:0:
190,363,45435,2,0,P|154:375|117:373,1,74.9999977111817,0|0,0:0|0:0,0:0:0:0:
35,332,45744,2,0,L|45:380,1,37.4999988555909,2|0,0:0|0:0,0:0:0:0:
116,207,45949,6,0,P|111:244|116:281,1,74.9999977111817,2|0,0:0|0:0,0:0:0:0:
95,195,46257,2,0,P|99:153|92:108,1,74.9999977111817,0|0,0:0|0:0,0:0:0:0:
112,95,46565,1,2,0:0:0:0:
190,30,46771,6,0,P|252:44|242:105,1,112.499996566773,6|0,0:0|0:0,0:0:0:0:
231,123,47182,2,0,P|291:107|383:117,2,149.999995422363,0|0|0,0:0|0:0|0:0,0:0:0:0:
281,324,48209,5,2,0:0:0:0:
281,324,48312,1,0,0:0:0:0:
281,324,48415,2,0,P|314:253|286:193,1,149.999995422363,6|0,0:0|0:0,0:0:0:0:
98,201,49031,1,2,0:0:0:0:
115,233,49134,1,0,0:0:0:0:
133,264,49237,2,0,P|188:255|240:248,1,74.9999977111817,2|0,0:0|0:0,0:0:0:0:
173,373,49648,2,0,P|118:364|66:357,1,74.9999977111817,0|0,0:0|0:0,0:0:0:0:
281,324,50059,6,0,B|357:311|360:365|444:348,1,149.999995422363,6|0,0:0|0:0,0:0:0:0:
425,350,50880,1,2,0:0:0:0:
446,354,51086,1,0,0:0:0:0:
381,231,51291,1,0,0:0:0:0:
359,238,51497,1,0,0:0:0:0:
372,34,51702,6,0,P|341:60|405:132,1,149.999995422363,6|0,0:0|0:0,0:0:0:0:
283,175,52319,1,2,0:0:0:0:
273,150,52422,1,0,0:0:0:0:
249,129,52524,2,0,P|187:118|158:123,1,74.9999977111817,2|0,0:0|0:0,0:0:0:0:
60,49,52935,2,0,P|97:49|133:39,1,74.9999977111817,0|0,0:0|0:0,0:0:0:0:
8,146,53346,5,6,0:0:0:0:
124,164,53552,1,0,0:0:0:0:
178,287,53757,1,0,0:0:0:0:
69,375,53963,1,0,0:0:0:0:
57,362,54065,2,0,P|16:355|-2:359,1,37.4999988555909,0|0,0:0|0:0,0:0:0:0:
188,297,54374,5,2,0:0:0:0:
188,297,54476,1,2,0:0:0:0:
188,297,54579,1,2,0:0:0:0:
61,216,54785,5,2,0:0:0:0:
61,216,54887,1,2,0:0:0:0:
61,216,54990,2,0,L|290:189,1,224.999993133545,6|2,0:0|0:0,0:0:0:0:
284,189,55607,1,2,0:0:0:0:
281,17,55812,2,0,P|259:47|267:124,1,112.499996566773,2|0,0:3|0:0,0:0:0:0:
364,236,56120,2,0,P|374:181|346:133,1,112.499996566773,0|0,0:0|0:0,0:0:0:0:
230,252,56428,2,0,P|250:271|277:278,1,56.2499982833863,0|0,0:0|0:0,0:0:0:0:
461,335,56634,6,0,P|386:316|325:325,1,112.499996566773,6|0,0:0|0:0,0:0:0:0:
165,354,57045,2,0,P|218:371|275:371,1,112.499996566773,2|0,0:0|0:0,0:0:0:0:
487,316,57456,2,0,P|412:297|351:306,1,112.499996566773,2|0,0:3|0:0,0:0:0:0:
377,299,57867,1,8,0:0:0:0:
492,162,58072,5,0,0:0:0:0:
420,98,58278,2,0,P|394:148|421:226,1,112.499996566773,2|0,0:0|0:0,0:0:0:0:
283,269,58586,2,0,P|291:214|265:165,1,112.499996566773,2|0,0:0|0:0,0:0:0:0:
321,47,58894,2,0,P|318:97|317:127,1,56.2499982833863,2|0,0:0|0:0,0:0:0:0:
139,220,59100,6,0,P|73:214|25:224,1,112.499996566773,2|0,0:3|0:0,0:0:0:0:
104,354,59408,2,0,P|170:360|218:350,1,112.499996566773,0|0,0:0|0:0,0:0:0:0:
242,174,59716,2,0,P|223:210|219:238,1,56.2499982833863,0|0,0:0|0:0,0:0:0:0:
364,357,59922,6,0,P|444:343|410:270,1,168.749994850159,2|2,0:0|0:0,0:0:0:0:
402,257,60333,2,0,B|292:208|289:306|178:254,1,224.999993133545,2|2,0:0|0:3,0:0:0:0:
57,187,60846,1,0,0:0:0:0:
52,171,60949,1,0,0:0:0:0:
51,155,61052,1,0,0:0:0:0:
55,139,61154,5,8,0:0:0:0:
126,116,61257,1,8,0:0:0:0:
198,147,61360,1,8,0:0:0:0:
270,126,61463,1,8,0:0:0:0:
317,47,61565,6,0,P|361:117|332:195,2,168.749994850159,6|0|2,0:0|0:0|0:0,0:0:0:0:
235,65,62285,1,0,0:0:0:0:
155,83,62387,2,0,L|36:73,1,112.499996566773,6|0,0:3|0:0,0:0:0:0:
29,254,62798,2,0,L|141:263,1,112.499996566773,8|0,0:0|0:0,0:0:0:0:
248,164,63209,5,2,0:0:0:0:
281,235,63415,1,0,0:0:0:0:
375,261,63620,1,2,0:0:0:0:
488,198,63826,1,2,0:0:0:0:
465,40,64031,2,0,L|321:30,1,112.499996566773,2|0,0:3|0:0,0:0:0:0:
352,32,64442,1,8,0:0:0:0:
14,211,64853,5,2,0:0:0:0:
94,187,65059,1,0,0:0:0:0:
175,294,65264,5,2,0:0:0:0:
265,315,65470,1,2,0:0:0:0:
345,237,65675,5,2,0:3:0:0:
454,228,65880,1,2,0:0:0:0:
256,341,66086,5,8,0:0:0:0:
218,176,66291,1,0,0:0:0:0:
422,128,66497,5,2,0:0:0:0:
345,101,66702,1,0,0:0:0:0:
240,146,66908,1,2,0:0:0:0:
105,96,67113,1,2,0:0:0:0:
78,114,67216,2,0,L|-5:104,1,56.2499982833863,0|2,0:0|0:3,0:0:0:0:
22,107,67524,1,2,0:0:0:0:
148,209,67730,5,8,0:0:0:0:
187,273,67833,1,8,0:0:0:0:
170,344,67935,1,8,0:0:0:0:
99,371,68038,1,8,0:0:0:0:
30,345,68141,6,0,L|38:167,1,149.999995422363,6|0,0:0|0:0,0:0:0:0:
36,195,68757,1,2,0:0:0:0:
98,77,68963,2,0,P|153:59|122:176,1,224.999993133545,0|0,0:0|0:0,0:0:0:0:
27,246,69785,5,2,0:0:0:0:
27,246,70196,2,0,P|63:239|118:257,1,74.9999977111817,0|0,0:0|0:0,0:0:0:0:
97,367,70607,2,0,P|61:374|6:356,1,74.9999977111817,2|0,0:3|0:0,0:0:0:0:
243,312,71017,2,0,L|169:312,1,74.9999977111817,8|0,0:0|0:0,0:0:0:0:
394,175,71428,6,0,P|337:155|326:236,1,149.999995422363,6|0,0:0|0:0,0:0:0:0:
315,225,72045,1,2,0:0:0:0:
494,289,72250,2,0,B|380:251|380:367|265:312,1,224.999993133545,0|0,0:0|0:0,0:0:0:0:
131,280,73072,5,2,0:0:0:0:
131,280,73483,2,0,P|134:326|123:365,1,74.9999977111817,0|0,0:0|0:0,0:0:0:0:
23,349,73894,2,0,P|20:303|31:264,1,74.9999977111817,2|0,0:3|0:0,0:0:0:0:
84,146,74305,2,0,L|84:220,1,74.9999977111817,8|0,0:0|0:0,0:0:0:0:
260,132,74716,6,0,P|230:53|177:81,1,149.999995422363,6|0,0:0|0:0,0:0:0:0:
185,67,75333,1,2,0:0:0:0:
210,214,75538,6,0,P|260:210|302:223,1,74.9999977111817,0|0,0:0|0:0,0:0:0:0:
348,249,75846,2,0,P|384:255|421:250,1,74.9999977111817,0|0,0:0|0:0,0:0:0:0:
487,216,76154,2,0,P|493:249|493:276,1,37.4999988555909,0|0,0:0|0:0,0:0:0:0:
453,363,76360,6,0,P|399:338|356:349,1,74.9999977111817,0|2,0:0|0:0,0:0:0:0:
268,293,76771,2,0,P|237:313|200:317,1,74.9999977111817,0|2,0:0|0:0,0:0:0:0:
81,358,77182,2,0,P|50:337|13:333,1,74.9999977111817,2|0,0:3|0:0,0:0:0:0:
13,333,77593,1,8,0:0:0:0:
94,226,77798,5,0,0:0:0:0:
94,226,77901,1,0,0:0:0:0:
94,226,78004,2,0,L|87:135,1,74.9999977111817,6|0,0:0|0:0,0:0:0:0:
176,45,78415,2,0,L|170:119,1,74.9999977111817,0|2,0:0|0:0,0:0:0:0:
264,226,78826,2,0,L|257:135,1,74.9999977111817,0|0,0:0|0:0,0:0:0:0:
258,151,79237,1,2,0:0:0:0:
422,46,79648,6,0,P|477:47|453:126,1,149.999995422363,0|0,0:0|0:0,0:0:0:0:
332,91,80264,1,0,0:0:0:0:
332,91,80367,1,0,0:0:0:0:
332,91,80470,2,0,P|322:36|327:6,1,74.9999977111817,6|0,0:3|0:0,0:0:0:0:
324,17,80880,1,8,0:0:0:0:
211,151,81291,5,6,0:0:0:0:
142,99,81497,1,0,0:0:0:0:
62,142,81702,2,0,P|45:189|45:229,1,74.9999977111817,2|0,0:3|0:0,0:0:0:0:
115,308,82113,1,2,0:3:0:0:
115,308,82216,1,2,0:3:0:0:
115,308,82319,2,0,L|220:303,1,74.9999977111817,0|8,0:0|0:0,0:0:0:0:
386,380,82730,5,0,0:0:0:0:
308,287,82935,2,0,P|302:238|312:194,1,74.9999977111817,6|0,0:3|0:0,0:0:0:0:
365,167,83244,2,0,P|368:129|362:92,1,74.9999977111817,2|0,0:0|0:0,0:0:0:0:
407,33,83552,2,0,P|364:21|344:20,1,37.4999988555909,2|0,0:0|0:0,0:0:0:0:
270,71,83757,6,0,P|216:105|175:57,1,112.499996566773,2|0,0:3|0:0,0:0:0:0:
137,17,84168,2,0,P|155:78|136:157,1,112.499996566773,8|0,0:0|0:0,0:0:0:0:
108,211,84579,6,0,P|74:172|55:275,1,224.999993133545,2|0,0:3|0:0,0:0:0:0:
144,309,85401,2,0,B|256:285|246:360|372:319,1,224.999993133545,2|0,0:3|0:0,0:0:0:0:
480,180,86223,6,0,P|430:174|361:200,2,112.499996566773,6|2|2,0:3|0:0|0:0,0:0:0:0:
303,238,87045,2,0,P|290:180|301:153,1,74.9999977111817,2|0,0:3|0:0,0:0:0:0:
354,62,87456,5,8,0:0:0:0:
330,47,87559,1,8,0:0:0:0:
303,40,87661,1,8,0:0:0:0:
275,42,87764,1,8,0:0:0:0:
249,53,87867,6,0,P|196:64|139:40,1,100,2|2,0:0|0:0,0:0:0:0:
49,98,88278,1,8,0:0:0:0:
120,172,88483,1,8,0:0:0:0:
22,267,88689,5,8,0:0:0:0:
23,248,88791,1,8,0:0:0:0:
22,231,88894,1,0,0:0:0:0:
22,216,88997,1,8,0:0:0:0:
99,258,89100,5,8,0:0:0:0:
95,281,89202,1,8,0:0:0:0:
93,304,89305,1,8,0:0:0:0:
91,324,89408,1,8,0:0:0:0:
172,346,89511,5,2,0:0:0:0:
154,371,89613,2,0,P|92:367|34:354,1,74.9999977111817,0|2,0:0|0:0,0:0:0:0:
233,251,89819,5,0,0:0:0:0:
263,254,89922,2,0,P|290:309|308:366,1,74.9999977111817,2|0,0:0|0:0,0:0:0:0:
498,271,90127,6,0,P|435:266|378:254,1,74.9999977111817,2|0,0:0|0:0,0:0:0:0:
394,136,90333,5,8,0:0:0:0:
420,138,90435,1,8,0:0:0:0:
155,122,90641,5,2,0:0:0:0:
229,143,90744,1,8,0:0:0:0:
306,133,90846,1,8,0:0:0:0:
346,66,90949,1,8,0:0:0:0:
91,252,91154,6,0,P|134:240|199:250,1,93.7500035762789,6|0,0:0|0:0,0:0:0:0:
486,288,91360,2,0,B|394:258|379:359|286:288,1,187.500007152558,8|2,0:0|0:0,0:0:0:0:
330,141,91668,1,2,0:0:0:0:
330,141,91771,2,0,P|351:182|335:249,1,93.7500035762788,8|0,0:0|0:0,0:0:0:0:
102,84,91976,6,0,P|197:104|176:5,1,187.500007152558,2|8,0:0|0:0,0:0:0:0:
20,39,92285,1,2,0:0:0:0:
20,39,92387,2,0,P|14:87|22:135,1,93.7500035762788,2|0,0:0|0:0,0:0:0:0:
294,114,92593,2,0,P|300:66|292:18,1,93.7500035762788,8|0,0:0|0:0,0:0:0:0:
12,235,92798,6,0,P|116:216|139:217,1,93.7500035762788,2|0,0:0|0:0,0:0:0:0:
309,274,93004,2,0,P|205:293|182:292,1,93.7500035762788,8|0,0:0|0:0,0:0:0:0:
104,125,93209,2,0,B|92:172|92:172|106:230,1,93.7500035762788,2|2,0:0|0:0,0:0:0:0:
216,383,93415,2,0,B|228:336|228:336|214:278,1,93.7500035762788,8|0,0:0|0:0,0:0:0:0:
283,186,93620,5,2,0:0:0:0:
283,186,93723,2,0,L|177:180,1,93.7500035762788,8|0,0:0|0:0,0:0:0:0:
381,240,93928,5,2,0:0:0:0:
381,240,94031,2,0,L|487:234,1,93.7500035762788,8|0,0:0|0:0,0:0:0:0:
216,383,94237,6,0,L|110:377,1,93.7500035762788,8|0,0:0|0:0,0:0:0:0:
187,91,94442,6,0,P|200:141|183:191,1,93.7500035762788,2|0,0:0|0:0,0:0:0:0:
28,384,94648,2,0,P|6:324|122:345,1,187.500007152558,8|2,0:0|0:0,0:0:0:0:
305,375,94956,1,2,0:0:0:0:
305,375,95059,2,0,P|260:389|213:384,1,93.7500035762788,8|0,0:0|0:0,0:0:0:0:
455,216,95264,6,0,P|425:112|346:157,1,187.500007152558,2|8,0:0|0:0,0:0:0:0:
419,295,95572,1,2,0:0:0:0:
419,295,95675,2,0,P|495:291|515:277,1,93.7500035762788,2|0,0:0|0:0,0:0:0:0:
442,39,95880,2,0,P|366:43|346:57,1,93.7500035762788,8|0,0:0|0:0,0:0:0:0:
255,246,96086,6,0,P|259:178|241:58,1,187.500007152558,2|8,0:0|0:0,0:0:0:0:
70,27,96394,1,2,0:0:0:0:
11,182,96497,2,0,P|99:203|178:156,1,187.500007152558,2|8,0:0|0:0,0:0:0:0:
315,29,96805,1,2,0:0:0:0:
315,29,96908,5,2,0:0:0:0:
402,39,97011,1,8,0:0:0:0:
463,104,97113,1,8,0:0:0:0:
481,193,97216,1,8,0:0:0:0:
422,262,97319,5,2,0:0:0:0:
340,242,97422,2,0,L|245:235,1,93.7500035762788,8|0,0:0|0:0,0:0:0:0:
82,370,97627,1,8,0:0:0:0:
16,323,97730,6,0,P|14:252|38:215,1,93.7500035762788,6|0,0:0|0:0,0:0:0:0:
128,25,97935,2,0,B|97:121|157:99|124:222,1,187.500007152558,8|2,0:0|0:0,0:0:0:0:
329,86,98244,1,2,0:0:0:0:
329,86,98346,2,0,P|282:69|213:83,1,93.7500035762788,8|0,0:0|0:0,0:0:0:0:
277,316,98552,6,0,P|212:367|216:277,1,187.500007152558,2|8,0:0|0:0,0:0:0:0:
468,206,98860,2,0,P|509:269|414:255,1,187.500007152558,2|2,0:0|0:0,0:0:0:0:
312,94,99168,2,0,P|309:140|312:217,1,93.7500035762788,8|0,0:0|0:0,0:0:0:0:
10,273,99374,6,0,P|103:302|222:282,1,187.500007152558,6|0,0:0|0:0,0:0:0:0:
212,25,99682,1,0,0:0:0:0:
212,25,99785,2,0,P|119:-4|0:16,1,187.500007152558,6|0,0:0|0:0,0:0:0:0:
252,209,100196,5,2,0:0:0:0:
339,228,100298,1,8,0:0:0:0:
419,211,100401,1,8,0:0:0:0:
475,150,100504,1,8,0:0:0:0:
327,78,100607,5,2,0:0:0:0:
323,111,100709,1,2,0:0:0:0:
356,118,100812,1,2,0:0:0:0:
361,87,100915,1,2,0:0:0:0:
264,25,101017,6,0,P|242:75|237:122,1,93.7500035762788,6|0,0:0|0:0,0:0:0:0:
429,172,101223,2,0,P|451:122|456:75,1,93.7500035762788,8|0,0:0|0:0,0:0:0:0:
143,122,101428,2,0,L|239:113,1,93.7500035762788,2|0,0:0|0:0,0:0:0:0:
432,253,101634,2,0,L|336:244,1,93.7500035762788,8|0,0:0|0:0,0:0:0:0:
41,384,101839,6,0,P|7:336|10:271,1,93.7500035762788,2|0,0:0|0:0,0:0:0:0:
203,192,102045,2,0,P|237:240|234:305,1,93.7500035762788,8|0,0:0|0:0,0:0:0:0:
0,211,102250,2,0,B|-10:244|-10:244|5:315,1,93.7500035762788,2|0,0:0|0:0,0:0:0:0:
239,365,102456,2,0,B|252:308|252:308|242:275,1,93.7500035762788,8|0,0:0|0:0,0:0:0:0:
15,112,102661,6,0,L|125:99,1,93.7500035762788,2|0,0:0|0:0,0:0:0:0:
418,100,102867,2,0,L|308:87,1,93.7500035762788,8|0,0:0|0:0,0:0:0:0:
105,190,103072,2,0,B|93:143|93:143|108:99,1,93.7500035762788,2|0,0:0|0:0,0:0:0:0:
328,0,103278,2,0,B|340:47|340:47|325:91,1,93.7500035762788,8|0,0:0|0:0,0:0:0:0:
292,201,103483,5,2,0:0:0:0:
324,220,103586,1,2,0:0:0:0:
354,226,103689,1,2,0:0:0:0:
385,218,103791,1,2,0:0:0:0:
468,375,103894,5,8,0:0:0:0:
402,303,103997,1,2,0:0:0:0:
306,291,104100,1,8,0:0:0:0:
228,341,104202,1,8,0:0:0:0:
127,375,104305,6,0,P|83:373|30:338,1,93.7500035762788,6|0,0:0|0:0,0:0:0:0:
166,129,104511,2,0,P|249:194|210:282,1,187.500007152558,8|2,0:0|0:0,0:0:0:0:
45,158,104819,1,2,0:0:0:0:
45,158,104922,2,0,P|43:102|71:69,1,93.7500035762788,8|0,0:0|0:0,0:0:0:0:
407,47,105127,6,0,B|321:23|314:104|210:53,1,187.500007152558,2|8,0:0|0:0,0:0:0:0:
472,110,105435,1,2,0:0:0:0:
472,110,105538,2,0,P|494:59|492:17,1,93.7500035762788,2|0,0:0|0:0,0:0:0:0:
147,0,105744,2,0,P|125:51|127:93,1,93.7500035762788,8|0,0:0|0:0,0:0:0:0:
397,173,105949,6,0,L|304:184,1,93.7500035762788,2|0,0:0|0:0,0:0:0:0:
73,256,106154,2,0,L|165:267,1,93.7500035762788,8|0,0:0|0:0,0:0:0:0:
319,362,106360,2,0,P|288:304|249:266,1,93.7500035762788,2|2,0:0|0:0,0:0:0:0:
245,102,106565,2,0,P|215:138|195:180,1,93.7500035762788,8|0,0:0|0:0,0:0:0:0:
481,184,106771,5,2,0:0:0:0:
481,184,106874,2,0,L|487:78,1,93.7500035762788,8|0,0:0|0:0,0:0:0:0:
391,263,107079,5,2,0:0:0:0:
391,263,107182,2,0,L|397:369,1,93.7500035762788,8|0,0:0|0:0,0:0:0:0:
195,180,107387,6,0,L|189:74,1,93.7500035762788,8|8,0:0|0:0,0:0:0:0:
415,89,107593,6,0,P|372:101|307:91,1,93.7500035762789,2|0,0:0|0:0,0:0:0:0:
7,94,107798,2,0,B|99:124|109:43|207:94,1,187.500007152558,8|2,0:0|0:0,0:0:0:0:
159,245,108107,1,2,0:0:0:0:
159,245,108209,2,0,P|138:204|154:137,1,93.7500035762788,8|0,0:0|0:0,0:0:0:0:
384,283,108415,6,0,P|289:263|310:362,1,187.500007152558,2|8,0:0|0:0,0:0:0:0:
466,328,108723,1,2,0:0:0:0:
466,328,108826,2,0,P|472:280|464:232,1,93.7500035762788,2|0,0:0|0:0,0:0:0:0:
192,253,109031,2,0,P|186:301|194:349,1,93.7500035762788,8|0,0:0|0:0,0:0:0:0:
503,115,109237,6,0,P|371:159|272:100,1,187.500007152558,2|8,0:0|0:0,0:0:0:0:
279,261,109545,1,2,0:0:0:0:
397,316,109648,2,0,P|399:215|317:171,1,187.500007152558,2|8,0:0|0:0,0:0:0:0:
114,172,109956,1,0,0:0:0:0:
114,172,110059,5,2,0:0:0:0:
62,248,110161,1,8,0:0:0:0:
93,333,110264,1,8,0:0:0:0:
175,370,110367,1,8,0:0:0:0:
274,346,110470,5,2,0:0:0:0:
320,265,110572,2,0,L|303:162,1,93.7500035762788,8|0,0:0|0:0,0:0:0:0:
373,59,110778,1,8,0:0:0:0:
306,16,110880,6,0,P|220:7|157:21,1,93.7500035762788,2|0,0:0|0:0,0:0:0:0:
3,168,111086,2,0,B|103:172|71:96|172:100,1,187.500007152558,8|2,0:0|0:0,0:0:0:0:
177,275,111394,1,2,0:0:0:0:
177,275,111497,2,0,P|149:209|155:181,1,93.7500035762788,8|0,0:0|0:0,0:0:0:0:
500,172,111702,6,0,P|443:176|460:63,1,187.500007152558,2|8,0:0|0:0,0:0:0:0:
363,342,112011,2,0,P|381:259|299:241,1,187.500007152558,2|2,0:0|0:0,0:0:0:0:
326,46,112319,2,0,P|314:82|311:152,1,93.7500035762788,8|0,0:0|0:0,0:0:0:0:
206,347,112524,6,0,P|113:376|-6:356,1,187.500007152558,6|0,0:0|0:0,0:0:0:0:
4,99,112833,1,0,0:0:0:0:
4,99,112935,2,0,P|97:70|216:90,1,187.500007152558,6|0,0:0|0:0,0:0:0:0:
512,236,113346,5,2,0:0:0:0:
423,285,113449,1,8,0:0:0:0:
326,266,113552,1,0,0:0:0:0:
273,175,113654,1,8,0:0:0:0:
398,139,113757,5,2,0:0:0:0:
416,159,113860,1,2,0:0:0:0:
399,174,113963,1,2,0:0:0:0:
383,156,114065,1,2,0:0:0:0:
386,55,114168,6,0,B|343:51|313:84|313:84|260:40|191:46,1,187.500007152558,2|8,0:0|0:0,0:0:0:0:
64,59,114476,1,0,0:0:0:0:
291,215,114579,2,0,P|246:147|132:166,1,187.500007152558,2|8,0:0|0:0,0:0:0:0:
71,203,114887,1,0,0:0:0:0:
244,292,114990,6,0,P|341:288|354:280,1,93.7500035762788,2|0,0:0|0:0,0:0:0:0:
456,132,115196,2,0,P|410:121|364:130,1,93.7500035762788,8|0,0:0|0:0,0:0:0:0:
450,361,115401,2,0,L|438:256,1,93.7500035762788,2|0,0:0|0:0,0:0:0:0:
269,53,115607,2,0,L|258:146,1,93.7500035762788,8|0,0:0|0:0,0:0:0:0:
73,364,115812,5,6,0:0:0:0:
28,158,116017,2,0,P|52:196|79:252,1,93.7500035762788,2|0,0:0|0:0,0:0:0:0:
73,364,116223,5,6,0:0:0:0:
103,86,116428,1,2,0:0:0:0:
154,149,116531,2,0,P|147:93|148:31,1,93.7500035762788,2|2,0:0|0:0,0:0:0:0:
391,19,116839,5,8,0:0:0:0:
468,68,116942,1,8,0:0:0:0:
500,155,117045,1,2,0:0:0:0:
474,243,117148,1,8,0:0:0:0:
399,298,117250,1,8,0:0:0:0:
307,297,117353,1,8,0:0:0:0:
234,240,117456,6,0,P|225:188|242:141,1,93.7500035762788,6|0,0:0|0:0,0:0:0:0:
420,57,117661,1,8,0:0:0:0:
456,128,117764,1,0,0:0:0:0:
426,202,117867,2,0,P|378:207|325:197,1,93.7500035762788,2|2,0:0|0:0,0:0:0:0:
174,22,118072,2,0,P|222:17|275:27,1,93.7500035762788,8|0,0:0|0:0,0:0:0:0:
48,217,118278,5,2,0:0:0:0:
3,151,118380,1,0,0:0:0:0:
15,75,118483,1,8,0:0:0:0:
80,34,118586,1,0,0:0:0:0:
154,47,118689,2,0,P|174:86|176:136,1,93.7500035762788,2|2,0:0|0:0,0:0:0:0:
62,332,118894,2,0,P|41:290|39:243,1,93.7500035762788,8|0,0:0|0:0,0:0:0:0:
424,200,119100,6,0,L|330:191,1,93.7500035762788,2|0,0:0|0:0,0:0:0:0:
129,270,119305,2,0,L|222:261,1,93.7500035762788,8|0,0:0|0:0,0:0:0:0:
331,102,119511,2,0,B|345:149|345:149|326:203,1,93.7500035762788,2|2,0:0|0:0,0:0:0:0:
221,350,119716,2,0,B|207:303|207:303|226:249,1,93.7500035762788,8|0,0:0|0:0,0:0:0:0:
512,247,119922,5,2,0:0:0:0:
512,247,120024,2,0,L|378:228,1,93.7500035762788,8|0,0:0|0:0,0:0:0:0:
137,174,120230,5,2,0:0:0:0:
137,174,120333,2,0,L|271:155,1,93.7500035762788,8|0,0:0|0:0,0:0:0:0:
508,28,120538,6,0,L|374:9,1,93.7500035762788,8|0,0:0|0:0,0:0:0:0:
213,349,120743,6,0,B|255:350|286:328|286:328|344:362|408:361,1,187.500007152558,6|8,0:0|0:0,0:0:0:0:
443,194,121052,1,0,0:0:0:0:
285,143,121154,2,0,P|210:179|242:281,1,187.500007152558,2|8,0:0|0:0,0:0:0:0:
356,187,121463,1,0,0:0:0:0:
356,187,121565,6,0,P|367:131|351:91,1,93.7500035762788,2|0,0:0|0:0,0:0:0:0:
179,3,121771,1,8,0:0:0:0:
156,75,121874,1,0,0:0:0:0:
191,138,121976,2,0,P|267:143|298:141,1,93.7500035762788,2|2,0:0|0:0,0:0:0:0:
423,34,122182,2,0,P|326:8|268:92,1,187.500007152558,8|2,0:0|0:0,0:0:0:0:
482,182,122490,1,0,0:0:0:0:
512,111,122593,2,0,L|506:15,1,93.7500035762788,8|0,0:0|0:0,0:0:0:0:
321,365,122798,6,0,P|248:280|140:333,1,187.500007152558,2|8,0:0|0:0,0:0:0:0:
87,374,123107,1,0,0:0:0:0:
30,328,123209,2,0,P|46:256|41:218,1,93.7500035762788,8|0,0:0|0:0,0:0:0:0:
22,104,123415,5,8,0:0:0:0:
102,68,123517,1,8,0:0:0:0:
181,93,123620,1,2,0:0:0:0:
247,143,123723,1,8,0:0:0:0:
331,167,123826,1,8,0:0:0:0:
410,131,123928,1,8,0:0:0:0:
489,88,124031,6,0,P|501:154|485:196,1,93.7500035762788,6|0,0:0|0:0,0:0:0:0:
311,283,124237,1,8,0:0:0:0:
284,207,124339,1,0,0:0:0:0:
317,134,124442,2,0,P|370:126|417:132,1,93.7500035762788,2|2,0:0|0:0,0:0:0:0:
509,342,124648,2,0,P|456:350|409:344,1,93.7500035762788,8|0,0:0|0:0,0:0:0:0:
190,230,124853,5,2,0:0:0:0:
180,316,124956,1,0,0:0:0:0:
244,373,125059,1,8,0:0:0:0:
329,382,125161,1,0,0:0:0:0:
393,318,125264,2,0,P|394:266|392:219,1,93.7500035762788,2|2,0:0|0:0,0:0:0:0:
303,55,125470,2,0,P|301:101|302:148,1,93.7500035762788,8|0,0:0|0:0,0:0:0:0:
5,313,125675,6,0,P|83:302|121:305,1,93.7500035762788,2|0,0:0|0:0,0:0:0:0:
250,241,125880,2,0,P|208:219|163:210,1,93.7500035762788,8|0,0:0|0:0,0:0:0:0:
507,313,126086,6,0,P|429:302|391:305,1,93.7500035762788,2|2,0:0|0:0,0:0:0:0:
261,241,126291,2,0,P|303:219|349:210,1,93.7500035762788,8|0,0:0|0:0,0:0:0:0:
256,372,126497,5,2,0:0:0:0:
193,325,126600,1,8,0:0:0:0:
175,249,126702,1,0,0:0:0:0:
194,173,126805,1,2,0:0:0:0:
255,126,126908,5,8,0:0:0:0:
293,143,127011,1,2,0:0:0:0:
339,147,127113,1,2,0:0:0:0:
375,135,127216,1,2,0:0:0:0:
423,75,127319,6,0,P|350:61|318:178,1,187.500007152558,6|8,0:0|0:0,0:0:0:0:
494,126,127627,1,0,0:0:0:0:
494,126,127730,2,0,P|511:44|504:28,1,93.7500035762788,2|2,0:0|0:0,0:0:0:0:
229,62,127935,2,0,P|212:144|219:160,1,93.7500035762788,8|0,0:0|0:0,0:0:0:0:
474,246,128141,6,0,P|419:243|361:244,1,93.7500035762788,2|0,0:0|0:0,0:0:0:0:
148,279,128346,2,0,B|247:275|234:348|336:329,1,187.500007152558,8|2,0:0|0:0,0:0:0:0:
39,339,128654,1,2,0:0:0:0:
39,339,128757,2,0,P|26:281|27:242,1,93.7500035762788,8|0,0:0|0:0,0:0:0:0:
167,20,128963,6,0,P|208:104|201:219,1,187.500007152558,6|8,0:0|0:0,0:0:0:0:
347,233,129271,1,0,0:0:0:0:
402,108,129374,2,0,P|294:95|228:185,1,187.500007152558,2|8,0:0|0:0,0:0:0:0:
242,317,129682,1,8,0:0:0:0:
242,317,129785,5,2,0:0:0:0:
339,380,129887,1,2,0:0:0:0:
449,359,129990,1,2,0:0:0:0:
512,275,130093,1,2,0:0:0:0:
476,155,130196,5,2,0:0:0:0:
381,130,130298,1,2,0:0:0:0:
311,162,130401,1,2,0:0:0:0:
273,148,130504,1,2,0:0:0:0:
252,159,130607,5,6,0:0:0:0:
296,233,130812,1,0,0:0:0:0:
446,276,131017,5,2,0:0:0:0:
340,325,131223,1,0,0:0:0:0:
162,348,131428,5,0,0:0:0:0:
238,356,131634,1,0,0:0:0:0:
158,337,131839,2,0,L|154:264,1,46.8750017881394,0|0,0:0|0:0,0:0:0:0:
45,178,132250,5,2,0:3:0:0:
151,92,132456,1,0,0:0:0:0:
0,102,132661,5,0,0:0:0:0:
204,168,132867,1,0,0:0:0:0:
59,25,133072,5,0,0:0:0:0:
168,15,133278,1,0,0:0:0:0:
62,37,133483,2,0,L|74:90,1,46.8750017881394,0|0,0:0|0:0,0:0:0:0:
310,94,133689,5,0,0:0:0:0:
306,113,133791,1,0,0:0:0:0:
306,133,133894,1,2,0:3:0:0:
360,229,134100,1,0,0:0:0:0:
511,252,134305,5,0,0:0:0:0:
345,336,134511,1,0,0:0:0:0:
436,126,134716,5,0,0:0:0:0:
435,228,134922,1,0,0:0:0:0:
445,122,135127,2,0,L|369:117,1,46.8750017881394,0|0,0:0|0:0,0:0:0:0:
190,34,135333,5,0,0:0:0:0:
181,59,135435,1,0,0:0:0:0:
179,83,135538,1,2,0:3:0:0:
243,211,135744,1,0,0:0:0:0:
261,60,135949,5,0,0:0:0:0:
157,258,136154,1,0,0:0:0:0:
17,140,136360,6,0,L|70:143,1,46.8750017881394,0|0,0:0|0:0,0:0:0:0:
21,124,136668,6,0,L|74:127,1,46.8750017881394,0|0,0:0|0:0,0:0:0:0:
23,104,136976,6,0,L|76:107,1,46.8750017881394,2|2,0:0|0:0,0:0:0:0:
278,45,137182,5,6,0:3:0:0:
363,206,137387,1,0,0:0:0:0:
364,14,137593,5,0,0:0:0:0:
271,250,137798,1,2,0:0:0:0:
471,120,138004,5,0,0:0:0:0:
380,120,138209,1,0,0:0:0:0:
480,134,138415,2,0,P|481:175|478:202,1,46.8750017881394,2|0,0:0|0:0,0:0:0:0:
310,353,138620,5,0,0:0:0:0:
341,358,138723,1,0,0:0:0:0:
368,349,138826,1,6,0:3:0:0:
207,290,139031,1,0,0:0:0:0:
400,269,139237,5,0,0:0:0:0:
163,384,139442,1,2,0:0:0:0:
300,187,139648,5,0,0:0:0:0:
323,289,139853,1,0,0:0:0:0:
316,176,140059,2,0,P|278:174|254:175,1,46.8750017881394,2|0,0:0|0:0,0:0:0:0:
22,69,140264,5,0,0:0:0:0:
52,65,140367,1,0,0:0:0:0:
79,64,140470,1,6,0:3:0:0:
159,233,140675,1,0,0:0:0:0:
159,24,140880,5,0,0:0:0:0:
76,294,141086,1,2,0:0:0:0:
299,72,141291,5,0,0:0:0:0:
165,108,141497,1,0,0:0:0:0:
304,60,141702,2,0,P|312:102|316:121,1,46.8750017881394,2|0,0:0|0:0,0:0:0:0:
491,256,141908,5,0,0:0:0:0:
468,250,142011,1,0,0:0:0:0:
441,247,142113,2,0,P|439:290|444:347,1,93.7500035762788,6|0,0:3|0:0,0:0:0:0:
411,255,142422,2,0,P|414:208|412:161,1,93.7500035762788,2|0,0:0|0:0,0:0:0:0:
435,138,142730,1,2,0:0:0:0:
327,211,142935,5,8,0:0:0:0:
308,206,143038,1,8,0:0:0:0:
289,207,143141,1,2,0:0:0:0:
210,252,143244,5,8,0:0:0:0:
191,257,143346,1,8,0:0:0:0:
172,256,143449,1,2,0:0:0:0:
109,208,143552,5,8,0:0:0:0:
90,203,143654,1,8,0:0:0:0:
71,204,143757,1,6,0:0:0:0:
313,355,147045,5,2,0:0:0:0:
313,355,147456,5,0,0:0:0:0:
298,277,147661,1,2,0:0:0:0:
440,207,148072,5,0,0:0:0:0:
425,285,148278,1,0,0:0:0:0:
323,137,148689,5,2,0:0:0:0:
330,144,149305,5,0,0:0:0:0:
330,144,149408,1,0,0:0:0:0:
330,144,149511,1,0,0:0:0:0:
233,45,149922,5,0,0:0:0:0:
234,56,150024,1,0,0:0:0:0:
236,68,150127,1,0,0:0:0:0:
238,79,150230,1,0,0:0:0:0:
240,91,150333,1,2,0:0:0:0:
21,192,154031,5,0,0:0:0:0:
90,180,154237,1,2,0:0:0:0:
237,248,154648,5,0,0:0:0:0:
52,348,155264,5,2,0:0:0:0:
52,348,155880,5,0,0:0:0:0:
68,269,156086,1,0,0:0:0:0:
201,142,156394,1,0,0:0:0:0:
252,316,156702,1,0,0:0:0:0:
480,352,156908,6,0,P|440:336|381:344,1,100,2|0,0:3|0:0,0:0:0:0:
213,371,157524,5,0,0:0:0:0:
247,302,157730,2,0,L|252:235,1,50,0|0,0:0|0:0,0:0:0:0:
394,156,158141,5,0,0:0:0:0:
338,256,158346,2,0,L|334:206,1,50,0|2,0:0|0:3,0:0:0:0:
116,44,158757,5,0,0:0:0:0:
119,61,158963,1,0,0:0:0:0:
123,81,159168,1,0,0:0:0:0:
207,75,159374,5,0,0:0:0:0:
260,134,159579,1,0,0:0:0:0:
79,247,159785,5,0,0:0:0:0:
104,164,159990,1,0,0:0:0:0:
284,248,160196,5,2,0:3:0:0:
207,228,160401,2,0,P|179:226|141:225,1,50,0|0,0:0|0:0,0:0:0:0:
263,322,160812,5,0,0:0:0:0:
340,302,161017,2,0,P|368:300|406:299,1,50,0|0,0:0|0:0,0:0:0:0:
510,273,161428,5,0,0:0:0:0:
455,384,161634,2,0,P|457:356|458:318,1,50,0|2,0:0|0:3,0:0:0:0:
400,107,162045,5,0,0:0:0:0:
400,129,162250,1,0,0:0:0:0:
401,150,162456,1,0,0:0:0:0:
351,209,162661,5,0,0:0:0:0:
268,187,162867,1,0,0:0:0:0:
164,246,163072,5,0,0:0:0:0:
46,266,163278,1,0,0:0:0:0:
237,370,163483,5,2,0:3:0:0:
275,277,163689,2,0,P|272:246|272:228,1,50,0|0,0:0|0:0,0:0:0:0:
73,253,164100,5,0,0:0:0:0:
123,177,164305,2,0,P|126:146|126:128,1,50,0|0,0:0|0:0,0:0:0:0:
212,14,164716,5,0,0:0:0:0:
96,47,164922,2,0,P|127:50|145:50,1,50,0|2,0:0|0:3,0:0:0:0:
327,99,165333,5,0,0:0:0:0:
329,122,165538,1,0,0:0:0:0:
330,140,165744,1,0,0:0:0:0:
332,15,165949,5,0,0:0:0:0:
408,91,166154,1,0,0:0:0:0:
331,166,166360,5,0,0:0:0:0:
255,91,166565,1,0,0:0:0:0:
418,239,166771,5,2,0:3:0:0:
336,270,166976,2,0,P|293:265|264:266,1,50,0|0,0:0|0:0,0:0:0:0:
126,361,167387,5,0,0:0:0:0:
208,330,167593,2,0,P|251:335|280:334,1,50,0|0,0:0|0:0,0:0:0:0:
107,367,168004,5,0,0:0:0:0:
31,237,168209,2,0,P|36:194|35:165,1,50,0|2,0:0|0:3,0:0:0:0:
170,37,168620,5,0,0:0:0:0:
205,113,168826,1,0,0:0:0:0:
176,192,169031,1,0,0:0:0:0:
280,51,169237,5,0,0:0:0:0:
254,50,169442,1,0,0:0:0:0:
401,135,169648,5,0,0:0:0:0:
427,134,169853,1,0,0:0:0:0:
311,243,170059,6,0,L|312:326,1,50,6|0,0:3|0:0,0:0:0:0:
326,224,170264,1,0,0:0:0:0:
237,361,170470,5,0,0:0:0:0:
227,341,170675,1,0,0:0:0:0:
84,313,170880,6,0,L|168:306,1,50,6|0,0:3|0:0,0:0:0:0:
70,303,171086,2,0,L|154:296,1,50,6|0,0:3|0:0,0:0:0:0:
10,192,171291,5,0,0:0:0:0:
30,202,171497,1,0,0:0:0:0:
172,38,171702,6,0,L|162:101,1,50,6|0,0:3|0:0,0:0:0:0:
196,25,171908,1,0,0:0:0:0:
285,141,172113,6,0,L|295:204,1,50,6|0,0:3|0:0,0:0:0:0:
261,128,172319,1,0,0:0:0:0:
395,55,172524,6,0,L|332:65,1,50,6|0,0:3|0:0,0:0:0:0:
407,37,172730,2,0,L|344:47,1,50,6|0,0:3|0:0,0:0:0:0:
512,162,172935,6,0,L|385:146,1,100,0|0,0:0|0:0,0:0:0:0:
262,257,173346,6,0,L|261:174,1,50,6|0,0:3|0:0,0:0:0:0:
247,276,173552,1,0,0:0:0:0:
118,309,173757,5,0,0:0:0:0:
128,329,173963,1,0,0:0:0:0:
53,199,174168,6,0,L|-31:206,1,50,6|0,0:3|0:0,0:0:0:0:
67,209,174374,2,0,L|-17:216,1,50,6|0,0:3|0:0,0:0:0:0:
168,117,174579,5,0,0:0:0:0:
169,96,174785,1,0,0:0:0:0:
329,317,174990,6,0,L|275:324,1,50,6|0,0:3|0:0,0:0:0:0:
346,333,175196,1,0,0:0:0:0:
459,185,175401,6,0,L|513:192,1,50,6|0,0:3|0:0,0:0:0:0:
442,201,175607,1,0,0:0:0:0:
316,128,175812,6,0,L|326:209,1,50,6|0,0:3|0:0,0:0:0:0:
288,122,176017,2,0,L|298:203,1,50,6|0,0:3|0:0,0:0:0:0:
414,4,176223,6,0,L|399:121,1,100,0|0,0:0|0:0,0:0:0:0:
358,326,176634,6,0,P|308:322|271:335,1,62.5,6|0,0:3|0:0,0:0:0:0:
451,356,176839,1,0,0:0:0:0:
198,293,177045,5,0,0:0:0:0:
217,376,177250,1,0,0:0:0:0:
373,173,177456,6,0,P|382:228|383:253,1,62.5,6|0,0:3|0:0,0:0:0:0:
447,100,177661,2,0,P|456:155|457:180,1,62.5,6|0,0:3|0:0,0:0:0:0:
305,268,177867,5,0,0:0:0:0:
432,304,178072,1,0,0:0:0:0:
230,124,178278,6,0,P|172:133|159:137,1,62.5,6|0,0:3|0:0,0:0:0:0:
299,72,178483,1,0,0:0:0:0:
69,226,178689,6,0,P|127:235|140:239,1,62.5,6|0,0:3|0:0,0:0:0:0:
0,174,178894,1,0,0:0:0:0:
274,308,179100,6,0,P|216:317|203:321,1,62.5,6|0,0:3|0:0,0:0:0:0:
392,281,179305,2,0,P|355:235|345:226,1,62.5,6|0,0:3|0:0,0:0:0:0:
480,362,179511,6,0,P|505:306|512:235,1,125,0|0,0:0|0:0,0:0:0:0:
367,115,179922,6,0,P|402:108|437:110,1,62.5,6|0,0:3|0:0,0:0:0:0:
287,70,180127,1,0,0:0:0:0:
485,170,180333,5,0,0:0:0:0:
500,69,180538,1,0,0:0:0:0:
378,255,180744,6,0,P|359:193|351:175,1,62.5,6|0,0:3|0:0,0:0:0:0:
287,360,180949,2,0,P|268:298|260:280,1,62.5,6|0,0:3|0:0,0:0:0:0:
489,354,181154,5,0,0:0:0:0:
493,329,181360,1,0,0:0:0:0:
398,123,181565,6,0,P|296:145|274:185,1,149.999995422363,6|0,0:3|0:0,0:0:0:0:
77,282,181976,2,0,P|179:304|201:344,1,149.999995422363,6|0,0:3|0:0,0:0:0:0:
358,378,182387,6,0,L|365:287,1,74.9999977111817,2|0,0:3|0:0,0:0:0:0:
171,258,182593,2,0,L|163:171,1,74.9999977111817,2|0,0:3|0:0,0:0:0:0:
338,91,182798,6,0,B|348:48|323:21|323:21|257:33|239:120|311:163,1,224.999993133545,6|0,0:0|0:0,0:0:0:0:
352,193,183209,6,0,P|304:161|225:194,1,125,6|0,0:0|0:0,0:0:0:0:
309,350,183517,1,0,0:0:0:0:
309,350,183620,2,0,B|321:280|321:280|283:230,1,125,2|0,0:0|0:0,0:0:0:0:
135,267,184031,2,0,B|123:337|123:337|161:387,1,125,0|2,0:0|0:0,0:0:0:0:
23,138,184442,2,0,L|43:264,1,125,8|0,0:0|0:0,0:0:0:0:
236,44,184853,6,0,P|168:23|112:47,1,125,2|0,0:3|0:0,0:0:0:0:
118,182,185264,2,0,P|186:203|242:179,1,125,2|0,0:0|0:0,0:0:0:0:
341,28,185675,2,0,B|308:83|308:83|327:143,1,125,0|2,0:0|0:0,0:0:0:0:
492,159,186086,2,0,B|525:104|525:104|506:44,1,125,8|0,0:0|0:0,0:0:0:0:
416,96,186497,6,0,L|398:247,1,125,2|0,0:3|0:0,0:0:0:0:
158,205,186805,1,0,0:0:0:0:
158,205,186908,2,0,P|250:184|298:224,1,125,2|0,0:0|0:0,0:0:0:0:
281,353,187319,2,0,P|189:374|141:334,1,125,0|2,0:0|0:0,0:0:0:0:
468,277,187730,2,0,B|410:311|410:311|330:284,1,125,8|0,0:0|0:0,0:0:0:0:
291,35,188141,6,0,P|276:90|289:169,1,125,2|0,0:3|0:0,0:0:0:0:
492,168,188449,1,0,0:0:0:0:
492,168,188552,2,0,P|507:113|494:34,1,125,2|0,0:0|0:0,0:0:0:0:
348,208,188963,2,0,B|288:191|288:191|211:216,1,125,0|2,0:0|0:0,0:0:0:0:
419,359,189374,5,8,0:0:0:0:
489,321,189476,1,8,0:0:0:0:
508,248,189579,1,8,0:0:0:0:
480,174,189682,1,8,0:0:0:0:
419,125,189785,6,0,L|295:97,1,125,6|0,0:0|0:0,0:0:0:0:
59,79,190093,1,0,0:0:0:0:
59,79,190196,2,0,B|43:141|43:141|77:196,1,125,2|0,0:0|0:0,0:0:0:0:
254,164,190607,2,0,B|270:102|270:102|236:47,1,125,0|2,0:0|0:0,0:0:0:0:
189,276,191017,2,0,L|158:144,1,125,8|0,0:0|0:0,0:0:0:0:
363,31,191428,6,0,P|447:19|498:49,1,125,2|0,0:3|0:0,0:0:0:0:
476,207,191839,2,0,P|392:219|341:189,1,125,2|0,0:0|0:0,0:0:0:0:
270,60,192250,2,0,B|299:119|299:119|272:173,1,125,0|2,0:0|0:0,0:0:0:0:
107,178,192661,2,0,B|78:119|78:119|105:65,1,125,8|0,0:0|0:0,0:0:0:0:
173,250,193072,6,0,P|121:276|42:254,1,125,2|0,0:3|0:0,0:0:0:0:
260,58,193380,1,0,0:0:0:0:
260,58,193483,2,0,P|242:109|255:179,1,125,2|0,0:0|0:0,0:0:0:0:
436,186,193894,2,0,P|454:135|441:65,1,125,0|2,0:0|0:0,0:0:0:0:
363,296,194305,2,0,L|339:163,1,125,8|0,0:0|0:0,0:0:0:0:
105,335,194716,6,0,B|170:356|170:356|242:335,1,125,2|0,0:3|0:0,0:0:0:0:
23,171,195127,2,0,L|33:237,1,62.5,2|0,0:0|0:0,0:0:0:0:
175,241,195333,1,8,0:0:0:0:
179,167,195435,1,8,0:0:0:0:
181,92,195538,6,0,B|116:71|116:71|44:92,1,125,2|0,0:0|0:0,0:0:0:0:
225,22,195846,1,2,0:0:0:0:
295,44,195949,2,0,L|408:36,1,62.5,2|0,0:0|0:0,0:0:0:0:
458,85,196154,5,8,0:0:0:0:
432,159,196257,1,8,0:0:0:0:
481,218,196360,2,0,B|512:275|512:275|490:348,1,125,6|0,0:0|0:0,0:0:0:0:
287,194,196668,1,0,0:0:0:0:
287,194,196771,2,0,P|363:168|421:196,1,125,2|0,0:0|0:0,0:0:0:0:
419,349,197182,2,0,P|343:375|285:347,1,125,0|2,0:0|0:0,0:0:0:0:
204,208,197593,2,0,B|234:248|234:248|235:327,1,125,8|0,0:0|0:0,0:0:0:0:
15,194,198004,6,0,P|108:163|150:182,1,125,6|0,0:3|0:0,0:0:0:0:
157,346,198415,2,0,P|103:376|42:370,1,125,2|0,0:0|0:0,0:0:0:0:
221,151,198826,2,0,B|210:218|210:218|252:268,1,125,0|2,0:0|0:0,0:0:0:0:
396,228,199237,2,0,B|407:161|407:161|365:111,1,125,8|0,0:0|0:0,0:0:0:0:
107,161,199648,6,0,P|180:175|224:146,1,125,6|0,0:3|0:0,0:0:0:0:
71,252,199956,1,0,0:0:0:0:
71,252,200059,2,0,B|56:320|56:320|101:376,1,125,2|0,0:0|0:0,0:0:0:0:
294,332,200470,2,0,B|309:264|309:264|264:208,1,125,0|2,0:0|0:0,0:0:0:0:
72,40,200880,2,0,L|109:167,1,125,8|0,0:0|0:0,0:0:0:0:
375,49,201291,6,0,P|313:26|250:44,1,125,6|0,0:3|0:0,0:0:0:0:
248,204,201600,1,0,0:0:0:0:
248,204,201702,2,0,P|310:227|373:209,1,125,2|0,0:0|0:0,0:0:0:0:
161,124,202113,2,0,B|103:105|103:105|45:133,1,125,0|2,0:0|0:0,0:0:0:0:
35,343,202524,5,8,0:0:0:0:
110,370,202627,1,8,0:0:0:0:
190,362,202730,1,8,0:0:0:0:
257,328,202833,1,8,0:0:0:0:
295,256,202935,6,0,P|282:178|215:123,1,125,6|0,0:0|0:0,0:0:0:0:
55,229,203243,1,0,0:0:0:0:
55,229,203346,2,0,B|118:248|118:248|186:229,1,125,2|0,0:0|0:0,0:0:0:0:
175,26,203757,2,0,B|112:7|112:7|44:26,1,125,0|2,0:0|0:0,0:0:0:0:
376,120,204168,2,0,L|220:150,1,125,8|0,0:0|0:0,0:0:0:0:
479,359,204579,6,0,B|501:297|501:297|476:239,1,125,6|0,0:3|0:0,0:0:0:0:
279,249,204990,2,0,B|257:311|257:311|282:369,1,125,2|0,0:0|0:0,0:0:0:0:
385,159,205401,2,0,P|407:92|369:32,1,125,0|2,0:0|0:0,0:0:0:0:
167,47,205812,2,0,P|145:114|183:174,1,125,8|0,0:0|0:0,0:0:0:0:
423,229,206223,6,0,P|365:195|291:215,1,125,6|0,0:3|0:0,0:0:0:0:
133,367,206531,1,0,0:0:0:0:
133,367,206634,2,0,B|93:321|93:321|102:252,1,125,2|0,0:0|0:0,0:0:0:0:
288,209,207045,2,0,B|328:255|328:255|319:324,1,125,0|2,0:0|0:0,0:0:0:0:
26,197,207456,2,0,P|95:166|152:181,1,125,8|0,0:0|0:0,0:0:0:0:
322,33,207867,6,0,B|256:27|256:27|194:67,1,125,6|0,0:3|0:0,0:0:0:0:
369,127,208175,1,0,0:0:0:0:
409,67,208278,2,0,L|395:7,1,62.5,2|0,0:0|0:0,0:0:0:0:
278,117,208483,1,8,0:0:0:0:
271,187,208586,1,8,0:0:0:0:
264,259,208689,1,2,0:0:0:0:
484,282,208894,5,0,0:0:0:0:
485,240,208997,1,8,0:0:0:0:
448,208,209100,5,10,0:0:0:0:
361,193,209202,1,0,0:0:0:0:
291,233,209305,1,8,0:0:0:0:
217,199,209408,1,8,0:0:0:0:
152,260,209511,6,0,P|129:203|159:142,1,93.7500035762788,6|0,0:0|0:0,0:0:0:0:
286,12,209716,1,10,0:0:0:0:
324,76,209819,1,2,0:0:0:0:
301,149,209922,2,0,P|236:149|210:131,1,93.7500035762788,2|2,0:0|0:0,0:0:0:0:
414,26,210127,2,0,P|479:26|505:44,1,93.7500035762788,10|0,0:0|0:0,0:0:0:0:
437,269,210333,6,0,B|459:224|428:176|428:176|364:201|363:251,1,187.500007152558,2|8,0:0|0:0,0:0:0:0:
274,366,210641,1,0,0:0:0:0:
274,366,210744,2,0,P|251:312|260:269,1,93.7500035762788,2|2,0:0|0:0,0:0:0:0:
168,84,210949,6,0,B|144:22|56:24|15:88|39:159|102:178|102:178|68:220|82:284,1,375.000014305115,14|8,0:0|0:0,0:0:0:0:
153,351,211463,1,0,0:0:0:0:
153,351,211565,2,0,P|178:283|166:238,1,93.7500035762788,2|2,0:0|0:0,0:0:0:0:
278,87,211771,1,8,0:0:0:0:
307,155,211874,1,0,0:0:0:0:
263,218,211976,6,0,P|220:247|134:137,1,187.500007152558,6|0,0:0|0:0,0:0:0:0:
335,181,212285,1,2,0:0:0:0:
367,292,212387,2,0,P|421:222|504:251,1,187.500007152558,10|8,0:0|0:0,0:0:0:0:
326,362,212696,1,0,0:0:0:0:
180,340,212798,6,0,B|87:308|91:388|-8:345,1,187.500007152558,2|8,0:0|0:0,0:0:0:0:
151,157,213107,2,0,P|239:186|242:294,1,187.500007152558,2|2,0:0|0:0,0:0:0:0:
22,208,213415,2,0,P|13:136|40:88,1,93.7500035762788,8|0,0:0|0:0,0:0:0:0:
250,74,213620,6,0,P|259:146|232:194,1,93.7500035762788,2|2,0:0|0:0,0:0:0:0:
226,300,213826,1,8,0:0:0:0:
306,238,213928,2,0,P|380:288|374:378,1,187.500007152558,2|2,0:0|0:0,0:0:0:0:
468,138,214237,2,0,P|399:155|329:148,1,93.7500035762788,8|0,0:0|0:0,0:0:0:0:
95,32,214442,6,0,B|200:20|186:107|334:39,1,187.500007152558,2|8,0:0|0:0,0:0:0:0:
28,189,214750,1,0,0:0:0:0:
28,189,214853,2,0,P|20:127|26:89,1,93.7500035762788,2|2,0:0|0:0,0:0:0:0:
250,145,215059,2,0,P|258:207|252:245,1,93.7500035762788,8|0,0:0|0:0,0:0:0:0:
0,284,215264,5,2,0:0:0:0:
90,268,215367,1,8,0:0:0:0:
169,311,215470,1,8,0:0:0:0:
224,384,215572,5,0,0:0:0:0:
304,351,215675,1,8,0:0:0:0:
384,365,215778,2,0,L|484:347,1,93.7500035762788,8|0,0:0|0:0,0:0:0:0:
444,193,215983,1,10,0:0:0:0:
392,268,216086,6,0,P|414:183|279:171,1,212.500004053116,6|8,0:0|0:0,0:0:0:0:
141,233,216394,1,2,0:0:0:0:
130,131,216497,2,0,P|114:194|112:238,1,106.250002026558,2|2,0:0|0:0,0:0:0:0:
230,137,216702,2,0,P|226:84|211:33,1,106.250002026558,8|0,0:0|0:0,0:0:0:0:
482,229,216908,6,0,B|396:258|343:206|343:206|313:273|313:273|223:219|105:267,1,425.000008106232,6|2,0:0|0:0,0:0:0:0:
199,344,217422,5,0,0:0:0:0:
284,370,217524,1,8,0:0:0:0:
372,363,217627,1,0,0:0:0:0:
436,309,217730,6,0,B|368:242|397:155|462:131|462:131|473:43|369:13,1,318.750006079674,6|0,0:0|0:0,0:0:0:0:
326,183,218141,2,0,P|325:264|346:308,1,106.250002026558,2|2,0:0|0:0,0:0:0:0:
400,27,218346,5,8,0:0:0:0:
308,12,218449,1,0,0:0:0:0:
233,63,218552,2,0,B|172:90|110:54|110:54|82:87|29:91,1,212.500004053116,2|0,0:0|0:0,0:0:0:0:
195,333,218860,1,10,0:0:0:0:
266,300,218963,2,0,P|274:171|171:161,1,212.500004053116,2|2,0:0|0:0,0:0:0:0:
420,82,219374,6,0,B|383:82|356:110|356:110|305:49|198:43,1,212.500004053116,2|8,0:0|0:0,0:0:0:0:
420,168,219682,1,0,0:0:0:0:
497,129,219785,2,0,P|491:28|472:12,1,106.250002026558,2|2,0:0|0:0,0:0:0:0:
337,195,219990,2,0,P|236:201|220:220,1,106.250002026558,10|0,0:0|0:0,0:0:0:0:
473,351,220196,6,0,B|482:296|482:296|446:236,1,106.250002026558,2|0,0:0|0:0,0:0:0:0:
227,207,220401,1,8,0:0:0:0:
192,286,220504,2,0,B|183:341|183:341|219:401,1,106.250002026558,0|2,0:0|0:0,0:0:0:0:
509,159,220709,5,2,0:0:0:0:
434,126,220812,1,8,0:0:0:0:
352,143,220915,1,0,0:0:0:0:
279,106,221017,6,0,P|192:100|151:119,1,106.250002026558,2|0,0:0|0:0,0:0:0:0:
281,322,221223,2,0,P|368:328|409:309,1,106.250002026558,10|0,0:0|0:0,0:0:0:0:
100,46,221428,5,2,0:0:0:0:
55,152,221531,1,2,0:0:0:0:
86,231,221634,1,8,0:0:0:0:
128,251,221737,1,0,0:0:0:0:
191,189,221839,5,2,0:0:0:0:
156,181,221942,1,2,0:0:0:0:
236,372,222148,5,2,0:0:0:0:
271,364,222250,1,2,0:0:0:0:
45,133,222456,5,8,0:0:0:0:
19,230,222559,1,8,0:0:0:0:
64,321,222661,1,2,0:0:0:0:
443,344,224305,5,2,0:3:0:0:
124,267,225949,5,2,0:2:0:0:
434,273,227593,5,2,0:3:0:0:
91,148,229237,5,2,0:2:0:0:
452,142,230880,5,2,0:3:0:0:
116,91,232524,5,2,0:2:0:0:
433,45,234168,5,2,0:3:0:0:
248,273,235401,6,0,P|249:297|250:317,1,37.5,0|0,0:0|0:0,0:0:0:0:
252,346,235812,5,6,0:3:0:0:
297,211,236017,2,0,P|253:199|234:200,1,62.5,0|0,0:0|0:0,0:0:0:0:
355,293,236428,1,2,0:0:0:0:
425,214,236634,2,0,L|409:146,1,62.5,0|0,0:0|0:0,0:0:0:0:
345,26,237045,1,0,0:0:0:0:
323,121,237250,1,0,0:0:0:0:
474,98,237456,6,0,P|433:75|401:72,1,62.5,6|0,0:3|0:0,0:0:0:0:
307,142,237867,1,0,0:0:0:0:
204,89,238072,1,2,0:0:0:0:
10,96,238278,6,0,L|17:172,1,62.5,2|0,0:3|0:0,0:0:0:0:
104,69,238689,2,0,L|109:6,1,62.5,2|0,0:3|0:0,0:0:0:0:
88,228,239100,5,6,0:3:0:0:
181,189,239305,2,0,P|225:183|248:182,1,62.5,0|0,0:0|0:0,0:0:0:0:
294,271,239716,1,2,0:0:0:0:
383,213,239922,2,0,L|374:142,1,62.5,0|0,0:0|0:0,0:0:0:0:
512,16,240333,1,0,0:0:0:0:
482,131,240538,1,0,0:0:0:0:
347,45,240743,6,0,P|409:49|426:56,1,62.5,6|0,0:3|0:0,0:0:0:0:
232,70,241154,2,0,P|236:8|243:-9,1,62.5,2|2,0:3|0:0,0:0:0:0:
253,304,241565,6,0,L|179:294,1,62.5,2|0,0:3|0:0,0:0:0:0:
297,186,241976,2,0,L|371:176,1,62.5,2|0,0:3|0:0,0:0:0:0:
104,140,242387,5,6,0:3:0:0:
31,229,242593,2,0,P|22:273|24:311,1,62.5,0|0,0:0|0:0,0:0:0:0:
109,371,243004,1,2,0:0:0:0:
232,323,243209,2,0,P|241:279|239:241,1,62.5,0|0,0:0|0:0,0:0:0:0:
271,239,243517,2,0,P|263:209|262:178,1,62.5,0|0,0:0|0:0,0:0:0:0:
243,153,243826,1,0,0:0:0:0:
413,25,244031,6,0,L|491:32,1,62.5,6|0,0:3|0:0,0:0:0:0:
271,56,244442,2,0,L|193:63,1,62.5,2|2,0:3|0:0,0:0:0:0:
404,108,244853,2,0,L|482:115,1,62.5,2|0,0:3|0:0,0:0:0:0:
262,139,245264,2,0,L|184:146,1,62.5,2|0,0:3|0:0,0:0:0:0:
381,305,245675,6,0,P|395:257|385:223,1,62.5,6|0,0:3|0:0,0:0:0:0:
248,297,246086,2,0,P|248:328|260:356,1,62.5,0|2,0:0|0:0,0:0:0:0:
299,220,246497,5,0,0:0:0:0:
186,253,246702,1,0,0:0:0:0:
106,178,246908,1,0,0:0:0:0:
0,214,247113,1,0,0:0:0:0:
345,341,247319,5,6,0:3:0:0:
363,366,247422,2,0,P|425:362|483:349,1,74.9999977111817,0|2,0:0|0:0,0:0:0:0:
284,246,247627,5,2,0:0:0:0:
254,249,247730,2,0,P|227:304|209:361,1,74.9999977111817,2|0,0:0|0:0,0:0:0:0:
19,266,247935,6,0,P|82:261|139:249,1,74.9999977111817,8|0,0:0|0:0,0:0:0:0:
123,131,248141,5,8,0:0:0:0:
97,133,248243,1,8,0:0:0:0:
362,117,248449,5,8,0:0:0:0:
288,138,248552,1,2,0:0:0:0:
211,128,248654,1,2,0:0:0:0:
171,61,248757,1,8,0:0:0:0:
470,202,248963,6,0,P|426:216|366:201,1,93.7500035762788,6|0,0:0|0:0,0:0:0:0:
84,238,249168,2,0,B|201:220|157:313|308:263,1,187.500007152558,8|2,0:0|0:0,0:0:0:0:
116,336,249476,1,2,0:0:0:0:
116,336,249579,2,0,P|61:326|0:291,1,93.7500035762788,8|0,0:0|0:0,0:0:0:0:
141,40,249785,6,0,P|217:51|163:143,1,187.500007152558,2|8,0:0|0:0,0:0:0:0:
55,103,250093,1,2,0:0:0:0:
55,103,250196,2,0,P|29:48|40:-15,1,93.7500035762788,2|0,0:0|0:0,0:0:0:0:
320,97,250401,2,0,P|317:51|295:11,1,93.7500035762788,8|0,0:0|0:0,0:0:0:0:
120,169,250607,6,0,B|105:209|105:209|116:259,1,93.7500035762788,2|0,0:0|0:0,0:0:0:0:
326,217,250812,2,0,B|340:257|340:257|329:307,1,93.7500035762788,8|0,0:0|0:0,0:0:0:0:
40,333,251017,2,0,L|132:349,1,93.7500035762788,2|2,0:0|0:0,0:0:0:0:
315,136,251223,2,0,L|223:153,1,93.7500035762788,8|0,0:0|0:0,0:0:0:0:
466,353,251428,5,2,0:0:0:0:
466,353,251531,2,0,L|454:237,1,93.7500035762788,8|0,0:0|0:0,0:0:0:0:
320,155,251737,5,2,0:0:0:0:
320,155,251839,2,0,L|310:248,1,93.7500035762788,8|0,0:0|0:0,0:0:0:0:
63,351,252045,6,0,L|51:235,1,93.7500035762788,8|0,0:0|0:0,0:0:0:0:
307,60,252250,6,0,P|225:93|178:70,1,93.7500035762788,2|0,0:0|0:0,0:0:0:0:
24,240,252456,2,0,P|153:260|196:370,1,187.500007152558,8|2,0:0|0:0,0:0:0:0:
27,348,252764,1,2,0:0:0:0:
27,348,252867,2,0,P|8:282|5:243,1,93.7500035762788,8|0,0:0|0:0,0:0:0:0:
66,63,253072,6,0,B|166:43|149:129|264:88,1,187.500007152558,2|8,0:0|0:0,0:0:0:0:
87,148,253380,1,2,0:0:0:0:
87,148,253483,2,0,P|36:144|-5:112,1,93.7500035762788,2|0,0:0|0:0,0:0:0:0:
240,12,253689,2,0,P|291:16|332:48,1,93.7500035762788,8|0,0:0|0:0,0:0:0:0:
273,364,253894,6,0,P|297:284|259:189,1,187.500007152558,2|8,0:0|0:0,0:0:0:0:
386,122,254202,1,0,0:0:0:0:
464,238,254305,2,0,P|343:260|280:179,1,187.500007152558,2|8,0:0|0:0,0:0:0:0:
197,29,254613,1,2,0:0:0:0:
197,29,254716,5,2,0:0:0:0:
88,24,254819,1,8,0:0:0:0:
16,85,254922,1,8,0:0:0:0:
0,184,255024,1,2,0:0:0:0:
64,263,255127,5,8,0:0:0:0:
150,214,255230,2,0,L|245:207,1,93.7500035762788,8|0,0:0|0:0,0:0:0:0:
407,362,255435,1,8,0:0:0:0:
496,323,255538,6,0,P|498:252|474:215,1,93.7500035762788,2|0,0:0|0:0,0:0:0:0:
329,25,255743,2,0,P|290:104|362:199,1,187.500007152558,8|2,0:0|0:0,0:0:0:0:
507,42,256052,1,2,0:0:0:0:
507,42,256154,2,0,P|446:15|413:18,1,93.7500035762788,8|0,0:0|0:0,0:0:0:0:
350,314,256360,6,0,P|420:330|403:234,1,187.500007152558,2|8,0:0|0:0,0:0:0:0:
183,67,256668,2,0,P|261:45|264:126,1,187.500007152558,2|2,0:0|0:0,0:0:0:0:
64,276,256976,2,0,P|146:257|167:259,1,93.7500035762788,8|0,0:0|0:0,0:0:0:0:
512,351,257182,6,0,P|523:248|468:145,1,187.500007152558,6|0,0:0|0:0,0:0:0:0:
192,201,257490,1,0,0:0:0:0:
192,201,257593,2,0,P|181:304|236:407,1,187.500007152558,6|0,0:0|0:0,0:0:0:0:
412,56,258004,5,2,0:0:0:0:
412,56,258107,2,0,L|547:40,1,93.7500035762788,8|0,0:0|0:0,0:0:0:0:
330,291,258312,5,2,0:0:0:0:
330,291,258415,2,0,L|368:206,1,93.7500035762788,8|0,0:0|0:0,0:0:0:0:
203,16,258620,6,0,L|259:91,1,93.7500035762788,8|0,0:0|0:0,0:0:0:0:
97,384,258826,6,0,P|115:261|220:274,1,187.500007152558,6|8,0:0|0:0,0:0:0:0:
130,100,259134,1,0,0:0:0:0:
20,186,259237,2,0,P|154:237|232:198,1,187.500007152558,2|8,0:0|0:0,0:0:0:0:
280,245,259545,1,0,0:0:0:0:
34,360,259648,6,0,B|69:354|99:321|99:321|162:330|235:300,1,187.500007152558,2|8,0:0|0:0,0:0:0:0:
442,295,259956,1,0,0:0:0:0:
442,295,260059,2,0,P|464:337|460:383,1,93.7500035762788,2|2,0:0|0:0,0:0:0:0:
205,226,260264,2,0,P|201:180|223:139,1,93.7500035762788,8|0,0:0|0:0,0:0:0:0:
491,177,260470,6,0,L|272:203,1,187.500007152558,6|0,0:0|0:0,0:0:0:0:
2,283,260880,6,0,L|221:309,1,187.500007152558,6|0,0:0|0:0,0:0:0:0:
370,358,261189,1,0,0:0:0:0:
370,358,261291,5,8,0:0:0:0:
406,281,261394,1,0,0:0:0:0:
378,196,261497,1,8,0:0:0:0:
299,164,261600,1,8,0:0:0:0:
120,42,261702,5,2,0:0:0:0:
178,125,261805,1,2,0:0:0:0:
284,141,261908,1,2,0:0:0:0:
383,89,262011,1,2,0:0:0:0:
278,26,262113,6,0,P|265:70|275:116,1,93.7500035762788,6|0,0:0|0:0,0:0:0:0:
476,200,262319,1,8,0:0:0:0:
512,129,262422,1,0,0:0:0:0:
481,54,262524,2,0,P|434:48|388:56,1,93.7500035762788,2|2,0:0|0:0,0:0:0:0:
256,205,262730,2,0,P|304:200|357:210,1,93.7500035762788,8|0,0:0|0:0,0:0:0:0:
46,193,262935,5,2,0:0:0:0:
1,259,263038,1,0,0:0:0:0:
13,335,263141,1,8,0:0:0:0:
78,376,263244,1,2,0:0:0:0:
152,363,263346,6,0,P|172:324|174:274,1,93.7500035762788,2|0,0:0|0:0,0:0:0:0:
62,26,263552,2,0,P|16:64|67:175,1,187.500007152558,8|2,0:0|0:0,0:0:0:0:
295,98,263860,1,0,0:0:0:0:
295,98,263963,2,0,B|309:55|309:55|295:8,1,93.7500035762788,8|0,0:0|0:0,0:0:0:0:
156,238,264168,2,0,B|185:271|185:271|232:283,1,93.7500035762788,2|2,0:0|0:0,0:0:0:0:
212,56,264374,2,0,B|168:64|168:64|134:99,1,93.7500035762788,8|0,0:0|0:0,0:0:0:0:
414,217,264579,5,2,0:0:0:0:
414,217,264682,2,0,L|280:198,1,93.7500035762788,8|0,0:0|0:0,0:0:0:0:
28,185,264887,5,2,0:0:0:0:
28,185,264990,2,0,L|162:166,1,93.7500035762788,8|0,0:0|0:0,0:0:0:0:
393,33,265196,6,0,L|259:14,1,93.7500035762788,8|0,0:0|0:0,0:0:0:0:
300,347,265401,6,0,B|258:349|227:326|227:326|169:360|105:359,1,187.500007152558,6|8,0:0|0:0,0:0:0:0:
56,197,265709,1,0,0:0:0:0:
200,147,265812,2,0,P|289:182|257:284,1,187.500007152558,2|8,0:0|0:0,0:0:0:0:
386,384,266120,1,0,0:0:0:0:
386,384,266223,6,0,P|397:328|381:288,1,93.7500035762788,2|0,0:0|0:0,0:0:0:0:
104,122,266428,1,8,0:0:0:0:
61,184,266531,1,2,0:0:0:0:
97,253,266634,2,0,P|173:258|204:256,1,93.7500035762788,2|0,0:0|0:0,0:0:0:0:
169,48,266839,2,0,P|72:22|14:106,1,187.500007152558,8|2,0:0|0:0,0:0:0:0:
173,184,267148,1,2,0:0:0:0:
246,134,267250,2,0,P|275:94|284:33,1,93.7500035762788,8|0,0:0|0:0,0:0:0:0:
489,352,267456,6,0,P|463:332|378:349,1,93.7500035762788,2|0,0:0|0:0,0:0:0:0:
142,363,267661,2,0,P|171:327|187:283,1,93.7500035762788,8|0,0:0|0:0,0:0:0:0:
44,2,267867,5,8,0:0:0:0:
0,88,267970,1,8,0:0:0:0:
51,169,268072,1,2,0:0:0:0:
150,166,268175,1,8,0:0:0:0:
193,82,268278,5,8,0:0:0:0:
275,33,268380,1,2,0:0:0:0:
369,40,268483,1,2,0:0:0:0:
433,100,268586,1,2,0:0:0:0:
507,44,268689,6,0,P|519:110|503:152,1,93.7500035762788,6|0,0:0|0:0,0:0:0:0:
311,258,268894,1,8,0:0:0:0:
284,182,268997,1,0,0:0:0:0:
317,109,269100,2,0,P|370:101|417:107,1,93.7500035762788,2|2,0:0|0:0,0:0:0:0:
146,31,269305,2,0,P|93:39|46:33,1,93.7500035762788,8|0,0:0|0:0,0:0:0:0:
219,158,269511,5,2,0:0:0:0:
229,244,269613,1,0,0:0:0:0:
165,301,269716,1,8,0:0:0:0:
80,310,269819,1,2,0:0:0:0:
16,246,269922,2,0,P|15:194|17:147,1,93.7500035762788,2|0,0:0|0:0,0:0:0:0:
237,264,270127,2,0,P|235:310|236:357,1,93.7500035762788,8|0,0:0|0:0,0:0:0:0:
125,118,270333,6,0,P|203:107|241:110,1,93.7500035762788,2|0,0:0|0:0,0:0:0:0:
381,67,270538,2,0,P|426:76|468:98,1,93.7500035762788,8|0,0:0|0:0,0:0:0:0:
23,244,270744,6,0,P|70:245|116:255,1,93.7500035762788,2|2,0:0|0:0,0:0:0:0:
268,272,270949,2,0,P|309:250|355:241,1,93.7500035762788,8|0,0:0|0:0,0:0:0:0:
114,376,271154,5,2,0:0:0:0:
51,329,271257,1,8,0:0:0:0:
33,253,271360,1,0,0:0:0:0:
52,177,271463,1,8,0:0:0:0:
149,148,271565,5,0,0:0:0:0:
187,165,271668,1,8,0:0:0:0:
233,169,271771,1,0,0:0:0:0:
269,157,271874,1,2,0:0:0:0:
405,150,271976,6,0,P|332:136|300:253,1,187.500007152558,6|8,0:0|0:0,0:0:0:0:
480,215,272285,1,0,0:0:0:0:
480,215,272387,2,0,P|497:133|490:117,1,93.7500035762788,2|2,0:0|0:0,0:0:0:0:
318,29,272593,2,0,P|301:111|308:127,1,93.7500035762788,8|0,0:0|0:0,0:0:0:0:
498,353,272798,6,0,P|443:350|385:351,1,93.7500035762788,2|0,0:0|0:0,0:0:0:0:
130,277,273004,2,0,P|249:232|320:323,1,187.500007152558,8|2,0:0|0:0,0:0:0:0:
38,337,273312,1,0,0:0:0:0:
38,337,273415,2,0,P|25:279|26:240,1,93.7500035762788,8|0,0:0|0:0,0:0:0:0:
238,77,273620,6,0,B|344:59|326:148|461:101,1,187.500007152558,2|8,0:0|0:0,0:0:0:0:
204,185,273928,1,0,0:0:0:0:
177,36,274031,2,0,P|69:23|3:113,1,187.500007152558,2|8,0:0|0:0,0:0:0:0:
8,294,274339,1,0,0:0:0:0:
8,294,274442,5,2,0:0:0:0:
128,345,274545,1,0,0:0:0:0:
245,293,274648,1,2,0:0:0:0:
264,159,274750,1,0,0:0:0:0:
130,45,274853,5,2,0:0:0:0:
103,128,274956,1,0,0:0:0:0:
135,198,275059,1,8,0:0:0:0:
121,236,275161,1,8,0:0:0:0:
144,275,275264,6,0,P|188:288|234:278,1,93.7500035762788,6|0,0:0|0:0,0:0:0:0:
336,101,275470,1,8,0:0:0:0:
263,72,275572,1,0,0:0:0:0:
194,111,275675,2,0,P|188:158|196:204,1,93.7500035762788,2|2,0:0|0:0,0:0:0:0:
336,370,275880,2,0,P|343:323|337:277,1,93.7500035762788,8|0,0:0|0:0,0:0:0:0:
97,154,276086,5,2,0:0:0:0:
26,191,276189,1,8,0:0:0:0:
1,263,276291,1,8,0:0:0:0:
39,330,276394,1,0,0:0:0:0:
112,364,276497,6,0,P|199:363|221:363,1,93.7500035762788,2|0,0:0|0:0,0:0:0:0:
506,276,276702,2,0,B|422:237|406:304|302:261,1,187.500007152558,8|2,0:0|0:0,0:0:0:0:
377,39,277011,1,2,0:0:0:0:
377,39,277113,2,0,B|363:82|380:160,1,93.7500035762788,8|0,0:0|0:0,0:0:0:0:
169,219,277319,2,0,B|203:254|203:254|247:262,1,93.7500035762788,2|0,0:0|0:0,0:0:0:0:
240,16,277524,2,0,B|196:24|196:24|162:59,1,93.7500035762788,8|0,0:0|0:0,0:0:0:0:
478,174,277730,5,2,0:0:0:0:
478,174,277833,2,0,L|344:155,1,93.7500035762788,8|0,0:0|0:0,0:0:0:0:
61,155,278038,5,2,0:0:0:0:
61,155,278141,2,0,L|195:136,1,93.7500035762788,8|0,0:0|0:0,0:0:0:0:
424,334,278346,6,0,L|290:315,1,93.7500035762788,8|0,0:0|0:0,0:0:0:0:
99,10,278552,6,0,P|29:61|74:169,1,187.500007152558,6|8,0:0|0:0,0:0:0:0:
230,235,278860,1,0,0:0:0:0:
93,384,278963,2,0,P|24:295|85:217,1,187.500007152558,2|8,0:0|0:0,0:0:0:0:
311,200,279271,1,0,0:0:0:0:
311,200,279374,6,0,P|323:245|312:290,1,93.7500035762788,2|0,0:0|0:0,0:0:0:0:
142,110,279579,1,8,0:0:0:0:
99,172,279682,1,2,0:0:0:0:
135,241,279785,2,0,P|211:246|242:244,1,93.7500035762788,2|0,0:0|0:0,0:0:0:0:
502,84,279990,2,0,P|405:58|347:142,1,187.500007152558,8|2,0:0|0:0,0:0:0:0:
176,140,280298,1,2,0:0:0:0:
97,101,280401,2,0,P|77:57|79:-4,1,93.7500035762788,8|0,0:0|0:0,0:0:0:0:
296,177,280607,6,0,B|248:159|248:159|203:164,1,93.7500035762788,2|0,0:0|0:0,0:0:0:0:
404,322,280812,2,0,B|446:326|446:326|494:308,1,93.7500035762788,8|0,0:0|0:0,0:0:0:0:
172,363,281017,5,8,0:0:0:0:
62,356,281120,1,8,0:0:0:0:
7,259,281223,1,8,0:0:0:0:
45,158,281326,1,8,0:0:0:0:
115,49,281428,5,2,0:0:0:0:
213,123,281531,1,8,0:0:0:0:
312,23,281634,1,8,0:0:0:0:
417,103,281737,1,8,0:0:0:0:
507,46,281839,6,0,P|519:112|503:154,1,93.7500035762788,6|0,0:0|0:0,0:0:0:0:
311,258,282045,1,8,0:0:0:0:
284,182,282148,1,0,0:0:0:0:
317,109,282250,2,0,P|370:101|417:107,1,93.7500035762788,2|2,0:0|0:0,0:0:0:0:
503,319,282456,2,0,P|450:327|403:321,1,93.7500035762788,8|0,0:0|0:0,0:0:0:0:
180,155,282661,5,2,0:0:0:0:
94,145,282764,1,0,0:0:0:0:
37,209,282867,1,8,0:0:0:0:
28,294,282970,1,2,0:0:0:0:
92,358,283072,2,0,P|144:359|191:357,1,93.7500035762788,2|0,0:0|0:0,0:0:0:0:
109,161,283278,2,0,P|57:160|10:162,1,93.7500035762788,10|0,0:0|0:0,0:0:0:0:
352,347,283483,6,0,P|341:269|344:231,1,93.7500035762788,2|0,0:0|0:0,0:0:0:0:
415,119,283689,2,0,P|460:128|502:150,1,93.7500035762788,10|0,0:0|0:0,0:0:0:0:
160,346,283894,6,0,P|171:268|168:230,1,93.7500035762788,2|0,0:0|0:0,0:0:0:0:
97,119,284100,2,0,P|52:128|10:150,1,93.7500035762788,8|0,0:0|0:0,0:0:0:0:
256,16,284305,5,2,0:0:0:0:
319,63,284408,1,8,0:0:0:0:
337,139,284511,1,0,0:0:0:0:
318,215,284613,1,8,0:0:0:0:
221,244,284716,5,2,0:0:0:0:
183,227,284819,1,8,0:0:0:0:
137,223,284922,1,0,0:0:0:0:
101,235,285024,1,8,0:0:0:0:
237,326,285127,6,0,B|335:294|325:377|420:356,1,187.500007152558,6|8,0:0|0:0,0:0:0:0:
245,136,285435,1,0,0:0:0:0:
245,136,285538,2,0,P|228:218|235:234,1,93.7500035762788,2|2,0:0|0:0,0:0:0:0:
485,283,285744,2,0,P|502:201|495:185,1,93.7500035762788,8|0,0:0|0:0,0:0:0:0:
285,25,285949,6,0,P|230:22|172:23,1,93.7500035762788,2|0,0:0|0:0,0:0:0:0:
510,106,286154,2,0,P|424:75|348:124,1,187.500007152558,8|2,0:0|0:0,0:0:0:0:
102,92,286463,1,0,0:0:0:0:
102,92,286565,2,0,P|89:34|90:-5,1,93.7500035762788,8|0,0:0|0:0,0:0:0:0:
377,232,286771,6,0,B|291:246|303:178|197:196,1,187.500007152558,2|8,0:0|0:0,0:0:0:0:
81,268,287079,1,8,0:0:0:0:
283,311,287182,2,0,P|220:282|154:372,1,187.500007152558,2|8,0:0|0:0,0:0:0:0:
410,367,287490,1,8,0:0:0:0:
410,367,287593,5,2,0:0:0:0:
507,290,287696,1,2,0:0:0:0:
483,156,287798,1,2,0:0:0:0:
367,109,287901,1,2,0:0:0:0:
180,246,288004,5,2,0:0:0:0:
263,273,288107,1,8,0:0:0:0:
333,241,288209,1,8,0:0:0:0:
371,255,288312,1,8,0:0:0:0:
464,288,288415,6,0,P|476:206|373:173,1,187.500007152558,6|8,0:0|0:0,0:0:0:0:
243,361,288723,1,2,0:0:0:0:
243,361,288826,2,0,B|277:359|301:327|301:327|354:371|471:355,1,187.500007152558,2|8,0:0|0:0,0:0:0:0:
254,184,289134,1,0,0:0:0:0:
254,184,289237,2,0,P|235:233|235:278,1,93.7500035762788,2|0,0:0|0:0,0:0:0:0:
157,382,289442,2,0,P|118:357|63:233,1,187.500007152558,8|2,0:0|0:0,0:0:0:0:
179,105,289750,1,2,0:0:0:0:
179,105,289853,2,0,P|120:133|66:125,1,93.7500035762788,8|0,0:0|0:0,0:0:0:0:
352,180,290059,5,2,0:0:0:0:
448,187,290161,1,0,0:0:0:0:
509,122,290264,2,0,P|466:42|377:29,1,187.500007152558,8|2,0:0|0:0,0:0:0:0:
284,235,290572,1,2,0:0:0:0:
284,235,290675,2,0,B|369:211|376:295|479:262,1,187.500007152558,8|2,0:0|0:0,0:0:0:0:
311,132,290983,5,8,0:0:0:0:
237,153,291086,2,0,P|229:94|235:60,1,93.7500035762788,8|0,0:0|0:0,0:0:0:0:
163,208,291291,1,8,0:0:0:0:
86,182,291394,1,0,0:0:0:0:
17,230,291497,2,0,P|8:275|14:322,1,93.7500035762788,8|0,0:0|0:0,0:0:0:0:
339,331,291702,6,0,P|339:266|224:250,1,187.500007152558,2|8,0:0|0:0,0:0:0:0:
31,355,292011,1,0,0:0:0:0:
31,355,292113,2,0,P|82:371|139:360,1,93.7500035762788,2|2,0:0|0:0,0:0:0:0:
162,155,292319,1,8,0:0:0:0:
90,162,292422,1,0,0:0:0:0:
39,217,292524,6,0,P|7:121|86:46,1,187.500007152558,2|8,0:0|0:0,0:0:0:0:
149,19,292833,1,2,0:0:0:0:
217,65,292935,1,2,0:0:0:0:
300,63,293038,1,0,0:0:0:0:
369,31,293141,6,0,P|392:76|280:129,1,187.500007152558,8|2,0:0|0:0,0:0:0:0:
54,186,293449,1,0,0:0:0:0:
54,186,293552,2,0,B|136:172|144:247|251:224,1,187.500007152558,8|2,0:0|0:0,0:0:0:0:
89,287,293860,1,0,0:0:0:0:
89,287,293963,2,0,P|21:264|-35:251,1,93.7500035762788,8|0,0:0|0:0,0:0:0:0:
264,346,294168,5,2,0:0:0:0:
359,368,294271,1,8,0:0:0:0:
448,339,294374,1,8,0:0:0:0:
486,245,294476,1,8,0:0:0:0:
391,197,294579,5,2,0:0:0:0:
316,236,294682,1,8,0:0:0:0:
229,200,294785,1,8,0:0:0:0:
147,233,294887,1,8,0:0:0:0:
53,211,294990,6,0,P|41:293|144:326,1,187.500007152558,6|8,0:0|0:0,0:0:0:0:
205,121,295298,1,0,0:0:0:0:
205,121,295401,2,0,B|171:123|147:155|147:155|96:96|29:115,1,187.500007152558,2|8,0:0|0:0,0:0:0:0:
206,290,295709,1,0,0:0:0:0:
206,290,295812,2,0,P|225:241|225:196,1,93.7500035762788,2|0,0:0|0:0,0:0:0:0:
221,4,296017,2,0,P|260:29|315:153,1,187.500007152558,8|2,0:0|0:0,0:0:0:0:
457,105,296326,1,2,0:0:0:0:
457,105,296428,2,0,P|398:77|344:85,1,93.7500035762788,8|0,0:0|0:0,0:0:0:0:
355,281,296634,5,12,0:0:0:0:
434,291,296737,1,0,0:0:0:0:
495,229,296839,2,0,P|405:215|308:262,1,187.500007152558,0|12,0:0|0:0,0:0:0:0:
63,330,297148,1,0,0:0:0:0:
63,330,297250,2,0,B|150:301|157:385|242:361,1,187.500007152558,0|0,0:0|0:0,0:0:0:0:
211,187,297559,6,0,P|219:232|213:279,1,93.7500035762788,8|0,0:0|0:0,0:0:0:0:
288,156,297763,1,8,0:0:0:0:
356,199,297867,1,8,0:0:0:0:
436,201,297970,1,8,0:0:0:0:
495,154,298072,2,0,P|504:109|498:62,1,93.7500035762788,0|0,0:0|0:0,0:0:0:0:
136,68,298278,6,0,P|136:133|251:149,1,187.500007152558,6|8,0:0|0:0,0:0:0:0:
287,34,298586,1,0,0:0:0:0:
287,34,298689,2,0,P|236:18|179:29,1,93.7500035762788,2|2,0:0|0:0,0:0:0:0:
270,203,298894,1,8,0:0:0:0:
354,225,298997,1,0,0:0:0:0:
416,178,299100,6,0,B|424:130|424:130|391:73,1,93.7500035762788,2|0,0:0|0:0,0:0:0:0:
207,144,299305,2,0,B|184:183|184:183|192:231,1,93.7500035762788,8|0,0:0|0:0,0:0:0:0:
502,273,299511,2,0,L|377:256,1,93.7500035762788,2|2,0:0|0:0,0:0:0:0:
154,353,299716,2,0,L|279:336,1,93.7500035762788,8|0,0:0|0:0,0:0:0:0:
84,106,299922,5,2,0:0:0:0:
50,181,300024,1,0,0:0:0:0:
36,265,300127,2,0,P|37:306|56:360,1,93.7500035762788,8|0,0:0|0:0,0:0:0:0:
259,351,300333,5,2,0:0:0:0:
241,259,300435,1,2,0:0:0:0:
302,195,300538,1,8,0:0:0:0:
312,110,300641,1,0,0:0:0:0:
248,38,300744,5,2,0:0:0:0:
170,22,300846,1,2,0:0:0:0:
98,47,300949,1,2,0:0:0:0:
75,119,301052,1,0,0:0:0:0:
104,195,301154,5,0,0:0:0:0:
149,181,301257,1,2,0:0:0:0:
188,209,301360,1,8,0:0:0:0:
221,197,301463,1,8,0:0:0:0:
242,202,301565,5,6,0:3:0:0:
381,244,301771,1,0,0:0:0:0:
209,291,301976,5,0,0:0:0:0:
345,169,302182,1,6,0:3:0:0:
477,340,302387,5,0,0:0:0:0:
392,335,302593,1,0,0:0:0:0:
487,348,302798,1,0,0:0:0:0:
380,356,303004,6,0,L|308:365,1,62.5,0|6,0:0|0:3,0:0:0:0:
83,238,303415,5,0,0:0:0:0:
183,286,303620,1,0,0:0:0:0:
171,174,303826,1,6,0:3:0:0:
274,233,304031,5,0,0:0:0:0:
364,258,304237,1,0,0:0:0:0:
279,247,304442,1,0,0:0:0:0:
371,272,304648,1,0,0:0:0:0:
377,245,304750,1,0,0:0:0:0:
369,215,304853,5,6,0:3:0:0:
234,125,305059,1,0,0:0:0:0:
405,128,305264,5,0,0:0:0:0:
206,227,305470,1,6,0:3:0:0:
305,46,305675,5,0,0:0:0:0:
301,147,305880,1,0,0:0:0:0:
319,45,306086,1,0,0:0:0:0:
293,160,306291,1,0,0:0:0:0:
278,155,306394,1,0,0:0:0:0:
262,144,306497,5,6,0:3:0:0:
407,77,306702,1,0,0:0:0:0:
241,51,306908,5,0,0:0:0:0:
410,155,307113,1,6,0:3:0:0:
316,243,307319,5,0,0:0:0:0:
322,152,307524,1,0,0:0:0:0:
305,249,307730,1,0,0:0:0:0:
303,142,307935,1,0,0:0:0:0:
288,146,308038,1,0,0:0:0:0:
279,151,308141,5,6,0:3:0:0:
423,200,308346,1,0,0:0:0:0:
235,216,308552,5,0,0:0:0:0:
425,125,308757,1,6,0:3:0:0:
158,74,308963,5,0,0:0:0:0:
264,83,309168,1,0,0:0:0:0:
146,67,309374,1,0,0:0:0:0:
275,96,309579,6,0,L|286:170,1,62.5,0|6,0:0|0:3,0:0:0:0:
148,294,309990,5,0,0:0:0:0:
181,173,310196,1,0,0:0:0:0:
58,205,310401,1,6,0:3:0:0:
233,363,310607,5,0,0:0:0:0:
251,271,310812,1,0,0:0:0:0:
244,380,311017,1,0,0:0:0:0:
266,238,311223,1,0,0:0:0:0:
244,230,311326,1,0,0:0:0:0:
224,229,311428,5,6,0:3:0:0:
370,296,311634,1,0,0:0:0:0:
175,307,311839,5,0,0:0:0:0:
387,217,312045,1,6,0:3:0:0:
248,67,312250,5,0,0:0:0:0:
217,192,312456,1,0,0:0:0:0:
248,54,312661,1,0,0:0:0:0:
197,191,312867,1,0,0:0:0:0:
181,173,312970,1,0,0:0:0:0:
181,148,313072,5,6,0:3:0:0:
253,109,313280,1,0,0:0:0:0:
339,128,313488,1,0,0:0:0:0:
376,206,313697,1,0,0:0:0:0:
242,352,313905,5,2,0:3:0:0:
223,278,314134,1,0,0:0:0:0:
246,124,314363,5,0,0:0:0:0:
