osu file format v14

[General]
AudioFilename: audio.mp3
AudioLeadIn: 0
PreviewTime: 161075
Countdown: 1
SampleSet: Soft
StackLeniency: 0.7
Mode: 2
LetterboxInBreaks: 0
WidescreenStoryboard: 1

[Editor]
Bookmarks: 33127,58558,72863,85578,98293,111008,117366,130081,142796,155512,161869,174584,187300,200015,219088,232060,243412,249769,275200,300630,333610
DistanceSpacing: 0.7
BeatDivisor: 4
GridSize: 8
TimelineZoom: 1.7

[Metadata]
Title:Yuumeikyou o Wakatsu Koto
TitleUnicode:幽明境を分かつこと
Artist:Diao Ye Zong feat. Kushi
ArtistUnicode:凋叶棕 feat. Φ串Φ
Creator:-MomoX
Version:MomoX & Rustyy's Sakura Storm
Source:東方妖々夢 ~ Perfect Cherry Blossom.
Tags:Japanese Video Game -Rustyy Xiila Yukiya Mustacho Bashe 凋叶棕 さいぎょうじ ゆゆこ Saigyouji Yuyuko 幽雅に咲かせ、墨染の桜 ~ Border of Life 東方妖々梦 ~ Perfect Cherry Blossom. ティアオイエツォン RD-Sounds 屠 ほふり hohuri TouHou さくらさくら ~ Japanize Dream...
BeatmapID:2884764
BeatmapSetID:1247908

[Difficulty]
HPDrainRate:6
CircleSize:4
OverallDifficulty:9.6
ApproachRate:9.6
SliderMultiplier:2.2
SliderTickRate:2

[Events]
//Background and Video events
0,0,"cropped-1366-768-696813.jpg",0,0
//Break Periods
//Storyboard Layer 0 (Background)
//Storyboard Layer 1 (Fail)
//Storyboard Layer 2 (Pass)
//Storyboard Layer 3 (Foreground)
//Storyboard Layer 4 (Overlay)
//Storyboard Sound Samples

[TimingPoints]
440,476.190476190476,4,2,1,40,1,0
678,526.315789473684,4,2,1,40,1,0
941,451.127819548872,4,2,1,40,1,0
1392,495.867768595041,4,2,1,40,1,0
18003,-100,4,2,1,50,0,0
18128,-100,4,2,1,70,0,0
18252,-100,4,2,1,60,0,0
18376,-100,4,2,1,50,0,0
18500,-100,4,2,1,40,0,0
18624,-100,4,2,1,30,0,0
18748,-100,4,2,1,40,0,0
19243,-100,4,2,2,40,0,0
19491,-100,4,2,1,40,0,0
20235,-100,4,2,2,60,0,0
20358,-100,4,2,1,60,0,0
20731,-100,4,2,1,50,0,0
20855,-100,4,2,1,40,0,0
20979,-100,4,2,1,30,0,0
21226,-100,4,2,2,60,0,0
23210,-100,4,2,2,40,0,0
23706,-100,4,2,2,60,0,0
24201,-100,4,2,1,60,0,0
24326,-100,4,2,1,50,0,0
24450,-100,4,2,1,40,0,0
24574,-100,4,2,1,30,0,0
24698,-100,4,2,1,60,0,0
25193,-100,4,2,2,30,0,0
25194,-100,4,2,2,30,0,0
25566,-100,4,2,1,40,0,0
25938,-100,4,2,1,50,0,0
26186,-100,4,2,1,60,0,0
26434,-100,4,2,2,70,0,0
26681,-100,4,2,1,60,0,0
26805,-100,4,2,1,50,0,0
26929,-100,4,2,1,40,0,0
27053,-100,4,2,1,30,0,0
27177,-100,4,2,2,60,0,0
27549,-100,4,2,1,40,0,0
27921,-100,4,2,1,50,0,0
28169,-100,4,2,1,60,0,0
28417,-100,4,2,2,70,0,0
28665,-100,4,2,1,60,0,0
28913,-100,4,2,1,40,0,0
29161,-100,4,2,2,60,0,0
33128,397.350993377483,4,2,1,70,1,0
38591,-100,4,2,1,40,0,0
38690,-100,4,2,1,70,0,0
56174,-100,4,2,1,80,0,0
58558,-66.6666666666667,4,2,1,80,0,1
59949,-66.6666666666667,4,2,1,50,0,1
60048,-66.6666666666667,4,2,1,80,0,1
64320,-66.6666666666667,4,2,1,60,0,1
64518,-66.6666666666667,4,2,1,70,0,1
64717,-66.6666666666667,4,2,1,80,0,1
66306,-66.6666666666667,4,2,1,50,0,1
66406,-66.6666666666667,4,2,1,80,0,1
68094,-66.6666666666667,4,2,1,80,0,0
72863,-100,4,2,2,40,0,0
98293,-100,4,2,2,60,0,0
111008,-76.9230769230769,4,2,1,60,0,0
115578,-66.6666666666667,4,2,1,60,0,0
117366,-66.6666666666667,4,2,1,80,0,0
130081,-66.6666666666667,4,2,1,80,0,0
142796,-66.6666666666667,4,2,1,80,0,0
155512,-66.6666666666667,4,2,1,70,0,0
158690,-100,4,2,1,70,0,0
160280,-66.6666666666667,4,2,1,70,0,0
161869,-66.6666666666667,4,2,1,100,0,1
162068,-66.6666666666667,4,2,1,70,0,1
162167,-66.6666666666667,4,2,1,100,0,1
163657,-66.6666666666667,4,2,1,70,0,1
163757,-66.6666666666667,4,2,1,100,0,1
164849,-66.6666666666667,4,2,1,70,0,1
164949,-66.6666666666667,4,2,1,100,0,1
168426,-66.6666666666667,4,2,1,70,0,1
168525,-66.6666666666667,4,2,1,100,0,1
171406,-66.6666666666667,4,2,1,80,0,1
173790,-66.6666666666667,4,2,1,70,0,1
174584,-66.6666666666667,4,2,1,100,0,1
174783,-66.6666666666667,4,2,1,70,0,1
174882,-66.6666666666667,4,2,1,100,0,1
176373,-66.6666666666667,4,2,1,70,0,1
176472,-66.6666666666667,4,2,1,100,0,1
177565,-66.6666666666667,4,2,1,70,0,1
177664,-66.6666666666667,4,2,1,100,0,1
185909,-66.6666666666667,4,2,1,70,0,1
186008,-66.6666666666667,4,2,1,100,0,1
187300,-66.6666666666667,4,2,1,85,0,0
199419,-66.6666666666667,4,2,1,90,0,0
199518,-66.6666666666667,4,2,1,80,0,0
199618,-66.6666666666667,4,2,1,70,0,0
199717,-66.6666666666667,4,2,1,60,0,0
199816,-66.6666666666667,4,2,1,50,0,0
200015,-66.6666666666667,4,2,1,80,0,0
200214,-66.6666666666667,4,2,1,50,0,0
200313,-66.6666666666667,4,2,1,50,0,0
200810,-66.6666666666667,4,2,1,60,0,0
201008,-66.6666666666667,4,2,1,70,0,0
201108,-66.6666666666667,4,2,1,80,0,0
201604,-66.6666666666667,4,2,1,50,0,0
202002,-66.6666666666667,4,2,1,60,0,0
202200,-66.6666666666667,4,2,1,70,0,0
202300,-66.6666666666667,4,2,1,80,0,0
202598,-66.6666666666667,4,2,1,70,0,0
202796,-66.6666666666667,4,2,1,60,0,0
202995,-66.6666666666667,4,2,1,50,0,0
203988,-66.6666666666667,4,2,1,60,0,0
204386,-66.6666666666667,4,2,1,70,0,0
204584,-66.6666666666667,4,2,1,80,0,0
207962,-66.6666666666667,4,2,1,50,0,0
208359,-66.6666666666667,4,2,1,60,0,0
208558,-66.6666666666667,4,2,1,70,0,0
208657,-66.6666666666667,4,2,1,80,0,0
208757,-66.6666666666667,4,2,1,50,0,0
209154,-66.6666666666667,4,2,1,60,0,0
209353,-66.6666666666667,4,2,1,70,0,0
209452,-66.6666666666667,4,2,1,80,0,0
209551,-66.6666666666667,4,2,1,100,0,0
212730,-100,4,2,2,40,0,0
217697,-100,4,2,1,30,0,0
218094,-100,4,2,1,40,0,0
218293,-100,4,2,1,50,0,0
218492,-100,4,2,1,60,0,0
218591,-100,4,2,2,60,0,0
218690,-100,4,2,1,70,0,0
218889,-100,4,2,2,80,0,0
219088,405.405405405405,4,2,1,90,1,0
219189,-100,4,2,1,60,0,0
232060,-100,4,2,1,65,0,0
243412,397.350993377483,4,2,1,70,1,0
248974,-66.6666666666667,4,2,1,70,0,0
249769,-66.6666666666667,4,2,1,100,0,1
249968,-66.6666666666667,4,2,1,70,0,1
250067,-66.6666666666667,4,2,1,100,0,1
251557,-66.6666666666667,4,2,1,70,0,1
251657,-66.6666666666667,4,2,1,100,0,1
252749,-66.6666666666667,4,2,1,70,0,1
252849,-66.6666666666667,4,2,1,100,0,1
256325,-66.6666666666667,4,2,1,70,0,1
256425,-66.6666666666667,4,2,1,100,0,1
259306,-66.6666666666667,4,2,1,80,0,1
261690,-66.6666666666667,4,2,1,70,0,1
262484,-66.6666666666667,4,2,1,100,0,1
262683,-66.6666666666667,4,2,1,70,0,1
262782,-66.6666666666667,4,2,1,100,0,1
264272,-66.6666666666667,4,2,1,70,0,1
264372,-66.6666666666667,4,2,1,100,0,1
265464,-66.6666666666667,4,2,1,70,0,1
265564,-66.6666666666667,4,2,1,100,0,1
267352,-66.6666666666667,4,2,1,80,0,1
267451,-66.6666666666667,4,2,1,70,0,1
267551,-66.6666666666667,4,2,1,60,0,1
267650,-66.6666666666667,4,2,1,50,0,1
267849,-66.6666666666667,4,2,1,40,0,1
268047,-66.6666666666667,4,2,1,80,0,1
268445,-66.6666666666667,4,2,1,100,0,1
274405,-66.6666666666667,4,2,1,70,0,1
275200,-66.6666666666667,4,2,1,100,0,1
275398,-66.6666666666667,4,2,1,70,0,1
275498,-66.6666666666667,4,2,1,100,0,1
276988,-66.6666666666667,4,2,1,70,0,1
277087,-66.6666666666667,4,2,1,100,0,1
281756,-66.6666666666667,4,2,1,70,0,1
281855,-66.6666666666667,4,2,1,100,0,1
284736,-66.6666666666667,4,2,1,80,0,1
286325,-66.6666666666667,4,2,1,70,0,1
287915,-66.6666666666667,4,2,1,100,0,1
288113,-66.6666666666667,4,2,1,70,0,1
288213,-66.6666666666667,4,2,1,100,0,1
289703,-66.6666666666667,4,2,1,70,0,1
289802,-66.6666666666667,4,2,1,100,0,1
297799,-66.6666666666667,4,2,1,5,0,1
297849,-66.6666666666667,4,2,1,100,0,1
298196,-66.6666666666667,4,2,1,5,0,1
298246,-66.6666666666667,4,2,1,100,0,1
298594,-66.6666666666667,4,2,1,5,0,1
298643,-66.6666666666667,4,2,1,100,0,1
298991,-66.6666666666667,4,2,1,5,0,1
299041,-100,4,2,1,100,0,0
300630,-66.6666666666667,4,2,1,100,0,1
300829,-66.6666666666667,4,2,1,100,0,1
300928,-66.6666666666667,4,2,1,90,0,1
302418,-66.6666666666667,4,2,1,60,0,1
302517,-66.6666666666667,4,2,1,90,0,1
304008,-66.6666666666667,4,2,1,60,0,1
304107,-66.6666666666667,4,2,1,90,0,1
307186,-66.6666666666667,4,2,1,60,0,1
307286,-66.6666666666667,4,2,1,90,0,1
307981,-66.6666666666667,4,2,1,60,0,1
308080,-66.6666666666667,4,2,1,90,0,1
308776,-66.6666666666667,4,2,1,60,0,1
308875,-66.6666666666667,4,2,1,90,0,1
310365,-66.6666666666667,4,2,1,60,0,1
310464,-66.6666666666667,4,2,1,90,0,1
310762,-66.6666666666667,4,2,1,60,0,1
310862,-66.6666666666667,4,2,1,90,0,1
311160,-66.6666666666667,4,2,1,60,0,1
311259,-66.6666666666667,4,2,1,90,0,1
311557,-66.6666666666667,4,2,1,60,0,1
311657,-66.6666666666667,4,2,1,90,0,1
311955,-66.6666666666667,4,2,1,60,0,1
312153,-66.6666666666667,4,2,1,90,0,1
312352,-66.6666666666667,4,2,1,60,0,1
312451,-66.6666666666667,4,2,1,70,0,1
312700,-66.6666666666667,4,2,1,5,0,1
312749,-66.6666666666667,4,2,1,70,0,1
312799,-66.6666666666667,4,2,1,5,0,1
312849,-66.6666666666667,4,2,1,70,0,1
312998,-66.6666666666667,4,2,1,5,0,1
313047,-66.6666666666667,4,2,1,70,0,1
313097,-66.6666666666667,4,2,1,5,0,1
313147,-66.6666666666667,4,2,1,70,0,1
313196,-66.6666666666667,4,2,1,5,0,1
313246,-66.6666666666667,4,2,1,70,0,1
313296,-66.6666666666667,4,2,1,5,0,1
313345,-66.6666666666667,4,2,1,100,0,0
324670,-66.6666666666667,4,2,1,80,0,0
324868,-66.6666666666667,4,2,1,70,0,0
324968,-66.6666666666667,4,2,1,60,0,0
325067,-66.6666666666667,4,2,1,50,0,0
325166,-66.6666666666667,4,2,1,40,0,0
325266,-66.6666666666667,4,2,1,80,0,0
326061,-200,4,2,1,60,0,0
326458,-117.647058823529,4,2,2,80,0,0
327750,-200,4,2,1,30,0,0
330829,-200,4,2,1,25,0,0
331623,-200,4,2,1,20,0,0
332418,-200,4,2,1,15,0,0
333014,-200,4,2,1,10,0,0
333411,-200,4,2,1,5,0,0

[Colours]
Combo1 : 111,111,220
Combo2 : 220,128,220
Combo3 : 233,188,233
Combo4 : 79,167,220

[HitObjects]
273,238,440,5,0,0:0:0:0:
144,209,678,1,0,0:0:0:0:
338,172,941,1,0,0:0:0:0:
205,130,1166,1,0,0:0:0:0:
407,107,1392,6,0,L|266:105,2,110,2|0|2,0:0|0:0|0:0,0:0:0:0:
143,209,2383,1,2,0:0:0:0:
297,142,2631,1,2,0:0:0:0:
297,142,2879,1,2,0:0:0:0:
143,209,3127,1,0,0:0:0:0:
364,208,3375,6,0,L|481:208,2,110,2|0|0,0:0|0:0|0:0,0:0:0:0:
166,207,4119,1,0,0:0:0:0:
386,136,4367,2,0,L|236:137,2,110,2|0|0,0:0|0:0|0:0,0:0:0:0:
167,129,5358,6,0,L|167:252,1,110,2|0,0:0|0:0,0:0:0:0:
300,349,5854,2,0,L|301:200,1,110,2|0,0:0|0:0,0:0:0:0:
134,186,6350,2,0,L|3:186,1,110,2|0,0:0|0:0,0:0:0:0:
213,301,6846,2,0,L|369:300,1,110,2|0,0:0|0:0,0:0:0:0:
102,202,7342,6,0,L|233:203,2,110,2|0|0,0:0|0:0|0:0,0:0:0:0:
367,135,8334,2,0,L|368:269,1,110,0|0,0:0|0:0,0:0:0:0:
212,247,8830,1,0,0:0:0:0:
366,260,9077,1,0,0:0:0:0:
141,298,9325,6,0,L|13:299,2,110,2|0|0,0:0|0:0|0:0,0:0:0:0:
309,186,10069,2,0,L|437:187,2,110,2|0|0,0:0|0:0|0:0,0:0:0:0:
142,186,10813,2,0,L|143:307,1,110,2|0,0:0|0:0,0:0:0:0:
366,279,11309,6,0,L|493:280,2,110,2|0|0,0:0|0:0|0:0,0:0:0:0:
199,146,12053,2,0,L|202:278,1,110,2|0,0:0|0:0,0:0:0:0:
357,238,12549,1,0,0:0:0:0:
192,254,12796,2,0,L|74:253,1,110,0|0,0:0|0:0,0:0:0:0:
305,94,13292,6,0,L|304:252,1,110,2|0,0:0|0:0,0:0:0:0:
172,319,13788,2,0,L|172:161,1,110,2|0,0:0|0:0,0:0:0:0:
360,141,14284,2,0,L|228:141,1,110,2|0,0:0|0:0,0:0:0:0:
84,171,14780,2,0,L|207:171,1,110,0|0,0:0|0:0,0:0:0:0:
419,221,15276,6,0,L|269:222,2,110,2|0|0,0:0|0:0|0:0,0:0:0:0:
222,180,16268,1,2,0:0:0:0:
353,175,16515,1,0,0:0:0:0:
485,172,16763,1,2,0:0:0:0:
353,175,17011,1,2,0:0:0:0:
131,167,17259,6,0,L|283:169,1,110,2|0,0:0|0:0,0:0:0:0:
76,317,17755,1,2,0:0:0:0:
19,264,17878,1,0,0:0:0:0:
76,317,18002,1,2,0:0:0:0:
154,325,18126,1,2,0:0:0:0:
298,327,18251,2,0,L|298:226,1,55,2|0,0:0|0:0,0:0:0:0:
219,189,18499,2,0,L|220:293,1,55,2|2,0:0|0:0,0:0:0:0:
142,167,18747,2,0,L|141:78,1,55,2|0,0:0|0:0,0:0:0:0:
219,92,18995,2,0,L|306:91,1,55,2|2,0:0|0:0,0:0:0:0:
418,96,19243,5,2,0:0:0:0:
420,167,19366,1,0,0:0:0:0:
371,219,19490,1,0,0:0:0:0:
299,222,19614,1,0,0:0:0:0:
228,224,19739,2,0,L|229:120,1,55,2|0,0:0|0:0,0:0:0:0:
307,76,19987,2,0,L|307:168,1,55,2|2,0:0|0:0,0:0:0:0:
163,341,20234,1,2,0:0:0:0:
164,251,20357,1,0,0:0:0:0:
221,190,20481,1,2,0:0:0:0:
294,191,20605,1,2,0:0:0:0:
367,195,20730,1,2,0:0:0:0:
366,105,20853,1,0,0:0:0:0:
309,50,20977,1,2,0:0:0:0:
236,49,21101,1,2,0:0:0:0:
52,51,21226,6,0,P|41:132|107:157,1,165,2|0,0:0|0:0,0:0:0:0:
215,152,21722,2,0,P|268:189|200:247,1,165,2|0,0:0|0:0,0:0:0:0:
80,246,22218,2,0,P|27:283|95:341,1,165,2|0,0:0|0:0,0:0:0:0:
271,332,22714,2,0,P|289:270|204:212,1,165,2|0,0:0|0:0,0:0:0:0:
65,82,23210,6,0,L|69:260,1,165,2|8,0:0|0:0,0:0:0:0:
225,246,23706,2,0,L|414:244,1,165,8|0,0:0|0:0,0:0:0:0:
269,197,24201,1,2,0:0:0:0:
206,166,24324,1,0,0:0:0:0:
203,97,24448,1,2,0:0:0:0:
263,62,24572,1,2,0:0:0:0:
388,74,24697,2,0,L|388:177,1,55,2|0,0:0|0:0,0:0:0:0:
265,217,24945,2,0,L|265:129,1,55,2|2,0:0|0:0,0:0:0:0:
388,71,25193,5,2,0:0:0:0:
399,146,25316,1,0,0:0:0:0:
377,219,25440,1,0,0:0:0:0:
326,276,25564,1,0,0:0:0:0:
256,307,25688,1,2,0:0:0:0:
180,305,25812,1,0,0:0:0:0:
303,255,25937,2,0,L|302:156,1,55,2|2,0:0|0:0,0:0:0:0:
225,197,26185,1,2,0:0:0:0:
147,166,26308,1,0,0:0:0:0:
152,80,26432,1,10,0:0:0:0:
233,56,26556,1,0,0:0:0:0:
361,60,26681,1,2,0:0:0:0:
369,149,26804,1,0,0:0:0:0:
322,218,26928,1,2,0:0:0:0:
245,227,27052,1,2,0:0:0:0:
374,289,27177,6,0,P|426:237|351:209,1,165,2|0,0:0|0:0,0:0:0:0:
230,251,27672,1,2,0:0:0:0:
158,246,27795,1,0,0:0:0:0:
110,193,27919,1,2,0:0:0:0:
111,122,28043,1,2,0:0:0:0:
243,84,28168,1,2,0:0:0:0:
171,89,28291,1,0,0:0:0:0:
123,141,28415,1,10,0:0:0:0:
124,213,28539,1,0,0:0:0:0:
255,207,28664,6,0,L|256:285,1,55,2|0,0:0|0:0,0:0:0:0:
133,280,28912,2,0,L|134:347,1,55,2|2,0:0|0:0,0:0:0:0:
255,207,29160,6,0,L|441:207,1,165,10|0,0:0|0:0,0:0:0:0:
298,127,29656,2,0,L|112:127,1,165,10|0,0:0|0:0,0:0:0:0:
276,95,30152,2,0,L|462:95,1,165,10|0,0:0|0:0,0:0:0:0:
274,34,30648,2,0,L|88:34,1,165,10|0,0:0|0:0,0:0:0:0:
316,116,31144,5,12,0:0:0:0:
256,192,31268,12,0,32631,0:0:0:0:
111,167,32879,5,2,0:0:0:0:
114,217,32940,1,0,0:0:0:0:
144,242,33002,1,2,0:0:0:0:
192,246,33064,1,0,0:0:0:0:
354,282,33128,5,2,3:2:0:0:
152,332,33525,2,0,L|36:326,1,110,2|0,0:0|3:2,0:0:0:0:
218,264,33922,1,2,0:0:0:0:
329,250,34121,1,2,0:0:0:0:
219,189,34320,1,0,3:2:0:0:
109,147,34518,1,2,0:0:0:0:
285,79,34717,6,0,L|473:209,2,220,2|2|2,3:2|0:0|0:0,0:0:0:0:
120,37,35909,1,2,3:2:0:0:
335,156,36306,6,0,L|82:160,1,220,2|0,3:2|0:0,0:0:0:0:
225,210,36902,1,0,3:2:0:0:
400,246,37101,2,0,L|400:366,1,110,2|0,0:0|0:0,0:0:0:0:
224,345,37498,2,0,L|99:348,1,110,2|0,3:2|0:0,0:0:0:0:
291,269,37896,6,0,P|359:242|279:54,1,330,2|2,3:2|3:2,0:0:0:0:
233,52,38591,1,2,0:0:0:0:
53,115,38690,1,2,0:0:0:0:
306,94,39088,1,2,3:2:0:0:
85,158,39485,5,2,3:2:0:0:
258,117,39882,2,0,L|138:109,1,110,2|2,0:0|3:2,0:0:0:0:
326,193,40280,1,2,0:0:0:0:
409,247,40478,1,2,0:0:0:0:
409,330,40677,1,2,3:2:0:0:
326,377,40876,1,0,0:0:0:0:
150,299,41075,6,0,L|384:236,1,220,2|0,3:2|0:0,0:0:0:0:
76,133,41869,2,0,L|319:103,1,220,2|2,0:0|3:2,0:0:0:0:
98,48,42664,5,2,3:2:0:0:
283,125,43061,2,0,L|151:126,1,110,2|2,0:0|3:2,0:0:0:0:
350,201,43459,1,2,0:0:0:0:
462,201,43657,1,2,0:0:0:0:
350,201,43856,1,2,3:2:0:0:
462,201,44055,1,0,0:0:0:0:
287,300,44253,6,0,P|229:261|311:154,1,220,2|0,3:2|0:0,0:0:0:0:
465,100,44849,2,0,L|403:100,1,55,2|0,3:2|0:0,0:0:0:0:
244,54,45048,1,2,3:2:0:0:
391,29,45247,1,8,0:0:0:0:
418,43,45296,1,8,0:0:0:0:
418,43,45346,1,8,0:0:0:0:
391,29,45396,1,8,0:0:0:0:
225,102,45445,2,0,L|90:103,1,110,8|8,0:0|0:0,0:0:0:0:
392,176,45843,6,0,P|461:210|381:401,1,330,2|0,3:2|3:0,0:0:0:0:
216,348,46637,2,0,L|511:197,1,330,2|0,0:0|0:0,0:0:0:0:
333,143,47432,5,2,3:2:0:0:
223,125,47631,1,0,0:0:0:0:
333,65,47829,1,0,0:0:0:0:
443,29,48028,1,0,0:0:0:0:
161,48,48227,2,0,L|288:53,1,110,10|0,0:0|0:0,0:0:0:0:
161,48,48624,1,0,3:0:0:0:
313,142,48823,2,0,L|395:140,1,55,2|0,0:0|0:0,0:0:0:0:
197,196,49022,6,0,P|149:221|213:344,1,220,2|0,3:2|0:0,0:0:0:0:
309,347,49618,1,0,0:0:0:0:
133,279,49816,1,0,0:0:0:0:
368,222,50214,1,0,3:0:0:0:
142,137,50611,6,0,L|462:28,1,330,2|2,3:2|3:2,0:0:0:0:
265,37,51406,2,0,L|134:40,1,110,10|0,0:0|0:0,0:0:0:0:
331,110,51803,2,0,L|442:112,1,110,0|2,3:0|0:0,0:0:0:0:
384,110,52101,1,2,0:0:0:0:
218,167,52200,6,0,L|100:173,3,110,2|0|0|0,3:2|0:0|0:0|3:0,0:0:0:0:
384,312,52995,2,0,L|154:318,1,220,10|2,0:0|3:2,0:0:0:0:
79,243,53591,2,0,L|163:241,1,55,2|2,0:0|0:0,0:0:0:0:
313,216,53790,6,0,L|316:90,1,110,2|0,3:2|0:0,0:0:0:0:
139,51,54187,2,0,L|137:180,1,110,0|0,3:0|0:0,0:0:0:0:
313,225,54584,2,0,L|166:230,1,110,0|0,3:0|0:0,0:0:0:0:
381,282,54982,2,0,L|381:393,1,110,0|0,3:0|0:0,0:0:0:0:
205,350,55379,6,0,P|144:316|215:208,1,220,2|2,3:2|0:0,0:0:0:0:
377,153,55975,1,0,3:0:0:0:
203,81,56174,2,0,L|432:75,1,220,10|2,0:0|3:2,0:0:0:0:
313,148,56770,2,0,L|234:148,1,55,0|2,0:0|0:0,0:0:0:0:
435,213,56969,6,0,L|432:328,1,110,2|2,3:2|0:0,0:0:0:0:
254,348,57366,2,0,L|136:348,1,110,10|2,0:0|3:2,0:0:0:0:
419,274,57763,1,4,3:2:0:0:
143,203,57962,2,0,L|141:135,1,55,8|8,0:0|0:0,0:0:0:0:
324,96,58161,2,0,L|260:89,1,55,2|8,3:2|0:0,0:0:0:0:
100,47,58359,2,0,L|192:47,1,55,8|8,0:0|0:0,0:0:0:0:
414,108,58558,6,0,L|414:208,1,82.5000031471254,4|0,3:2|0:0,0:0:0:0:
314,206,58757,2,0,L|314:313,1,82.5000031471254,8|0,0:0|0:0,0:0:0:0:
215,299,58955,2,0,L|128:297,1,82.5000031471254,2|0,3:2|0:0,0:0:0:0:
301,176,59154,2,0,L|408:175,1,82.5000031471254,10|0,0:0|0:0,0:0:0:0:
283,68,59353,2,0,L|283:184,1,82.5000031471254,0|0,3:0|0:0,0:0:0:0:
184,166,59551,2,0,L|184:278,1,82.5000031471254,10|0,0:0|0:0,0:0:0:0:
387,258,59750,2,0,L|258:258,1,82.5000031471254,2|0,3:2|0:0,0:0:0:0:
135,255,59949,2,0,L|26:255,1,82.5000031471254,8|0,0:0|0:0,0:0:0:0:
236,78,60147,6,0,L|237:201,1,82.5000031471254,2|0,3:2|0:0,0:0:0:0:
344,162,60346,2,0,L|345:278,1,82.5000031471254,8|0,0:0|0:0,0:0:0:0:
237,254,60545,2,0,L|135:253,1,82.5000031471254,2|0,0:0|0:0,0:0:0:0:
344,202,60743,2,0,L|467:202,1,82.5000031471254,10|0,0:0|0:0,0:0:0:0:
318,118,60942,2,0,L|319:238,1,82.5000031471254,0|0,3:0|0:0,0:0:0:0:
427,271,61141,2,0,L|427:149,1,82.5000031471254,10|0,0:0|0:0,0:0:0:0:
230,206,61339,2,0,L|328:205,1,82.5000031471254,0|8,3:0|0:0,0:0:0:0:
142,139,61538,2,0,L|283:139,1,82.5000031471254,8|8,3:0|0:0,0:0:0:0:
35,115,61737,6,0,L|35:233,1,82.5000031471254,4|0,3:2|0:0,0:0:0:0:
134,224,61935,2,0,L|270:224,1,82.5000031471254,8|0,0:0|0:0,0:0:0:0:
383,227,62134,2,0,L|480:227,1,82.5000031471254,2|0,0:0|0:0,0:0:0:0:
366,139,62333,2,0,L|252:138,1,82.5000031471254,10|8,0:0|0:0,0:0:0:0:
466,145,62531,2,0,L|466:280,1,82.5000031471254,2|0,3:2|0:0,0:0:0:0:
367,230,62730,2,0,L|268:230,1,82.5000031471254,8|0,0:0|0:0,0:0:0:0:
488,291,62929,2,0,L|384:291,1,82.5000031471254,2|0,0:0|0:0,0:0:0:0:
239,291,63127,2,0,L|88:290,1,82.5000031471254,8|10,0:0|0:0,0:0:0:0:
360,117,63326,6,0,L|361:232,1,82.5000031471254,2|0,3:2|0:0,0:0:0:0:
192,204,63525,2,0,L|302:202,1,82.5000031471254,10|0,0:0|0:0,0:0:0:0:
374,211,63724,2,0,L|375:326,1,82.5000031471254,0|0,3:0|0:0,0:0:0:0:
206,298,63923,2,0,L|74:295,1,82.5000031471254,10|0,0:0|0:0,0:0:0:0:
23,232,64121,2,0,L|124:233,1,82.5000031471254,2|0,0:0|0:0,0:0:0:0:
298,173,64320,2,0,L|169:173,1,82.5000031471254,8|8,0:0|0:0,0:0:0:0:
382,83,64518,2,0,L|253:83,1,82.5000031471254,8|8,0:0|0:0,0:0:0:0:
467,245,64717,2,0,L|356:245,1,82.5000031471254,8|8,0:0|0:0,0:0:0:0:
181,134,64916,6,0,L|181:254,1,82.5000031471254,4|0,3:2|0:0,0:0:0:0:
280,224,65114,2,0,L|280:328,1,82.5000031471254,8|0,0:0|0:0,0:0:0:0:
380,319,65313,2,0,L|469:319,1,82.5000031471254,2|0,0:0|0:0,0:0:0:0:
269,206,65512,2,0,L|170:206,1,82.5000031471254,10|0,0:0|0:0,0:0:0:0:
285,60,65710,2,0,L|285:186,1,82.5000031471254,0|0,3:0|0:0,0:0:0:0:
385,167,65909,2,0,L|385:292,1,82.5000031471254,10|0,0:0|0:0,0:0:0:0:
157,268,66108,2,0,L|306:268,1,82.5000031471254,2|2,0:0|0:0,0:0:0:0:
405,269,66306,2,0,L|525:269,1,82.5000031471254,10|10,0:0|0:0,0:0:0:0:
268,211,66505,6,0,L|150:211,1,82.5000031471254,4|0,3:2|0:0,0:0:0:0:
285,87,66704,2,0,L|285:231,1,82.5000031471254,8|0,0:0|0:0,0:0:0:0:
186,180,66902,2,0,L|61:181,1,82.5000031471254,2|0,0:0|0:0,0:0:0:0:
276,262,67101,2,0,L|375:261,1,82.5000031471254,10|0,0:0|0:0,0:0:0:0:
259,93,67300,2,0,L|259:190,1,82.5000031471254,0|0,3:0|0:0,0:0:0:0:
160,178,67498,2,0,L|40:179,1,82.5000031471254,8|0,0:0|0:0,0:0:0:0:
301,168,67697,1,2,3:2:0:0:
131,169,67796,2,0,L|22:169,2,82.5000031471254,8|0|8,0:0|3:0|0:0,0:0:0:0:
300,232,68094,6,0,P|443:186|434:111,1,247.500009441376,4|0,3:2|0:0,0:0:0:0:
196,210,68492,2,0,P|53:164|62:89,1,247.500009441376,4|0,3:2|0:0,0:0:0:0:
265,66,68889,2,0,P|408:112|399:187,1,247.500009441376,4|0,3:2|0:0,0:0:0:0:
229,191,69286,2,0,P|86:237|95:312,1,247.500009441376,4|0,3:2|0:0,0:0:0:0:
253,318,69684,5,4,0:0:0:0:
256,192,69882,12,0,72664,0:0:0:0:
375,69,72863,6,0,L|60:188,1,330,8|0,0:0|0:0,0:0:0:0:
224,120,73657,2,0,P|289:157|226:365,1,330,8|0,0:0|0:0,0:0:0:0:
58,293,74452,6,0,L|414:376,1,330,2|0,0:0|0:0,0:0:0:0:
212,198,75247,2,0,L|81:197,2,110,0|0|0,0:0|0:0|0:0,0:0:0:0:
321,198,75843,1,0,0:0:0:0:
152,62,76041,6,0,P|52:177|145:298,1,330,8|0,0:0|0:0,0:0:0:0:
321,295,76836,2,0,P|396:243|305:60,1,330,8|0,0:0|0:0,0:0:0:0:
137,117,77631,6,0,L|257:111,1,110,2|0,0:0|0:0,0:0:0:0:
352,95,78028,1,0,0:0:0:0:
458,72,78227,1,0,0:0:0:0:
291,203,78426,2,0,L|174:203,3,110,0|0|0|0,0:0|0:0|0:0|0:0,0:0:0:0:
356,326,79220,6,0,P|436:292|349:121,1,330,8|0,0:0|0:0,0:0:0:0:
178,68,80015,2,0,L|520:23,1,330,8|0,0:0|0:0,0:0:0:0:
331,135,80810,6,0,L|8:56,1,330,8|0,0:0|0:0,0:0:0:0:
176,201,81604,2,0,L|296:199,1,110,8|0,0:0|0:0,0:0:0:0:
109,255,82002,2,0,L|111:380,1,110,0|0,0:0|0:0,0:0:0:0:
276,299,82399,6,0,L|52:346,2,220,10|0|10,0:0|0:0|0:0,0:0:0:0:
462,202,83591,1,0,0:0:0:0:
197,157,83988,6,0,L|190:36,1,110,2|0,0:0|0:0,0:0:0:0:
359,181,84386,2,0,L|366:313,1,110,0|0,0:0|0:0,0:0:0:0:
190,303,84783,2,0,L|303:296,1,110,2|8,0:0|0:0,0:0:0:0:
117,264,85180,1,0,0:0:0:0:
317,334,85578,6,0,P|409:285|297:139,1,330,8|0,0:0|0:0,0:0:0:0:
135,135,86373,2,0,L|457:225,1,330,8|0,0:0|0:0,0:0:0:0:
279,224,87167,6,0,L|181:294,2,110,2|0|0,0:0|0:0|0:0,0:0:0:0:
453,193,87763,1,0,0:0:0:0:
279,202,87962,2,0,L|280:320,1,110,0|0,0:0|0:0,0:0:0:0:
453,193,88359,1,0,0:0:0:0:
232,332,88757,6,0,P|140:194|290:139,1,330,8|0,0:0|0:0,0:0:0:0:
422,148,89551,2,0,L|422:272,1,110,8|0,0:0|0:0,0:0:0:0:
249,271,89949,2,0,L|94:269,1,110,0|0,0:0|0:0,0:0:0:0:
313,188,90346,6,0,L|411:265,2,110,2|0|0,0:0|0:0|0:0,0:0:0:0:
137,156,90942,1,0,0:0:0:0:
313,188,91141,2,0,L|314:318,1,110,0|0,0:0|0:0,0:0:0:0:
137,156,91538,1,0,0:0:0:0:
355,52,91935,6,0,P|441:172|320:276,1,330,8|0,0:0|0:0,0:0:0:0:
151,163,92730,2,0,L|473:253,1,330,8|0,0:0|0:0,0:0:0:0:
293,268,93525,2,0,P|219:238|303:61,1,330,8|0,0:0|0:0,0:0:0:0:
471,56,94320,2,0,L|471:212,1,110,10|0,0:0|0:0,0:0:0:0:
295,160,94717,2,0,L|139:160,1,110,0|0,0:0|0:0,0:0:0:0:
370,208,95114,6,0,L|268:297,1,110,10|0,0:0|0:0,0:0:0:0:
114,314,95512,2,0,L|114:160,1,110,0|0,0:0|0:0,0:0:0:0:
264,82,95909,2,0,L|162:171,1,110,10|0,0:0|0:0,0:0:0:0:
53,202,96306,2,0,L|52:355,1,110,0|0,0:0|0:0,0:0:0:0:
215,178,96704,6,0,L|300:252,2,110,10|0|0,0:0|0:0|0:0,0:0:0:0:
38,223,97300,1,0,0:0:0:0:
215,178,97499,2,0,L|215:299,1,110,0|8,0:0|0:0,0:0:0:0:
38,223,97896,1,0,0:0:0:0:
264,95,98293,6,0,L|146:98,2,110,2|0|8,0:0|0:0|0:0,0:0:0:0:
440,67,98889,1,0,0:0:0:0:
265,178,99088,2,0,P|205:217|280:327,1,220,8|0,0:0|0:0,0:0:0:0:
438,296,99684,1,0,0:0:0:0:
263,220,99882,6,0,L|117:222,1,110,2|0,0:0|0:0,0:0:0:0:
332,133,100280,2,0,L|336:21,1,110,8|0,0:0|0:0,0:0:0:0:
160,59,100677,2,0,L|159:175,1,110,8|0,0:0|0:0,0:0:0:0:
336,240,101075,2,0,L|452:239,1,110,8|8,0:0|0:0,0:0:0:0:
269,324,101472,6,0,L|45:323,1,220,2|8,0:0|0:0,0:0:0:0:
239,222,102267,2,0,L|466:222,1,220,2|8,0:0|0:0,0:0:0:0:
245,129,103061,6,0,L|131:127,2,110,2|0|2,0:0|0:0|0:0,0:0:0:0:
421,184,103657,1,8,0:0:0:0:
245,233,103856,2,0,L|116:233,1,110,8|0,0:0|0:0,0:0:0:0:
311,300,104253,1,0,0:0:0:0:
126,348,104651,6,0,L|399:346,1,220,2|8,0:0|0:0,0:0:0:0:
168,284,105445,2,0,P|101:242|199:160,1,220,8|2,0:0|0:0,0:0:0:0:
373,89,106240,6,0,L|151:80,2,220,2|8|8,0:0|0:0|0:0,0:0:0:0:
173,169,107432,1,8,0:0:0:0:
373,219,107829,6,0,P|439:256|357:351,1,220,2|8,0:0|0:0,0:0:0:0:
159,267,108624,2,0,L|410:263,1,220,2|8,0:0|0:0,0:0:0:0:
179,206,109419,6,0,L|175:76,1,110,2|0,0:0|0:0,0:0:0:0:
343,77,109816,2,0,L|343:203,1,110,0|0,0:0|0:0,0:0:0:0:
164,263,110214,2,0,L|315:262,1,110,8|8,0:0|0:0,0:0:0:0:
98,190,110611,2,0,L|93:62,1,110,10|0,0:0|0:0,0:0:0:0:
390,64,111008,6,0,L|392:245,1,142.99999345398,2|0,3:2|0:0,0:0:0:0:
216,204,111406,2,0,L|73:210,1,142.99999345398,2|0,3:2|0:0,0:0:0:0:
283,136,111803,2,0,L|382:240,2,142.99999345398,2|0|0,3:2|0:0|0:0,0:0:0:0:
179,117,112399,1,0,0:0:0:0:
451,116,112598,6,0,L|449:284,1,142.99999345398,2|0,3:2|0:0,0:0:0:0:
279,114,112995,1,0,0:0:0:0:
452,114,113194,2,0,P|471:239|313:290,1,285.99998690796,2|0,3:2|0:0,0:0:0:0:
173,199,113790,1,2,3:2:0:0:
344,301,113988,1,2,3:2:0:0:
86,114,114187,6,0,L|86:282,1,142.99999345398,2|0,3:2|0:0,0:0:0:0:
267,296,114584,2,0,L|267:134,1,142.99999345398,2|0,3:2|0:0,0:0:0:0:
86,114,114982,2,0,L|85:281,1,142.99999345398,2|0,3:2|0:0,0:0:0:0:
281,217,115379,1,2,3:2:0:0:
22,224,115578,6,0,L|384:225,1,330.000012588501,4|0,3:2|3:0,0:0:0:0:
203,302,116174,1,8,0:0:0:0:
352,224,116373,1,8,0:0:0:0:
95,217,116571,2,0,P|43:165|110:118,1,165.000006294251,8|8,0:0|0:0,0:0:0:0:
181,113,116869,1,8,0:0:0:0:
370,46,116969,2,0,L|270:43,1,82.5000031471254,0|0,3:2|0:0,0:0:0:0:
119,25,117167,1,8,3:2:0:0:
392,211,117366,6,0,L|386:127,1,82.5000031471254,6|0,3:2|0:0,0:0:0:0:
294,108,117565,2,0,L|197:108,1,82.5000031471254,8|2,0:0|0:0,0:0:0:0:
385,37,117763,2,0,L|292:33,1,82.5000031471254,2|0,3:2|0:0,0:0:0:0:
127,115,117962,2,0,L|222:115,1,82.5000031471254,8|0,0:0|0:0,0:0:0:0:
382,197,118161,5,2,3:2:0:0:
299,196,118260,1,2,0:0:0:0:
217,195,118359,1,10,0:0:0:0:
134,194,118459,1,2,3:2:0:0:
225,191,118558,2,0,L|225:279,1,82.5000031471254,2|0,3:2|3:0,0:0:0:0:
134,291,118757,2,0,L|225:292,1,82.5000031471254,10|0,0:0|0:0,0:0:0:0:
382,318,118955,6,0,L|381:227,1,82.5000031471254,2|0,3:2|0:0,0:0:0:0:
206,182,119154,2,0,L|323:182,1,82.5000031471254,10|0,0:0|0:0,0:0:0:0:
455,115,119353,2,0,L|343:114,1,82.5000031471254,0|0,3:2|0:0,0:0:0:0:
290,113,119551,2,0,L|380:114,1,82.5000031471254,8|2,0:0|0:0,0:0:0:0:
196,58,119750,2,0,L|87:58,1,82.5000031471254,0|2,3:2|0:0,0:0:0:0:
288,113,119949,2,0,L|187:111,1,82.5000031471254,8|0,0:0|3:0,0:0:0:0:
378,185,120147,2,0,L|469:187,3,82.5000031471254,0|0|10|2,3:2|3:2|0:0|0:0,0:0:0:0:
274,248,120545,6,0,L|183:247,1,82.5000031471254,2|0,3:2|0:0,0:0:0:0:
366,311,120743,2,0,L|270:313,1,82.5000031471254,8|2,0:0|0:0,0:0:0:0:
108,358,120942,1,2,3:2:0:0:
190,357,121041,1,0,0:0:0:0:
272,356,121140,1,10,0:0:0:0:
355,356,121240,1,0,0:0:0:0:
179,269,121339,2,0,L|274:270,1,82.5000031471254,2|0,3:2|0:0,0:0:0:0:
179,269,121538,2,0,L|90:269,1,82.5000031471254,10|0,0:0|3:0,0:0:0:0:
194,227,121737,2,0,L|193:123,1,82.5000031471254,0|0,3:0|3:0,0:0:0:0:
103,86,121935,2,0,L|187:85,1,82.5000031471254,10|0,0:0|0:0,0:0:0:0:
367,37,122134,6,0,L|459:37,1,82.5000031471254,2|0,3:2|0:0,0:0:0:0:
272,85,122333,2,0,L|284:212,1,82.5000031471254,10|2,0:0|0:0,0:0:0:0:
107,196,122531,2,0,L|103:292,1,82.5000031471254,2|0,3:2|0:0,0:0:0:0:
281,324,122730,2,0,L|376:324,1,82.5000031471254,10|2,0:0|0:0,0:0:0:0:
186,366,122929,2,0,L|101:364,1,82.5000031471254,2|0,3:2|0:0,0:0:0:0:
276,288,123127,2,0,L|187:287,1,82.5000031471254,10|2,0:0|0:0,0:0:0:0:
371,220,123326,2,0,L|368:130,1,82.5000031471254,2|0,3:2|3:0,0:0:0:0:
188,108,123525,2,0,L|74:103,1,82.5000031471254,10|0,0:0|0:0,0:0:0:0:
292,55,123724,6,0,L|196:53,1,82.5000031471254,2|0,3:2|0:0,0:0:0:0:
292,55,123922,2,0,L|396:55,1,82.5000031471254,10|0,0:0|0:0,0:0:0:0:
192,206,124121,2,0,L|280:208,1,82.5000031471254,2|0,3:2|0:0,0:0:0:0:
464,293,124320,2,0,L|465:195,1,82.5000031471254,10|0,0:0|0:0,0:0:0:0:
293,348,124518,2,0,L|183:348,2,82.5000031471254,2|2|10,3:2|0:0|0:0,0:0:0:0:
376,345,124816,1,0,3:0:0:0:
287,275,124916,2,0,L|284:187,1,82.5000031471254,0|0,3:0|3:0,0:0:0:0:
366,192,125114,2,0,L|274:192,1,82.5000031471254,10|0,0:0|0:0,0:0:0:0:
109,114,125313,6,0,L|211:113,1,82.5000031471254,2|0,3:2|0:0,0:0:0:0:
365,52,125512,2,0,L|244:48,1,82.5000031471254,8|2,0:0|0:0,0:0:0:0:
456,119,125710,2,0,L|346:116,1,82.5000031471254,2|0,3:2|0:0,0:0:0:0:
195,186,125909,2,0,L|100:189,1,82.5000031471254,10|2,0:0|0:0,0:0:0:0:
298,241,126108,2,0,L|309:328,1,82.5000031471254,2|0,3:2|0:0,0:0:0:0:
144,353,126306,2,0,L|231:353,1,82.5000031471254,8|0,0:0|3:0,0:0:0:0:
402,261,126505,1,2,3:2:0:0:
319,261,126604,1,0,3:0:0:0:
237,262,126703,1,10,0:0:0:0:
154,262,126803,1,0,0:0:0:0:
327,176,126902,6,0,L|327:83,1,82.5000031471254,2|0,3:2|0:0,0:0:0:0:
243,89,127101,2,0,L|149:88,1,82.5000031471254,10|0,0:0|0:0,0:0:0:0:
340,24,127300,1,2,3:2:0:0:
257,24,127399,1,0,0:0:0:0:
175,25,127498,1,10,0:0:0:0:
92,26,127598,1,0,0:0:0:0:
269,124,127697,6,0,L|360:124,2,82.5000031471254,2|0|10,3:2|0:0|0:0,0:0:0:0:
186,123,127995,1,0,3:0:0:0:
366,222,128094,2,0,L|454:221,3,82.5000031471254,2|0|10|0,3:2|3:0|0:0|0:0,0:0:0:0:
279,302,128492,6,0,L|185:297,1,82.5000031471254,2|0,3:2|0:0,0:0:0:0:
30,358,128690,2,0,L|149:360,1,82.5000031471254,10|2,0:0|0:0,0:0:0:0:
286,303,128889,2,0,L|195:298,1,82.5000031471254,2|0,3:2|0:0,0:0:0:0:
29,195,129088,2,0,L|181:188,1,82.5000031471254,10|2,0:0|0:0,0:0:0:0:
281,145,129286,2,0,L|385:146,1,82.5000031471254,2|0,3:2|0:0,0:0:0:0:
183,81,129485,1,10,0:0:0:0:
356,42,129584,2,0,L|354:158,1,82.5000031471254,2|2,3:2|3:2,0:0:0:0:
262,107,129783,2,0,L|172:106,1,82.5000031471254,0|10,3:0|0:0,0:0:0:0:
179,109,129982,1,0,0:0:0:0:
420,74,130081,6,0,L|420:233,1,82.5000031471254,6|0,3:2|0:0,0:0:0:0:
319,154,130280,2,0,L|319:247,1,82.5000031471254,10|2,0:0|0:0,0:0:0:0:
418,269,130478,2,0,L|321:269,1,82.5000031471254,2|0,3:2|0:0,0:0:0:0:
236,268,130677,2,0,L|337:268,1,82.5000031471254,10|0,0:0|0:0,0:0:0:0:
487,45,130876,2,0,L|488:164,1,82.5000031471254,2|0,3:2|0:0,0:0:0:0:
388,140,131075,2,0,L|388:258,1,82.5000031471254,10|0,0:0|3:0,0:0:0:0:
289,230,131273,2,0,L|166:230,1,82.5000031471254,0|0,3:0|3:0,0:0:0:0:
307,315,131472,2,0,L|408:316,1,82.5000031471254,10|0,0:0|0:0,0:0:0:0:
190,255,131671,6,0,L|94:255,1,82.5000031471254,2|0,3:2|0:0,0:0:0:0:
208,177,131869,2,0,L|358:177,1,82.5000031471254,10|0,0:0|0:0,0:0:0:0:
191,86,132068,2,0,L|191:204,1,82.5000031471254,0|0,3:2|0:0,0:0:0:0:
360,230,132267,2,0,L|466:229,1,82.5000031471254,8|2,0:0|0:0,0:0:0:0:
274,181,132465,2,0,L|160:181,1,82.5000031471254,2|0,3:2|0:0,0:0:0:0:
291,42,132664,2,0,L|403:43,1,82.5000031471254,10|2,0:0|0:0,0:0:0:0:
160,119,132863,2,0,L|293:119,1,82.5000031471254,2|0,3:2|3:0,0:0:0:0:
409,122,133061,2,0,L|540:122,1,82.5000031471254,8|2,0:0|0:0,0:0:0:0:
401,146,133260,6,0,L|318:146,1,82.5000031471254,2|0,3:2|0:0,0:0:0:0:
228,137,133459,2,0,L|330:137,1,82.5000031471254,10|0,0:0|0:0,0:0:0:0:
473,44,133657,2,0,L|390:45,1,82.5000031471254,2|0,3:2|0:0,0:0:0:0:
220,52,133856,2,0,L|137:52,1,82.5000031471254,10|2,0:0|0:0,0:0:0:0:
301,95,134055,2,0,L|302:235,1,82.5000031471254,2|0,3:2|0:0,0:0:0:0:
202,185,134253,2,0,L|201:303,1,82.5000031471254,10|0,0:0|3:0,0:0:0:0:
370,273,134452,2,0,L|454:273,1,82.5000031471254,2|0,3:2|3:0,0:0:0:0:
352,195,134651,2,0,L|233:194,1,82.5000031471254,10|2,0:0|0:0,0:0:0:0:
467,144,134849,6,0,L|360:144,1,82.5000031471254,2|0,3:2|0:0,0:0:0:0:
285,77,135048,2,0,L|285:217,1,82.5000031471254,10|0,0:0|0:0,0:0:0:0:
385,229,135247,2,0,L|240:231,1,82.5000031471254,2|2,3:2|0:0,0:0:0:0:
135,228,135445,2,0,L|31:228,1,82.5000031471254,10|2,0:0|0:0,0:0:0:0:
223,153,135644,2,0,L|337:152,1,82.5000031471254,2|0,3:2|0:0,0:0:0:0:
206,50,135843,2,0,L|205:161,1,82.5000031471254,10|0,0:0|0:0,0:0:0:0:
386,138,136041,2,0,L|285:137,1,82.5000031471254,2|0,3:2|3:0,0:0:0:0:
131,130,136240,2,0,L|37:130,1,82.5000031471254,10|0,0:0|0:0,0:0:0:0:
249,162,136439,6,0,L|249:278,1,82.5000031471254,2|0,3:2|0:0,0:0:0:0:
150,242,136637,2,0,L|149:360,1,82.5000031471254,10|0,0:0|0:0,0:0:0:0:
49,329,136836,2,0,L|147:329,1,82.5000031471254,2|0,3:2|0:0,0:0:0:0:
231,334,137035,2,0,L|339:333,1,82.5000031471254,10|0,0:0|0:0,0:0:0:0:
137,123,137233,2,0,L|136:220,1,82.5000031471254,2|0,3:2|0:0,0:0:0:0:
237,202,137432,2,0,L|237:298,1,82.5000031471254,10|0,0:0|3:2,0:0:0:0:
337,283,137631,2,0,L|425:284,1,82.5000031471254,2|0,3:2|3:0,0:0:0:0:
321,208,137829,2,0,L|198:209,1,82.5000031471254,10|2,0:0|0:0,0:0:0:0:
405,73,138028,6,0,L|405:197,1,82.5000031471254,2|0,3:2|0:0,0:0:0:0:
305,157,138227,2,0,L|305:264,1,82.5000031471254,10|2,0:0|0:0,0:0:0:0:
137,240,138426,2,0,L|48:240,1,82.5000031471254,2|0,3:2|0:0,0:0:0:0:
219,323,138624,2,0,L|341:323,1,82.5000031471254,10|0,0:0|0:0,0:0:0:0:
99,166,138823,2,0,L|261:166,1,82.5000031471254,2|0,3:2|0:0,0:0:0:0:
350,168,139022,2,0,L|454:168,1,82.5000031471254,10|0,0:0|3:0,0:0:0:0:
229,79,139220,2,0,L|391:79,1,82.5000031471254,2|0,3:2|0:0,0:0:0:0:
482,80,139419,2,0,L|399:80,1,82.5000031471254,10|0,0:0|0:0,0:0:0:0:
175,154,139618,6,0,L|305:154,1,82.5000031471254,2|0,3:2|0:0,0:0:0:0:
357,153,139816,2,0,L|447:152,1,82.5000031471254,10|0,0:0|0:0,0:0:0:0:
232,229,140015,2,0,L|135:229,1,82.5000031471254,2|0,3:2|0:0,0:0:0:0:
250,313,140214,2,0,L|364:314,1,82.5000031471254,10|0,0:0|0:0,0:0:0:0:
143,192,140412,2,0,L|143:291,1,82.5000031471254,10|0,3:2|0:0,0:0:0:0:
243,276,140611,2,0,L|370:276,1,82.5000031471254,10|0,0:0|3:2,0:0:0:0:
151,335,140810,2,0,L|281:335,1,82.5000031471254,2|0,3:2|3:0,0:0:0:0:
333,334,141008,2,0,L|423:333,1,82.5000031471254,10|0,0:0|0:0,0:0:0:0:
207,261,141207,6,0,L|94:261,1,82.5000031471254,2|0,3:2|0:0,0:0:0:0:
224,123,141406,2,0,L|224:235,1,82.5000031471254,10|0,0:0|0:0,0:0:0:0:
125,207,141604,2,0,L|5:207,1,82.5000031471254,2|0,3:2|0:0,0:0:0:0:
252,277,141803,2,0,L|252:154,1,82.5000031471254,10|2,0:0|0:0,0:0:0:0:
61,89,142002,2,0,L|63:245,1,82.5000031471254,2|2,3:2|0:0,0:0:0:0:
162,169,142200,2,0,L|163:276,1,82.5000031471254,10|0,0:0|3:0,0:0:0:0:
329,289,142399,2,0,L|198:289,3,82.5000031471254,2|8|8|8,3:2|0:0|0:0|0:0,0:0:0:0:
411,224,142796,6,0,L|411:142,1,82.5000031471254,4|0,3:2|0:0,0:0:0:0:
231,64,142995,2,0,L|347:64,1,82.5000031471254,8|2,0:0|0:0,0:0:0:0:
486,137,143194,1,2,3:2:0:0:
403,136,143293,1,0,0:0:0:0:
321,136,143392,1,10,0:0:0:0:
403,136,143492,1,0,0:0:0:0:
227,198,143591,2,0,L|143:197,1,82.5000031471254,2|0,3:2|0:0,0:0:0:0:
320,256,143790,2,0,L|320:352,1,82.5000031471254,10|0,0:0|3:0,0:0:0:0:
234,305,143988,2,0,L|236:196,1,82.5000031471254,0|0,3:0|0:0,0:0:0:0:
325,187,144187,2,0,L|236:182,1,82.5000031471254,10|2,0:0|0:0,0:0:0:0:
65,82,144386,6,0,L|181:80,1,82.5000031471254,2|0,3:2|0:0,0:0:0:0:
321,36,144584,2,0,L|194:31,1,82.5000031471254,8|0,0:0|0:0,0:0:0:0:
417,81,144783,2,0,L|499:83,1,82.5000031471254,2|0,3:2|0:0,0:0:0:0:
311,161,144982,2,0,L|211:157,1,82.5000031471254,10|0,0:0|0:0,0:0:0:0:
403,218,145180,1,2,3:2:0:0:
229,281,145280,2,0,L|145:280,2,82.5000031471254,0|10|0,0:0|0:0|3:0,0:0:0:0:
404,353,145578,2,0,L|399:260,1,82.5000031471254,2|0,3:2|3:0,0:0:0:0:
223,206,145777,2,0,L|223:117,1,82.5000031471254,10|0,0:0|0:0,0:0:0:0:
396,34,145975,5,2,3:2:0:0:
313,34,146074,1,0,0:0:0:0:
231,35,146173,1,10,0:0:0:0:
148,35,146273,1,2,0:0:0:0:
326,122,146373,2,0,L|418:118,3,82.5000031471254,2|0|10|0,3:2|0:0|0:0|0:0,0:0:0:0:
228,194,146770,1,2,3:2:0:0:
310,191,146869,1,0,0:0:0:0:
392,189,146968,1,10,0:0:0:0:
475,187,147068,1,0,3:0:0:0:
296,284,147167,2,0,L|203:281,3,82.5000031471254,2|0|10|2,0:0|3:0|0:0|0:0,0:0:0:0:
395,340,147565,6,0,L|394:256,1,82.5000031471254,2|0,3:2|0:0,0:0:0:0:
219,197,147763,2,0,L|100:198,1,82.5000031471254,10|2,0:0|0:0,0:0:0:0:
306,149,147962,2,0,L|303:60,1,82.5000031471254,2|0,3:2|0:0,0:0:0:0:
219,37,148161,2,0,L|219:130,1,82.5000031471254,10|0,0:0|0:0,0:0:0:0:
386,199,148359,2,0,L|488:196,3,82.5000031471254,2|0|10|0,3:2|0:0|0:0|3:0,0:0:0:0:
263,302,148757,2,0,L|263:203,1,82.5000031471254,2|0,0:0|3:0,0:0:0:0:
428,304,148955,2,0,L|330:305,1,82.5000031471254,10|2,0:0|0:0,0:0:0:0:
137,276,149154,6,0,L|238:278,1,82.5000031471254,2|0,3:2|0:0,0:0:0:0:
301,275,149353,2,0,L|204:277,1,82.5000031471254,10|0,0:0|0:0,0:0:0:0:
395,207,149551,2,0,L|300:205,1,82.5000031471254,2|2,3:2|0:0,0:0:0:0:
138,185,149750,2,0,L|7:183,1,82.5000031471254,10|2,0:0|0:0,0:0:0:0:
229,76,149949,2,0,L|134:80,2,82.5000031471254,2|0|8,3:2|0:0|0:0,0:0:0:0:
313,71,150247,1,0,3:0:0:0:
147,164,150346,2,0,L|145:264,1,82.5000031471254,2|0,0:0|3:0,0:0:0:0:
312,274,150545,2,0,L|406:273,1,82.5000031471254,10|2,0:0|0:0,0:0:0:0:
228,350,150743,6,0,L|231:260,1,82.5000031471254,2|0,3:2|0:0,0:0:0:0:
314,260,150942,2,0,L|311:173,1,82.5000031471254,10|2,0:0|0:0,0:0:0:0:
135,100,151141,1,2,3:2:0:0:
217,100,151240,1,0,0:0:0:0:
300,100,151339,1,10,0:0:0:0:
382,100,151439,1,0,0:0:0:0:
209,34,151538,2,0,L|211:130,1,82.5000031471254,2|0,3:2|0:0,0:0:0:0:
385,177,151737,2,0,L|302:175,1,82.5000031471254,10|0,0:0|3:0,0:0:0:0:
134,235,151935,2,0,L|37:236,3,82.5000031471254,2|0|10|2,0:0|3:0|0:0|0:0,0:0:0:0:
234,310,152333,5,2,3:2:0:0:
316,309,152432,1,0,0:0:0:0:
398,309,152531,1,10,0:0:0:0:
398,309,152631,1,0,0:0:0:0:
191,217,152730,1,2,3:2:0:0:
273,217,152829,1,0,0:0:0:0:
356,217,152928,1,10,0:0:0:0:
356,217,153028,1,2,0:0:0:0:
181,136,153127,2,0,L|180:46,1,82.5000031471254,2|0,3:2|0:0,0:0:0:0:
272,55,153326,2,0,L|275:157,1,82.5000031471254,10|0,0:0|3:0,0:0:0:0:
100,229,153525,2,0,L|195:225,1,82.5000031471254,2|0,0:0|3:0,0:0:0:0:
357,292,153724,2,0,L|464:288,1,82.5000031471254,10|2,0:0|0:0,0:0:0:0:
245,336,153922,6,0,L|152:331,1,82.5000031471254,4|0,3:2|0:0,0:0:0:0:
339,259,154121,2,0,L|248:253,1,82.5000031471254,10|2,0:0|0:0,0:0:0:0:
83,184,154320,2,0,L|185:184,1,82.5000031471254,2|0,3:2|0:0,0:0:0:0:
336,160,154518,2,0,L|434:160,1,82.5000031471254,10|2,0:0|0:0,0:0:0:0:
245,78,154717,2,0,L|340:78,1,82.5000031471254,2|0,3:2|0:0,0:0:0:0:
144,40,154916,2,0,L|61:37,1,82.5000031471254,8|0,0:0|3:0,0:0:0:0:
248,98,155114,2,0,L|246:198,1,82.5000031471254,8|8,0:0|0:0,0:0:0:0:
79,233,155313,2,0,L|178:232,1,82.5000031471254,0|0,3:0|3:0,0:0:0:0:
373,131,155512,6,0,L|373:330,1,165.000006294251,6|0,3:2|3:0,0:0:0:0:
241,297,155909,2,0,L|77:124,1,165.000006294251,2|0,3:2|3:0,0:0:0:0:
392,196,156306,2,0,L|52:197,1,330.000012588501,2|2,3:2|3:2,0:0:0:0:
327,127,156902,1,2,3:2:0:0:
178,150,157101,6,0,L|178:320,1,165.000006294251,6|0,3:2|0:0,0:0:0:0:
327,298,157498,1,2,3:2:0:0:
46,244,157697,2,0,L|386:245,1,330.000012588501,6|8,3:2|0:0,0:0:0:0:
293,254,158194,1,8,0:0:0:0:
128,220,158293,1,8,0:0:0:0:
294,179,158492,1,8,0:0:0:0:
30,142,158690,6,0,L|30:269,1,110,2|0,3:2|0:0,0:0:0:0:
185,89,159088,2,0,L|185:238,1,110,2|0,3:2|3:2,0:0:0:0:
350,195,159485,2,0,L|350:326,1,110,2|0,3:2|0:0,0:0:0:0:
174,302,159882,1,2,3:2:0:0:
471,198,160081,2,0,L|472:283,1,55,4|0,3:2|0:0,0:0:0:0:
310,253,160280,6,0,L|392:186,3,82.5000031471254,8|8|4|0,3:0|3:0|3:0|0:0,0:0:0:0:
217,177,160677,2,0,L|299:110,3,82.5000031471254,4|8|8|0,3:0|3:0|3:0|0:0,0:0:0:0:
124,74,161075,2,0,L|125:179,1,82.5000031471254,10|8,3:2|0:0,0:0:0:0:
223,152,161273,2,0,L|226:294,1,82.5000031471254,10|8,3:2|0:0,0:0:0:0:
56,231,161472,2,0,L|158:232,1,82.5000031471254,10|8,3:2|0:0,0:0:0:0:
326,232,161671,2,0,L|205:231,1,82.5000031471254,10|8,3:2|0:0,0:0:0:0:
450,280,161869,6,0,L|453:370,1,82.5000031471254,4|0,3:2|0:0,0:0:0:0:
362,364,162068,2,0,L|278:363,1,82.5000031471254,8|2,0:0|0:0,0:0:0:0:
95,301,162267,2,0,L|197:303,1,82.5000031471254,0|0,3:0|0:0,0:0:0:0:
358,237,162465,2,0,L|261:236,1,82.5000031471254,8|0,0:0|0:0,0:0:0:0:
460,181,162664,2,0,L|460:97,1,82.5000031471254,2|0,3:2|0:0,0:0:0:0:
289,87,162863,2,0,L|291:4,1,82.5000031471254,10|0,0:0|3:0,0:0:0:0:
125,79,163061,2,0,L|39:79,1,82.5000031471254,2|0,3:2|3:0,0:0:0:0:
231,156,163260,2,0,L|341:158,1,82.5000031471254,10|2,0:0|0:0,0:0:0:0:
131,242,163459,6,0,L|46:244,3,82.5000031471254,2|0|10|2,3:2|0:0|0:0|0:0,0:0:0:0:
230,323,163856,2,0,L|326:318,1,82.5000031471254,0|0,3:2|0:0,0:0:0:0:
127,355,164055,2,0,L|43:353,1,82.5000031471254,10|0,0:0|0:0,0:0:0:0:
225,281,164253,2,0,L|131:283,1,82.5000031471254,2|0,3:2|0:0,0:0:0:0:
343,227,164452,2,0,L|452:220,1,82.5000031471254,10|2,0:0|3:2,0:0:0:0:
236,148,164651,1,2,3:2:0:0:
318,144,164750,1,0,3:0:0:0:
400,141,164849,1,10,0:0:0:0:
318,144,164949,1,0,0:0:0:0:
143,71,165048,6,0,L|141:169,1,82.5000031471254,4|0,3:2|0:0,0:0:0:0:
224,207,165247,1,8,0:0:0:0:
389,240,165346,1,0,0:0:0:0:
225,295,165445,1,4,3:2:0:0:
142,294,165544,1,0,0:0:0:0:
60,294,165643,1,10,0:0:0:0:
225,295,165743,1,2,0:0:0:0:
56,211,165843,2,0,L|57:122,1,82.5000031471254,4|0,3:2|0:0,0:0:0:0:
139,128,166041,1,8,0:0:0:0:
313,115,166141,1,0,0:0:0:0:
141,45,166240,2,0,L|33:47,1,82.5000031471254,4|0,3:2|0:0,0:0:0:0:
238,113,166439,2,0,L|368:112,1,82.5000031471254,10|2,0:0|0:0,0:0:0:0:
137,194,166637,6,0,L|135:311,1,82.5000031471254,4|0,3:2|0:0,0:0:0:0:
318,335,166836,2,0,L|205:340,1,82.5000031471254,0|0,0:0|0:0,0:0:0:0:
420,273,167035,2,0,L|310:273,1,82.5000031471254,2|0,3:2|0:0,0:0:0:0:
156,219,167233,2,0,L|281:216,1,82.5000031471254,10|8,0:0|0:0,0:0:0:0:
426,173,167432,2,0,L|319:174,1,82.5000031471254,0|0,3:0|3:0,0:0:0:0:
176,123,167631,2,0,L|179:39,1,82.5000031471254,8|0,0:0|0:0,0:0:0:0:
363,83,167829,2,0,L|275:84,1,82.5000031471254,0|8,3:2|0:0,0:0:0:0:
105,148,168028,2,0,L|5:148,1,82.5000031471254,8|8,0:0|0:0,0:0:0:0:
247,213,168227,6,0,L|246:307,1,82.5000031471254,4|0,3:2|0:0,0:0:0:0:
152,301,168426,2,0,L|149:394,1,82.5000031471254,8|0,0:0|0:0,0:0:0:0:
331,333,168624,2,0,L|426:338,1,82.5000031471254,2|0,3:2|0:0,0:0:0:0:
229,278,168823,2,0,L|105:269,1,82.5000031471254,10|0,0:0|0:0,0:0:0:0:
335,206,169022,2,0,L|426:207,3,82.5000031471254,2|0|10|0,3:2|0:0|0:0|3:2,0:0:0:0:
236,153,169419,2,0,L|219:64,1,82.5000031471254,2|0,3:2|3:0,0:0:0:0:
305,50,169618,2,0,L|397:50,1,82.5000031471254,10|0,0:0|0:0,0:0:0:0:
204,100,169816,6,0,L|97:98,1,82.5000031471254,2|0,3:2|0:0,0:0:0:0:
304,160,170015,2,0,L|302:252,1,82.5000031471254,8|0,0:0|0:0,0:0:0:0:
206,254,170214,2,0,L|201:340,1,82.5000031471254,2|0,3:2|0:0,0:0:0:0:
383,358,170412,2,0,L|501:358,1,82.5000031471254,10|0,0:0|0:0,0:0:0:0:
281,309,170611,2,0,L|191:303,3,82.5000031471254,2|0|8|0,3:2|0:0|0:0|3:0,0:0:0:0:
381,244,171008,2,0,L|293:237,1,82.5000031471254,2|8,3:2|0:0,0:0:0:0:
115,192,171207,2,0,L|221:181,1,82.5000031471254,8|8,0:0|0:0,0:0:0:0:
381,124,171406,5,2,3:2:0:0:
298,120,171505,1,0,0:0:0:0:
381,124,171604,1,8,0:0:0:0:
381,124,171704,1,0,0:0:0:0:
218,33,171803,2,0,L|106:36,1,82.5000031471254,2|0,3:2|0:0,0:0:0:0:
218,33,172002,1,8,0:0:0:0:
300,33,172101,1,8,0:0:0:0:
134,157,172200,2,0,L|230:157,1,82.5000031471254,2|0,3:2|0:0,0:0:0:0:
299,156,172399,2,0,L|201:157,1,82.5000031471254,8|0,0:0|0:0,0:0:0:0:
30,263,172598,2,0,L|119:266,1,82.5000031471254,2|2,3:2|0:0,0:0:0:0:
281,280,172796,2,0,L|385:282,1,82.5000031471254,8|8,0:0|0:0,0:0:0:0:
181,348,172995,6,0,L|268:347,1,82.5000031471254,2|0,3:2|0:0,0:0:0:0:
181,348,173194,2,0,L|76:350,1,82.5000031471254,8|8,0:0|0:0,0:0:0:0:
282,262,173392,2,0,L|392:262,1,82.5000031471254,0|0,3:2|0:0,0:0:0:0:
178,201,173591,2,0,L|75:197,1,82.5000031471254,8|0,0:0|0:0,0:0:0:0:
284,130,173790,2,0,L|195:125,1,82.5000031471254,10|8,3:2|3:2,0:0:0:0:
383,72,173988,2,0,L|476:73,1,82.5000031471254,10|8,3:2|3:2,0:0:0:0:
290,24,174187,2,0,L|374:23,1,82.5000031471254,10|8,3:2|3:2,0:0:0:0:
190,77,174386,2,0,L|101:77,1,82.5000031471254,10|8,3:2|3:2,0:0:0:0:
308,229,174584,6,0,L|421:229,1,82.5000031471254,4|0,3:2|0:0,0:0:0:0:
232,112,174783,2,0,L|232:221,1,82.5000031471254,10|0,0:0|3:0,0:0:0:0:
390,184,174982,2,0,L|479:184,1,82.5000031471254,2|0,3:2|0:0,0:0:0:0:
287,293,175180,2,0,L|195:293,1,82.5000031471254,10|0,0:0|0:0,0:0:0:0:
392,95,175379,2,0,L|390:243,1,82.5000031471254,2|0,3:2|0:0,0:0:0:0:
224,184,175578,2,0,L|223:319,1,82.5000031471254,10|0,0:0|3:0,0:0:0:0:
407,272,175777,2,0,L|271:271,1,82.5000031471254,2|2,3:2|3:2,0:0:0:0:
225,275,175975,2,0,L|367:273,1,82.5000031471254,10|2,0:0|0:0,0:0:0:0:
477,80,176174,6,0,L|477:203,1,82.5000031471254,2|0,3:2|0:0,0:0:0:0:
307,191,176373,2,0,L|307:303,1,82.5000031471254,10|2,0:0|0:0,0:0:0:0:
137,293,176571,2,0,L|39:292,1,82.5000031471254,2|0,3:2|0:0,0:0:0:0:
236,170,176770,2,0,L|361:170,1,82.5000031471254,10|0,0:0|0:0,0:0:0:0:
158,228,176969,2,0,L|43:227,1,82.5000031471254,2|0,3:2|0:0,0:0:0:0:
232,112,177167,2,0,L|231:256,1,82.5000031471254,10|0,0:0|3:0,0:0:0:0:
390,271,177366,2,0,L|500:271,1,82.5000031471254,2|0,3:2|3:0,0:0:0:0:
312,181,177565,2,0,L|225:181,1,82.5000031471254,10|0,0:0|0:0,0:0:0:0:
70,126,177763,6,0,L|228:126,1,82.5000031471254,4|0,3:2|0:0,0:0:0:0:
252,123,177962,2,0,L|378:122,1,82.5000031471254,0|0,0:0|0:0,0:0:0:0:
148,213,178161,2,0,L|11:213,1,82.5000031471254,4|0,3:2|0:0,0:0:0:0:
164,278,178359,2,0,L|301:278,1,82.5000031471254,10|8,0:0|0:0,0:0:0:0:
448,200,178558,2,0,L|307:199,1,82.5000031471254,4|0,3:2|0:0,0:0:0:0:
266,201,178757,2,0,L|151:202,1,82.5000031471254,0|0,0:0|0:0,0:0:0:0:
386,104,178955,2,0,L|288:104,1,82.5000031471254,4|0,3:2|0:0,0:0:0:0:
122,105,179154,2,0,L|21:106,1,82.5000031471254,8|8,0:0|0:0,0:0:0:0:
268,129,179353,6,0,L|394:129,1,82.5000031471254,4|0,3:2|0:0,0:0:0:0:
184,215,179551,2,0,L|305:213,3,82.5000031471254,8|8|4|4,3:0|3:0|3:0|3:0,0:0:0:0:
99,274,179949,2,0,L|3:273,1,82.5000031471254,4|4,3:0|3:0,0:0:0:0:
214,81,180147,2,0,L|322:82,1,82.5000031471254,12|12,3:0|3:0,0:0:0:0:
197,161,180346,2,0,L|85:160,1,82.5000031471254,12|12,3:0|3:0,0:0:0:0:
304,212,180545,2,0,L|201:211,1,82.5000031471254,8|8,3:2|0:0,0:0:0:0:
50,217,180743,2,0,L|159:215,1,82.5000031471254,8|8,0:0|0:0,0:0:0:0:
297,142,180942,6,0,L|418:143,1,82.5000031471254,4|0,3:2|0:0,0:0:0:0:
213,228,181141,2,0,L|212:341,1,82.5000031471254,8|0,0:0|0:0,0:0:0:0:
48,310,181339,2,0,L|146:309,1,82.5000031471254,2|0,3:2|0:0,0:0:0:0:
306,102,181538,2,0,L|414:101,1,82.5000031471254,10|0,0:0|0:0,0:0:0:0:
230,169,181737,2,0,L|230:292,1,82.5000031471254,2|0,3:2|0:0,0:0:0:0:
72,297,181935,2,0,L|206:299,1,82.5000031471254,10|0,0:0|3:0,0:0:0:0:
376,203,182134,2,0,L|286:202,1,82.5000031471254,2|0,3:2|3:0,0:0:0:0:
103,202,182333,2,0,L|-10:202,1,82.5000031471254,10|0,0:0|0:0,0:0:0:0:
177,45,182531,6,0,L|177:154,1,82.5000031471254,2|0,3:2|0:0,0:0:0:0:
336,135,182730,2,0,L|336:270,1,82.5000031471254,8|0,0:0|0:0,0:0:0:0:
495,275,182929,2,0,L|396:273,1,82.5000031471254,2|0,3:2|0:0,0:0:0:0:
245,264,183127,2,0,L|119:263,1,82.5000031471254,10|0,0:0|0:0,0:0:0:0:
338,73,183326,2,0,L|338:219,1,82.5000031471254,2|0,3:2|0:0,0:0:0:0:
496,209,183525,2,0,L|376:209,1,82.5000031471254,10|0,0:0|3:0,0:0:0:0:
226,153,183724,2,0,L|338:153,1,82.5000031471254,2|0,3:2|3:0,0:0:0:0:
477,159,183922,2,0,L|358:158,1,82.5000031471254,10|8,0:0|0:0,0:0:0:0:
207,339,184121,6,0,P|118:308|132:151,1,247.500009441376,4|0,3:2|0:0,0:0:0:0:
278,209,184518,2,0,P|367:178|353:21,1,247.500009441376,4|8,3:2|0:0,0:0:0:0:
180,54,184916,2,0,P|91:85|105:242,1,247.500009441376,2|8,3:2|0:0,0:0:0:0:
300,273,185313,2,0,L|183:273,1,82.5000031471254,2|2,3:2|0:0,0:0:0:0:
117,273,185512,2,0,L|-6:275,1,82.5000031471254,10|2,0:0|0:0,0:0:0:0:
252,126,185710,6,0,L|252:243,1,82.5000031471254,4|0,3:2|0:0,0:0:0:0:
152,210,185909,2,0,L|43:210,1,82.5000031471254,8|0,0:0|0:0,0:0:0:0:
281,246,186108,2,0,L|281:363,1,82.5000031471254,2|0,3:2|0:0,0:0:0:0:
181,330,186307,2,0,L|72:330,1,82.5000031471254,10|0,0:0|0:0,0:0:0:0:
304,101,186505,2,0,L|304:234,1,82.5000031471254,0|0,3:0|3:0,0:0:0:0:
204,190,186704,2,0,L|314:191,1,82.5000031471254,8|8,0:0|0:0,0:0:0:0:
97,264,186902,2,0,L|208:264,1,82.5000031471254,8|8,3:2|0:0,0:0:0:0:
381,267,187101,2,0,L|236:267,1,82.5000031471254,8|8,0:0|0:0,0:0:0:0:
117,346,187300,6,0,L|216:348,1,82.5000031471254,12|0,0:0|0:0,0:0:0:0:
282,346,187498,2,0,L|289:252,1,82.5000031471254,8|0,0:0|0:0,0:0:0:0:
129,196,187697,2,0,L|221:196,1,82.5000031471254,0|0,3:0|0:0,0:0:0:0:
369,156,187896,2,0,L|459:153,1,82.5000031471254,8|0,0:0|0:0,0:0:0:0:
295,140,188094,2,0,L|298:49,1,82.5000031471254,0|0,3:0|0:0,0:0:0:0:
384,34,188293,2,0,L|301:32,1,82.5000031471254,8|0,0:0|0:0,0:0:0:0:
143,151,188492,2,0,L|48:153,3,82.5000031471254,2|0|8|0,3:0|0:0|0:0|0:0,0:0:0:0:
217,214,188889,6,0,L|326:216,1,82.5000031471254,0|0,3:0|0:0,0:0:0:0:
142,311,189088,2,0,L|143:222,1,82.5000031471254,8|0,0:0|0:0,0:0:0:0:
299,246,189286,2,0,L|297:150,1,82.5000031471254,0|0,3:0|0:0,0:0:0:0:
454,138,189485,2,0,L|451:49,1,82.5000031471254,8|0,0:0|0:0,0:0:0:0:
293,32,189684,2,0,L|387:32,1,82.5000031471254,0|0,3:0|0:0,0:0:0:0:
219,93,189882,2,0,L|116:93,1,82.5000031471254,8|0,0:0|0:0,0:0:0:0:
294,159,190081,2,0,L|404:160,3,82.5000031471254,2|0|8|0,3:0|0:0|0:0|0:0,0:0:0:0:
220,248,190478,6,0,L|307:248,1,82.5000031471254,0|0,3:0|0:0,0:0:0:0:
386,248,190677,2,0,L|389:350,1,82.5000031471254,8|0,0:0|0:0,0:0:0:0:
231,356,190876,2,0,L|324:354,1,82.5000031471254,0|0,3:0|0:0,0:0:0:0:
397,355,191075,2,0,L|395:259,1,82.5000031471254,8|0,0:0|0:0,0:0:0:0:
239,202,191273,1,0,3:0:0:0:
321,202,191372,1,0,0:0:0:0:
403,203,191471,1,8,0:0:0:0:
321,202,191571,1,0,0:0:0:0:
163,182,191671,2,0,L|171:93,1,82.5000031471254,0|0,3:0|0:0,0:0:0:0:
327,53,191869,2,0,L|420:54,1,82.5000031471254,8|0,0:0|0:0,0:0:0:0:
249,115,192068,6,0,L|248:225,1,82.5000031471254,0|0,3:0|0:0,0:0:0:0:
406,236,192267,2,0,L|404:327,1,82.5000031471254,8|0,0:0|0:0,0:0:0:0:
248,355,192465,2,0,L|311:303,1,82.5000031471254,0|0,3:0|0:0,0:0:0:0:
472,292,192664,2,0,L|354:294,1,82.5000031471254,8|0,0:0|0:0,0:0:0:0:
232,265,192863,2,0,L|121:267,1,82.5000031471254,0|0,3:0|0:0,0:0:0:0:
69,266,193061,2,0,L|170:269,1,82.5000031471254,8|0,0:0|0:0,0:0:0:0:
313,191,193260,2,0,L|414:189,1,82.5000031471254,0|0,3:0|0:0,0:0:0:0:
238,135,193459,2,0,L|191:67,1,82.5000031471254,8|0,0:0|0:0,0:0:0:0:
350,138,193657,6,0,L|354:235,1,82.5000031471254,2|0,3:0|0:0,0:0:0:0:
271,236,193856,2,0,L|272:326,1,82.5000031471254,8|0,0:0|0:0,0:0:0:0:
430,340,194055,2,0,L|429:240,1,82.5000031471254,0|0,3:0|0:0,0:0:0:0:
347,250,194253,2,0,L|250:241,1,82.5000031471254,8|0,0:0|0:0,0:0:0:0:
106,200,194452,2,0,L|23:198,2,82.5000031471254,2|0|8,3:0|0:0|0:0,0:0:0:0:
189,201,194750,1,0,0:0:0:0:
345,120,194849,1,2,3:0:0:0:
262,117,194948,1,0,0:0:0:0:
180,115,195047,1,8,0:0:0:0:
97,113,195147,1,0,0:0:0:0:
256,198,195247,6,0,L|257:289,1,82.5000031471254,2|0,3:0|0:0,0:0:0:0:
175,295,195445,2,0,L|88:298,1,82.5000031471254,0|0,3:0|0:0,0:0:0:0:
250,352,195644,2,0,L|344:358,1,82.5000031471254,10|0,0:3|0:0,0:0:0:0:
250,352,195843,2,0,L|154:350,1,82.5000031471254,0|0,3:0|0:0,0:0:0:0:
324,298,196041,2,0,L|325:207,1,82.5000031471254,10|0,0:3|3:0,0:0:0:0:
239,218,196240,2,0,L|245:109,1,82.5000031471254,0|0,0:0|3:0,0:0:0:0:
401,73,196439,2,0,L|492:76,3,82.5000031471254,10|0|0|0,0:3|0:0|3:0|0:0,0:0:0:0:
327,26,196836,6,0,L|241:26,2,82.5000031471254,4|0|0,3:2|0:0|3:0,0:0:0:0:
410,25,197134,1,0,0:0:0:0:
251,100,197233,2,0,L|249:199,1,82.5000031471254,10|0,0:3|0:0,0:0:0:0:
332,209,197432,2,0,L|448:213,1,82.5000031471254,0|0,3:0|0:0,0:0:0:0:
257,309,197631,2,0,L|162:312,2,82.5000031471254,10|0|0,0:3|0:0|3:0,0:0:0:0:
340,302,197929,1,0,0:0:0:0:
496,355,198028,1,10,0:3:0:0:
413,355,198127,1,0,0:0:0:0:
331,356,198226,1,0,3:0:0:0:
248,357,198326,1,0,0:0:0:0:
408,273,198426,6,0,L|507:276,2,82.5000031471254,10|0|0,0:3|0:0|3:0,0:0:0:0:
325,268,198724,1,0,0:0:0:0:
169,219,198823,2,0,L|155:109,1,82.5000031471254,8|0,0:0|0:0,0:0:0:0:
251,117,199022,2,0,L|339:107,1,82.5000031471254,0|0,3:0|0:0,0:0:0:0:
490,79,199220,5,10,0:0:0:0:
175,64,199419,5,8,0:0:0:0:
135,75,199468,1,0,0:0:0:0:
101,98,199518,1,8,0:0:0:0:
74,129,199568,1,0,0:0:0:0:
57,166,199617,1,8,0:0:0:0:
51,207,199667,1,0,0:0:0:0:
57,248,199717,1,8,0:0:0:0:
74,285,199766,1,0,0:0:0:0:
101,316,199816,1,8,0:0:0:0:
135,339,199866,1,8,0:0:0:0:
174,351,199915,1,8,0:0:0:0:
463,157,200015,6,0,L|463:52,1,82.5000031471254,2|2,3:2|0:0,0:0:0:0:
282,215,200214,2,0,L|282:100,1,82.5000031471254,10|0,0:0|0:0,0:0:0:0:
111,95,200412,1,2,3:2:0:0:
53,149,200511,1,2,0:0:0:0:
52,229,200610,1,10,0:0:0:0:
110,285,200710,1,0,0:0:0:0:
284,300,200810,2,0,L|382:300,1,82.5000031471254,2|2,3:2|0:0,0:0:0:0:
268,222,201008,2,0,L|110:222,1,82.5000031471254,10|2,0:0|0:0,0:0:0:0:
357,131,201207,2,0,L|263:131,1,82.5000031471254,2|0,3:2|3:0,0:0:0:0:
445,51,201406,2,0,L|295:52,1,82.5000031471254,10|0,0:0|0:0,0:0:0:0:
192,88,201604,6,0,L|313:88,3,82.5000031471254,2|2|10|2,3:2|0:0|0:0|0:0,0:0:0:0:
105,159,202002,2,0,L|220:159,1,82.5000031471254,2|2,3:2|0:0,0:0:0:0:
357,156,202200,2,0,L|462:155,1,82.5000031471254,10|2,0:0|0:0,0:0:0:0:
250,258,202399,2,0,L|392:256,1,82.5000031471254,2|2,3:2|0:0,0:0:0:0:
232,189,202598,2,0,L|101:187,1,82.5000031471254,10|2,3:2|3:2,0:0:0:0:
360,95,202796,2,0,L|261:95,1,82.5000031471254,2|0,3:2|3:0,0:0:0:0:
178,95,202995,2,0,L|70:95,1,82.5000031471254,10|10,0:0|0:0,0:0:0:0:
308,161,203194,6,0,L|308:269,1,82.5000031471254,2|0,3:2|0:0,0:0:0:0:
209,326,203392,2,0,L|209:210,1,82.5000031471254,8|0,0:0|0:0,0:0:0:0:
379,120,203591,1,0,3:2:0:0:
430,181,203690,1,0,0:0:0:0:
412,258,203789,1,0,0:0:0:0:
340,291,203889,1,2,0:0:0:0:
168,299,203988,1,2,3:2:0:0:
152,220,204087,1,0,0:0:0:0:
199,156,204186,1,10,0:0:0:0:
279,149,204286,1,0,0:0:0:0:
109,102,204386,2,0,L|228:102,1,82.5000031471254,2|2,3:2|0:0,0:0:0:0:
93,170,204584,2,0,L|4:169,1,82.5000031471254,10|2,0:0|0:0,0:0:0:0:
203,101,204783,6,0,L|204:235,1,82.5000031471254,6|0,3:2|0:0,0:0:0:0:
104,179,204982,2,0,L|102:315,1,82.5000031471254,0|0,0:0|0:0,0:0:0:0:
310,185,205180,2,0,L|218:184,3,82.5000031471254,8|8|8|8,3:0|3:0|3:0|3:0,0:0:0:0:
45,193,205578,2,0,L|150:193,1,82.5000031471254,4|4,3:0|3:0,0:0:0:0:
302,175,205777,2,0,L|195:173,1,82.5000031471254,4|4,3:0|3:0,0:0:0:0:
50,72,205975,2,0,L|49:211,1,82.5000031471254,8|0,3:2|0:0,0:0:0:0:
151,196,206174,2,0,L|46:196,1,82.5000031471254,8|8,0:0|0:0,0:0:0:0:
244,79,206373,6,0,L|245:218,1,82.5000031471254,2|0,3:2|0:0,0:0:0:0:
146,157,206571,2,0,L|146:269,1,82.5000031471254,10|0,0:0|0:0,0:0:0:0:
46,240,206770,2,0,L|157:240,1,82.5000031471254,2|0,3:2|0:0,0:0:0:0:
330,261,206969,2,0,L|224:261,1,82.5000031471254,10|10,0:0|0:0,0:0:0:0:
346,166,207167,2,0,L|346:292,1,82.5000031471254,2|0,3:2|0:0,0:0:0:0:
178,252,207366,2,0,L|76:253,1,82.5000031471254,10|0,0:0|0:0,0:0:0:0:
265,200,207565,1,2,3:2:0:0:
334,164,207664,1,8,0:0:0:0:
333,85,207763,1,10,0:0:0:0:
263,51,207863,1,0,0:0:0:0:
97,52,207962,6,0,L|97:157,1,82.5000031471254,2|2,3:2|0:0,0:0:0:0:
274,158,208161,2,0,L|142:160,1,82.5000031471254,10|2,0:0|0:0,0:0:0:0:
290,128,208359,2,0,L|385:128,1,82.5000031471254,2|2,3:2|0:0,0:0:0:0:
472,169,208558,2,0,L|358:170,1,82.5000031471254,10|2,0:0|3:2,0:0:0:0:
221,135,208757,2,0,L|222:253,1,82.5000031471254,2|2,3:2|0:0,0:0:0:0:
320,217,208955,2,0,L|319:328,1,82.5000031471254,10|2,0:0|3:0,0:0:0:0:
146,302,209154,1,0,3:0:0:0:
83,253,209253,1,8,0:0:0:0:
92,175,209352,1,8,0:0:0:0:
164,143,209452,1,8,0:0:0:0:
365,217,209551,6,0,L|212:218,1,82.5000031471254,4|0,3:2|0:0,0:0:0:0:
116,210,209750,2,0,L|-13:211,1,82.5000031471254,0|0,0:0|0:0,0:0:0:0:
278,125,209949,2,0,L|125:126,1,82.5000031471254,2|0,3:2|0:0,0:0:0:0:
27,132,210148,2,0,L|156:133,1,82.5000031471254,10|0,0:0|0:0,0:0:0:0:
349,152,210346,2,0,L|448:152,1,82.5000031471254,4|0,3:2|0:0,0:0:0:0:
264,243,210545,2,0,L|128:243,1,82.5000031471254,10|0,0:0|3:0,0:0:0:0:
418,208,210743,2,0,L|291:208,1,82.5000031471254,2|0,3:2|3:0,0:0:0:0:
167,210,210942,2,0,L|63:211,1,82.5000031471254,10|0,0:0|0:0,0:0:0:0:
259,88,211141,6,0,L|259:220,1,82.5000031471254,10|0,3:2|0:0,0:0:0:0:
430,178,211339,2,0,L|430:302,1,82.5000031471254,8|0,3:2|0:0,0:0:0:0:
245,278,211538,2,0,L|358:277,3,82.5000031471254,8|8|8|8,3:2|0:0|0:0|0:0,0:0:0:0:
159,125,211935,2,0,L|158:225,1,82.5000031471254,4|0,3:2|0:0,0:0:0:0:
258,213,212134,2,0,L|258:344,1,82.5000031471254,10|0,0:0|0:0,0:0:0:0:
90,296,212333,2,0,L|221:297,1,82.5000031471254,10|0,0:0|0:0,0:0:0:0:
372,301,212531,2,0,L|229:300,1,82.5000031471254,0|0,0:0|0:0,0:0:0:0:
108,319,212730,5,2,0:0:0:0:
284,247,212929,1,8,0:0:0:0:
174,210,213127,1,0,0:0:0:0:
350,138,213326,1,8,0:0:0:0:
240,80,213525,1,0,0:0:0:0:
416,149,213724,1,8,0:0:0:0:
306,189,213922,1,0,0:0:0:0:
482,259,214121,1,8,0:0:0:0:
199,318,214320,5,2,0:0:0:0:
353,246,214519,1,8,0:0:0:0:
231,211,214717,1,2,0:0:0:0:
385,139,214916,1,8,0:0:0:0:
264,97,215115,1,8,0:0:0:0:
418,167,215314,1,8,0:0:0:0:
297,197,215512,1,8,0:0:0:0:
451,267,215711,1,8,0:0:0:0:
163,305,215909,5,10,0:0:0:0:
383,177,216306,1,10,0:0:0:0:
119,152,216704,1,10,0:0:0:0:
383,110,217101,1,10,0:0:0:0:
115,117,217498,6,0,L|116:238,1,110,2|0,0:0|0:0,0:0:0:0:
281,270,217896,1,2,0:0:0:0:
287,216,217995,1,2,0:0:0:0:
253,175,218094,1,2,0:0:0:0:
200,171,218194,1,2,0:0:0:0:
371,293,218293,1,2,0:0:0:0:
445,265,218392,1,2,0:0:0:0:
439,190,218491,1,2,0:0:0:0:
363,161,218591,1,10,0:0:0:0:
183,114,218690,1,2,0:0:0:0:
266,114,218790,1,2,0:0:0:0:
348,116,218889,1,2,0:0:0:0:
174,70,219088,6,0,P|72:156|175:284,1,330,2|0,3:2|0:0,0:0:0:0:
350,346,219898,2,0,L|111:350,1,220,8|2,0:1|0:0,0:0:0:0:
431,272,220709,5,2,3:2:0:0:
203,185,221115,2,0,L|442:183,1,220,0|8,0:0|0:1,0:0:0:0:
218,93,221925,2,0,L|86:92,1,110,2|0,0:0|0:0,0:0:0:0:
286,179,222331,6,0,L|65:177,2,220,8|2|2,0:1|0:0|3:2,0:0:0:0:
466,264,223547,1,2,0:0:0:0:
268,307,223952,6,0,P|208:277|287:174,1,220,8|0,0:1|0:0,0:0:0:0:
428,92,224763,1,8,0:1:0:0:
373,91,224864,1,0,0:0:0:0:
318,91,224965,1,2,0:0:0:0:
140,161,225169,2,0,L|66:161,2,55,8|0|0,0:1|0:0|3:0,0:0:0:0:
319,269,225574,6,0,L|76:272,1,220,8|2,0:1|0:0,0:0:0:0:
331,325,226385,2,0,L|331:81,1,220,8|2,0:1|0:0,0:0:0:0:
104,68,227196,6,0,L|366:65,1,220,2|0,3:2|0:0,0:0:0:0:
485,159,228006,2,0,L|230:157,1,220,8|2,0:1|0:0,0:0:0:0:
376,160,228615,1,0,0:0:0:0:
201,249,228817,6,0,P|134:214|218:124,1,220,2|0,3:2|0:0,0:0:0:0:
369,45,229628,2,0,L|145:45,1,220,8|0,0:1|0:0,0:0:0:0:
311,125,230439,6,0,L|429:126,2,110,2|0|8,3:2|0:0|0:1,0:0:0:0:
132,182,231047,1,0,0:0:0:0:
301,223,231250,2,0,L|309:356,1,110,8|2,0:1|0:0,0:0:0:0:
142,341,231655,2,0,L|44:283,1,110,2|2,3:2|3:2,0:0:0:0:
231,277,232060,6,0,L|354:275,1,110,2|0,3:2|0:0,0:0:0:0:
341,167,232466,2,0,L|217:167,1,110,2|0,0:0|0:0,0:0:0:0:
391,207,232871,2,0,L|157:111,1,220,8|8,0:1|0:1,0:0:0:0:
109,114,233479,1,0,0:0:0:0:
406,298,233682,5,2,3:2:0:0:
298,259,233884,1,0,0:0:0:0:
299,156,234087,1,0,0:0:0:0:
409,119,234290,1,0,0:0:0:0:
136,94,234493,2,0,L|135:217,1,110,8|0,0:1|0:0,0:0:0:0:
202,205,234797,1,0,0:0:0:0:
268,206,234898,1,8,0:1:0:0:
107,204,235101,1,0,0:0:0:0:
371,189,235304,6,0,L|370:324,1,110,2|0,3:2|0:0,0:0:0:0:
183,198,235709,2,0,L|183:75,1,110,8|0,0:1|0:0,0:0:0:0:
332,152,236115,2,0,L|332:300,1,110,8|0,0:1|0:0,0:0:0:0:
222,264,236520,2,0,L|222:126,1,110,2|0,3:2|0:0,0:0:0:0:
400,93,236925,5,2,3:2:0:0:
180,103,237331,2,0,L|323:102,1,110,2|0,3:2|0:0,0:0:0:0:
132,183,237736,2,0,L|34:181,2,55,8|0|2,0:1|0:0|0:0,0:0:0:0:
292,232,238142,2,0,L|380:233,2,55,2|0|2,3:2|0:0|3:2,0:0:0:0:
113,310,238547,6,0,P|116:213|245:186,1,220,2|0,3:2|0:0,0:0:0:0:
336,228,239155,1,0,0:0:0:0:
177,73,239358,2,0,L|177:203,1,110,8|0,0:1|0:0,0:0:0:0:
346,189,239763,2,0,L|347:304,1,110,8|0,0:1|0:0,0:0:0:0:
78,296,240169,5,2,3:2:0:0:
170,244,240371,1,2,0:0:0:0:
167,139,240574,1,0,0:0:0:0:
73,93,240777,1,0,0:0:0:0:
345,93,240979,2,0,L|437:94,2,55,8|0|0,0:1|0:0|0:0,0:0:0:0:
183,86,241385,1,8,0:1:0:0:
335,100,241587,1,2,3:2:0:0:
171,131,241790,6,0,L|172:268,1,110,2|0,3:2|0:0,0:0:0:0:
305,239,242196,2,0,L|175:241,1,110,8|0,0:1|0:0,0:0:0:0:
371,84,242601,2,0,L|373:225,1,110,2|0,3:2|0:0,0:0:0:0:
173,195,243006,2,0,L|39:195,1,110,8|0,0:1|0:0,0:0:0:0:
358,303,243412,6,0,P|416:271|347:164,1,220,6|0,3:2|0:0,0:0:0:0:
81,110,244008,1,8,0:1:0:0:
191,76,244206,1,2,0:0:0:0:
301,39,244405,1,2,0:0:0:0:
125,40,244604,1,2,3:2:0:0:
401,125,244802,6,0,L|170:128,1,220,6|0,3:2|0:0,0:0:0:0:
456,214,245398,1,2,3:2:0:0:
346,212,245597,1,8,0:1:0:0:
456,214,245796,1,0,0:0:0:0:
182,291,245994,1,8,0:0:0:0:
149,310,246044,1,0,0:0:0:0:
149,310,246094,1,8,0:0:0:0:
182,291,246143,1,0,0:0:0:0:
321,336,246193,2,0,L|433:336,1,110,10|8,3:2|0:0,0:0:0:0:
154,303,246590,6,0,P|90:260|158:162,1,220,6|2,3:2|0:0,0:0:0:0:
311,167,247186,1,2,3:2:0:0:
201,152,247385,1,2,0:0:0:0:
376,102,247584,2,0,L|490:97,1,110,2|10,0:0|3:2,0:0:0:0:
171,60,247981,1,4,3:2:0:0:
322,135,248180,5,8,3:0:0:0:
155,137,248279,1,8,3:0:0:0:
284,199,248478,1,4,3:0:0:0:
110,197,248577,2,0,L|47:197,1,55,4|12,3:0|3:0,0:0:0:0:
226,263,248776,2,0,L|127:263,1,55,12|0,3:0|0:0,0:0:0:0:
346,314,248974,6,0,L|458:318,3,82.5000031471254,10|8|10|8,3:2|3:2|3:2|3:2,0:0:0:0:
254,273,249372,2,0,L|129:272,1,82.5000031471254,10|8,3:2|3:2,0:0:0:0:
344,197,249570,2,0,L|427:200,1,82.5000031471254,10|8,3:2|3:2,0:0:0:0:
178,188,249769,6,0,L|62:188,1,82.5000031471254,4|0,3:2|0:0,0:0:0:0:
263,209,249968,2,0,L|263:305,1,82.5000031471254,2|2,3:2|0:0,0:0:0:0:
457,298,250166,2,0,L|362:298,1,82.5000031471254,0|0,3:2|0:0,0:0:0:0:
173,244,250365,2,0,L|320:244,1,82.5000031471254,10|0,0:0|0:0,0:0:0:0:
422,128,250564,2,0,L|422:240,1,82.5000031471254,2|0,3:2|0:0,0:0:0:0:
257,215,250762,2,0,L|258:108,1,82.5000031471254,10|0,0:0|3:0,0:0:0:0:
66,149,250961,2,0,L|209:149,1,82.5000031471254,2|0,3:2|3:0,0:0:0:0:
316,148,251160,2,0,L|404:149,1,82.5000031471254,10|0,0:0|3:0,0:0:0:0:
197,85,251359,6,0,L|89:86,1,82.5000031471254,2|0,3:2|0:0,0:0:0:0:
279,215,251557,2,0,L|278:89,1,82.5000031471254,10|2,0:0|0:0,0:0:0:0:
449,215,251756,2,0,L|355:214,1,82.5000031471254,2|0,3:2|0:0,0:0:0:0:
169,80,251955,2,0,L|169:229,1,82.5000031471254,10|0,0:0|0:0,0:0:0:0:
369,174,252153,2,0,L|477:171,1,82.5000031471254,2|0,3:2|0:0,0:0:0:0:
283,277,252352,2,0,L|134:276,1,82.5000031471254,8|0,0:0|3:0,0:0:0:0:
403,239,252551,2,0,L|284:238,1,82.5000031471254,0|0,3:0|0:3,0:0:0:0:
156,233,252749,2,0,L|37:232,1,82.5000031471254,8|0,0:0|0:0,0:0:0:0:
319,127,252949,6,0,L|215:127,1,82.5000031471254,4|0,3:2|0:0,0:0:0:0:
71,67,253147,2,0,L|169:67,1,82.5000031471254,8|0,0:0|0:0,0:0:0:0:
360,156,253345,2,0,L|271:157,1,82.5000031471254,4|0,3:2|0:0,0:0:0:0:
111,159,253544,2,0,L|14:160,1,82.5000031471254,10|8,0:0|0:0,0:0:0:0:
257,262,253743,2,0,L|362:262,1,82.5000031471254,4|0,3:2|0:0,0:0:0:0:
172,194,253942,2,0,L|63:194,1,82.5000031471254,8|0,0:0|0:0,0:0:0:0:
348,285,254140,2,0,L|223:285,1,82.5000031471254,4|0,3:2|0:0,0:0:0:0:
101,286,254338,2,0,L|-24:286,1,82.5000031471254,10|8,0:0|0:0,0:0:0:0:
271,124,254537,5,4,3:2:0:0:
276,204,254636,1,0,0:0:0:0:
223,264,254735,1,10,0:0:0:0:
142,269,254835,1,0,0:0:0:0:
308,296,254935,2,0,L|309:206,1,82.5000031471254,2|0,3:2|0:0,0:0:0:0:
227,213,255133,1,0,3:0:0:0:
393,206,255233,1,0,3:0:0:0:
203,143,255332,2,0,L|120:143,1,82.5000031471254,8|8,0:0|0:0,0:0:0:0:
306,96,255531,2,0,L|403:95,1,82.5000031471254,8|8,0:0|0:0,0:0:0:0:
183,45,255729,2,0,L|183:149,1,82.5000031471254,8|8,3:0|3:0,0:0:0:0:
283,163,255928,2,0,L|283:276,1,82.5000031471254,4|4,3:0|3:0,0:0:0:0:
477,68,256127,6,0,L|476:197,1,82.5000031471254,4|0,3:2|0:0,0:0:0:0:
311,220,256325,2,0,L|310:312,1,82.5000031471254,8|0,0:0|0:0,0:0:0:0:
142,300,256524,2,0,L|9:300,1,82.5000031471254,2|0,3:2|0:0,0:0:0:0:
265,294,256723,2,0,L|380:294,1,82.5000031471254,10|0,0:0|0:0,0:0:0:0:
183,99,256921,2,0,L|182:209,1,82.5000031471254,0|0,3:2|0:0,0:0:0:0:
16,185,257120,2,0,L|109:185,1,82.5000031471254,8|2,0:0|0:0,0:0:0:0:
305,184,257319,2,0,L|449:184,1,82.5000031471254,2|0,3:2|3:0,0:0:0:0:
222,122,257517,2,0,L|124:123,1,82.5000031471254,10|0,0:0|3:0,0:0:0:0:
347,170,257716,6,0,L|347:279,1,82.5000031471254,2|0,3:2|0:0,0:0:0:0:
181,252,257915,2,0,L|181:357,1,82.5000031471254,8|0,0:0|0:0,0:0:0:0:
16,344,258113,2,0,L|136:343,1,82.5000031471254,0|0,3:2|0:0,0:0:0:0:
303,320,258312,2,0,L|422:319,1,82.5000031471254,10|0,0:0|0:0,0:0:0:0:
219,86,258511,2,0,L|220:233,1,82.5000031471254,2|0,3:2|3:0,0:0:0:0:
53,195,258710,2,0,L|53:311,1,82.5000031471254,8|0,0:0|3:0,0:0:0:0:
257,277,258908,2,0,L|404:277,1,82.5000031471254,2|0,3:2|3:2,0:0:0:0:
171,191,259107,2,0,L|71:192,1,82.5000031471254,10|0,0:0|0:0,0:0:0:0:
398,150,259306,6,0,L|265:150,1,82.5000031471254,4|0,3:2|0:0,0:0:0:0:
144,146,259504,2,0,L|40:146,1,82.5000031471254,8|0,0:0|0:0,0:0:0:0:
269,282,259703,2,0,L|375:282,1,82.5000031471254,4|0,3:2|0:0,0:0:0:0:
184,218,259902,2,0,L|84:217,1,82.5000031471254,8|8,0:0|0:0,0:0:0:0:
320,146,260100,2,0,L|215:146,1,82.5000031471254,4|0,3:2|0:0,0:0:0:0:
71,144,260299,2,0,L|164:144,1,82.5000031471254,8|0,0:0|0:0,0:0:0:0:
337,235,260498,2,0,L|245:235,1,82.5000031471254,4|0,3:2|0:0,0:0:0:0:
156,237,260696,2,0,L|48:237,1,82.5000031471254,8|8,0:0|0:0,0:0:0:0:
271,111,260895,6,0,L|271:257,1,82.5000031471254,2|0,3:2|0:0,0:0:0:0:
101,199,261094,2,0,L|0:198,1,82.5000031471254,8|0,0:0|0:0,0:0:0:0:
192,199,261292,2,0,L|344:200,1,82.5000031471254,0|0,3:2|0:0,0:0:0:0:
441,243,261491,2,0,L|359:243,1,82.5000031471254,10|0,0:0|0:0,0:0:0:0:
159,236,261690,2,0,L|71:236,1,82.5000031471254,10|8,3:2|3:2,0:0:0:0:
257,145,261888,2,0,L|169:145,1,82.5000031471254,10|8,3:2|3:2,0:0:0:0:
392,235,262087,2,0,L|480:235,1,82.5000031471254,10|8,3:2|3:2,0:0:0:0:
294,144,262285,2,0,L|382:144,1,82.5000031471254,10|8,3:2|3:2,0:0:0:0:
160,67,262484,6,0,L|160:192,1,82.5000031471254,4|0,3:2|0:0,0:0:0:0:
327,208,262683,2,0,L|328:311,1,82.5000031471254,8|2,0:0|0:0,0:0:0:0:
494,291,262882,2,0,L|396:290,1,82.5000031471254,0|0,3:2|0:0,0:0:0:0:
217,289,263080,2,0,L|118:289,1,82.5000031471254,8|0,0:0|0:0,0:0:0:0:
342,78,263279,2,0,L|342:227,1,82.5000031471254,2|0,3:2|0:0,0:0:0:0:
174,155,263478,2,0,L|174:261,1,82.5000031471254,10|0,0:0|3:0,0:0:0:0:
343,287,263676,2,0,L|478:286,1,82.5000031471254,2|2,3:2|3:2,0:0:0:0:
256,204,263875,2,0,L|149:203,1,82.5000031471254,10|0,0:0|3:0,0:0:0:0:
395,75,264074,6,0,L|395:230,1,82.5000031471254,2|0,3:2|0:0,0:0:0:0:
229,153,264272,2,0,L|230:308,1,82.5000031471254,10|8,0:0|0:0,0:0:0:0:
61,238,264471,2,0,L|169:236,1,82.5000031471254,2|0,3:2|0:0,0:0:0:0:
343,242,264670,2,0,L|453:242,1,82.5000031471254,10|0,0:0|0:0,0:0:0:0:
229,70,264868,2,0,L|230:179,1,82.5000031471254,2|0,3:2|0:0,0:0:0:0:
398,169,265067,2,0,L|399:286,1,82.5000031471254,10|0,0:0|3:0,0:0:0:0:
206,251,265266,2,0,L|92:251,1,82.5000031471254,0|0,3:0|3:0,0:0:0:0:
291,164,265464,2,0,L|417:164,1,82.5000031471254,8|0,0:0|0:0,0:0:0:0:
158,152,265663,6,0,L|54:153,1,82.5000031471254,4|0,3:2|0:0,0:0:0:0:
243,241,265862,2,0,L|368:241,1,82.5000031471254,0|0,0:0|0:0,0:0:0:0:
108,305,266061,2,0,L|257:305,1,82.5000031471254,4|0,3:2|0:0,0:0:0:0:
361,301,266259,2,0,L|502:300,1,82.5000031471254,8|8,0:0|0:0,0:0:0:0:
219,203,266458,2,0,L|337:202,1,82.5000031471254,4|0,3:2|0:0,0:0:0:0:
469,132,266657,2,0,L|341:132,1,82.5000031471254,0|0,0:0|0:0,0:0:0:0:
137,81,266855,2,0,L|284:82,1,82.5000031471254,4|0,3:2|0:0,0:0:0:0:
390,92,267054,2,0,L|473:92,1,82.5000031471254,8|8,0:0|0:0,0:0:0:0:
210,180,267253,6,0,L|117:178,1,82.5000031471254,4|0,3:2|0:0,0:0:0:0:
311,131,267451,2,0,L|204:132,3,82.5000031471254,8|8|8|8,0:0|0:0|3:0|3:0,0:0:0:0:
437,262,267849,2,0,L|333:263,1,82.5000031471254,4|4,3:0|3:0,0:0:0:0:
190,211,268047,6,0,L|288:211,1,82.5000031471254,12|12,3:0|3:0,0:0:0:0:
102,121,268246,2,0,L|210:122,1,82.5000031471254,12|12,3:0|3:0,0:0:0:0:
381,156,268445,2,0,L|480:157,1,82.5000031471254,10|10,3:2|0:0,0:0:0:0:
252,125,268643,2,0,L|199:124,2,41.2500015735627,8|0|8,0:0|0:0|0:0,0:0:0:0:
455,66,268842,6,0,L|455:173,1,82.5000031471254,4|0,3:2|0:0,0:0:0:0:
284,189,269041,2,0,L|284:295,1,82.5000031471254,8|0,0:0|0:0,0:0:0:0:
117,298,269239,2,0,L|35:298,1,82.5000031471254,2|0,3:2|0:0,0:0:0:0:
267,286,269438,2,0,L|379:286,1,82.5000031471254,10|0,0:0|0:0,0:0:0:0:
191,93,269637,2,0,L|191:222,1,82.5000031471254,2|0,3:2|0:0,0:0:0:0:
26,179,269835,2,0,L|25:300,1,82.5000031471254,10|2,0:0|0:0,0:0:0:0:
238,254,270034,2,0,L|340:254,1,82.5000031471254,2|0,3:2|3:0,0:0:0:0:
153,165,270233,2,0,L|63:166,1,82.5000031471254,10|0,0:0|0:0,0:0:0:0:
258,59,270431,6,0,L|257:172,1,82.5000031471254,2|0,3:2|0:0,0:0:0:0:
424,163,270630,2,0,L|423:289,1,82.5000031471254,8|0,0:0|2:0,0:0:0:0:
256,256,270829,2,0,L|156:255,1,82.5000031471254,2|0,3:2|0:0,0:0:0:0:
384,93,271027,2,0,L|384:222,1,82.5000031471254,10|0,0:0|0:0,0:0:0:0:
216,180,271226,2,0,L|215:302,1,82.5000031471254,0|0,3:2|0:0,0:0:0:0:
47,270,271425,2,0,L|192:271,1,82.5000031471254,8|2,0:0|0:0,0:0:0:0:
357,227,271623,2,0,L|250:227,1,82.5000031471254,2|0,3:2|3:0,0:0:0:0:
106,232,271822,2,0,L|17:232,1,82.5000031471254,8|8,0:0|0:0,0:0:0:0:
248,175,272021,6,0,L|350:174,1,82.5000031471254,6|0,3:2|0:0,0:0:0:0:
166,97,272219,2,0,L|46:97,1,82.5000031471254,8|0,0:0|0:0,0:0:0:0:
283,221,272418,2,0,L|281:325,1,82.5000031471254,4|0,3:2|0:0,0:0:0:0:
115,302,272617,2,0,L|26:302,1,82.5000031471254,8|8,0:0|0:0,0:0:0:0:
279,210,272815,2,0,L|152:207,1,82.5000031471254,4|0,3:2|0:0,0:0:0:0:
24,186,273014,2,0,L|141:185,1,82.5000031471254,8|0,0:0|0:0,0:0:0:0:
381,106,273213,2,0,L|248:106,1,82.5000031471254,4|0,3:2|0:0,0:0:0:0:
134,103,273411,2,0,L|35:105,1,82.5000031471254,8|8,0:0|0:0,0:0:0:0:
256,169,273610,6,0,L|131:168,1,82.5000031471254,4|0,3:2|0:0,0:0:0:0:
7,168,273809,2,0,L|120:169,1,82.5000031471254,8|0,0:0|0:0,0:0:0:0:
256,255,274008,2,0,L|360:254,1,82.5000031471254,2|0,3:2|0:0,0:0:0:0:
504,257,274206,2,0,L|407:256,1,82.5000031471254,10|8,0:0|0:0,0:0:0:0:
226,101,274405,2,0,L|337:100,1,82.5000031471254,4|0,3:2|0:0,0:0:0:0:
137,184,274604,2,0,L|253:184,1,82.5000031471254,10|8,3:2|3:2,0:0:0:0:
397,213,274802,2,0,L|276:214,1,82.5000031471254,10|8,3:2|3:2,0:0:0:0:
132,243,275001,2,0,L|131:335,1,82.5000031471254,10|8,3:2|3:2,0:0:0:0:
331,77,275200,6,0,L|424:77,1,82.5000031471254,4|0,3:2|0:0,0:0:0:0:
233,18,275398,2,0,L|337:19,1,82.5000031471254,8|2,0:0|0:0,0:0:0:0:
132,81,275597,2,0,L|133:182,1,82.5000031471254,0|0,3:2|0:0,0:0:0:0:
318,195,275796,2,0,L|325:300,1,82.5000031471254,10|0,0:0|0:0,0:0:0:0:
143,318,275994,2,0,L|260:321,1,82.5000031471254,2|0,3:2|0:0,0:0:0:0:
415,263,276193,2,0,L|319:262,1,82.5000031471254,10|0,0:0|3:0,0:0:0:0:
150,203,276392,2,0,L|276:201,1,82.5000031471254,2|0,3:2|3:0,0:0:0:0:
52,153,276590,2,0,L|51:62,1,82.5000031471254,10|8,0:0|0:0,0:0:0:0:
235,39,276789,6,0,L|145:41,1,82.5000031471254,2|0,3:2|0:0,0:0:0:0:
235,39,276988,2,0,L|364:33,1,82.5000031471254,8|2,0:0|0:0,0:0:0:0:
133,117,277186,2,0,L|135:223,1,82.5000031471254,2|0,3:2|0:0,0:0:0:0:
321,272,277385,2,0,L|234:272,1,82.5000031471254,10|0,0:0|0:0,0:0:0:0:
421,335,277584,2,0,L|428:243,1,82.5000031471254,2|0,3:2|0:0,0:0:0:0:
243,211,277782,2,0,L|245:104,1,82.5000031471254,10|0,0:0|3:0,0:0:0:0:
428,60,277981,2,0,L|329:59,3,82.5000031471254,0|0|8|0,3:0|3:0|0:0|0:0,0:0:0:0:
164,138,278378,6,0,L|66:137,2,82.5000031471254,4|0|0,3:2|0:0|0:0,0:0:0:0:
346,193,278676,1,0,0:0:0:0:
162,287,278776,1,4,3:2:0:0:
245,288,278875,1,0,0:0:0:0:
327,289,278974,1,8,0:0:0:0:
144,350,279074,1,8,0:0:0:0:
327,289,279173,2,0,L|341:180,1,82.5000031471254,4|0,3:2|0:0,0:0:0:0:
254,197,279372,1,0,0:0:0:0:
436,146,279471,1,0,0:0:0:0:
254,83,279570,2,0,L|154:83,2,82.5000031471254,4|0|8,3:2|0:0|0:0,0:0:0:0:
71,31,279868,1,8,0:0:0:0:
256,27,279968,6,0,L|345:28,1,82.5000031471254,4|0,3:2|0:0,0:0:0:0:
157,115,280166,2,0,L|154:223,1,82.5000031471254,10|0,0:0|0:0,0:0:0:0:
337,243,280365,2,0,L|431:243,3,82.5000031471254,0|0|8|0,3:2|0:0|0:0|0:0,0:0:0:0:
237,318,280762,2,0,L|117:319,2,82.5000031471254,0|0|8,3:2|0:0|0:0,0:0:0:0:
321,322,281061,1,0,3:0:0:0:
140,236,281160,2,0,L|142:130,1,82.5000031471254,2|0,3:2|3:0,0:0:0:0:
324,144,281359,2,0,L|326:45,1,82.5000031471254,10|8,0:0|0:0,0:0:0:0:
145,23,281557,5,8,0:2:0:0:
228,23,281656,1,0,0:0:0:0:
310,23,281755,1,0,0:0:0:0:
393,23,281855,1,0,0:0:0:0:
209,116,281955,2,0,L|300:115,1,82.5000031471254,10|0,0:0|0:0,0:0:0:0:
472,181,282153,2,0,L|383:181,1,82.5000031471254,2|0,3:2|0:0,0:0:0:0:
206,237,282352,2,0,L|116:238,3,82.5000031471254,8|8|2|0,0:0|0:0|3:2|3:0,0:0:0:0:
305,313,282749,2,0,L|393:312,1,82.5000031471254,10|0,0:0|0:0,0:0:0:0:
205,359,282948,2,0,L|81:358,1,82.5000031471254,0|0,3:0|0:0,0:0:0:0:
307,274,283147,6,0,L|198:275,1,82.5000031471254,10|0,3:2|0:0,0:0:0:0:
307,274,283345,2,0,L|399:275,1,82.5000031471254,0|0,0:0|0:0,0:0:0:0:
207,197,283544,2,0,L|92:195,1,82.5000031471254,10|0,0:0|0:0,0:0:0:0:
310,126,283743,2,0,L|204:123,1,82.5000031471254,2|0,3:2|0:0,0:0:0:0:
411,51,283941,2,0,L|300:49,1,82.5000031471254,10|2,0:0|0:0,0:0:0:0:
247,47,284140,2,0,L|349:49,1,82.5000031471254,0|0,3:0|3:0,0:0:0:0:
147,121,284339,2,0,L|60:117,1,82.5000031471254,10|0,0:0|3:0,0:0:0:0:
266,194,284537,2,0,L|350:187,1,82.5000031471254,2|0,3:2|3:0,0:0:0:0:
165,251,284736,6,0,L|167:337,1,82.5000031471254,4|0,3:2|0:0,0:0:0:0:
250,342,284935,2,0,L|341:342,1,82.5000031471254,0|0,0:0|0:0,0:0:0:0:
152,255,285133,1,4,3:2:0:0:
235,255,285232,1,0,0:0:0:0:
317,255,285331,1,10,0:0:0:0:
400,255,285431,1,8,0:0:0:0:
217,166,285531,2,0,L|115:166,1,82.5000031471254,4|0,3:2|0:0,0:0:0:0:
217,166,285729,2,0,L|314:165,1,82.5000031471254,0|0,0:0|0:0,0:0:0:0:
117,93,285928,2,0,L|29:95,3,82.5000031471254,4|0|8|8,3:2|0:0|0:0|0:0,0:0:0:0:
216,55,286325,6,0,L|322:55,1,82.5000031471254,4|0,3:2|0:0,0:0:0:0:
382,54,286524,2,0,L|386:153,1,82.5000031471254,0|0,0:0|0:0,0:0:0:0:
198,206,286723,1,10,3:2:0:0:
281,206,286822,1,0,0:0:0:0:
363,207,286921,1,10,0:0:0:0:
363,207,287021,1,0,0:0:0:0:
181,302,287120,2,0,L|89:303,3,82.5000031471254,10|8|8|8,3:2|3:2|3:2|3:2,0:0:0:0:
279,353,287517,2,0,L|374:353,1,82.5000031471254,10|8,3:2|3:2,0:0:0:0:
183,290,287716,2,0,L|287:288,1,82.5000031471254,10|8,3:2|3:2,0:0:0:0:
65,239,287915,6,0,L|61:136,1,82.5000031471254,4|0,3:2|0:0,0:0:0:0:
243,133,288113,2,0,L|330:135,1,82.5000031471254,10|2,0:0|0:0,0:0:0:0:
243,133,288312,2,0,L|142:129,1,82.5000031471254,2|0,3:2|0:0,0:0:0:0:
344,56,288511,2,0,L|440:57,1,82.5000031471254,10|0,0:0|0:0,0:0:0:0:
244,20,288710,2,0,L|248:137,1,82.5000031471254,2|0,3:2|0:0,0:0:0:0:
431,152,288908,2,0,L|429:241,1,82.5000031471254,10|0,0:0|3:0,0:0:0:0:
245,259,289107,2,0,L|142:261,1,82.5000031471254,2|2,3:2|3:2,0:0:0:0:
346,351,289306,2,0,L|456:346,1,82.5000031471254,10|0,0:0|3:0,0:0:0:0:
247,309,289504,6,0,L|245:201,1,82.5000031471254,2|0,3:2|0:0,0:0:0:0:
337,221,289703,2,0,L|336:134,1,82.5000031471254,8|2,0:0|0:0,0:0:0:0:
153,91,289902,2,0,L|39:94,1,82.5000031471254,2|0,3:2|0:0,0:0:0:0:
253,29,290100,2,0,L|167:29,1,82.5000031471254,10|0,0:0|0:0,0:0:0:0:
360,77,290299,2,0,L|458:77,3,82.5000031471254,2|0|10|8,3:2|0:0|0:0|0:0,0:0:0:0:
259,135,290696,2,0,L|258:248,1,82.5000031471254,2|0,3:2|3:2,0:0:0:0:
441,261,290895,2,0,L|442:361,1,82.5000031471254,10|0,3:2|3:2,0:0:0:0:
259,310,291094,5,4,3:2:0:0:
177,307,291193,1,0,0:0:0:0:
95,304,291292,1,0,0:0:0:0:
277,239,291392,1,0,0:0:0:0:
95,191,291491,2,0,L|-5:188,2,82.5000031471254,4|0|8,3:2|0:0|0:0,0:0:0:0:
279,147,291789,1,10,0:0:0:0:
96,108,291888,2,0,L|94:26,1,82.5000031471254,4|0,3:2|0:0,0:0:0:0:
177,24,292087,1,10,0:0:0:0:
359,81,292186,1,12,3:0:0:0:
176,173,292286,2,0,L|73:169,1,82.5000031471254,4|0,3:0|0:0,0:0:0:0:
275,225,292484,2,0,L|367:225,1,82.5000031471254,12|0,3:0|0:0,0:0:0:0:
156,267,292683,6,0,L|156:358,1,82.5000031471254,4|0,3:2|0:0,0:0:0:0:
239,362,292882,2,0,L|331:360,1,82.5000031471254,0|0,0:0|0:0,0:0:0:0:
141,276,293080,2,0,L|141:187,1,82.5000031471254,2|0,3:2|0:0,0:0:0:0:
324,205,293279,2,0,L|444:208,1,82.5000031471254,10|0,0:0|0:0,0:0:0:0:
222,144,293478,2,0,L|126:142,3,82.5000031471254,8|8|8|8,3:2|0:0|0:0|0:0,0:0:0:0:
320,57,293875,2,0,L|221:58,1,82.5000031471254,10|10,3:2|0:0,0:0:0:0:
421,110,294074,2,0,L|504:112,1,82.5000031471254,10|0,0:0|0:0,0:0:0:0:
306,202,294272,6,0,L|211:201,1,82.5000031471254,2|0,3:2|0:0,0:0:0:0:
306,202,294471,2,0,L|405:203,1,82.5000031471254,8|0,0:0|0:0,0:0:0:0:
205,270,294670,2,0,L|204:357,1,82.5000031471254,2|0,3:2|0:0,0:0:0:0:
388,289,294868,1,10,0:0:0:0:
306,289,294967,1,0,0:0:0:0:
223,289,295066,1,2,3:2:0:0:
141,289,295166,1,0,0:0:0:0:
323,202,295266,2,0,L|409:201,1,82.5000031471254,10|0,0:0|3:0,0:0:0:0:
223,141,295464,2,0,L|227:48,1,82.5000031471254,2|0,3:2|3:0,0:0:0:0:
311,55,295663,2,0,L|423:52,1,82.5000031471254,10|0,0:0|3:0,0:0:0:0:
211,125,295862,6,0,L|117:126,3,82.5000031471254,2|0|8|0,3:2|0:0|0:0|0:0,0:0:0:0:
310,204,296259,2,0,L|426:202,1,82.5000031471254,2|0,3:2|0:0,0:0:0:0:
209,282,296458,2,0,L|307:281,1,82.5000031471254,10|0,0:0|0:0,0:0:0:0:
209,282,296657,2,0,L|121:283,1,82.5000031471254,2|0,3:2|0:0,0:0:0:0:
308,370,296855,2,0,L|410:368,1,82.5000031471254,10|8,0:0|0:0,0:0:0:0:
207,314,297054,1,2,3:2:0:0:
290,311,297153,1,8,0:0:0:0:
372,309,297252,1,8,0:0:0:0:
455,307,297352,1,8,0:0:0:0:
244,235,297451,6,0,P|160:184|185:49,1,247.500009441376,4|0,3:2|0:0,0:0:0:0:
360,41,297849,2,0,L|160:191,1,247.500009441376,4|0,3:2|0:0,0:0:0:0:
344,280,298246,2,0,P|421:227|339:127,1,247.500009441376,4|0,3:2|0:0,0:0:0:0:
164,60,298643,2,0,L|357:215,1,247.500009441376,4|0,3:2|0:0,0:0:0:0:
122,258,299041,5,4,3:2:0:0:
256,192,299239,12,0,300431,0:0:0:0:
169,118,300630,6,0,L|169:240,1,82.5000031471254,4|0,0:0|0:0,0:0:0:0:
347,172,300829,2,0,L|347:313,1,82.5000031471254,8|0,0:0|0:0,0:0:0:0:
169,266,301027,2,0,L|169:144,1,82.5000031471254,0|0,0:0|0:0,0:0:0:0:
346,170,301226,2,0,L|240:170,1,82.5000031471254,8|0,0:0|0:0,0:0:0:0:
458,77,301425,2,0,L|458:232,1,82.5000031471254,0|0,0:0|0:0,0:0:0:0:
278,236,301623,2,0,L|414:237,1,82.5000031471254,8|0,0:0|0:0,0:0:0:0:
187,160,301822,2,0,L|299:160,1,82.5000031471254,0|0,0:0|0:0,0:0:0:0:
443,142,302021,2,0,L|292:142,1,82.5000031471254,8|0,0:0|0:0,0:0:0:0:
172,66,302219,6,0,L|172:196,1,82.5000031471254,2|0,3:0|0:0,0:0:0:0:
344,195,302418,2,0,L|344:304,1,82.5000031471254,10|2,0:0|0:0,0:0:0:0:
130,49,302617,2,0,L|130:179,1,82.5000031471254,0|0,3:2|0:0,0:0:0:0:
302,178,302816,2,0,L|302:287,1,82.5000031471254,10|0,0:0|0:0,0:0:0:0:
107,231,303014,2,0,L|0:231,1,82.5000031471254,2|0,3:0|0:0,0:0:0:0:
199,140,303213,2,0,L|92:140,1,82.5000031471254,8|0,0:0|3:0,0:0:0:0:
315,52,303411,2,0,L|448:52,1,82.5000031471254,2|0,3:0|3:0,0:0:0:0:
228,79,303610,2,0,L|130:79,1,82.5000031471254,10|0,0:0|0:0,0:0:0:0:
332,126,303809,6,0,L|332:237,1,82.5000031471254,2|0,3:0|0:0,0:0:0:0:
160,217,304008,2,0,L|41:217,1,82.5000031471254,8|0,0:0|0:0,0:0:0:0:
243,306,304206,2,0,L|351:306,1,82.5000031471254,2|0,3:0|0:0,0:0:0:0:
143,98,304405,2,0,L|143:222,1,82.5000031471254,10|0,3:2|0:0,0:0:0:0:
319,186,304604,2,0,L|441:186,1,82.5000031471254,0|0,0:0|0:0,0:0:0:0:
198,58,304802,2,0,L|91:58,1,82.5000031471254,8|8,0:0|0:0,0:0:0:0:
289,263,305001,2,0,L|289:162,1,82.5000031471254,2|0,3:0|0:0,0:0:0:0:
462,82,305200,2,0,L|462:183,1,82.5000031471254,10|0,0:0|0:0,0:0:0:0:
266,143,305398,6,0,L|118:260,1,165.000006294251,2|0,3:0|0:0,0:0:0:0:
462,142,305796,2,0,P|453:235|375:239,1,165.000006294251,2|10,3:0|0:0,0:0:0:0:
311,239,306094,1,8,0:0:0:0:
482,47,306193,2,0,L|482:156,1,82.5000031471254,2|8,3:0|0:0,0:0:0:0:
298,112,306392,2,0,L|298:215,1,82.5000031471254,10|8,0:0|0:0,0:0:0:0:
111,224,306590,2,0,L|244:224,1,82.5000031471254,2|8,3:0|0:0,0:0:0:0:
376,296,306789,2,0,L|243:296,1,82.5000031471254,10|8,0:0|0:0,0:0:0:0:
104,83,306988,6,0,L|104:219,1,82.5000031471254,4|0,3:2|0:0,0:0:0:0:
271,126,307186,2,0,L|271:263,1,82.5000031471254,8|0,0:0|0:0,0:0:0:0:
438,301,307385,2,0,L|438:165,1,82.5000031471254,0|0,3:2|0:0,0:0:0:0:
271,126,307584,2,0,L|157:126,1,82.5000031471254,8|0,0:0|0:0,0:0:0:0:
377,82,307782,2,0,L|270:82,1,82.5000031471254,2|0,3:0|0:0,0:0:0:0:
119,85,307981,2,0,L|12:85,1,82.5000031471254,8|0,0:0|0:0,0:0:0:0:
216,160,308180,2,0,L|323:160,1,82.5000031471254,2|0,3:2|3:0,0:0:0:0:
478,157,308379,2,0,L|371:157,1,82.5000031471254,8|0,0:0|3:0,0:0:0:0:
207,185,308577,6,0,L|207:304,1,82.5000031471254,2|0,3:0|0:0,0:0:0:0:
377,275,308776,2,0,L|493:275,1,82.5000031471254,8|0,0:0|0:0,0:0:0:0:
280,129,308974,2,0,L|128:129,1,82.5000031471254,2|0,3:2|0:0,0:0:0:0:
372,192,309173,2,0,L|524:192,1,82.5000031471254,10|0,0:0|0:0,0:0:0:0:
263,45,309372,2,0,L|111:45,1,82.5000031471254,2|0,3:2|0:0,0:0:0:0:
355,108,309571,2,0,L|507:108,1,82.5000031471254,10|0,0:0|3:0,0:0:0:0:
268,38,309769,2,0,L|267:176,1,82.5000031471254,2|2,3:2|3:0,0:0:0:0:
101,123,309968,2,0,L|101:258,1,82.5000031471254,10|0,0:0|3:0,0:0:0:0:
306,109,310166,6,0,L|306:234,1,82.5000031471254,2|0,3:0|0:0,0:0:0:0:
137,221,310365,2,0,L|24:221,1,82.5000031471254,8|0,0:0|0:0,0:0:0:0:
252,170,310564,2,0,L|392:171,1,82.5000031471254,2|0,3:0|0:0,0:0:0:0:
160,262,310763,2,0,L|47:262,1,82.5000031471254,8|8,0:0|0:0,0:0:0:0:
297,218,310961,2,0,L|140:218,1,82.5000031471254,2|0,3:0|0:0,0:0:0:0:
46,160,311160,2,0,L|170:160,1,82.5000031471254,8|0,0:0|0:0,0:0:0:0:
393,98,311359,2,0,L|249:98,1,82.5000031471254,2|0,3:0|0:0,0:0:0:0:
138,100,311557,6,0,L|-6:100,1,82.5000031471254,8|8,0:0|0:0,0:0:0:0:
282,199,311756,2,0,L|166:199,1,82.5000031471254,2|0,3:0|0:0,0:0:0:0:
16,174,311955,2,0,L|132:174,1,82.5000031471254,8|0,0:0|3:0,0:0:0:0:
255,131,312153,2,0,L|371:131,1,82.5000031471254,0|0,3:0|3:0,0:0:0:0:
495,127,312352,2,0,L|379:127,1,82.5000031471254,8|8,0:0|0:0,0:0:0:0:
217,145,312551,2,0,L|360:145,1,82.5000031471254,8|8,3:2|0:0,0:0:0:0:
466,205,312749,2,0,L|323:205,1,82.5000031471254,8|8,0:0|0:0,0:0:0:0:
217,145,312948,2,0,L|360:145,3,82.5000031471254,8|8|8|8,0:0|0:0|0:0|0:0,0:0:0:0:
88,83,313345,6,0,L|89:184,1,82.5000031471254,4|0,3:2|0:0,0:0:0:0:
189,175,313544,2,0,L|189:269,1,82.5000031471254,10|2,0:0|0:0,0:0:0:0:
89,335,313743,2,0,L|89:206,1,82.5000031471254,2|0,3:2|0:0,0:0:0:0:
188,328,313941,2,0,L|292:328,1,82.5000031471254,10|2,0:0|0:0,0:0:0:0:
51,138,314140,2,0,L|50:268,1,82.5000031471254,2|0,3:2|0:0,0:0:0:0:
150,224,314339,2,0,L|151:340,1,82.5000031471254,10|2,0:0|0:0,0:0:0:0:
249,222,314537,2,0,L|249:106,1,82.5000031471254,2|0,3:2|0:0,0:0:0:0:
149,31,314736,2,0,L|149:139,1,82.5000031471254,10|2,0:0|0:0,0:0:0:0:
378,117,314935,6,0,L|378:224,1,82.5000031471254,2|0,3:2|0:0,0:0:0:0:
279,194,315133,2,0,L|279:307,1,82.5000031471254,10|2,0:0|0:0,0:0:0:0:
437,317,315332,2,0,L|437:187,1,82.5000031471254,2|0,3:2|0:0,0:0:0:0:
277,232,315531,2,0,L|152:232,1,82.5000031471254,10|2,0:0|0:0,0:0:0:0:
367,54,315729,2,0,L|367:182,1,82.5000031471254,2|0,3:2|0:0,0:0:0:0:
267,137,315928,2,0,L|267:242,1,82.5000031471254,10|2,0:0|0:0,0:0:0:0:
109,223,316127,2,0,L|19:223,1,82.5000031471254,2|0,3:2|0:0,0:0:0:0:
183,324,316325,2,0,L|309:324,1,82.5000031471254,10|2,0:0|0:0,0:0:0:0:
60,157,316524,6,0,L|198:157,1,82.5000031471254,2|0,3:2|0:0,0:0:0:0:
242,153,316723,2,0,L|362:154,1,82.5000031471254,10|2,0:0|0:0,0:0:0:0:
226,215,316921,2,0,L|226:353,1,82.5000031471254,2|0,3:2|0:0,0:0:0:0:
326,278,317120,2,0,L|326:158,1,82.5000031471254,10|2,0:0|0:0,0:0:0:0:
143,74,317319,2,0,L|143:176,1,82.5000031471254,2|0,3:2|0:0,0:0:0:0:
242,166,317517,2,0,L|242:268,1,82.5000031471254,10|2,0:0|0:0,0:0:0:0:
342,285,317716,2,0,L|467:285,1,82.5000031471254,2|2,3:2|0:0,0:0:0:0:
325,168,317915,2,0,L|189:168,1,82.5000031471254,10|0,0:0|0:0,0:0:0:0:
455,96,318113,6,0,L|455:226,1,82.5000031471254,2|0,3:2|0:0,0:0:0:0:
355,179,318312,2,0,L|491:180,1,82.5000031471254,10|0,0:0|0:0,0:0:0:0:
251,118,318511,2,0,L|251:240,1,82.5000031471254,2|0,3:2|0:0,0:0:0:0:
351,201,318710,2,0,L|232:200,1,82.5000031471254,10|8,0:0|0:0,0:0:0:0:
104,69,318908,2,0,L|104:188,1,82.5000031471254,10|10,3:2|0:0,0:0:0:0:
204,154,319107,2,0,L|204:260,1,82.5000031471254,10|0,0:0|0:0,0:0:0:0:
46,331,319306,2,0,L|46:200,1,82.5000031471254,0|0,3:2|0:0,0:0:0:0:
215,209,319504,2,0,L|122:209,1,82.5000031471254,10|2,0:0|0:0,0:0:0:0:
317,271,319703,6,0,L|417:271,1,82.5000031471254,6|0,3:2|0:0,0:0:0:0:
300,176,319902,2,0,L|193:175,1,82.5000031471254,10|2,0:0|0:0,0:0:0:0:
414,69,320100,2,0,L|414:177,1,82.5000031471254,2|0,3:2|0:0,0:0:0:0:
314,151,320299,2,0,L|200:151,1,82.5000031471254,10|2,0:0|0:0,0:0:0:0:
64,240,320498,2,0,L|215:240,1,82.5000031471254,2|0,3:2|0:0,0:0:0:0:
245,243,320696,2,0,L|371:243,1,82.5000031471254,10|2,0:0|0:0,0:0:0:0:
170,163,320895,2,0,L|74:163,1,82.5000031471254,2|0,3:2|0:0,0:0:0:0:
187,73,321094,2,0,L|277:73,1,82.5000031471254,10|2,0:0|0:0,0:0:0:0:
434,85,321292,6,0,L|434:181,1,82.5000031471254,2|0,3:2|0:0,0:0:0:0:
252,165,321491,2,0,L|149:166,1,82.5000031471254,10|2,0:0|0:0,0:0:0:0:
252,165,321690,2,0,L|342:166,1,82.5000031471254,2|0,3:2|0:0,0:0:0:0:
178,252,321888,2,0,L|74:252,1,82.5000031471254,10|2,0:0|0:0,0:0:0:0:
274,67,322087,2,0,L|275:165,1,82.5000031471254,2|0,3:2|0:0,0:0:0:0:
175,145,322286,2,0,L|175:238,1,82.5000031471254,10|2,0:0|0:0,0:0:0:0:
76,233,322484,2,0,L|184:233,1,82.5000031471254,10|8,3:2|0:0,0:0:0:0:
341,206,322683,2,0,L|226:206,1,82.5000031471254,8|8,0:0|0:0,0:0:0:0:
62,158,322882,6,0,L|181:158,1,82.5000031471254,4|0,3:2|0:0,0:0:0:0:
338,130,323080,2,0,L|213:130,1,82.5000031471254,0|0,0:0|0:0,0:0:0:0:
70,88,323279,2,0,L|178:88,1,82.5000031471254,4|0,3:2|0:0,0:0:0:0:
348,95,323478,2,0,L|447:96,1,82.5000031471254,8|8,0:0|0:0,0:0:0:0:
229,171,323676,2,0,L|120:171,1,82.5000031471254,4|0,3:2|0:0,0:0:0:0:
331,231,323875,2,0,L|453:231,1,82.5000031471254,0|0,0:0|0:0,0:0:0:0:
124,286,324074,2,0,L|238:286,1,82.5000031471254,4|0,3:2|0:0,0:0:0:0:
462,290,324272,2,0,L|352:289,1,82.5000031471254,8|0,0:0|0:0,0:0:0:0:
167,119,324471,6,0,L|167:237,1,82.5000031471254,4|0,3:2|0:0,0:0:0:0:
335,242,324670,2,0,L|226:240,1,82.5000031471254,8|8,3:0|3:0,0:0:0:0:
409,163,324868,2,0,L|321:163,1,82.5000031471254,4|4,3:0|3:0,0:0:0:0:
484,81,325067,2,0,L|369:81,1,82.5000031471254,0|0,3:0|3:0,0:0:0:0:
201,81,325266,6,0,L|201:182,1,82.5000031471254,4|0,3:2|0:0,0:0:0:0:
357,178,325464,2,0,L|487:178,1,82.5000031471254,8|0,0:0|0:0,0:0:0:0:
232,247,325663,2,0,L|133:247,1,82.5000031471254,8|8,0:0|0:0,0:0:0:0:
334,268,325862,2,0,L|382:269,2,41.2500015735627,8|0|8,0:0|0:0|0:0,0:0:0:0:
137,218,326061,5,8,3:2:0:0:
397,50,326458,6,0,B|476:317|254:264|-1:253,1,561.000010700226,8|4,0:0|2:0,0:0:0:0:
256,192,327849,12,0,333610,2:0:0:0:
