osu file format v14

[General]
AudioFilename: audio.mp3
AudioLeadIn: 0
PreviewTime: 114718
Countdown: 0
SampleSet: Soft
StackLeniency: 0.7
Mode: 0
LetterboxInBreaks: 0
StoryFireInFront: 0
WidescreenStoryboard: 1

[Editor]
Bookmarks: 22363,22818,43346,43863,44358,44846,53027,53709,54391,55755,66650,69377,91195,91877,102104,113013,114377,114718,115357,115740,126309,130229,137559,143013,144377,148468,149746,158695,159377,181195,192104,203013,222104,223468,224831,241195,243922,246650,257559,268468,290286,301195,309377,310740,312104,320627
DistanceSpacing: 0.75
BeatDivisor: 4
GridSize: 4
TimelineZoom: 2.699999

[Metadata]
Title:Youyou 'Subete Sakura no Shita ni'
TitleUnicode:妖々 「全て桜の下に」
Artist:Diao Ye Zong feat. Kushi
ArtistUnicode:凋叶棕 feat. Φ串Φ
Creator:Irin
Version:Under the cherry blossom, Rondo of butterfly
Source:東方妖々夢 ~ Perfect Cherry Blossom.
Tags:Touhou project C87 zun Team Shanghai Alice 上海アリス幻樂団 Japanese Video Game youyoumu th7 rock jrock j-rock 奉 RD-Sounds アルティメットトゥルース ボーダーオブライフ Saigyouji Yuyuko 西行寺幽々子 ultimate truth border of life Calvaria superdaloubot
BeatmapID:2587072
BeatmapSetID:1231746

[Difficulty]
HPDrainRate:5.8
CircleSize:4.3
OverallDifficulty:8.5
ApproachRate:9.3
SliderMultiplier:1.72
SliderTickRate:1

[Events]
//Background and Video events
0,0,"bg.jpg",0,0
//Break Periods
//Storyboard Layer 0 (Background)
//Storyboard Layer 1 (Fail)
//Storyboard Layer 2 (Pass)
//Storyboard Layer 3 (Foreground)
//Storyboard Layer 4 (Overlay)
//Storyboard Sound Samples

[TimingPoints]
1000,454.545454545455,3,2,4,30,1,0
1000,-166.666666666667,3,2,4,30,0,0
11000,-166.666666666667,3,2,4,5,0,0
11909,-166.666666666667,3,2,4,30,0,0
21909,-166.666666666667,3,2,4,5,0,0
22363,-166.666666666667,3,2,24,34,0,0
22477,-166.666666666667,3,2,31,38,0,0
22590,-166.666666666667,3,2,29,42,0,0
22704,-166.666666666667,3,2,79,46,0,0
22818,-125,3,2,44,50,0,0
23045,-125,3,2,44,5,0,0
23272,-125,3,2,25,50,0,0
23500,-125,3,2,25,5,0,0
23727,-125,3,2,1,50,0,0
23954,-125,3,2,1,5,0,0
24181,-125,3,2,46,50,0,0
24409,-125,3,2,46,5,0,0
24636,-125,3,2,26,50,0,0
24863,-125,3,2,26,5,0,0
25090,-125,3,2,1,50,0,0
25318,-125,3,2,1,5,0,0
25545,-125,3,2,40,50,0,0
25772,-125,3,2,40,5,0,0
26000,-125,3,2,42,50,0,0
26227,-125,3,2,42,5,0,0
26454,-125,3,2,49,50,0,0
26681,-125,3,2,49,5,0,0
26909,-125,3,2,46,50,0,0
27136,-125,3,2,1,50,0,0
27363,-125,3,2,27,50,0,0
27590,-125,3,2,1,50,0,0
28272,-125,3,2,44,50,0,0
28500,-125,3,2,44,5,0,0
28727,-125,3,2,25,50,0,0
28954,-125,3,2,25,5,0,0
29181,-125,3,2,1,50,0,0
29409,-125,3,2,1,5,0,0
29636,-125,3,2,46,50,0,0
29863,-125,3,2,46,5,0,0
30090,-125,3,2,26,50,0,0
30318,-125,3,2,26,5,0,0
30545,-125,3,2,1,50,0,0
30772,-125,3,2,1,5,0,0
31000,-125,3,2,44,50,0,0
31227,-125,3,2,44,5,0,0
31454,-125,3,2,42,50,0,0
31681,-125,3,2,42,5,0,0
31909,-125,3,2,49,50,0,0
32136,-125,3,2,49,5,0,0
32363,-125,3,2,46,50,0,0
32818,-125,3,2,27,50,0,0
33727,-125,3,2,44,50,0,0
33954,-125,3,2,44,5,0,0
34181,-125,3,2,25,50,0,0
34409,-125,3,2,25,5,0,0
34636,-125,3,2,1,50,0,0
34863,-125,3,2,1,5,0,0
35090,-125,3,2,46,50,0,0
35318,-125,3,2,46,5,0,0
35545,-125,3,2,26,50,0,0
35772,-125,3,2,26,5,0,0
36000,-125,3,2,1,50,0,0
36227,-125,3,2,1,5,0,0
36454,-125,3,2,44,50,0,0
36681,-125,3,2,44,5,0,0
36909,-125,3,2,42,50,0,0
37136,-125,3,2,42,5,0,0
37363,-125,3,2,49,50,0,0
37590,-125,3,2,49,5,0,0
37818,-125,3,2,46,50,0,0
38045,-125,3,2,1,50,0,0
38272,-125,3,2,27,50,0,0
38500,-125,3,2,1,50,0,0
39181,-125,3,2,44,50,0,0
39409,-125,3,2,44,5,0,0
39636,-125,3,2,25,50,0,0
39863,-125,3,2,25,5,0,0
40090,-125,3,2,1,50,0,0
40318,-125,3,2,1,5,0,0
40545,-125,3,2,46,50,0,0
40772,-125,3,2,46,5,0,0
41000,-125,3,2,26,50,0,0
41227,-125,3,2,26,5,0,0
41454,-125,3,2,1,50,0,0
41681,-125,3,2,1,5,0,0
41909,-125,3,2,44,50,0,0
42136,-125,3,2,44,5,0,0
42363,-125,3,2,42,50,0,0
42590,-125,3,2,42,5,0,0
42818,-125,3,2,49,50,0,0
43045,-125,3,2,49,5,0,0
43346,517.241379310345,4,2,37,80,1,0
43346,-83.3333333333333,4,2,37,80,0,0
43733,-83.3333333333333,4,2,1,5,0,0
43863,495.867768595041,4,2,33,80,1,0
43863,-83.3333333333333,4,2,33,80,0,0
44110,-83.3333333333333,4,2,59,60,0,0
44234,-83.3333333333333,4,2,69,60,0,0
44358,-83.3333333333333,4,2,54,60,0,0
44482,-83.3333333333333,4,2,56,60,0,0
44606,-83.3333333333333,4,2,54,60,0,0
44730,-83.3333333333333,4,2,52,60,0,0
44846,340.909090909091,4,2,54,60,1,0
44846,-111.111111111111,4,2,54,60,0,0
45016,-111.111111111111,4,2,65,60,0,0
45186,-111.111111111111,4,2,66,60,0,0
45357,-111.111111111111,4,2,65,60,0,0
45527,-111.111111111111,4,2,66,60,0,0
45698,-111.111111111111,4,2,65,60,0,0
45868,-111.111111111111,4,2,56,60,0,0
46039,-111.111111111111,4,2,65,60,0,0
46209,-111.111111111111,4,2,68,60,0,0
46379,-111.111111111111,4,2,65,60,0,0
46549,-111.111111111111,4,2,66,60,0,0
46720,-111.111111111111,4,2,65,60,0,0
46890,-111.111111111111,4,2,66,60,0,0
47061,-111.111111111111,4,2,65,60,0,0
47231,-111.111111111111,4,2,56,60,0,0
47402,-111.111111111111,4,2,65,60,0,0
47573,-111.111111111111,4,2,68,60,0,0
47743,-111.111111111111,4,2,65,60,0,0
47913,-111.111111111111,4,2,66,60,0,0
48084,-111.111111111111,4,2,65,60,0,0
48254,-111.111111111111,4,2,66,60,0,0
48425,-111.111111111111,4,2,65,60,0,0
48595,-111.111111111111,4,2,56,60,0,0
48766,-111.111111111111,4,2,65,60,0,0
48936,-111.111111111111,4,2,68,60,0,0
49106,-111.111111111111,4,2,65,60,0,0
49276,-111.111111111111,4,2,66,60,0,0
49447,-111.111111111111,4,2,65,60,0,0
49617,-111.111111111111,4,2,66,60,0,0
49788,-111.111111111111,4,2,65,60,0,0
49958,-111.111111111111,4,2,56,60,0,0
50129,-111.111111111111,4,2,65,60,0,0
50300,-111.111111111111,4,2,68,60,0,0
50470,-111.111111111111,4,2,65,60,0,0
50640,-111.111111111111,4,2,66,60,0,0
50811,-111.111111111111,4,2,65,60,0,0
50981,-111.111111111111,4,2,66,60,0,0
51152,-111.111111111111,4,2,65,60,0,0
51322,-111.111111111111,4,2,56,60,0,0
51493,-111.111111111111,4,2,65,60,0,0
51664,-111.111111111111,4,2,68,60,0,0
51834,-111.111111111111,4,2,65,60,0,0
52004,-111.111111111111,4,2,66,60,0,0
52175,-111.111111111111,4,2,65,60,0,0
52345,-111.111111111111,4,2,66,60,0,0
52516,-111.111111111111,4,2,65,60,0,0
52686,-111.111111111111,4,2,56,60,0,0
52857,-111.111111111111,4,2,65,60,0,0
53027,-111.111111111111,4,2,68,60,0,0
53197,-111.111111111111,4,2,65,60,0,0
53367,-111.111111111111,4,2,66,60,0,0
53538,-111.111111111111,4,2,65,60,0,0
53709,-111.111111111111,4,2,1,60,0,0
54391,-111.111111111111,4,2,1,70,0,0
54902,-111.111111111111,4,2,1,60,0,0
55073,-66.6666666666667,4,2,1,80,0,0
55414,-142.857142857143,4,2,1,60,0,0
55755,-83.3333333333333,4,2,1,70,0,0
66664,-100,4,2,68,65,0,0
66749,-100,4,2,70,65,0,0
66834,-100,4,2,65,65,0,0
66919,-100,4,2,66,65,0,0
67260,-100,4,2,54,65,0,0
67431,-100,4,2,56,65,0,0
67601,-100,4,2,65,65,0,0
67771,-100,4,2,52,65,0,0
67857,-100,4,2,50,65,0,0
67942,-100,4,2,64,65,0,0
68027,-100,4,2,52,65,0,0
68112,-100,4,2,50,65,0,0
68198,-100,4,2,64,65,0,0
68283,-100,4,2,46,65,0,0
68368,-111.111111111111,4,2,44,60,0,0
68709,-111.111111111111,4,2,39,60,0,0
68879,-111.111111111111,4,2,1,60,0,0
68965,-111.111111111111,4,2,1,5,0,0
69050,-111.111111111111,4,2,1,60,0,0
69135,-111.111111111111,4,2,1,5,0,0
69220,-111.111111111111,4,2,1,60,0,0
69306,-111.111111111111,4,2,1,5,0,0
69391,-125,4,2,2,65,0,0
79874,-125,4,2,2,5,0,0
79959,-125,4,2,2,65,0,0
80044,-125,4,2,2,5,0,0
80129,-125,4,2,2,65,0,0
80215,-125,4,2,2,5,0,0
80300,-111.111111111111,4,2,2,70,0,0
90698,-111.111111111111,4,2,1,70,0,0
91209,-100,4,2,1,70,0,0
91891,-100,4,2,5,70,0,0
93936,-100,4,2,1,70,0,0
94618,-100,4,2,5,70,0,0
96664,-100,4,2,1,70,0,0
100754,-100,4,2,5,70,0,0
102118,-100,4,2,1,70,0,0
113027,-100,4,2,45,65,0,0
113368,-100,4,2,62,65,0,0
113709,-100,4,2,63,65,0,0
114050,-100,4,2,61,65,0,0
114391,-100,4,2,62,75,0,0
114561,-100,4,2,1,75,0,0
114732,-100,4,2,1,75,0,0
115414,-250,4,2,1,75,0,0
115755,-83.3333333333333,4,2,21,80,0,1
115840,-83.3333333333333,4,2,1,80,0,1
117118,-83.3333333333333,4,2,22,80,0,1
117203,-83.3333333333333,4,2,1,80,0,1
118482,-83.3333333333333,4,2,23,80,0,1
118567,-83.3333333333333,4,2,1,80,0,1
121209,-83.3333333333333,4,2,19,80,0,1
121294,-83.3333333333333,4,2,1,80,0,1
122573,-83.3333333333333,4,2,20,80,0,1
122658,-83.3333333333333,4,2,1,80,0,1
123936,-76.9230769230769,4,2,23,85,0,1
124021,-76.9230769230769,4,2,1,85,0,1
124618,-76.9230769230769,4,2,22,85,0,1
124703,-76.9230769230769,4,2,1,85,0,1
125300,-76.9230769230769,4,2,21,85,0,1
125385,-76.9230769230769,4,2,1,85,0,1
125982,-83.3333333333333,4,2,20,80,0,1
126067,-83.3333333333333,4,2,1,80,0,1
126664,-83.3333333333333,4,2,19,80,0,1
126749,-83.3333333333333,4,2,1,80,0,1
129391,-83.3333333333333,4,2,20,80,0,1
129476,-83.3333333333333,4,2,1,80,0,1
132118,-83.3333333333333,4,2,21,80,0,1
132203,-83.3333333333333,4,2,1,80,0,1
133482,-83.3333333333333,4,2,22,80,0,1
133567,-83.3333333333333,4,2,1,80,0,1
134845,-76.9230769230769,4,2,23,85,0,1
134931,-76.9230769230769,4,2,1,85,0,1
137573,-76.9230769230769,4,2,21,80,0,1
137658,-76.9230769230769,4,2,3,80,0,1
140300,-76.9230769230769,4,2,22,80,0,1
140385,-76.9230769230769,4,2,3,80,0,1
143027,-76.9230769230769,4,2,19,80,0,1
143112,-76.9230769230769,4,2,3,80,0,1
144391,-83.3333333333333,4,2,1,80,0,1
145754,-83.3333333333333,4,2,21,80,0,1
145840,-83.3333333333333,4,2,1,80,0,1
147118,-83.3333333333333,4,2,22,80,0,1
147203,-83.3333333333333,4,2,1,80,0,1
148482,-100,4,2,48,60,0,0
148567,-100,4,2,50,60,0,0
148652,-100,4,2,51,60,0,0
148737,-100,4,2,53,60,0,0
148823,-100,4,2,55,60,0,0
148908,-100,4,2,57,60,0,0
148993,-100,4,2,58,60,0,0
149078,-100,4,2,59,60,0,0
149164,-100,4,2,60,60,0,0
149249,-100,4,2,61,60,0,0
149334,-100,4,2,62,60,0,0
149419,-100,4,2,63,60,0,0
149504,-100,4,2,71,60,0,0
149590,-100,4,2,72,60,0,0
149675,-100,4,2,73,60,0,0
149760,-100,4,2,75,60,0,0
149845,-100,4,2,74,60,0,0
149931,-100,4,2,73,60,0,0
150016,-100,4,2,72,60,0,0
150101,-100,4,2,63,60,0,0
150186,-100,4,2,80,60,0,0
150271,-100,4,2,61,60,0,0
150357,-100,4,2,60,60,0,0
150442,-100,4,2,59,60,0,0
150527,-100,4,2,57,60,0,0
150612,-100,4,2,55,60,0,0
150698,-100,4,2,53,60,0,0
150783,-100,4,2,51,60,0,0
150868,-100,4,2,50,60,0,0
150953,-100,4,2,47,60,0,0
151039,-100,4,2,45,60,0,0
151124,-100,4,2,40,60,0,0
151209,-100,4,2,48,60,0,0
151294,-100,4,2,50,60,0,0
151379,-100,4,2,51,60,0,0
151465,-100,4,2,53,60,0,0
151550,-100,4,2,55,60,0,0
151635,-100,4,2,57,60,0,0
151720,-100,4,2,58,60,0,0
151806,-100,4,2,59,60,0,0
151891,-100,4,2,60,60,0,0
151976,-100,4,2,61,60,0,0
152061,-100,4,2,62,60,0,0
152146,-100,4,2,63,60,0,0
152232,-100,4,2,71,60,0,0
152317,-100,4,2,72,60,0,0
152402,-100,4,2,73,60,0,0
152487,-100,4,2,75,60,0,0
152573,-100,4,2,74,60,0,0
152658,-100,4,2,73,60,0,0
152743,-100,4,2,72,60,0,0
152828,-100,4,2,63,60,0,0
152914,-100,4,2,80,60,0,0
152999,-100,4,2,61,60,0,0
153084,-100,4,2,60,60,0,0
153169,-100,4,2,59,60,0,0
153254,-100,4,2,57,60,0,0
153340,-100,4,2,55,60,0,0
153425,-100,4,2,53,60,0,0
153510,-100,4,2,51,60,0,0
153595,-100,4,2,50,60,0,0
153681,-100,4,2,47,60,0,0
153766,-100,4,2,45,60,0,0
153851,-100,4,2,40,60,0,0
153936,-100,4,2,38,60,0,0
154021,-100,4,2,40,60,0,0
154107,-100,4,2,41,60,0,0
154192,-100,4,2,45,60,0,0
154277,-100,4,2,77,60,0,0
154362,-100,4,2,47,60,0,0
154448,-100,4,2,48,60,0,0
154533,-100,4,2,50,60,0,0
154618,-100,4,2,51,60,0,0
154703,-100,4,2,53,60,0,0
154789,-100,4,2,55,60,0,0
154874,-100,4,2,78,60,0,0
154959,-100,4,2,57,60,0,0
155044,-100,4,2,58,60,0,0
155129,-100,4,2,60,60,0,0
155215,-100,4,2,61,60,0,0
155300,-100,4,2,80,60,0,0
155385,-100,4,2,63,60,0,0
155470,-100,4,2,71,60,0,0
155556,-100,4,2,72,60,0,0
155641,-100,4,2,73,60,0,0
155726,-100,4,2,74,60,0,0
155811,-100,4,2,75,60,0,0
155896,-100,4,2,76,60,0,0
155982,-100,4,2,74,60,0,0
156067,-100,4,2,72,60,0,0
156152,-100,4,2,63,60,0,0
156237,-100,4,2,62,60,0,0
156323,-100,4,2,61,60,0,0
156408,-100,4,2,59,60,0,0
156493,-100,4,2,57,60,0,0
156578,-100,4,2,55,60,0,0
156664,-100,4,2,61,60,0,0
156749,-100,4,2,62,60,0,0
156834,-100,4,2,59,60,0,0
156919,-100,4,2,61,60,0,0
157004,-100,4,2,58,60,0,0
157090,-100,4,2,60,60,0,0
157175,-100,4,2,57,60,0,0
157260,-100,4,2,58,60,0,0
157345,-100,4,2,55,60,0,0
157431,-100,4,2,57,60,0,0
157516,-100,4,2,53,60,0,0
157601,-100,4,2,55,60,0,0
157686,-100,4,2,51,60,0,0
157771,-100,4,2,53,60,0,0
157857,-100,4,2,48,60,0,0
157942,-100,4,2,51,60,0,0
158027,-100,4,2,47,60,0,0
158112,-100,4,2,48,60,0,0
158198,-100,4,2,45,60,0,0
158283,-100,4,2,47,60,0,0
158368,-100,4,2,43,60,0,0
158453,-100,4,2,45,60,0,0
158539,-100,4,2,41,60,0,0
158624,-100,4,2,43,60,0,0
158709,-100,4,2,38,60,0,0
158794,-100,4,2,41,60,0,0
158879,-100,4,2,1,60,0,0
158965,-100,4,2,1,5,0,0
159050,-100,4,2,1,60,0,0
159135,-100,4,2,1,5,0,0
159220,-100,4,2,1,60,0,0
159306,-100,4,2,1,5,0,0
159391,-111.111111111111,4,2,2,70,0,0
169874,-111.111111111111,4,2,2,5,0,0
169959,-111.111111111111,4,2,2,70,0,0
170044,-111.111111111111,4,2,2,5,0,0
170129,-111.111111111111,4,2,2,70,0,0
170215,-111.111111111111,4,2,2,5,0,0
170300,-111.111111111111,4,2,2,70,0,0
180698,-111.111111111111,4,2,1,70,0,0
181209,-100,4,2,1,70,0,0
181891,-100,4,2,5,70,0,0
183936,-100,4,2,1,70,0,0
184618,-100,4,2,5,70,0,0
186664,-100,4,2,1,70,0,0
190754,-100,4,2,5,70,0,0
192118,-100,4,2,1,70,0,0
203027,-90.9090909090909,4,2,1,75,0,0
211209,-83.3333333333333,4,2,1,80,0,0
213936,-100,4,2,1,75,0,0
219391,-90.9090909090909,4,2,1,80,0,0
222118,-83.3333333333333,4,2,1,80,0,0
223482,-100,4,2,1,75,0,0
224845,-142.857142857143,4,2,1,40,0,0
241209,-125,4,2,1,55,0,0
242573,-111.111111111111,4,2,1,60,0,0
243254,-100,4,2,1,65,0,0
243936,-100,4,2,1,70,0,0
246664,-90.9090909090909,4,2,21,80,0,1
246749,-90.9090909090909,4,2,1,80,0,1
248027,-90.9090909090909,4,2,22,80,0,1
248112,-90.9090909090909,4,2,1,80,0,1
248709,-90.9090909090909,4,2,1,80,0,1
249391,-90.9090909090909,4,2,23,80,0,1
249476,-90.9090909090909,4,2,1,80,0,1
251436,-90.9090909090909,4,2,1,80,0,1
252118,-90.9090909090909,4,2,19,80,0,1
252203,-90.9090909090909,4,2,1,80,0,1
253482,-90.9090909090909,4,2,20,80,0,1
253567,-90.9090909090909,4,2,1,80,0,1
254845,-76.9230769230769,4,2,23,85,0,1
254931,-76.9230769230769,4,2,1,85,0,1
255527,-76.9230769230769,4,2,22,85,0,1
255612,-76.9230769230769,4,2,1,85,0,1
256209,-76.9230769230769,4,2,21,85,0,1
256294,-76.9230769230769,4,2,1,85,0,1
256891,-83.3333333333333,4,2,20,80,0,1
256976,-83.3333333333333,4,2,1,80,0,1
257573,-83.3333333333333,4,2,19,80,0,1
257658,-83.3333333333333,4,2,1,80,0,1
260300,-83.3333333333333,4,2,20,80,0,1
260385,-83.3333333333333,4,2,1,80,0,1
263027,-83.3333333333333,4,2,21,80,0,1
263112,-83.3333333333333,4,2,1,80,0,1
264391,-83.3333333333333,4,2,22,80,0,1
264476,-83.3333333333333,4,2,1,80,0,1
265754,-76.9230769230769,4,2,23,85,0,1
265840,-76.9230769230769,4,2,1,85,0,1
268482,-76.9230769230769,4,2,21,85,0,1
268567,-76.9230769230769,4,2,1,85,0,1
269845,-76.9230769230769,4,2,22,85,0,1
269931,-76.9230769230769,4,2,1,85,0,1
271209,-76.9230769230769,4,2,23,85,0,1
271294,-76.9230769230769,4,2,1,85,0,1
273936,-76.9230769230769,4,2,19,85,0,1
274021,-76.9230769230769,4,2,1,85,0,1
275300,-76.9230769230769,4,2,20,85,0,1
275385,-76.9230769230769,4,2,1,85,0,1
276664,-66.6666666666667,4,2,23,90,0,1
276749,-66.6666666666667,4,2,1,90,0,1
277345,-66.6666666666667,4,2,22,90,0,1
277431,-66.6666666666667,4,2,1,90,0,1
278027,-66.6666666666667,4,2,21,90,0,1
278112,-66.6666666666667,4,2,1,90,0,1
278709,-66.6666666666667,4,2,20,90,0,1
278879,-66.6666666666667,4,2,1,90,0,1
279050,-76.9230769230769,4,2,1,85,0,1
279391,-76.9230769230769,4,2,19,85,0,1
279476,-76.9230769230769,4,2,1,85,0,1
282118,-76.9230769230769,4,2,20,85,0,1
282203,-76.9230769230769,4,2,1,85,0,1
284845,-76.9230769230769,4,2,21,85,0,1
284931,-76.9230769230769,4,2,1,85,0,1
286209,-76.9230769230769,4,2,22,85,0,1
286294,-76.9230769230769,4,2,1,85,0,1
287573,-66.6666666666667,4,2,23,90,0,1
287658,-66.6666666666667,4,2,1,90,0,1
289618,-76.9230769230769,4,2,1,80,0,1
290300,-76.9230769230769,4,2,21,80,0,1
290385,-76.9230769230769,4,2,3,80,0,1
293027,-76.9230769230769,4,2,22,80,0,1
293112,-76.9230769230769,4,2,3,80,0,1
295754,-76.9230769230769,4,2,19,80,0,1
295840,-76.9230769230769,4,2,3,80,0,1
297118,-83.3333333333333,4,2,1,80,0,1
298482,-83.3333333333333,4,2,21,80,0,1
298567,-83.3333333333333,4,2,1,80,0,1
299845,-83.3333333333333,4,2,22,80,0,1
299931,-83.3333333333333,4,2,1,80,0,1
301209,-83.3333333333333,4,2,1,75,0,0
312118,-83.3333333333333,4,2,60,60,0,0
312289,-83.3333333333333,4,2,59,60,0,0
312459,-83.3333333333333,4,2,57,60,0,0
312629,-83.3333333333333,4,2,60,60,0,0
312800,-83.3333333333333,4,2,59,60,0,0
312970,-83.3333333333333,4,2,57,60,0,0
313141,-83.3333333333333,4,2,60,60,0,0
313312,-83.3333333333333,4,2,59,60,0,0
313482,-83.3333333333333,4,2,57,60,0,0
313652,-83.3333333333333,4,2,60,60,0,0
313823,-83.3333333333333,4,2,59,60,0,0
313993,-83.3333333333333,4,2,57,60,0,0
314164,-83.3333333333333,4,2,58,60,0,0
314334,-83.3333333333333,4,2,59,60,0,0
314504,-83.3333333333333,4,2,60,60,0,0
314675,-83.3333333333333,4,2,62,60,0,0
314845,-83.3333333333333,4,2,55,60,0,0
315186,-83.3333333333333,4,2,58,60,0,0
315527,-83.3333333333333,4,2,59,60,0,0
315868,-83.3333333333333,4,2,60,60,0,0
316209,-83.3333333333333,4,2,62,60,0,0
316550,-83.3333333333333,4,2,60,60,0,0
316891,-83.3333333333333,4,2,59,60,0,0
317232,-83.3333333333333,4,2,57,60,0,0
317573,-83.3333333333333,4,2,60,60,0,0
317744,-83.3333333333333,4,2,59,60,0,0
317914,-83.3333333333333,4,2,57,60,0,0
318084,-83.3333333333333,4,2,60,60,0,0
318255,-83.3333333333333,4,2,59,60,0,0
318425,-83.3333333333333,4,2,57,60,0,0
318595,-83.3333333333333,4,2,60,60,0,0
318766,-83.3333333333333,4,2,59,60,0,0
318936,-83.3333333333333,4,2,57,60,0,0
319107,-83.3333333333333,4,2,60,60,0,0
319278,-83.3333333333333,4,2,59,60,0,0
319448,-83.3333333333333,4,2,57,60,0,0
319618,-83.3333333333333,4,2,58,60,0,0
319788,-83.3333333333333,4,2,59,60,0,0
319958,-83.3333333333333,4,2,60,60,0,0
320129,-83.3333333333333,4,2,62,60,0,0
320641,-83.3333333333333,4,2,58,60,0,0
320982,-83.3333333333333,4,2,59,60,0,0
321323,-83.3333333333333,4,2,60,60,0,0
321664,-83.3333333333333,4,2,62,60,0,0
322004,-83.3333333333333,4,2,60,60,0,0
322345,-83.3333333333333,4,2,59,60,0,0
322686,-83.3333333333333,4,2,57,60,0,0
323027,-125,4,2,48,50,0,0
323070,-125,4,2,51,50,0,0
323112,-125,4,2,53,50,0,0
323155,-125,4,2,67,50,0,0

[Colours]
Combo1 : 215,175,255
Combo2 : 255,155,155
Combo3 : 255,200,255
Combo4 : 150,205,255

[HitObjects]
480,160,1000,5,2,0:0:0:0:
433,15,1454,1,2,0:0:0:0:
331,129,1909,1,2,0:0:0:0:
441,12,2363,5,2,0:0:0:0:
477,168,2818,1,2,0:0:0:0:
324,122,3272,1,2,0:0:0:0:
474,176,3727,2,0,B|442:182|419:171|419:171|405:195|376:208,1,103.199996850586,2|2,0:0|0:0,0:0:0:0:
280,374,4636,5,2,0:0:0:0:
220,315,4863,2,0,P|213:282|215:255,1,51.599998425293,2|0,0:0|0:0,0:0:0:0:
224,167,5318,1,2,0:0:0:0:
204,245,5545,1,2,0:0:0:0:
127,268,5773,1,2,0:0:0:0:
69,213,6000,1,2,0:0:0:0:
66,219,6454,5,2,0:0:0:0:
213,248,6909,1,2,0:0:0:0:
115,360,7363,1,2,0:0:0:0:
214,239,7818,5,2,0:0:0:0:
58,223,8272,1,2,0:0:0:0:
122,365,8727,1,2,0:0:0:0:
216,230,9181,2,0,B|217:264|206:285|206:285|219:308|246:321,1,103.199996850586,2|2,0:0|0:0,0:0:0:0:
286,166,10090,5,2,0:0:0:0:
430,343,10545,2,0,B|376:342|357:378|357:378|376:342|374:297|350:257,1,206.399993701172,2|0,0:0|0:0,0:0:0:0:
437,306,11909,5,2,0:0:0:0:
312,370,12363,1,2,0:0:0:0:
194,293,12818,1,2,0:0:0:0:
314,382,13272,5,2,0:0:0:0:
446,317,13727,1,2,0:0:0:0:
455,170,14181,1,2,0:0:0:0:
455,328,14636,2,0,B|434:308|411:298|411:298|385:294|349:300,1,103.199996850586,2|2,0:0|0:0,0:0:0:0:
183,380,15545,5,2,0:0:0:0:
198,302,15772,1,2,0:0:0:0:
62,235,16000,1,2,0:0:0:0:
75,313,16227,1,2,0:0:0:0:
167,208,16454,1,2,0:0:0:0:
182,130,16681,1,2,0:0:0:0:
107,157,16909,1,2,0:0:0:0:
100,148,17363,5,2,0:0:0:0:
186,21,17818,1,2,0:0:0:0:
338,31,18272,1,2,0:0:0:0:
184,2,18727,5,2,0:0:0:0:
106,142,19181,1,2,0:0:0:0:
189,279,19636,1,2,0:0:0:0:
118,135,20090,2,0,B|135:151|163:157|163:157|189:151|216:155,1,103.199996850586,2|2,0:0|0:0,0:0:0:0:
351,271,21000,5,2,0:0:0:0:
487,123,21454,2,0,P|410:156|392:78,1,180.599994488526,2|0,0:0|0:0,0:0:0:0:
415,45,22363,1,2,0:0:0:0:
397,60,22477,1,2,0:0:0:0:
372,73,22590,1,2,0:0:0:0:
339,78,22704,1,2,0:0:0:0:
300,69,22818,6,0,P|268:48|244:11,1,68.8,10|0,0:0|0:0,0:0:0:0:
310,179,23272,2,0,P|343:162|387:159,1,68.8,10|0,0:0|0:0,0:0:0:0:
209,132,23727,2,0,P|206:169|186:208,1,68.8,2|0,0:0|0:0,0:0:0:0:
250,23,24181,6,0,P|271:50|300:69,1,68.8,10|0,0:0|0:0,0:0:0:0:
194,197,24636,2,0,P|207:166|209:132,1,68.8,10|0,0:0|0:0,0:0:0:0:
374,158,25090,2,0,P|340:163|310:179,1,68.8,2|0,0:0|0:0,0:0:0:0:
180,315,25545,6,0,P|146:310|115:294,1,68.8,10|0,0:0|0:0,0:0:0:0:
292,339,26000,2,0,P|271:366|242:384,1,68.8,10|0,0:0|0:0,0:0:0:0:
368,254,26454,2,0,P|381:285|382:319,1,68.8,10|0,0:0|0:0,0:0:0:0:
180,315,26909,5,10,0:0:0:0:
368,254,27136,1,2,0:0:0:0:
221,121,27363,1,10,0:0:0:0:
200,218,27590,1,2,0:0:0:0:
295,188,27818,1,2,0:0:0:0:
79,168,28272,6,0,P|48:190|30:222,1,68.8,10|0,0:0|0:0,0:0:0:0:
103,74,28727,2,0,P|100:35|81:3,1,68.8,10|0,0:0|0:0,0:0:0:0:
173,142,29181,2,0,P|208:158|245:158,1,68.8,2|0,0:0|0:0,0:0:0:0:
64,115,29636,6,0,P|29:99|-8:99,1,68.8,10|0,0:0|0:0,0:0:0:0:
158,88,30090,2,0,P|190:65|208:33,1,68.8,10|0,0:0|0:0,0:0:0:0:
133,183,30545,2,0,P|137:221|156:253,1,68.8,2|0,0:0|0:0,0:0:0:0:
318,352,31000,6,0,P|281:345|245:355,1,68.8,10|0,0:0|0:0,0:0:0:0:
366,270,31454,2,0,P|353:233|327:207,1,68.8,10|0,0:0|0:0,0:0:0:0:
461,271,31909,2,0,P|486:241|496:205,1,68.8,10|0,0:0|0:0,0:0:0:0:
327,133,32363,2,0,B|356:139|395:131|421:102|421:102|398:100|382:86,2,137.6,10|10|0,0:0|0:0|0:0,0:0:0:0:
214,381,33727,6,0,P|191:346|193:296,1,68.8,10|0,0:0|0:0,0:0:0:0:
310,210,34181,2,0,P|291:247|246:270,1,68.8,10|0,0:0|0:0,0:0:0:0:
113,215,34636,2,0,P|154:212|197:239,1,68.8,2|0,0:0|0:0,0:0:0:0:
310,317,35090,6,0,P|291:279|246:256,1,68.8,10|0,0:0|0:0,0:0:0:0:
122,329,35545,2,0,P|163:331|206:304,1,68.8,10|0,0:0|0:0,0:0:0:0:
204,161,36000,2,0,P|181:196|183:245,1,68.8,2|0,0:0|0:0,0:0:0:0:
291,91,36454,6,0,P|272:53|227:30,1,68.8,10|0,0:0|0:0,0:0:0:0:
365,161,36909,2,0,P|388:125|386:76,1,68.8,10|0,0:0|0:0,0:0:0:0:
341,260,37363,2,0,P|382:262|425:235,1,68.8,10|0,0:0|0:0,0:0:0:0:
291,91,37818,5,10,0:0:0:0:
467,212,38045,1,2,0:0:0:0:
274,305,38272,1,10,0:0:0:0:
283,198,38500,1,2,0:0:0:0:
371,259,38727,1,2,0:0:0:0:
74,301,39181,6,0,P|98:331|141:346,1,68.8,10|0,0:0|0:0,0:0:0:0:
65,180,39636,2,0,P|27:185|-7:215,1,68.8,10|0,0:0|0:0,0:0:0:0:
175,233,40090,2,0,P|188:197|180:152,1,68.8,2|0,0:0|0:0,0:0:0:0:
124,343,40545,6,0,P|94:328|74:301,1,68.8,10|0,0:0|0:0,0:0:0:0:
186,167,41000,2,0,P|188:201|175:233,1,68.8,10|0,0:0|0:0,0:0:0:0:
2,202,41454,2,0,P|31:184|65:180,1,68.8,2|0,0:0|0:0,0:0:0:0:
163,71,41909,6,0,P|128:72|97:59,1,68.8,10|0,0:0|0:0,0:0:0:0:
268,108,42363,2,0,P|245:133|213:146,1,68.8,10|0,0:0|0:0,0:0:0:0:
368,59,42818,2,0,P|369:93|356:124,1,68.8,10|0,0:0|0:0,0:0:0:0:
374,261,43346,6,0,B|361:239|339:225|339:225|448:211,1,154.799995275879,10|0,0:0|0:0,0:0:0:0:
478,208,43863,5,10,0:0:0:0:
406,340,44110,5,2,0:0:0:0:
371,301,44234,5,2,0:0:0:0:
335,279,44358,5,2,0:0:0:0:
302,273,44482,5,2,0:0:0:0:
275,275,44606,5,2,0:0:0:0:
255,283,44730,5,2,0:0:0:0:
242,294,44846,6,0,L|156:280,1,77.3999976379395,10|2,0:0|0:0,0:0:0:0:
31,330,45186,2,0,L|107:342,1,77.3999976379395,10|2,0:0|0:0,0:0:0:0:
242,294,45527,1,10,0:0:0:0:
120,218,45698,1,10,0:0:0:0:
165,281,45868,1,10,0:0:0:0:
132,141,46039,1,10,0:0:0:0:
358,173,46209,6,0,L|446:191,1,77.3999976379395,10|2,0:0|0:0,0:0:0:0:
291,229,46550,2,0,L|203:211,1,77.3999976379395,10|2,0:0|0:0,0:0:0:0:
358,173,46891,1,10,0:0:0:0:
476,252,47061,1,10,0:0:0:0:
433,188,47232,1,10,0:0:0:0:
461,327,47402,1,10,0:0:0:0:
291,229,47573,6,0,B|306:268|306:268|296:324,1,77.3999976379395,10|2,0:0|0:0,0:0:0:0:
214,168,47914,2,0,B|199:129|199:129|209:73,1,77.3999976379395,10|2,0:0|0:0,0:0:0:0:
291,229,48255,1,10,0:0:0:0:
253,361,48425,1,10,0:0:0:0:
299,303,48596,1,10,0:0:0:0:
179,369,48766,1,10,0:0:0:0:
52,207,48936,6,0,L|66:301,1,77.3999976379395,10|2,0:0|0:0,0:0:0:0:
163,134,49277,2,0,L|150:226,1,77.3999976379395,10|2,0:0|0:0,0:0:0:0:
48,56,49618,1,10,0:0:0:0:
179,17,49789,1,10,0:0:0:0:
105,9,49959,1,10,0:0:0:0:
226,75,50130,1,10,0:0:0:0:
406,17,50300,6,0,B|402:62|402:62|414:98,1,77.3999976379395,10|2,0:0|0:0,0:0:0:0:
331,229,50641,2,0,B|335:184|335:184|323:148,1,77.3999976379395,10|2,0:0|0:0,0:0:0:0:
235,304,50982,1,10,0:0:0:0:
356,370,51153,1,10,0:0:0:0:
282,362,51323,1,10,0:0:0:0:
413,323,51494,1,10,0:0:0:0:
256,200,51664,6,0,L|151:215,1,77.3999976379395,10|2,0:0|0:0,0:0:0:0:
27,294,52005,2,0,L|132:279,1,77.3999976379395,10|2,0:0|0:0,0:0:0:0:
256,200,52346,1,10,0:0:0:0:
118,163,52516,1,10,0:0:0:0:
179,210,52686,1,10,0:0:0:0:
109,87,52857,1,10,0:0:0:0:
301,95,53027,6,0,L|210:112,1,77.3999976379395,10|2,0:0|0:0,0:0:0:0:
366,25,53368,2,0,P|390:64|395:104,1,77.3999976379395,10|2,0:0|0:0,0:0:0:0:
251,304,53709,5,2,0:0:0:0:
253,265,53794,1,2,0:0:0:0:
274,230,53879,1,2,0:0:0:0:
313,206,53964,1,2,0:0:0:0:
366,206,54051,5,2,0:0:0:0:
419,222,54136,1,2,0:0:0:0:
474,195,54221,1,2,0:0:0:0:
503,133,54306,1,2,0:0:0:0:
475,59,54391,6,0,P|447:49|422:46,1,38.6999988189698,2|0,3:2|0:0,0:0:0:0:
374,0,54561,2,0,P|347:12|327:28,1,38.6999988189698,8|0,0:0|0:0,0:0:0:0:
302,109,54732,1,10,0:0:0:0:
254,140,54817,1,2,0:0:0:0:
197,134,54902,1,2,3:2:0:0:
156,95,54988,1,2,0:0:0:0:
150,39,55073,6,0,P|143:91|12:118,1,193.50000738144,10|0,3:2|0:0,0:0:0:0:
0,91,55414,6,0,L|13:188,1,90.2999972442628,0|0,3:2|0:0,0:0:0:0:
17,219,55755,5,6,3:2:0:0:
253,343,55925,1,2,0:0:0:0:
166,172,56096,1,2,3:2:0:0:
62,333,56266,1,2,0:0:0:0:
200,242,56436,1,10,0:0:0:0:
116,260,56607,1,2,0:0:0:0:
174,325,56777,1,2,3:2:0:0:
93,121,56948,6,0,P|133:88|202:90,1,103.199996850586,2|0,0:0|3:2,0:0:0:0:
420,145,57289,1,2,0:0:0:0:
166,172,57459,1,2,3:2:0:0:
297,3,57630,1,2,0:0:0:0:
352,231,57800,1,10,0:0:0:0:
223,102,57971,1,2,3:2:0:0:
313,89,58141,1,2,3:2:0:0:
279,173,58312,1,2,0:0:0:0:
98,1,58482,5,2,3:2:0:0:
172,254,58652,1,2,0:0:0:0:
160,61,58823,1,2,3:2:0:0:
1,167,58993,1,2,0:0:0:0:
154,169,59164,1,10,0:0:0:0:
95,117,59334,1,2,0:0:0:0:
79,194,59505,1,2,3:2:0:0:
237,18,59675,6,0,P|287:13|345:40,1,103.199996850586,2|0,0:0|3:2,0:0:0:0:
512,207,60016,1,2,0:0:0:0:
274,107,60186,1,2,3:2:0:0:
495,39,60357,1,10,0:0:0:0:
417,249,60527,1,10,0:0:0:0:
391,84,60698,1,2,3:2:0:0:
445,162,60868,1,2,3:2:0:0:
350,169,61039,1,2,0:0:0:0:
498,333,61209,5,6,3:2:0:0:
239,236,61380,1,2,0:0:0:0:
406,377,61550,1,2,3:2:0:0:
445,162,61721,1,2,0:0:0:0:
329,338,61891,1,10,0:0:0:0:
404,280,62061,1,2,0:0:0:0:
317,245,62232,1,2,3:2:0:0:
151,384,62402,6,0,P|116:335|115:293,1,103.199996850586,2|0,0:0|3:2,0:0:0:0:
191,50,62743,1,2,0:0:0:0:
204,309,62914,1,2,3:2:0:0:
105,137,63084,1,2,0:0:0:0:
318,236,63255,1,10,0:0:0:0:
145,228,63425,1,2,3:2:0:0:
192,145,63596,1,2,3:2:0:0:
240,227,63766,1,2,0:0:0:0:
379,14,63936,5,2,3:2:0:0:
419,279,64107,1,2,0:0:0:0:
491,56,64277,1,2,3:2:0:0:
285,148,64448,1,2,0:0:0:0:
476,143,64618,1,10,0:0:0:0:
392,106,64789,1,2,0:0:0:0:
403,194,64959,1,2,3:2:0:0:
260,14,65130,6,0,P|262:69|232:114,1,103.199996850586,2|0,0:0|3:2,0:0:0:0:
0,163,65471,1,2,0:0:0:0:
175,44,65641,1,2,3:2:0:0:
204,242,65811,1,10,0:0:0:0:
71,30,65982,1,10,0:0:0:0:
179,158,66152,1,2,3:2:0:0:
97,193,66323,1,2,3:2:0:0:
107,104,66493,1,2,0:0:0:0:
5,300,66664,6,0,P|28:302|56:315,1,43,14|0,0:0|0:0,0:0:0:0:
110,384,66834,1,2,0:0:0:0:
132,349,66919,2,0,P|177:318|250:324,1,129,10|0,0:0|0:0,0:0:0:0:
274,359,67260,5,10,0:0:0:0:
330,265,67431,1,10,0:0:0:0:
430,325,67601,1,10,0:0:0:0:
506,180,67771,1,10,0:0:0:0:
470,204,67857,1,10,0:0:0:0:
427,200,67942,1,10,0:0:0:0:
399,167,68027,5,10,0:0:0:0:
382,137,68112,1,10,0:0:0:0:
352,119,68198,1,10,0:0:0:0:
317,116,68283,1,10,0:0:0:0:
289,130,68368,6,0,P|227:148|166:127,1,116.099996456909,10|0,0:0|0:0,0:0:0:0:
152,105,68709,1,10,0:0:0:0:
22,270,68879,2,0,P|19:242|28:216,1,38.6999988189698,2|0,3:2|0:0,0:0:0:0:
80,331,69050,2,0,P|57:347|30:352,1,38.6999988189698,2|0,1:2|0:0,0:0:0:0:
104,251,69220,2,0,P|129:262|147:283,1,38.6999988189698,2|0,0:0|0:0,0:0:0:0:
40,186,69391,6,0,L|131:168,1,68.8,6|0,3:2|0:0,0:0:0:0:
190,221,69732,1,2,0:0:0:0:
101,80,69902,2,0,L|188:88,1,68.8,2|8,0:0|0:0,0:0:0:0:
302,36,70243,1,2,0:0:0:0:
386,48,70414,1,0,3:2:0:0:
444,101,70584,1,2,0:0:0:0:
462,171,70754,6,0,P|461:216|445:247,1,68.8,2|0,0:0|3:2,0:0:0:0:
360,237,71095,1,2,0:0:0:0:
488,325,71266,2,0,P|448:346|413:348,1,68.8,2|0,3:2|1:2,0:0:0:0:
261,307,71607,1,2,0:0:0:0:
337,315,71777,1,2,0:0:0:0:
291,376,71948,1,2,0:0:0:0:
250,209,72118,5,2,3:2:0:0:
180,273,72289,1,2,0:0:0:0:
119,217,72459,1,2,0:0:0:0:
47,250,72629,2,0,P|36:209|35:162,1,68.8,2|8,0:0|0:0,0:0:0:0:
130,12,72970,1,2,0:0:0:0:
178,92,73141,1,2,3:2:0:0:
263,102,73311,1,2,0:0:0:0:
334,53,73482,6,0,P|371:50|421:70,1,68.8,2|0,0:0|3:2,0:0:0:0:
477,113,73823,1,2,0:0:0:0:
349,213,73993,2,0,L|361:127,2,68.8,2|0|0,3:2|1:2|0:0,0:0:0:0:
493,321,74505,2,0,P|460:306|419:310,1,68.8,2|0,0:0|0:0,0:0:0:0:
351,369,74845,6,0,P|281:364|243:302,1,137.6,2|0,3:2|0:0,0:0:0:0:
344,46,75527,2,0,L|336:139,1,68.8,10|0,0:0|0:0,0:0:0:0:
399,237,75868,1,2,3:2:0:0:
219,176,76039,1,2,0:0:0:0:
321,297,76209,6,0,L|307:216,1,68.8,2|0,0:0|3:2,0:0:0:0:
414,132,76550,1,2,0:0:0:0:
219,176,76720,1,2,3:2:0:0:
344,46,76891,1,2,1:2:0:0:
262,0,77061,1,2,0:0:0:0:
132,90,77232,2,0,P|165:83|196:67,1,68.8,2|0,0:0|0:0,0:0:0:0:
73,183,77573,6,0,P|73:224|88:267,1,68.8,2|0,3:2|0:0,0:0:0:0:
248,194,77914,2,0,P|207:194|164:209,1,68.8,2|0,0:0|0:0,0:0:0:0:
237,369,78254,2,0,P|237:328|222:285,1,68.8,10|0,0:0|0:0,0:0:0:0:
62,357,78595,1,2,3:2:0:0:
146,338,78766,1,2,0:0:0:0:
73,183,78936,6,0,L|88:267,1,68.8,2|0,0:0|3:2,0:0:0:0:
146,338,79277,1,2,0:0:0:0:
267,261,79448,2,0,L|182:252,1,68.8,2|0,3:2|1:2,0:0:0:0:
231,59,79789,2,0,P|246:73|256:92,1,34.4,2|0,0:0|0:0,0:0:0:0:
174,154,79959,2,0,P|178:134|190:115,1,34.4,2|0,0:0|0:0,0:0:0:0:
285,156,80129,2,0,P|265:161|243:161,1,34.4,2|0,0:0|0:0,0:0:0:0:
231,59,80300,5,6,3:2:0:0:
324,87,80470,1,2,0:0:0:0:
405,65,80641,1,2,0:0:0:0:
449,0,80811,2,0,P|437:36|448:89,1,77.3999976379395,2|8,0:0|0:0,0:0:0:0:
509,223,81152,1,2,0:0:0:0:
425,173,81323,1,2,3:2:0:0:
349,198,81493,1,2,0:0:0:0:
297,259,81664,6,0,P|254:256|208:239,1,77.3999976379395,2|0,0:0|3:2,0:0:0:0:
174,165,82004,1,2,0:0:0:0:
160,341,82175,2,0,P|141:302|132:253,1,77.3999976379395,2|0,3:2|1:2,0:0:0:0:
160,87,82516,1,2,0:0:0:0:
174,165,82686,1,2,0:0:0:0:
100,139,82857,1,2,0:0:0:0:
246,56,83027,6,0,L|339:71,1,77.3999976379395,2|0,3:2|0:0,0:0:0:0:
422,84,83368,1,2,0:0:0:0:
339,230,83539,2,0,P|342:179|368:143,1,77.3999976379395,2|8,0:0|0:0,0:0:0:0:
463,308,83879,1,2,0:0:0:0:
384,366,84050,1,2,3:2:0:0:
300,347,84220,1,2,0:0:0:0:
253,289,84391,6,0,P|245:243|259:206,1,77.3999976379395,2|0,0:0|3:2,0:0:0:0:
320,146,84732,1,2,0:0:0:0:
339,230,84902,1,2,3:2:0:0:
156,250,85073,2,0,L|174:161,1,77.3999976379395,0|0,1:2|0:0,0:0:0:0:
285,30,85414,2,0,P|249:58|202:62,1,77.3999976379395,2|0,0:0|0:0,0:0:0:0:
131,9,85755,6,0,P|64:12|20:104,1,154.799995275879,2|0,3:2|0:0,0:0:0:0:
130,312,86436,2,0,L|118:221,1,77.3999976379395,10|0,0:0|0:0,0:0:0:0:
100,84,86777,1,2,3:2:0:0:
220,235,86948,6,0,P|257:250|306:249,1,77.3999976379395,2|0,0:0|0:0,0:0:0:0:
374,197,87289,1,0,3:2:0:0:
229,66,87459,1,2,0:0:0:0:
271,162,87629,1,0,3:2:0:0:
365,0,87800,2,0,L|352:99,1,77.3999976379395,2|0,1:2|0:0,0:0:0:0:
485,180,88141,2,0,L|464:91,1,77.3999976379395,2|0,0:0|0:0,0:0:0:0:
374,197,88482,5,2,3:2:0:0:
512,281,88652,2,0,P|461:288|424:318,1,77.3999976379395,2|0,0:0|0:0,0:0:0:0:
378,370,88993,1,2,0:0:0:0:
374,197,89164,2,0,P|354:244|362:291,1,77.3999976379395,10|0,0:0|0:0,0:0:0:0:
440,126,89504,1,2,3:2:0:0:
353,85,89675,6,0,L|262:79,1,77.3999976379395,2|0,0:0|0:0,0:0:0:0:
130,13,90016,1,2,3:2:0:0:
71,74,90186,1,2,0:0:0:0:
154,93,90357,1,2,3:2:0:0:
212,31,90527,1,2,1:2:0:0:
201,252,90698,1,8,0:0:0:0:
59,194,90868,1,8,0:0:0:0:
80,346,91039,1,2,0:0:0:0:
197,168,91209,6,0,P|242:172|289:197,1,86,6|0,3:2|0:0,0:0:0:0:
316,384,91550,2,0,P|296:343|295:289,1,86,2|0,3:2|0:0,0:0:0:0:
450,313,91891,6,0,P|421:314|384:323,3,43,10|0|0|0,0:0|0:0|0:0|0:0,0:0:0:0:
358,200,92232,2,0,P|388:201|422:214,3,43,2|0|0|0,3:2|0:0|0:0|0:0,0:0:0:0:
501,145,92573,5,2,3:2:0:0:
478,108,92658,1,0,0:0:0:0:
446,80,92743,1,0,0:0:0:0:
407,61,92828,1,0,0:0:0:0:
365,55,92913,1,2,0:0:0:0:
322,60,92999,1,0,0:0:0:0:
283,77,93084,1,2,0:0:0:0:
250,104,93169,1,0,0:0:0:0:
226,139,93254,6,0,P|222:161|221:190,3,43,8|0|0|0,0:0|0:0|0:0|0:0,0:0:0:0:
304,298,93595,2,0,P|308:276|309:247,3,43,0|0|0|0,3:2|0:0|0:0|0:0,0:0:0:0:
219,342,93936,6,0,L|134:355,1,86,2|0,3:2|0:0,0:0:0:0:
0,232,94277,2,0,L|84:247,1,86,2|0,3:2|0:0,0:0:0:0:
248,176,94618,6,0,P|242:146|233:121,3,43,10|0|0|0,0:0|0:0|0:0|0:0,0:0:0:0:
92,135,94959,2,0,P|120:144|147:149,3,43,2|0|0|0,3:2|0:0|0:0|0:0,0:0:0:0:
163,11,95300,5,2,3:2:0:0:
187,47,95386,1,0,0:0:0:0:
219,76,95471,1,0,0:0:0:0:
258,95,95556,1,0,0:0:0:0:
299,105,95642,1,2,3:2:0:0:
342,104,95727,1,0,0:0:0:0:
383,92,95812,1,2,0:0:0:0:
420,71,95897,1,0,0:0:0:0:
450,41,95982,6,0,P|462:17|477:0,3,43,8|0|0|0,0:0|0:0|0:0|0:0,0:0:0:0:
487,126,96323,2,0,P|501:148|509:169,3,43,0|0|0|0,3:2|0:0|0:0|0:0,0:0:0:0:
397,197,96664,6,0,P|350:208|287:208,1,86,2|0,3:2|0:0,0:0:0:0:
306,382,97004,2,0,P|321:334|350:279,1,86,2|0,3:2|0:0,0:0:0:0:
191,211,97345,2,0,P|223:246|257:297,1,86,10|0,0:0|0:0,0:0:0:0:
421,288,97686,2,0,P|374:299|311:299,1,86,2|0,3:2|0:0,0:0:0:0:
191,211,98027,6,0,P|208:142|273:113,1,129,2|0,3:2|0:0,0:0:0:0:
295,121,98368,1,2,3:2:0:0:
336,301,98539,1,2,0:0:0:0:
483,166,98709,2,0,L|394:182,1,86,8|0,0:0|0:0,0:0:0:0:
322,0,99050,1,2,3:2:0:0:
410,59,99220,1,2,0:0:0:0:
254,114,99391,6,0,P|201:123|152:121,1,86,0|0,3:2|0:0,0:0:0:0:
13,18,99732,2,0,P|47:59|70:102,1,86,2|0,3:2|0:0,0:0:0:0:
51,275,100073,2,0,P|69:224|95:183,1,86,10|0,0:0|0:0,0:0:0:0:
202,34,100414,1,2,3:2:0:0:
90,40,100584,1,2,0:0:0:0:
169,204,100754,5,0,3:2:0:0:
196,220,100839,1,0,0:0:0:0:
227,228,100924,1,0,0:0:0:0:
259,228,101009,1,0,0:0:0:0:
290,219,101096,1,0,3:2:0:0:
318,202,101180,1,0,0:0:0:0:
339,178,101265,1,0,0:0:0:0:
354,150,101350,1,0,0:0:0:0:
360,118,101436,6,0,P|356:97|347:74,3,43,8|0|0|0,0:0|0:0|0:0|0:0,0:0:0:0:
448,9,101777,2,0,P|441:30|437:54,3,43,0|0|0|0,3:2|0:0|0:0|0:0,0:0:0:0:
487,124,102118,6,0,P|496:172|487:224,1,86,6|0,3:2|0:0,0:0:0:0:
338,340,102459,1,2,3:2:0:0:
378,254,102629,1,0,0:0:0:0:
208,156,102800,1,10,0:0:0:0:
238,270,102970,1,0,0:0:0:0:
71,354,103141,2,0,P|94:307|101:258,1,86,2|0,3:2|0:0,0:0:0:0:
72,92,103482,5,2,3:2:0:0:
197,15,103652,1,0,0:0:0:0:
200,162,103823,1,2,3:2:0:0:
71,84,103993,1,2,0:0:0:0:
203,19,104164,1,8,0:0:0:0:
193,164,104334,1,2,0:0:0:0:
359,130,104504,1,2,3:2:0:0:
317,23,104675,1,2,0:0:0:0:
459,69,104845,6,0,P|491:94|517:154,1,86,2|0,3:2|0:0,0:0:0:0:
454,210,105186,2,0,P|458:251|434:311,1,86,2|0,3:2|0:0,0:0:0:0:
286,359,105527,2,0,P|323:338|350:304,1,86,10|0,0:0|0:0,0:0:0:0:
125,292,105868,2,0,P|165:303|208:297,1,86,2|0,3:2|0:0,0:0:0:0:
38,177,106209,6,0,P|23:228|16:288,1,86,2|0,3:2|0:0,0:0:0:0:
134,106,106550,1,2,3:2:0:0:
31,59,106720,1,2,0:0:0:0:
233,13,106891,2,0,L|133:-3,1,86,8|0,0:0|0:0,0:0:0:0:
311,86,107232,2,0,P|355:69|389:48,1,86,2|0,3:2|0:0,0:0:0:0:
184,92,107573,6,0,P|215:127|228:176,1,86,2|0,3:2|0:0,0:0:0:0:
72,289,107914,2,0,P|86:244|122:208,1,86,2|0,3:2|0:0,0:0:0:0:
299,287,108254,2,0,P|253:296|204:283,1,86,10|0,0:0|0:0,0:0:0:0:
184,92,108595,1,2,3:2:0:0:
255,216,108766,1,2,0:0:0:0:
112,215,108936,5,0,3:2:0:0:
273,66,109107,1,2,0:0:0:0:
366,79,109277,2,0,P|402:93|434:149,1,86,2|0,3:2|0:0,0:0:0:0:
331,253,109618,2,0,L|346:158,1,86,8|0,0:0|0:0,0:0:0:0:
452,293,109959,1,2,3:2:0:0:
395,361,110129,1,2,0:0:0:0:
308,379,110300,6,0,P|243:357|169:350,1,129,2|0,3:2|0:0,0:0:0:0:
148,364,110641,2,0,L|158:259,1,86,0|0,3:2|0:0,0:0:0:0:
5,165,110982,2,0,L|26:266,1,86,8|0,0:0|0:0,0:0:0:0:
201,146,111323,2,0,P|153:151|107:169,1,86,2|0,3:2|0:0,0:0:0:0:
316,106,111664,6,0,P|265:67|181:37,1,129,2|0,3:2|0:0,0:0:0:0:
165,31,112004,2,0,L|267:20,1,86,0|0,3:2|0:0,0:0:0:0:
459,6,112345,2,0,L|448:111,1,86,8|0,0:0|0:0,0:0:0:0:
379,271,112686,2,0,L|360:178,1,86,0|0,3:2|0:0,0:0:0:0:
496,324,113027,5,6,0:0:0:0:
287,384,113368,1,2,0:0:0:0:
97,279,113709,1,2,0:0:0:0:
37,71,114050,1,2,0:0:0:0:
192,155,114391,6,0,P|231:137|254:91,1,86,10|0,0:0|0:0,0:0:0:0:
250,67,114646,1,2,0:0:0:0:
250,67,114732,6,0,P|303:100|370:88,1,129,10|0,0:0|0:0,0:0:0:0:
440,51,115073,1,2,3:2:0:0:
409,81,115158,1,0,3:2:0:0:
388,127,115243,1,10,0:0:0:0:
387,188,115328,1,2,0:0:0:0:
421,254,115414,2,0,P|444:269|467:277,1,51.6
501,308,115755,6,0,P|420:299|345:327,1,154.799995275879,14|0,1:2|0:0,0:0:0:0:
319,344,116095,2,0,P|313:291|302:233,1,103.199996850586,2|0,3:2|0:0,0:0:0:0:
83,54,116436,2,0,P|137:69|245:58,1,154.799995275879,10|0,0:0|0:0,0:0:0:0:
261,33,116777,1,0,3:2:0:0:
35,193,116948,1,2,0:0:0:0:
265,238,117118,6,0,P|320:169|326:100,1,154.799995275879,10|0,3:2|0:0,0:0:0:0:
341,69,117459,2,0,P|346:123|361:180,1,103.199996850586,0|0,3:2|0:0,0:0:0:0:
512,300,117800,2,0,P|458:279|408:284,1,103.199996850586,10|0,0:0|0:0,0:0:0:0:
233,367,118141,2,0,P|287:388|337:383,1,103.199996850586,2|0,3:2|0:0,0:0:0:0:
490,181,118482,6,0,P|458:225|350:217,1,154.799995275879,10|0,3:2|0:0,0:0:0:0:
337,199,118823,2,0,P|287:185|228:192,1,103.199996850586,2|0,3:2|0:0,0:0:0:0:
96,384,119164,2,0,P|91:310|42:239,1,154.799995275879,10|0,0:0|0:0,0:0:0:0:
16,221,119504,1,2,3:2:0:0:
251,262,119675,1,2,0:0:0:0:
28,80,119845,6,0,P|125:97|173:52,1,154.799995275879,2|0,3:2|0:0,0:0:0:0:
181,24,120186,2,0,P|201:94|237:117,1,103.199996850586,0|0,3:2|0:0,0:0:0:0:
501,168,120527,2,0,P|457:141|388:146,1,103.199996850586,10|0,0:0|0:0,0:0:0:0:
344,375,120868,2,0,P|389:351|419:288,1,103.199996850586,2|0,3:2|0:0,0:0:0:0:
223,111,121209,6,0,P|233:166|285:256,1,154.799995275879,10|0,3:2|0:0,0:0:0:0:
314,270,121550,2,0,P|258:276|201:289,1,103.199996850586,2|0,3:2|0:0,0:0:0:0:
118,73,121891,2,0,P|91:143|74:222,1,154.799995275879,10|0,0:0|0:0,0:0:0:0:
76,259,122232,1,2,3:2:0:0:
42,0,122402,1,2,0:0:0:0:
223,111,122573,6,0,P|294:122|333:42,1,154.799995275879,10|0,3:2|0:0,0:0:0:0:
328,21,122914,1,2,3:2:0:0:
512,207,123084,1,0,3:2:0:0:
509,204,123169,1,0,3:2:0:0:
506,201,123254,2,0,P|453:179|387:184,1,103.199996850586,10|0,0:0|0:0,0:0:0:0:
269,343,123595,1,2,3:2:0:0:
277,81,123766,1,0,0:0:0:0:
505,122,123936,6,0,P|426:136|334:147,1,167.699992323304,14|0,3:2|0:0,0:0:0:0:
200,164,124277,1,2,3:2:0:0:
410,276,124448,1,0,3:2:0:0:
354,65,124618,2,0,P|295:47|233:40,1,111.799994882202,14|0,3:2|0:0,0:0:0:0:
9,164,124959,1,2,3:2:0:0:
266,119,125129,1,2,3:2:0:0:
53,17,125300,6,0,P|84:85|106:187,1,167.699992323304,14|0,3:2|0:0,0:0:0:0:
29,272,125641,1,8,3:2:0:0:
271,198,125811,1,2,3:2:0:0:
158,381,125982,2,0,P|220:361|271:351,1,103.199996850586,10|0,3:2|0:0,0:0:0:0:
439,313,126323,2,0,P|390:296|339:285,1,103.199996850586,6|0,3:3|0:0,0:0:0:0:
73,343,126664,6,0,P|132:281|125:201,1,154.799995275879,14|0,3:2|0:0,0:0:0:0:
100,192,127004,2,0,P|157:196|204:170,1,103.199996850586,2|0,3:2|0:0,0:0:0:0:
369,0,127345,2,0,P|355:57|375:153,1,154.799995275879,10|0,0:0|0:0,0:0:0:0:
395,182,127686,1,2,3:2:0:0:
262,21,127857,1,2,0:0:0:0:
56,50,128027,6,0,B|16:81|-5:153|25:198|25:198|47:173|73:157,1,206.399993701172,2|0,3:2|3:2,0:0:0:0:
220,128,128539,1,0,3:2:0:0:
146,361,128709,1,10,0:0:0:0:
108,241,128879,1,0,3:2:0:0:
331,349,129050,2,0,P|280:346|222:322,1,103.199996850586,2|0,3:2|0:0,0:0:0:0:
481,203,129391,6,0,P|454:271|369:251,1,154.799995275879,10|0,3:2|0:0,0:0:0:0:
359,234,129732,2,0,P|307:212|247:205,1,103.199996850586,2|0,3:2|0:0,0:0:0:0:
25,244,130073,2,0,P|91:215|137:275,1,154.799995275879,10|0,0:0|0:0,0:0:0:0:
155,304,130414,2,0,P|157:250|170:185,1,103.199996850586,2|0,3:2|0:0,0:0:0:0:
356,19,130754,6,0,P|282:56|188:52,1,154.799995275879,2|0,3:2|0:0,0:0:0:0:
179,35,131095,1,2,3:2:0:0:
406,96,131266,1,2,3:2:0:0:
239,262,131436,1,10,0:0:0:0:
261,139,131607,1,2,0:0:0:0:
405,342,131777,1,2,3:2:0:0:
356,219,131948,1,2,0:0:0:0:
117,384,132118,6,0,P|135:319|110:225,1,154.799995275879,10|0,3:2|0:0,0:0:0:0:
82,215,132459,2,0,P|76:162|91:108,1,103.199996850586,2|0,3:2|0:0,0:0:0:0:
322,17,132800,2,0,P|231:24|227:91,1,154.799995275879,10|0,0:0|0:0,0:0:0:0:
248,100,133141,2,0,P|271:150|281:208,1,103.199996850586,2|0,3:2|0:0,0:0:0:0:
473,49,133482,6,0,P|467:127|448:212,1,154.799995275879,10|0,3:2|0:0,0:0:0:0:
431,235,133823,1,2,3:2:0:0:
253,312,133993,1,2,0:0:0:0:
330,92,134164,1,10,0:0:0:0:
371,321,134334,1,2,0:0:0:0:
195,128,134504,1,2,3:2:0:0:
161,375,134675,1,2,3:2:0:0:
92,186,134845,6,0,B|65:159|18:156|18:156|-11:199|-8:260|29:305,1,223.599989764405,6|0,3:2|3:2,0:0:0:0:
161,375,135357,1,0,3:2:0:0:
417,308,135527,2,0,P|369:270|298:259,1,111.799994882202,8|0,3:2|0:0,0:0:0:0:
171,283,135868,1,0,3:2:0:0:
263,28,136039,1,0,3:2:0:0:
54,130,136209,6,0,L|182:147,1,111.799994882202,2|0,3:2|0:0,0:0:0:0:
435,87,136550,1,10,0:0:0:0:
263,28,136720,1,0,3:2:0:0:
451,225,136891,2,0,P|403:187|332:176,1,111.799994882202,10|0,3:2|0:0,0:0:0:0:
220,97,137232,2,0,P|252:108|284:108,1,55.8999974411012,8|8,3:2|0:0,0:0:0:0:
345,48,137402,1,8,0:0:0:0:
361,32,137487,1,8,0:0:0:0:
377,16,137573,6,0,B|390:96|390:96|352:184,1,167.699992323304,14|0,3:2|0:0,0:0:0:0:
165,145,137914,2,0,B|169:109|201:71|201:71|248:80|278:114,1,167.699992323304,2|0,3:2|0:0,0:0:0:0:
133,240,138254,2,0,B|100:254|50:245|50:245|35:200|50:157,1,167.699992323304,10|0,0:0|0:0,0:0:0:0:
231,220,138595,2,0,B|259:241|276:288|276:288|245:324|200:333,1,167.699992323304,2|0,3:2|0:0,0:0:0:0:
165,145,138936,6,0,B|219:117|219:117|336:153,1,167.699992323304,2|0,3:2|0:0,0:0:0:0:
459,154,139277,1,2,3:2:0:0:
334,384,139448,1,2,0:0:0:0:
512,305,139618,2,0,L|380:283,1,111.799994882202,10|0,0:0|0:0,0:0:0:0:
209,384,139959,2,0,P|210:322|177:278,1,111.799994882202,2|0,3:2|0:0,0:0:0:0:
12,108,140300,6,0,B|100:147|100:147|167:122,1,167.699992323304,14|0,3:2|0:0,0:0:0:0:
306,29,140641,2,0,B|281:77|241:82|241:82|265:120|239:167,1,167.699992323304,2|0,3:2|0:0,0:0:0:0:
490,138,140982,2,0,B|460:92|476:55|476:55|431:56|403:10,1,167.699992323304,10|0,0:0|0:0,0:0:0:0:
303,242,141323,2,0,B|357:239|381:271|381:271|402:232|456:231,1,167.699992323304,2|0,3:2|0:0,0:0:0:0:
306,29,141664,6,0,P|239:79|254:170,1,167.699992323304,2|0,3:2|0:0,0:0:0:0:
303,242,142004,1,2,3:2:0:0:
161,14,142175,1,2,0:0:0:0:
0,147,142345,2,0,L|120:164,1,111.799994882202,8|0,0:0|0:0,0:0:0:0:
334,122,142686,2,0,P|379:148|419:202,1,111.799994882202,2|0,3:2|0:0,0:0:0:0:
219,375,143027,6,0,B|239:296|239:296|232:195,1,167.699992323304,14|0,3:2|0:0,0:0:0:0:
72,130,143368,2,0,B|26:135|0:173|0:173|36:204|87:204,1,167.699992323304,2|0,3:2|0:0,0:0:0:0:
226,103,143709,2,0,B|243:61|223:19|223:19|179:34|153:79,1,167.699992323304,10|0,0:0|0:0,0:0:0:0:
172,251,144050,2,0,B|199:287|245:290|245:290|254:244|228:200,1,167.699992323304,2|0,3:2|0:0,0:0:0:0:
72,130,144391,5,2,3:2:0:0:
84,329,144561,1,8,0:3:0:0:
84,329,144646,1,8,0:3:0:0:
84,329,144732,1,10,3:3:0:0:
262,384,144902,1,6,0:3:0:0:
364,273,145073,1,4,0:3:0:0:
337,150,145243,1,0,1:2:0:0:
226,103,145414,2,0,P|242:163|236:203,1,103.199996850586,2|0,1:2|0:0,0:0:0:0:
0,80,145754,6,0,P|85:66|153:35,1,154.799995275879,10|0,3:2|0:0,0:0:0:0:
171,7,146095,2,0,P|226:9|286:25,1,103.199996850586,0|0,3:2|0:0,0:0:0:0:
362,222,146436,1,10,0:0:0:0:
391,99,146607,1,2,0:0:0:0:
477,314,146777,2,0,P|431:344|373:348,1,103.199996850586,2|0,3:2|0:0,0:0:0:0:
134,242,147118,6,0,B|94:221|50:230|50:230|76:360,1,206.399993701172,10|8,3:2|0:0,0:0:0:0:
256,327,147629,1,2,3:2:0:0:
136,120,147800,1,8,0:0:0:0:
376,120,147970,1,8,0:0:0:0:
376,120,148056,1,8,0:0:0:0:
376,120,148141,2,0,P|416:112|447:90,2,68.7999979003907,2|2|0,3:2|0:0|0:0,0:0:0:0:
286,32,148482,6,0,P|265:39|244:42,3,43,10|2|2|2,0:0|0:0|0:0|0:0,0:0:0:0:
160,0,148823,5,10,0:0:0:0:
157,15,148908,1,2,0:0:0:0:
154,31,148993,1,2,0:0:0:0:
151,47,149078,1,2,0:0:0:0:
149,63,149163,1,10,0:0:0:0:
146,79,149249,1,2,0:0:0:0:
143,95,149334,1,2,0:0:0:0:
141,111,149419,1,2,0:0:0:0:
138,125,149504,5,10,0:0:0:0:
180,121,149590,1,2,0:0:0:0:
221,129,149675,1,2,0:0:0:0:
261,146,149760,1,2,0:0:0:0:
295,173,149845,1,10,0:0:0:0:
320,208,149931,1,2,0:0:0:0:
335,248,150016,1,2,0:0:0:0:
341,291,150101,1,2,0:0:0:0:
335,334,150187,5,10,0:0:0:0:
363,336,150272,1,2,0:0:0:0:
392,332,150357,1,2,0:0:0:0:
419,323,150442,1,2,0:0:0:0:
443,308,150527,1,10,0:0:0:0:
465,289,150613,1,2,0:0:0:0:
481,266,150698,1,2,0:0:0:0:
494,240,150783,1,2,0:0:0:0:
500,212,150868,1,10,0:0:0:0:
501,183,150954,1,2,0:0:0:0:
496,155,151039,1,2,0:0:0:0:
486,128,151124,1,2,0:0:0:0:
471,106,151209,6,0,P|450:97|419:95,3,43,10|2|2|2,0:0|0:0|0:0|0:0,0:0:0:0:
352,159,151550,5,10,0:0:0:0:
354,173,151635,1,2,0:0:0:0:
357,187,151720,1,2,0:0:0:0:
359,201,151805,1,2,0:0:0:0:
362,215,151891,1,10,0:0:0:0:
364,229,151976,1,2,0:0:0:0:
367,243,152061,1,2,0:0:0:0:
370,257,152146,1,2,0:0:0:0:
372,271,152232,5,10,0:0:0:0:
335,248,152317,1,2,0:0:0:0:
294,235,152402,1,2,0:0:0:0:
251,232,152487,1,2,0:0:0:0:
209,240,152572,1,10,0:0:0:0:
170,258,152658,1,2,0:0:0:0:
137,285,152743,1,2,0:0:0:0:
111,320,152828,1,2,0:0:0:0:
95,359,152914,5,10,0:0:0:0:
72,341,152999,1,2,0:0:0:0:
53,320,153084,1,2,0:0:0:0:
39,295,153169,1,2,0:0:0:0:
29,268,153254,1,10,0:0:0:0:
25,240,153340,1,2,0:0:0:0:
26,211,153425,1,2,0:0:0:0:
32,183,153510,1,2,0:0:0:0:
43,157,153595,1,10,0:0:0:0:
59,133,153681,1,2,0:0:0:0:
79,112,153766,1,2,0:0:0:0:
102,96,153851,1,2,0:0:0:0:
128,84,153936,6,0,P|152:91|189:90,3,43,10|2|2|2,0:0|0:0|0:0|0:0,0:0:0:0:
243,14,154277,5,10,0:0:0:0:
264,16,154362,1,2,0:0:0:0:
285,19,154447,1,2,0:0:0:0:
306,22,154532,1,2,0:0:0:0:
328,24,154617,1,10,0:0:0:0:
349,27,154703,1,2,0:0:0:0:
370,30,154788,1,2,0:0:0:0:
392,32,154873,1,2,0:0:0:0:
413,35,154959,1,10,0:0:0:0:
434,38,155044,1,2,0:0:0:0:
456,40,155129,1,2,0:0:0:0:
477,43,155215,1,2,0:0:0:0:
499,45,155300,5,10,0:0:0:0:
461,64,155385,1,2,0:0:0:0:
429,93,155470,1,2,0:0:0:0:
405,129,155555,1,2,0:0:0:0:
391,169,155640,1,10,0:0:0:0:
388,212,155726,1,2,0:0:0:0:
395,254,155811,1,2,0:0:0:0:
412,294,155896,1,2,0:0:0:0:
439,327,155982,5,10,0:0:0:0:
416,313,156067,1,2,0:0:0:0:
392,302,156152,1,2,0:0:0:0:
366,293,156237,1,2,0:0:0:0:
340,288,156322,1,10,0:0:0:0:
313,285,156408,1,2,0:0:0:0:
286,285,156493,1,2,0:0:0:0:
260,288,156578,1,2,0:0:0:0:
234,294,156664,6,0,P|208:304|184:319,3,43,10|2|2|2,0:0|0:0|0:0|0:0,0:0:0:0:
99,384,157004,2,0,P|103:356|102:328,3,43,10|2|2|2,0:0|0:0|0:0|0:0,0:0:0:0:
88,222,157345,6,0,P|109:239|134:252,3,43,10|2|2|2,0:0|0:0|0:0|0:0,0:0:0:0:
254,200,157686,2,0,P|228:209|204:224,3,43,10|2|2|2,2:0|2:0|2:0|2:0,2:0:0:0:
190,352,158027,6,0,P|215:340|236:334,1,43,10|2,0:0|0:0,0:0:0:0:
309,359,158198,5,2,0:0:0:0:
322,368,158283,1,2,0:0:0:0:
336,375,158368,1,2,0:0:0:0:
351,380,158453,1,2,0:0:0:0:
367,383,158538,1,2,0:0:0:0:
383,384,158624,1,2,0:0:0:0:
399,382,158709,1,10,0:0:0:0:
415,379,158794,1,2,0:0:0:0:
431,374,158879,6,0,P|453:360|464:346,1,43,2|0,3:2|0:0,0:0:0:0:
383,265,159050,2,0,P|384:291|390:307,1,43,2|0,3:2|0:0,0:0:0:0:
501,277,159220,2,0,P|477:264|460:262,1,43,2|0,0:0|0:0,0:0:0:0:
333,160,159391,6,0,P|372:176|415:181,1,77.3999976379395,6|0,3:2|0:0,0:0:0:0:
512,147,159732,1,2,0:0:0:0:
397,2,159902,2,0,P|402:43|419:83,1,77.3999976379395,2|8,0:0|0:0,0:0:0:0:
351,234,160243,2,0,P|345:192|328:152,1,77.3999976379395,0|0,0:0|3:2,0:0:0:0:
271,85,160584,1,2,0:0:0:0:
114,176,160754,6,0,L|199:188,1,77.3999976379395,2|0,0:0|3:2,0:0:0:0:
293,169,161095,1,2,0:0:0:0:
156,295,161266,2,0,L|254:273,1,77.3999976379395,2|0,3:2|1:2,0:0:0:0:
356,384,161607,1,2,0:0:0:0:
313,322,161777,1,2,0:0:0:0:
335,242,161948,1,2,0:0:0:0:
426,210,162118,6,0,P|437:159|434:116,1,77.3999976379395,2|0,3:2|0:0,0:0:0:0:
338,101,162459,1,2,0:0:0:0:
511,79,162629,2,0,P|472:43|433:25,1,77.3999976379395,2|8,0:0|0:0,0:0:0:0:
338,101,162970,1,2,0:0:0:0:
263,46,163141,1,2,3:2:0:0:
224,113,163311,1,2,0:0:0:0:
175,63,163482,6,0,P|131:52|82:48,1,77.3999976379395,2|0,0:0|3:2,0:0:0:0:
18,92,163823,1,2,0:0:0:0:
107,209,163993,2,0,P|106:163|97:115,2,77.3999976379395,2|0|0,3:2|1:2|0:0,0:0:0:0:
8,363,164504,2,0,P|42:333|93:325,1,77.3999976379395,2|0,0:0|0:0,0:0:0:0:
244,363,164845,6,0,L|340:373,1,77.3999976379395,2|0,3:2|0:0,0:0:0:0:
253,259,165186,2,0,P|209:244|169:240,1,77.3999976379395,2|0,0:0|0:0,0:0:0:0:
381,294,165527,2,0,P|371:248|355:211,1,77.3999976379395,10|0,0:0|0:0,0:0:0:0:
264,156,165868,1,2,3:2:0:0:
463,197,166039,1,2,0:0:0:0:
389,46,166209,6,0,P|374:90|370:130,1,77.3999976379395,2|0,0:0|3:2,0:0:0:0:
463,197,166550,1,2,0:0:0:0:
264,156,166721,1,2,3:2:0:0:
381,294,166891,1,2,1:2:0:0:
317,357,167061,1,2,0:0:0:0:
146,285,167232,2,0,P|189:301|216:333,1,77.3999976379395,2|0,0:0|0:0,0:0:0:0:
148,180,167573,6,0,P|158:132|175:81,1,77.3999976379395,2|0,3:2|0:0,0:0:0:0:
56,230,167914,2,0,P|40:183|29:130,1,77.3999976379395,2|0,0:0|0:0,0:0:0:0:
252,183,168254,2,0,P|278:153|306:127,1,77.3999976379395,10|0,0:0|0:0,0:0:0:0:
401,257,168595,1,2,3:2:0:0:
311,262,168766,1,2,0:0:0:0:
489,168,168936,6,0,P|449:148|406:139,1,77.3999976379395,2|0,0:0|3:2,0:0:0:0:
252,183,169277,1,2,0:0:0:0:
311,107,169448,1,2,3:2:0:0:
311,107,169618,1,0,1:2:0:0:
128,36,169789,2,0,P|155:48|169:60,1,38.6999988189698,2|0,0:0|0:0,0:0:0:0:
107,150,169959,2,0,P|103:120|107:102,1,38.6999988189698,2|0,0:0|0:0,0:0:0:0:
217,112,170129,2,0,P|193:129|175:135,1,38.6999988189698,2|0,0:0|0:0,0:0:0:0:
128,36,170300,6,0,P|86:39|42:55,1,77.3999976379395,6|0,3:2|0:0,0:0:0:0:
7,138,170641,1,2,0:0:0:0:
118,226,170811,2,0,P|114:182|100:131,1,77.3999976379395,2|8,0:0|0:0,0:0:0:0:
0,328,171152,1,2,0:0:0:0:
88,330,171323,1,2,3:2:0:0:
46,252,171493,1,2,0:0:0:0:
201,359,171664,5,2,0:0:0:0:
259,283,171834,1,2,3:2:0:0:
211,217,172004,1,2,0:0:0:0:
274,166,172175,2,0,P|267:120|250:77,1,77.3999976379395,2|0,3:2|1:2,0:0:0:0:
430,3,172516,1,2,0:0:0:0:
366,36,172686,1,2,0:0:0:0:
350,119,172857,1,2,0:0:0:0:
508,161,173027,5,2,3:2:0:0:
417,168,173198,1,2,0:0:0:0:
370,238,173368,1,2,0:0:0:0:
383,309,173539,2,0,P|355:341|318:350,1,77.3999976379395,2|8,0:0|0:0,0:0:0:0:
200,236,173879,1,2,0:0:0:0:
273,265,174050,1,2,3:2:0:0:
211,313,174220,1,2,0:0:0:0:
57,253,174391,6,0,P|65:207|81:160,1,77.3999976379395,2|0,0:0|3:2,0:0:0:0:
169,131,174732,1,2,0:0:0:0:
173,213,174902,1,2,3:2:0:0:
4,103,175073,2,0,L|86:84,1,77.3999976379395,0|0,1:2|0:0,0:0:0:0:
276,5,175414,2,0,P|259:38|295:115,1,116.099996456909,2|0,0:0|0:0,0:0:0:0:
316,113,175754,6,0,P|364:144|369:208,1,116.099996456909,2|0,3:2|0:0,0:0:0:0:
359,237,176095,2,0,P|314:224|259:219,1,77.3999976379395,2|0,0:0|0:0,0:0:0:0:
276,384,176436,2,0,L|265:295,1,77.3999976379395,10|0,0:0|0:0,0:0:0:0:
247,144,176777,1,2,3:2:0:0:
179,312,176948,6,0,P|142:297|93:298,1,77.3999976379395,2|0,0:0|0:0,0:0:0:0:
17,318,177289,1,0,3:2:0:0:
131,128,177459,1,2,0:0:0:0:
152,221,177629,1,0,3:2:0:0:
26,45,177800,2,0,P|13:91|13:144,1,77.3999976379395,2|0,1:2|0:0,0:0:0:0:
190,65,178141,2,0,P|145:72|97:103,1,77.3999976379395,2|0,0:0|0:0,0:0:0:0:
57,193,178482,5,2,3:2:0:0:
137,315,178652,2,0,L|228:304,1,77.3999976379395,2|0,0:0|0:0,0:0:0:0:
328,345,178993,1,2,0:0:0:0:
201,213,179164,2,0,L|289:224,1,77.3999976379395,10|0,0:0|0:0,0:0:0:0:
470,313,179504,1,2,3:2:0:0:
391,252,179675,6,0,P|392:206|409:162,1,77.3999976379395,2|0,0:0|0:0,0:0:0:0:
475,21,180016,1,2,3:2:0:0:
490,138,180186,1,2,0:0:0:0:
380,93,180357,1,2,3:2:0:0:
299,274,180527,1,2,1:2:0:0:
240,130,180698,1,10,0:0:0:0:
128,236,180868,1,10,0:0:0:0:
208,40,181039,1,2,0:0:0:0:
6,110,181209,6,0,P|46:127|103:127,1,86,6|0,3:2|0:0,0:0:0:0:
208,40,181550,2,0,P|168:23|111:24,1,86,2|0,3:2|0:0,0:0:0:0:
12,215,181891,6,0,P|3:237|-1:261,3,43,10|0|0|0,0:0|0:0|0:0|0:0,0:0:0:0:
83,370,182232,2,0,P|92:348|96:324,3,43,2|0|0|0,3:2|0:0|0:0|0:0,0:0:0:0:
150,209,182573,5,2,3:2:0:0:
179,241,182658,1,0,0:0:0:0:
212,268,182743,1,0,0:0:0:0:
250,288,182828,1,0,0:0:0:0:
291,302,182913,1,2,3:2:0:0:
333,307,182999,1,0,0:0:0:0:
376,305,183084,1,2,0:0:0:0:
418,296,183169,1,0,0:0:0:0:
457,279,183254,6,0,P|479:266|500:246,3,43,8|0|0|0,0:0|0:0|0:0|0:0,0:0:0:0:
355,179,183595,2,0,P|355:204|362:232,3,43,0|0|0|0,3:2|0:0|0:0|0:0,0:0:0:0:
492,140,183936,6,0,P|443:124|411:98,1,86,2|0,3:2|0:0,0:0:0:0:
303,0,184277,2,0,P|313:50|307:91,1,86,2|0,3:2|0:0,0:0:0:0:
163,17,184618,6,0,P|193:19|228:38,3,43,10|0|0|0,0:0|0:0|0:0|0:0,0:0:0:0:
188,158,184959,2,0,P|175:130|174:90,3,43,2|0|0|0,3:2|0:0|0:0|0:0,0:0:0:0:
309,84,185300,5,2,3:2:0:0:
342,109,185385,1,0,0:0:0:0:
366,145,185470,1,0,0:0:0:0:
379,186,185555,1,0,0:0:0:0:
379,229,185640,1,2,3:2:0:0:
366,270,185726,1,0,0:0:0:0:
343,305,185811,1,2,0:0:0:0:
309,333,185896,1,0,0:0:0:0:
267,345,185982,6,0,P|245:345|224:342,3,43,8|0|0|0,0:0|0:0|0:0|0:0,0:0:0:0:
122,269,186323,2,0,P|143:263|164:260,3,43,0|0|0|0,3:2|0:0|0:0|0:0,0:0:0:0:
254,186,186664,6,0,P|249:133|218:92,1,86,2|0,3:2|0:0,0:0:0:0:
65,150,187004,2,0,P|102:169|145:171,1,86,2|0,3:2|0:0,0:0:0:0:
189,4,187345,2,0,P|152:26|130:62,1,86,10|0,0:0|0:0,0:0:0:0:
122,269,187686,2,0,P|165:260|206:266,1,86,2|0,3:2|0:0,0:0:0:0:
394,339,188027,6,0,P|324:307|307:243,1,129,2|0,3:2|0:0,0:0:0:0:
315,215,188368,1,2,3:2:0:0:
462,177,188539,1,2,0:0:0:0:
365,43,188709,2,0,L|357:133,1,86,8|0,0:0|0:0,0:0:0:0:
197,1,189050,1,2,3:2:0:0:
252,85,189220,1,2,0:0:0:0:
215,187,189391,6,0,L|121:165,1,86,0|0,3:2|0:0,0:0:0:0:
190,364,189732,2,0,P|211:320|212:270,1,86,2|0,3:2|0:0,0:0:0:0:
8,279,190073,2,0,L|98:301,1,86,10|0,0:0|0:0,0:0:0:0:
118,120,190414,1,2,3:2:0:0:
53,196,190584,1,2,0:0:0:0:
213,283,190754,5,0,3:2:0:0:
243,279,190839,1,0,0:0:0:0:
274,268,190924,1,0,0:0:0:0:
301,252,191009,1,0,0:0:0:0:
324,229,191096,1,0,3:2:0:0:
339,199,191180,1,0,0:0:0:0:
346,169,191265,1,0,0:0:0:0:
349,137,191350,1,0,0:0:0:0:
342,106,191436,6,0,P|335:83|314:55,3,43,8|0|0|0,0:0|0:0|0:0|0:0,0:0:0:0:
256,0,191777,2,0,P|244:21|239:55,3,43,0|0|0|0,3:2|0:0|0:0|0:0,0:0:0:0:
158,66,192118,6,0,P|120:88|63:101,1,86,6|0,3:2|0:0,0:0:0:0:
262,138,192459,1,2,3:2:0:0:
339,199,192629,1,0,0:0:0:0:
136,177,192800,1,10,0:0:0:0:
78,267,192970,1,0,0:0:0:0:
269,252,193141,2,0,P|298:291|314:334,1,86,2|0,3:2|0:0,0:0:0:0:
78,267,193482,5,2,3:2:0:0:
194,301,193652,1,0,0:0:0:0:
107,384,193823,1,2,3:2:0:0:
82,262,193993,1,2,0:0:0:0:
195,306,194163,1,8,0:0:0:0:
101,382,194334,1,0,0:0:0:0:
162,188,194504,1,2,3:2:0:0:
48,163,194675,1,2,0:0:0:0:
232,84,194845,6,0,P|178:80|129:53,1,86,2|0,3:2|0:0,0:0:0:0:
328,63,195186,2,0,P|358:18|406:-10,1,86,2|0,3:2|0:0,0:0:0:0:
324,236,195527,2,0,P|318:193|297:155,1,86,10|0,0:0|0:0,0:0:0:0:
149,67,195868,2,0,P|189:82|232:83,1,86,2|0,3:2|0:0,0:0:0:0:
92,256,196209,6,0,L|192:234,1,86,2|0,3:2|0:0,0:0:0:0:
255,384,196550,1,2,3:2:0:0:
170,325,196720,1,2,0:0:0:0:
359,298,196891,2,0,L|258:280,1,86,8|0,0:0|0:0,0:0:0:0:
437,225,197232,2,0,P|462:259|481:316,1,86,2|0,3:2|0:0,0:0:0:0:
362,129,197573,6,0,P|378:90|418:45,1,86,2|0,3:2|0:0,0:0:0:0:
257,82,197914,2,0,P|241:42|238:-17,1,86,2|0,3:2|0:0,0:0:0:0:
149,123,198254,2,0,P|110:106|65:66,1,86,10|0,0:0|0:0,0:0:0:0:
257,82,198595,1,2,3:2:0:0:
129,218,198766,1,2,0:0:0:0:
154,36,198936,5,0,3:2:0:0:
245,201,199107,1,2,0:0:0:0:
203,293,199277,2,0,P|172:317|108:316,1,86,2|0,3:2|0:0,0:0:0:0:
44,201,199618,2,0,L|134:219,1,86,8|0,0:0|0:0,0:0:0:0:
340,261,199959,1,2,3:2:0:0:
283,342,200129,1,2,0:0:0:0:
470,299,200300,6,0,P|454:225|480:172,1,129,2|0,3:2|0:0,0:0:0:0:
512,148,200641,2,0,L|412:124,1,86,0|0,3:2|0:0,0:0:0:0:
263,219,200982,2,0,L|353:199,1,86,8|0,0:0|0:0,0:0:0:0:
474,30,201323,1,2,3:2:0:0:
218,100,201493,6,0,L|310:116,1,86,2|0,3:2|3:2,0:0:0:0:
123,15,201834,1,0,3:2:0:0:
85,216,202004,1,8,0:0:0:0:
218,100,202175,1,8,0:0:0:0:
41,124,202345,1,10,0:0:0:0:
246,250,202516,1,8,0:0:0:0:
33,330,202686,2,0,P|76:300|154:310,1,129,0|0,3:2|0:0,0:0:0:0:
165,339,203027,6,0,P|232:374|301:359,1,141.900004330444,6|0,3:2|0:0,0:0:0:0:
325,349,203368,2,0,L|336:244,1,94.600002886963,2|0,3:2|0:0,0:0:0:0:
510,188,203709,2,0,P|459:194|401:166,1,94.600002886963,10|0,0:0|0:0,0:0:0:0:
345,0,204050,1,0,3:2:0:0:
470,102,204220,1,2,0:0:0:0:
265,104,204391,5,0,3:2:0:0:
329,214,204561,2,0,P|278:269|158:267,1,189.200005773926,2|0,0:0|0:0,0:0:0:0:
89,89,205073,1,10,0:0:0:0:
0,234,205243,1,2,0:0:0:0:
207,188,205414,2,0,L|101:172,1,94.600002886963,2|0,3:2|0:0,0:0:0:0:
54,371,205754,6,0,P|100:343|189:336,1,141.900004330444,2|0,3:2|0:0,0:0:0:0:
215,355,206095,2,0,P|278:365|314:348,1,94.600002886963,2|0,3:2|0:0,0:0:0:0:
242,169,206436,2,0,L|260:274,1,94.600002886963,10|0,0:0|0:0,0:0:0:0:
467,256,206777,1,2,3:2:0:0:
358,219,206948,6,0,L|378:325,1,94.600002886963,2|0,0:0|3:2,0:0:0:0:
441,142,207289,2,0,P|397:118|339:107,1,94.600002886963,2|0,0:0|0:0,0:0:0:0:
257,262,207629,1,2,3:2:0:0:
214,147,207800,1,10,0:0:0:0:
126,335,207970,1,2,0:0:0:0:
5,178,208141,2,0,P|9:123|30:64,1,94.600002886963,2|0,3:2|0:0,0:0:0:0:
242,14,208482,5,2,3:2:0:0:
119,138,208652,2,0,L|224:147,1,94.600002886963,2|0,0:0|3:2,0:0:0:0:
363,261,208993,1,2,0:0:0:0:
226,346,209164,2,0,P|223:298|237:254,1,94.600002886963,10|0,0:0|0:0,0:0:0:0:
450,342,209504,1,2,3:2:0:0:
337,377,209675,1,2,0:0:0:0:
421,116,209845,5,2,3:2:0:0:
328,189,210016,2,0,L|347:295,1,94.600002886963,2|0,0:0|0:0,0:0:0:0:
438,202,210357,1,2,3:2:0:0:
241,188,210527,1,10,0:0:0:0:
213,384,210698,1,2,0:0:0:0:
393,312,210868,1,2,3:2:0:0:
137,246,211039,1,2,0:0:0:0:
314,372,211209,6,0,P|291:263|278:156,1,206.399993701172,2|0,3:2|0:0,0:0:0:0:
351,19,211720,1,0,3:2:0:0:
512,166,211891,2,0,P|486:217|384:211,1,154.799995275879,10|0,0:0|0:0,0:0:0:0:
377,188,212232,1,2,3:2:0:0:
429,338,212402,1,2,3:2:0:0:
221,221,212573,6,0,P|251:270|261:320,1,103.199996850586,2|0,3:2|0:0,0:0:0:0:
155,384,212828,1,0,0:0:0:0:
155,384,212914,2,0,P|159:351|171:325,1,51.599998425293,10|0,0:0|0:0,0:0:0:0:
84,314,213084,2,0,P|70:283|68:254,1,51.599998425293,2|0,3:2|0:0,0:0:0:0:
127,194,213254,5,2,3:2:0:0:
143,174,213339,1,0,0:0:0:0:
153,150,213424,1,2,0:0:0:0:
156,124,213509,1,0,0:0:0:0:
151,99,213595,1,2,3:2:0:0:
140,76,213680,1,0,0:0:0:0:
122,57,213765,1,2,0:0:0:0:
100,44,213850,1,0,0:0:0:0:
75,37,213936,6,0,P|161:59|273:71,1,172,6|0,3:2|3:2,0:0:0:0:
512,237,214618,2,0,P|470:257|428:269,1,86,10|0,0:0|0:0,0:0:0:0:
303,186,214959,1,2,3:2:0:0:
366,347,215129,1,2,0:0:0:0:
210,254,215300,5,2,3:2:0:0:
195,358,215470,2,0,P|150:369|97:365,1,86,2|0,0:0|3:2,0:0:0:0:
31,56,215982,2,0,L|9:139,1,86,10|0,0:0|0:0,0:0:0:0:
124,277,216323,2,0,L|105:180,1,86,2|0,3:2|0:0,0:0:0:0:
182,17,216664,6,0,P|229:96|318:84,1,172,2|2,3:2|3:2,0:0:0:0:
271,351,217345,1,10,0:0:0:0:
443,298,217516,1,0,3:2:0:0:
443,298,217686,2,0,L|346:277,1,86,0|0,0:0|0:0,0:0:0:0:
171,253,218027,6,0,P|206:216|214:161,1,86,2|0,3:2|0:0,0:0:0:0:
34,87,218368,2,0,P|48:135|92:170,1,86,2|0,0:0|3:2,0:0:0:0:
246,51,218709,1,2,1:2:0:0:
144,87,218879,1,0,3:2:0:0:
171,253,219050,2,0,P|206:216|214:161,1,86,10|2,0:0|0:0,0:0:0:0:
57,298,219391,6,0,P|90:338|193:347,1,141.900004330444,6|0,3:2|0:0,0:0:0:0:
206,335,219732,2,0,P|259:326|313:320,1,94.600002886963,0|0,3:2|0:0,0:0:0:0:
492,269,220073,2,0,P|484:322|405:299,1,141.900004330444,10|0,0:0|0:0,0:0:0:0:
412,278,220414,2,0,P|422:231|421:163,1,94.600002886963,0|0,3:2|0:0,0:0:0:0:
436,3,220755,6,0,P|385:55|268:55,1,189.200005773926,6|0,3:2|0:0,0:0:0:0:
0,119,221436,2,0,P|77:102|132:134,1,141.900004330444,10|0,0:0|0:0,0:0:0:0:
132,166,221777,2,0,P|187:194|238:182,1,94.600002886963,0|0,3:2|0:0,0:0:0:0:
333,29,222118,6,0,P|306:95|341:175,1,154.799995275879,6|0,1:2|0:0,0:0:0:0:
410,203,222459,1,0,3:2:0:0:
165,290,222629,1,0,3:2:0:0:
262,91,222800,1,8,0:0:0:0:
371,336,222970,2,0,P|313:315|257:306,1,103.199996850586,8|0,0:0|0:0,0:0:0:0:
110,384,223311,1,0,3:2:0:0:
224,229,223482,6,0,P|187:192|93:188,1,129,6|0,1:2|0:0,0:0:0:0:
83,194,223823,1,10,0:0:0:0:
19,113,223993,1,0,3:2:0:0:
173,104,224164,1,2,3:2:0:0:
160,4,224334,1,2,0:0:0:0:
305,134,224504,2,0,P|370:98|431:94,1,129,2|0,3:2|0:0,0:0:0:0:
465,98,224845,6,0,P|451:153|505:201,1,120.399996325684,2|2,0:0|0:0,0:0:0:0:
448,360,225527,2,0,P|388:338|313:322,1,120.399996325684,2|2,0:0|0:0,0:0:0:0:
247,374,226039,1,2,0:0:0:0:
228,244,226209,6,0,L|214:168,1,60.1999981628419,2|0,0:0|0:0,0:0:0:0:
169,110,226550,1,2,0:0:0:0:
88,78,226720,1,2,0:0:0:0:
17,129,226891,2,0,P|5:162|0:194,1,60.1999981628419,2|0,0:0|0:0,0:0:0:0:
131,236,227232,2,0,P|109:210|84:189,1,60.1999981628419,2|0,0:0|0:0,0:0:0:0:
3,345,227573,6,0,P|64:324|137:338,1,120.399996325684,2|2,0:0|0:0,0:0:0:0:
316,384,228255,2,0,L|301:264,1,120.399996325684,2|2,0:0|0:0,0:0:0:0:
211,213,228766,1,2,0:0:0:0:
339,166,228936,6,0,L|402:176,1,60.1999981628419,2|0,0:0|0:0,0:0:0:0:
497,76,229277,1,2,0:0:0:0:
416,95,229448,1,2,0:0:0:0:
315,0,229618,2,0,P|349:8|388:27,2,60.1999981628419,2|0|2,0:0|0:0|0:0,0:0:0:0:
219,145,230300,6,0,P|254:152|282:166,1,60.1999981628419,2|0,0:0|0:0,0:0:0:0:
166,74,230641,2,0,P|200:62|230:60,1,60.1999981628419,2|0,0:0|0:0,0:0:0:0:
84,40,230982,2,0,P|107:13|133:-4,1,60.1999981628419,2|0,0:0|0:0,0:0:0:0:
0,158,231323,1,2,0:0:0:0:
85,139,231493,6,0,P|142:175|142:248,1,120.399996325684,2|0,0:0|0:0,0:0:0:0:
72,365,232004,2,0,P|37:377|6:378,1,60.1999981628419,2|0,0:0|0:0,0:0:0:0:
134,305,232345,2,0,P|160:328|178:354,1,60.1999981628419,2|0,0:0|0:0,0:0:0:0:
52,280,232686,2,0,P|58:244|71:217,1,60.1999981628419,2|0,0:0|0:0,0:0:0:0:
262,235,233027,6,0,P|228:247|148:221,1,120.399996325684,2|2,0:0|0:0,0:0:0:0:
238,29,233709,2,0,P|224:84|215:153,1,120.399996325684,2|2,0:0|0:0,0:0:0:0:
262,235,234220,1,2,0:0:0:0:
332,122,234391,6,0,L|396:133,1,60.1999981628419,2|0,0:0|0:0,0:0:0:0:
455,253,234732,1,2,0:0:0:0:
408,338,234902,1,2,0:0:0:0:
262,235,235073,1,2,0:0:0:0:
349,267,235243,1,2,0:0:0:0:
317,354,235414,2,0,P|285:370|250:376,1,60.1999981628419,2|0,0:0|0:0,0:0:0:0:
112,356,235755,6,0,P|128:294|133:219,1,120.399996325684,2|2,0:0|0:0,0:0:0:0:
0,65,236436,2,0,P|36:91|123:84,1,120.399996325684,2|2,0:0|0:0,0:0:0:0:
172,21,236948,1,2,0:0:0:0:
214,195,237118,6,0,P|213:159|208:124,1,60.1999981628419,2|0,0:0|0:0,0:0:0:0:
172,21,237459,1,2,0:0:0:0:
242,70,237629,1,2,0:0:0:0:
327,49,237800,2,0,P|364:59|394:77,1,60.1999981628419,2|0,0:0|0:0,0:0:0:0:
467,34,238141,2,0,P|484:67|494:101,1,60.1999981628419,2|0,0:0|0:0,0:0:0:0:
382,182,238482,6,0,P|416:186|448:191,1,60.1999981628419,2|0,0:0|0:0,0:0:0:0:
284,199,238823,2,0,P|288:165|293:133,1,60.1999981628419,2|0,0:0|0:0,0:0:0:0:
301,297,239164,2,0,P|267:293|235:288,1,60.1999981628419,2|0,0:0|0:0,0:0:0:0:
399,280,239504,2,0,P|395:314|390:346,1,60.1999981628419,2|0,0:0|0:0,0:0:0:0:
382,182,239845,6,0,P|346:169|316:149,1,60.1999981628419,2|0,0:0|0:0,0:0:0:0:
325,28,240186,1,2,0:0:0:0:
266,93,240357,2,0,P|231:109|195:116,1,60.1999981628419,2|0,0:0|0:0,0:0:0:0:
80,13,240698,1,2,0:0:0:0:
122,88,240868,2,0,L|132:157,1,60.1999981628419,2|0,0:0|0:0,0:0:0:0:
0,291,241209,6,0,P|49:272|114:292,1,103.2,2|0,0:0|0:0,0:0:0:0:
121,317,241550,2,0,P|154:338|189:341,1,68.8,2|0,0:0|0:0,0:0:0:0:
244,190,241891,2,0,P|213:204|191:230,1,68.8,2|0,0:0|0:0,0:0:0:0:
292,360,242232,2,0,P|294:325|282:293,1,68.8,2|0,0:0|0:0,0:0:0:0:
131,159,242573,6,0,P|174:117|175:50,1,116.099996456909,2|0,0:0|0:0,0:0:0:0:
151,38,242914,2,0,P|192:48|240:52,1,77.3999976379395,2|0,0:0|0:0,0:0:0:0:
430,22,243254,2,0,P|372:12|316:56,1,129,2|0,0:0|0:0,0:0:0:0:
306,89,243595,1,2,0:0:0:0:
479,167,243766,1,2,0:0:0:0:
338,331,243936,6,0,L|351:186,1,129,0|0,1:2|0:0,0:0:0:0:
371,171,244277,2,0,P|318:187|268:182,1,86,2|0,0:0|0:0,0:0:0:0:
151,14,244618,2,0,L|131:118,1,86,2|0,0:0|0:0,0:0:0:0:
217,249,244959,2,0,L|202:152,1,86,2|0,0:0|0:0,0:0:0:0:
26,76,245300,5,0,3:2:0:0:
248,15,245470,1,8,3:2:0:0:
104,174,245641,1,0,3:2:0:0:
325,181,245811,1,8,3:2:0:0:
78,293,245982,5,8,3:2:0:0:
107,280,246067,1,8,3:2:0:0:
139,273,246152,1,8,3:2:0:0:
171,273,246237,1,8,3:2:0:0:
203,278,246322,1,8,3:2:0:0:
233,289,246408,1,8,3:2:0:0:
260,306,246493,1,8,3:2:0:0:
284,328,246578,1,8,3:2:0:0:
304,353,246664,6,0,P|291:272|296:200,1,141.900004330444,14|0,3:2|0:0,0:0:0:0:
325,181,247004,2,0,P|267:190|207:193,1,94.600002886963,2|0,0:0|0:0,0:0:0:0:
433,113,247345,2,0,P|383:83|340:72,1,94.600002886963,2|0,0:0|0:0,0:0:0:0:
208,226,247686,1,2,0:0:0:0:
266,11,247857,1,2,0:0:0:0:
128,178,248027,6,0,P|44:177|60:80,1,189.200005773926,10|0,0:0|0:0,0:0:0:0:
357,15,248709,2,0,P|341:66|340:129,1,94.600002886963,2|0,3:2|0:0,0:0:0:0:
512,227,249050,2,0,P|475:187|421:155,1,94.600002886963,2|0,0:0|0:0,0:0:0:0:
243,314,249391,6,0,P|311:281|352:201,1,141.900004330444,14|0,3:2|0:0,0:0:0:0:
359,193,249732,2,0,P|365:246|378:295,1,94.600002886963,2|0,0:0|0:0,0:0:0:0:
239,142,250073,2,0,P|255:91|264:41,1,94.600002886963,2|0,0:0|0:0,0:0:0:0:
81,120,250414,1,2,0:0:0:0:
344,116,250584,1,2,0:0:0:0:
150,196,250755,6,0,B|111:228|94:293|114:330|114:330|146:328|169:299,1,189.200005773926,2|0,0:0|0:0,0:0:0:0:
505,278,251436,2,0,P|451:247|402:246,1,94.600002886963,2|0,3:2|0:0,0:0:0:0:
251,335,251777,2,0,P|313:335|356:358,1,94.600002886963,2|0,0:0|0:0,0:0:0:0:
340,102,252118,6,0,P|306:187|321:235,1,141.900004330444,14|0,3:2|0:0,0:0:0:0:
346,255,252459,2,0,P|296:247|236:240,1,94.600002886963,2|0,0:0|0:0,0:0:0:0:
72,377,252800,2,0,P|116:312|120:229,1,141.900004330444,2|0,3:2|0:0,0:0:0:0:
95,227,253141,1,2,3:2:0:0:
240,19,253311,1,2,3:2:0:0:
17,117,253482,6,0,P|87:90|166:115,1,141.900004330444,14|0,0:0|0:0,0:0:0:0:
163,137,253823,2,0,P|211:165|272:158,1,94.600002886963,2|0,3:2|0:0,0:0:0:0:
491,56,254164,2,0,P|430:35|400:105,1,141.900004330444,2|0,3:2|0:0,0:0:0:0:
419,119,254504,2,0,P|441:162|447:227,1,94.600002886963,2|0,3:2|0:0,0:0:0:0:
232,334,254845,6,0,L|404:362,1,167.699992323304,14|0,3:2|0:0,0:0:0:0:
382,320,255186,1,10,3:3:0:0:
367,281,255271,1,8,3:3:0:0:
352,242,255356,1,8,3:3:0:0:
337,203,255441,1,8,3:3:0:0:
322,163,255527,2,0,P|228:152|153:175,1,167.699992323304,10|0,3:3|0:0,0:0:0:0:
125,197,255868,2,0,P|135:172|137:143,1,55.8999974411012,10|0,3:3|0:0,0:0:0:0:
24,235,256039,2,0,P|27:261|35:289,1,55.8999974411012,10|0,3:3|0:0,0:0:0:0:
107,374,256209,5,6,3:3:0:0:
125,364,256294,1,4,3:3:0:0:
144,356,256379,1,4,3:3:0:0:
165,350,256464,1,4,3:3:0:0:
185,347,256549,1,4,3:3:0:0:
206,347,256635,1,4,3:3:0:0:
227,348,256720,1,4,3:3:0:0:
248,352,256805,1,4,3:3:0:0:
268,359,256891,6,0,P|289:306|282:246,1,103.199996850586,10|8,3:2|0:0,0:0:0:0:
143,98,257232,2,0,P|122:151|129:211,1,103.199996850586,6|0,3:3|0:0,0:0:0:0:
423,186,257573,6,0,P|360:134|284:132,1,154.799995275879,14|0,3:2|0:0,0:0:0:0:
260,156,257914,2,0,P|270:99|275:33,1,103.199996850586,2|0,3:2|0:0,0:0:0:0:
13,36,258254,2,0,P|96:48|150:119,1,154.799995275879,10|0,0:0|0:0,0:0:0:0:
153,135,258595,1,2,3:2:0:0:
54,354,258766,1,2,0:0:0:0:
307,330,258936,6,0,P|233:274|116:263,1,206.399993701172,2|0,3:2|3:2,0:0:0:0:
215,384,259448,1,0,3:2:0:0:
390,254,259618,2,0,P|438:285|471:341,1,103.199996850586,10|0,0:0|3:2,0:0:0:0:
308,171,259959,2,0,P|359:144|424:144,1,103.199996850586,2|0,3:2|0:0,0:0:0:0:
134,68,260300,6,0,P|232:67|275:14,1,154.799995275879,10|0,3:2|0:0,0:0:0:0:
296,2,260641,2,0,P|279:65|273:113,1,103.199996850586,2|0,3:2|0:0,0:0:0:0:
318,327,260982,2,0,P|271:242|220:242,1,154.799995275879,10|0,0:0|0:0,0:0:0:0:
197,270,261323,2,0,P|148:299|96:307,1,103.199996850586,2|0,3:2|0:0,0:0:0:0:
25,34,261664,6,0,P|108:70|115:145,1,154.799995275879,2|0,3:2|0:0,0:0:0:0:
96,157,262004,1,2,3:2:0:0:
296,2,262175,1,2,3:2:0:0:
234,182,262345,2,0,P|224:122|222:67,1,103.199996850586,8|0,0:0|3:2,0:0:0:0:
315,328,262686,1,2,3:2:0:0:
197,270,262857,1,2,0:0:0:0:
479,279,263027,6,0,P|396:263|330:310,1,154.799995275879,10|0,3:2|0:0,0:0:0:0:
315,328,263368,2,0,P|325:271|330:214,1,103.199996850586,2|0,3:2|0:0,0:0:0:0:
110,65,263709,2,0,P|173:98|252:62,1,154.799995275879,10|0,0:0|0:0,0:0:0:0:
266,35,264050,2,0,P|253:88|243:153,1,103.199996850586,2|0,3:2|0:0,0:0:0:0:
507,113,264391,6,0,P|448:90|359:133,1,154.799995275879,10|0,3:2|0:0,0:0:0:0:
347,157,264732,1,2,3:2:0:0:
378,381,264902,1,0,0:0:0:0:
493,241,265073,1,10,0:0:0:0:
291,280,265243,1,2,0:0:0:0:
507,113,265414,1,2,3:2:0:0:
266,35,265584,1,2,0:0:0:0:
382,226,265755,6,0,B|333:187|272:183|272:183|224:208|162:195,1,223.599989764405,14|0,3:2|3:2,0:0:0:0:
87,30,266266,1,0,3:2:0:0:
81,296,266436,2,0,P|43:248|32:177,1,111.799994882202,8|0,3:2|0:0,0:0:0:0:
266,35,266777,1,2,3:2:0:0:
221,359,266948,1,2,3:2:0:0:
130,131,267118,5,10,3:2:0:0:
389,192,267289,1,2,0:0:0:0:
134,233,267459,1,10,3:2:0:0:
161,238,267544,1,8,0:0:0:0:
188,243,267629,1,8,3:2:0:0:
216,248,267714,1,8,0:0:0:0:
243,254,267800,5,10,1:2:0:0:
201,259,267885,1,8,0:0:0:0:
159,264,267970,1,8,3:2:0:0:
118,269,268055,1,8,0:0:0:0:
76,274,268141,2,0,P|93:209|64:108,1,167.699992323304,8|0,3:2|0:0,0:0:0:0:
17,47,268482,6,0,B|48:81|87:99|87:99|136:88|170:63,1,167.699992323304,14|0,3:2|0:0,0:0:0:0:
179,32,268823,2,0,B|203:13|226:-1|226:-1|261:-1|299:13,1,111.799994882202,2|0,3:2|0:0,0:0:0:0:
502,184,269164,2,0,B|452:146|452:146|393:151|340:174,1,167.699992323304,10|0,0:0|0:0,0:0:0:0:
312,187,269504,1,0,3:2:0:0:
439,0,269675,1,2,0:0:0:0:
426,284,269845,6,0,P|375:358|281:355,1,167.699992323304,10|0,3:2|0:0,0:0:0:0:
263,350,270186,2,0,P|252:292|221:234,1,111.799994882202,0|0,3:2|0:0,0:0:0:0:
79,0,270527,2,0,B|116:125|116:125|104:146|81:160,1,167.699992323304,10|0,0:0|0:0,0:0:0:0:
57,177,270868,2,0,P|119:163|189:163,1,111.799994882202,2|0,3:2|0:0,0:0:0:0:
446,93,271209,6,0,B|422:60|376:44|376:44|335:64|278:54,1,167.699992323304,10|0,3:2|0:0,0:0:0:0:
265,27,271550,2,0,P|278:77|290:148,1,111.799994882202,2|0,3:2|0:0,0:0:0:0:
199,382,271891,2,0,P|185:307|91:302,1,167.699992323304,10|0,0:0|0:0,0:0:0:0:
69,315,272232,1,2,3:2:0:0:
335,266,272402,1,2,0:0:0:0:
91,112,272573,6,0,B|116:170|184:197|234:177|234:177|234:135|211:108,1,223.599989764405,2|0,3:2|3:2,0:0:0:0:
433,91,273084,1,2,3:2:0:0:
504,307,273254,2,0,P|456:335|354:303,1,167.699992323304,10|0,0:0|0:0,0:0:0:0:
335,266,273595,2,0,P|347:215|357:134,1,111.799994882202,2|0,3:2|0:0,0:0:0:0:
126,0,273936,6,0,B|71:40|71:40|54:89|90:133,1,167.699992323304,10|0,3:2|0:0,0:0:0:0:
124,157,274277,2,0,P|138:215|121:282,1,111.799994882202,2|0,3:2|0:0,0:0:0:0:
240,29,274618,2,0,B|294:70|321:129|321:129|296:128|272:135,1,167.699992323304,10|0,0:0|0:0,0:0:0:0:
249,157,274959,1,2,3:2:0:0:
512,63,275129,1,2,0:0:0:0:
436,332,275300,6,0,P|407:260|483:193,1,167.699992323304,10|0,3:2|0:0,0:0:0:0:
498,213,275641,1,2,3:2:0:0:
405,132,275811,1,0,3:2:0:0:
288,378,275982,2,0,P|263:326|262:264,1,111.799994882202,10|0,0:0|0:0,0:0:0:0:
0,298,276323,2,0,P|32:246|90:210,1,111.799994882202,2|0,3:2|0:0,0:0:0:0:
347,192,276664,6,0,B|309:226|262:237|221:235|221:235|188:217|162:184,1,193.50000738144,14|0,3:2|0:0,0:0:0:0:
130,115,277004,1,10,3:2:0:0:
130,115,277090,1,8,0:0:0:0:
130,115,277175,1,8,3:2:0:0:
394,31,277345,2,0,P|428:113|458:233,1,193.50000738144,14|0,3:2|0:0,0:0:0:0:
417,304,277686,1,0,3:2:0:0:
512,62,277857,1,0,3:2:0:0:
258,109,278027,6,0,P|229:206|216:302,1,193.50000738144,14|0,3:2|0:0,0:0:0:0:
267,380,278368,1,8,3:2:0:0:
36,207,278539,1,0,3:2:0:0:
320,256,278709,1,2,1:2:0:0:
124,310,278879,1,8,0:0:0:0:
124,310,278965,1,8,0:0:0:0:
124,310,279050,2,0,B|145:317|166:329|166:329|139:266|152:207,1,167.699992323304,6|0,3:3|0:0,0:0:0:0:
221,175,279391,6,0,P|139:146|102:66,1,167.699992323304,14|0,3:2|0:0,0:0:0:0:
112,36,279732,2,0,P|183:22|232:36,1,111.799994882202,2|0,3:2|0:0,0:0:0:0:
476,110,280073,2,0,P|394:133|353:201,1,167.699992323304,10|0,0:0|0:0,0:0:0:0:
356,242,280414,1,2,3:2:0:0:
289,15,280584,1,2,0:0:0:0:
465,217,280754,5,0,3:2:0:0:
252,170,280925,1,2,0:0:0:0:
380,353,281095,2,0,P|289:333|189:363,1,167.699992323304,2|0,3:2|0:0,0:0:0:0:
184,374,281436,2,0,P|196:307|204:248,1,111.799994882202,8|0,0:0|0:0,0:0:0:0:
26,53,281777,1,2,3:2:0:0:
69,209,281948,1,2,0:0:0:0:
265,10,282118,6,0,P|204:27|219:114,1,167.699992323304,10|0,3:2|0:0,0:0:0:0:
258,99,282459,2,0,P|316:86|369:91,1,111.799994882202,2|0,3:2|0:0,0:0:0:0:
478,311,282800,2,0,B|456:282|406:268|368:283|368:283|372:303|389:328,1,167.699992323304,10|0,0:0|0:0,0:0:0:0:
406,363,283141,1,2,3:2:0:0:
242,217,283311,1,2,0:0:0:0:
27,314,283482,6,0,P|101:358|163:241,1,223.599989764405,2|2,3:2|3:2,0:0:0:0:
37,173,283993,1,0,3:2:0:0:
284,281,284164,2,0,B|280:237|255:195|218:160|218:160|197:154|175:148,1,167.699992323304,10|0,0:0|0:0,0:0:0:0:
160,125,284504,2,0,P|217:138|281:139,1,111.799994882202,0|0,3:2|0:0,0:0:0:0:
434,364,284845,6,0,P|451:283|482:199,1,167.699992323304,10|0,3:2|0:0,0:0:0:0:
512,176,285186,2,0,P|456:189|401:194,1,111.799994882202,2|0,3:2|0:0,0:0:0:0:
222,11,285527,2,0,P|305:43|287:124,1,167.699992323304,10|0,0:0|0:0,0:0:0:0:
270,139,285868,2,0,P|264:208|288:250,1,111.799994882202,2|0,3:2|0:0,0:0:0:0:
16,337,286209,6,0,P|50:252|49:176,1,167.699992323304,10|0,3:2|0:0,0:0:0:0:
17,148,286550,1,2,3:2:0:0:
125,378,286720,1,2,0:0:0:0:
369,303,286891,2,0,P|292:271|242:353,1,167.699992323304,10|0,0:0|0:0,0:0:0:0:
237,367,287232,1,2,3:2:0:0:
344,100,287402,1,2,0:0:0:0:
17,148,287573,6,0,B|68:190|133:195|192:146|192:146|182:111|163:88|137:79,1,258.000009841919,14|0,3:2|0:0,0:0:0:0:
76,266,288085,1,0,3:2:0:0:
237,367,288254,2,0,P|199:309|202:236,1,129.00000492096,8|0,1:2|0:0,0:0:0:0:
312,0,288596,1,2,0:0:0:0:
363,329,288767,1,0,3:2:0:0:
147,86,288936,5,2,3:2:0:0:
439,54,289107,1,2,0:0:0:0:
220,241,289278,1,2,3:2:0:0:
469,284,289448,1,0,3:2:0:0:
315,130,289618,5,10,3:2:0:0:
363,329,289789,1,2,0:0:0:0:
188,167,289959,1,2,3:2:0:0:
174,306,290129,1,2,0:0:0:0:
469,284,290300,6,0,B|405:227|405:227|313:216,1,167.699992323304,14|0,3:2|0:0,0:0:0:0:
174,306,290641,2,0,B|190:334|199:366|199:366|213:313|244:265,1,167.699992323304,2|0,3:2|0:0,0:0:0:0:
173,131,290982,2,0,B|140:130|107:122|107:122|147:161|172:212,1,167.699992323304,10|0,0:0|0:0,0:0:0:0:
324,218,291323,2,0,B|340:189|363:165|363:165|310:180|253:176,1,167.699992323304,2|0,3:2|0:0,0:0:0:0:
174,306,291664,6,0,B|294:356|294:356|328:339,1,167.699992323304,2|0,3:2|0:0,0:0:0:0:
421,292,292004,1,2,3:2:0:0:
266,78,292175,1,2,0:0:0:0:
494,155,292345,2,0,L|366:147,1,111.799994882202,10|0,0:0|0:0,0:0:0:0:
148,15,292686,2,0,P|170:74|159:138,1,111.799994882202,2|0,3:2|0:0,0:0:0:0:
7,260,293027,6,0,B|93:306|93:306|175:272,1,167.699992323304,14|0,3:2|0:0,0:0:0:0:
303,169,293368,2,0,B|325:58|325:58|303:82|270:96,1,167.699992323304,2|0,3:2|0:0,0:0:0:0:
305,274,293709,2,0,B|389:348|389:348|379:318|383:281,1,167.699992323304,10|0,0:0|0:0,0:0:0:0:
215,223,294050,2,0,B|108:258|108:258|139:265|168:287,1,167.699992323304,2|0,3:2|0:0,0:0:0:0:
303,169,294391,6,0,P|352:77|311:36,1,167.699992323304,2|0,3:2|0:0,0:0:0:0:
241,16,294731,1,2,3:2:0:0:
512,111,294902,1,2,0:0:0:0:
408,280,295073,2,0,L|430:160,1,111.799994882202,8|0,0:0|0:0,0:0:0:0:
205,120,295413,2,0,P|255:133|307:175,1,111.799994882202,2|0,3:2|0:0,0:0:0:0:
113,368,295754,6,0,B|113:283|113:283|146:195,1,167.699992323304,14|0,3:2|0:0,0:0:0:0:
307,100,296095,2,0,P|366:155|308:184,1,167.699992323304,2|0,3:2|0:0,0:0:0:0:
142,97,296436,2,0,P|160:17|214:53,1,167.699992323304,10|0,0:0|0:0,0:0:0:0:
221,242,296777,2,0,P|143:266|147:201,1,167.699992323304,2|0,3:2|0:0,0:0:0:0:
300,7,297118,5,2,3:2:0:0:
440,156,297288,1,8,0:3:0:0:
440,156,297373,1,8,0:3:0:0:
440,156,297459,1,10,3:3:0:0:
384,337,297629,1,6,0:3:0:0:
216,373,297800,1,4,0:3:0:0:
118,275,297970,1,0,1:2:0:0:
166,162,298141,2,0,P|211:143|272:156,1,103.199996850586,2|0,1:2|0:0,0:0:0:0:
216,373,298482,6,0,P|276:322|366:328,1,154.799995275879,10|0,3:2|0:0,0:0:0:0:
384,337,298823,2,0,P|366:290|377:237,1,103.199996850586,0|0,3:2|0:0,0:0:0:0:
429,4,299164,1,10,0:0:0:0:
495,143,299334,1,2,0:0:0:0:
256,54,299505,2,0,P|274:101|263:154,1,103.199996850586,2|0,3:2|0:0,0:0:0:0:
51,280,299846,6,0,B|38:160|38:160|82:179|140:179,1,206.399993701172,10|8,3:2|0:0,0:0:0:0:
256,54,300357,1,2,3:2:0:0:
376,264,300528,1,8,0:0:0:0:
135,263,300698,1,8,0:0:0:0:
135,263,300784,1,8,0:0:0:0:
135,263,300868,1,2,3:2:0:0:
256,54,301039,1,2,0:0:0:0:
223,324,301209,5,6,3:2:0:0:
151,43,301379,1,2,0:0:0:0:
281,221,301550,1,2,3:2:0:0:
49,213,301720,1,2,0:0:0:0:
209,123,301891,1,10,0:0:0:0:
180,206,302061,1,2,0:0:0:0:
122,139,302232,1,2,3:2:0:0:
324,301,302402,6,0,P|362:260|369:199,1,103.199996850586,2|0,0:0|3:2,0:0:0:0:
273,0,302743,1,2,0:0:0:0:
281,221,302914,1,2,3:2:0:0:
446,48,303084,1,2,0:0:0:0:
209,123,303254,1,10,0:0:0:0:
388,131,303425,1,2,3:2:0:0:
341,68,303595,1,2,3:2:0:0:
310,140,303766,1,2,0:0:0:0:
119,13,303936,5,2,3:2:0:0:
58,269,304107,1,2,0:0:0:0:
1,82,304277,1,2,3:2:0:0:
209,200,304448,1,2,0:0:0:0:
40,164,304618,1,10,0:0:0:0:
103,108,304789,1,2,0:0:0:0:
119,190,304959,1,2,3:2:0:0:
308,31,305129,6,0,P|288:76|286:143,1,103.199996850586,2|0,0:0|3:2,0:0:0:0:
509,273,305470,1,2,0:0:0:0:
412,34,305641,1,2,3:2:0:0:
290,247,305811,1,2,0:0:0:0:
512,161,305982,1,10,0:0:0:0:
345,174,306152,1,2,3:2:0:0:
409,234,306323,1,2,3:2:0:0:
429,149,306493,1,2,0:0:0:0:
266,365,306664,5,2,3:2:0:0:
201,84,306834,1,2,0:0:0:0:
360,304,307004,1,2,3:2:0:0:
111,236,307175,1,2,0:0:0:0:
267,165,307345,1,10,0:0:0:0:
290,247,307516,1,2,0:0:0:0:
207,225,307686,1,2,3:2:0:0:
415,72,307857,6,0,P|366:89|300:90,1,103.199996850586,6|0,0:0|3:2,0:0:0:0:
113,0,308198,1,8,0:3:0:0:
113,0,308283,1,8,0:3:0:0:
113,0,308368,1,10,3:3:0:0:
207,225,308539,1,6,0:3:0:0:
201,84,308709,1,6,0:3:0:0:
86,124,308879,1,0,1:2:0:0:
33,234,309050,1,2,1:2:0:0:
74,350,309220,1,2,1:2:0:0:
205,379,309391,6,0,P|271:354|368:352,1,154.799995275879,6|0,1:2|0:0,0:0:0:0:
395,365,309732,2,0,L|376:243,1,103.199996850586,0|0,3:2|0:0,0:0:0:0:
494,71,310073,2,0,P|419:110|341:102,1,154.799995275879,8|0,0:0|0:0,0:0:0:0:
327,72,310414,2,0,P|269:50|212:59,1,103.199996850586,0|0,3:2|0:0,0:0:0:0:
36,207,310754,6,0,P|114:236|162:177,1,154.799995275879,6|0,1:2|0:0,0:0:0:0:
172,147,311095,1,8,0:0:0:0:
111,353,311266,1,0,3:2:0:0:
287,217,311436,1,8,0:0:0:0:
306,369,311607,1,8,0:0:0:0:
459,217,311777,2,0,P|422:262|420:323,1,103.199996850586,0|0,1:2|0:0,0:0:0:0:
466,99,312118,5,10,0:0:0:0:
360,151,312289,1,2,0:0:0:0:
366,33,312459,1,2,0:0:0:0:
461,104,312629,5,10,0:0:0:0:
357,144,312800,1,2,0:0:0:0:
373,33,312970,1,2,0:0:0:0:
457,108,313141,5,10,0:0:0:0:
355,138,313312,1,2,0:0:0:0:
379,34,313482,1,2,0:0:0:0:
452,113,313652,5,10,0:0:0:0:
353,132,313823,1,2,0:0:0:0:
385,36,313993,1,2,0:0:0:0:
419,208,314164,5,10,0:0:0:0:
384,300,314334,1,10,0:0:0:0:
295,341,314504,1,10,0:0:0:0:
202,307,314675,1,10,0:0:0:0:
161,219,314845,5,10,0:0:0:0:
202,307,315187,1,10,0:0:0:0:
295,341,315527,1,10,0:0:0:0:
384,300,315868,1,10,0:0:0:0:
295,341,316209,5,10,0:0:0:0:
202,307,316550,1,10,0:0:0:0:
161,219,316891,1,10,0:0:0:0:
196,127,317232,1,10,0:0:0:0:
0,70,317573,5,10,0:0:0:0:
81,154,317744,1,2,0:0:0:0:
114,41,317914,1,2,0:0:0:0:
1,76,318084,5,10,0:0:0:0:
86,149,318254,1,2,0:0:0:0:
108,39,318425,1,2,0:0:0:0:
4,81,318596,5,10,0:0:0:0:
90,144,318767,1,2,0:0:0:0:
102,37,318937,1,2,0:0:0:0:
6,87,319107,5,10,0:0:0:0:
93,139,319278,1,2,0:0:0:0:
96,38,319448,1,2,0:0:0:0:
4,188,319618,5,10,0:0:0:0:
37,279,319789,1,10,0:0:0:0:
126,323,319959,1,10,0:0:0:0:
220,290,320129,1,10,0:0:0:0:
264,201,320300,5,10,0:0:0:0:
126,323,320641,1,10,0:0:0:0:
4,188,320982,1,10,0:0:0:0:
220,290,321323,1,10,0:0:0:0:
37,279,321664,5,10,0:0:0:0:
220,290,322004,1,10,0:0:0:0:
232,107,322345,1,10,0:0:0:0:
264,201,322686,1,10,0:0:0:0:
220,290,323027,6,0,P|210:297|197:310,3,17.2,10|2|2|2,0:0|0:0|0:0|0:0,0:0:0:0:
