osu file format v14

[General]
AudioFilename: audio.mp3
AudioLeadIn: 0
PreviewTime: 202001
Countdown: 0
SampleSet: Normal
StackLeniency: 0.7
Mode: 1
LetterboxInBreaks: 0
EpilepsyWarning: 1
WidescreenStoryboard: 1

[Editor]
Bookmarks: 51672,93716,156782,223351,265395,293424,327147,376526
DistanceSpacing: 1.7
BeatDivisor: 4
GridSize: 32
TimelineZoom: 0.9999999

[Metadata]
Title:Owaranu Matsuri
TitleUnicode:無終祭
Artist:Diao Ye Zong
ArtistUnicode:凋叶棕
Creator:Faputa
Version:Festival is never over
Source:東方Project
Tags:Diāo Yè Zōng withered leaf Never-ending SB Storyboard Collaboration Touhou RD-sounds Comiket Comic Market C90 上海アリス幻樂団 Team Shanghai Alice めらみぽっぷ Meramipop Rendaino Yakou 蓮台野夜行 ~ Ghostly Field Club. RD-Sounds 幻想の永遠祭 Gensou no Eien C65 Illusionary Eternal Festival 夢 Yume Utsutsu ZUN ilv_Rem Japanese Folk Video Game
BeatmapID:1586570
BeatmapSetID:753575

[Difficulty]
HPDrainRate:5
CircleSize:5
OverallDifficulty:5
ApproachRate:5
SliderMultiplier:1.4
SliderTickRate:1

[Events]
//Background and Video events
0,0,"Reimu.jpg",0,0
//Break Periods
2,37858,50034
2,172548,177480
2,359098,363938
//Storyboard Layer 0 (Background)
//Storyboard Layer 1 (Fail)
//Storyboard Layer 2 (Pass)
//Storyboard Layer 3 (Foreground)
//Storyboard Layer 4 (Overlay)
//Storyboard Sound Samples

[TimingPoints]
870,437.956204379562,4,1,0,20,1,0
870,-133.333333333333,4,1,0,20,0,0
20359,-132.505088195387,4,1,0,20,0,0
20578,-131.687242798354,4,1,0,20,0,0
20797,-130.879431250344,4,1,0,20,0,0
21015,-130.081300813008,4,1,0,20,0,0
21234,-129.292845709676,4,1,0,20,0,0
21453,-128.5140562249,4,1,0,20,0,0
21672,-127.744592571396,4,1,0,20,0,0
21891,-126.984126984127,4,1,0,20,0,0
22110,-126.232821290933,4,1,0,20,0,0
22220,-125.860413250081,4,1,0,20,0,0
22329,-125.490196078431,4,1,0,20,0,0
22548,-124.756413103416,4,1,0,20,0,0
22767,-124.031007751938,4,1,0,20,0,0
22986,-123.31398947885,4,1,0,20,0,0
23096,-122.958731360993,4,1,0,20,0,0
23205,-122.605363984674,4,1,0,20,0,0
23315,-122.254021851684,4,1,0,20,0,0
23424,-121.904836208662,4,1,0,20,0,0
23534,-121.212121212121,4,1,0,30,0,0
30432,-117.647058823529,4,1,0,40,0,0
34592,-115.114406452853,4,1,0,40,0,0
34811,-113.888471297827,4,1,0,40,0,0
35030,-112.688372701016,4,1,0,40,0,0
35249,-111.513426774151,4,1,0,40,0,0
35468,-110.362607382817,4,1,0,40,0,0
35687,-109.235298294291,4,1,0,40,0,0
35906,-108.1309032715,4,1,0,40,0,0
36125,-107.048501535076,4,1,0,40,0,0
36344,-105.987667275036,4,1,0,40,0,0
36563,-104.947541971146,4,1,0,40,0,0
36782,-103.927633110512,4,1,0,40,0,0
37001,-102.927462899796,4,1,0,40,0,0
37220,-101.946255972776,4,1,0,40,0,0
37439,-100.983580069881,4,1,0,40,0,0
37548,-100,4,1,0,50,0,0
51015,-111.111111111111,4,1,0,50,0,0
77731,-108.695652173913,4,1,0,55,0,0
78388,-106.382978723404,4,1,0,55,0,0
78826,-104.166666666667,4,1,0,55,0,0
79045,-103.092783505155,4,1,0,55,0,0
79154,-102.564102564103,4,1,0,55,0,0
79264,-102.040816326531,4,1,0,55,0,0
79483,-101.010101010101,4,1,0,55,0,0
79592,-100,4,1,0,70,0,0
83096,-100,4,1,0,73,0,0
86599,-100,4,1,0,76,0,0
90103,-100,4,1,0,78,0,0
91855,-100,4,1,0,80,0,0
92293,-98.1688563230069,4,1,0,80,0,0
92621,-96.4035684744906,4,1,0,80,0,0
92840,-95.261593097726,4,1,0,80,0,0
93059,-94.1463561594312,4,1,0,80,0,0
93169,-93.5984290439669,4,1,0,80,0,0
93278,-93.0569294377221,4,1,0,80,0,0
93388,-92.5215737179517,4,1,0,80,0,0
93497,-91.9923425574055,4,1,0,80,0,0
93607,-91.9923425574055,4,1,0,95,0,0
93716,-90.9519209955233,4,1,0,95,0,1
121198,-91.743119266055,4,1,0,95,0,1
121307,-92.5925925925926,4,1,0,95,0,1
121417,-93.4579439252336,4,1,0,95,0,1
121526,-94.3396226415094,4,1,0,95,0,1
121745,-95.2380952380952,4,1,0,95,0,0
134008,-100,4,1,0,75,0,0
134227,-102.040816326531,4,1,0,75,0,0
134446,-103.092783505155,4,1,0,75,0,0
134884,-105.263157894737,4,1,0,75,0,0
135213,-107.52688172043,4,1,0,75,0,0
135541,-109.89010989011,4,1,0,75,0,0
135760,-111.111111111111,4,1,0,75,0,0
135979,-121.212121212121,4,1,0,50,0,0
138169,-133.333333333333,4,1,0,50,0,0
156672,-133.333333333333,4,1,0,55,0,0
157001,-132.450331125828,4,1,0,55,0,0
157110,-132.013201320132,4,1,0,55,0,0
157220,-131.578947368421,4,1,0,55,0,0
157439,-130.718954248366,4,1,0,55,0,0
157658,-129.87012987013,4,1,0,55,0,0
157877,-129.032258064516,4,1,0,55,0,0
157986,-128.617363344051,4,1,0,55,0,0
158096,-127.79552715655,4,1,0,55,0,0
158315,-127.388535031847,4,1,0,55,0,0
158534,-126.582278481013,4,1,0,55,0,0
158753,-125.786163522013,4,1,0,55,0,0
158972,-125,4,1,0,55,0,0
159191,-124.223602484472,4,1,0,55,0,0
159410,-123.456790123457,4,1,0,55,0,0
159629,-122.699386503067,4,1,0,55,0,0
159738,-122.324159021407,4,1,0,55,0,0
159848,-121.951219512195,4,1,0,55,0,0
160067,-121.212121212121,4,1,0,55,0,0
160176,-120.481927710843,4,1,0,60,0,0
160505,-119.760479041916,4,1,0,60,0,0
160724,-119.047619047619,4,1,0,60,0,0
160942,-118.343195266272,4,1,0,60,0,0
161161,-117.647058823529,4,1,0,60,0,0
161380,-116.959064327485,4,1,0,60,0,0
161490,-116.618075801749,4,1,0,60,0,0
161599,-116.279069767442,4,1,0,60,0,0
161818,-115.606936416185,4,1,0,60,0,0
162037,-114.942528735632,4,1,0,60,0,0
162256,-114.285714285714,4,1,0,60,0,0
162366,-113.960113960114,4,1,0,60,0,0
162475,-113.636363636364,4,1,0,60,0,0
162694,-112.994350282486,4,1,0,60,0,0
162913,-112.359550561798,4,1,0,60,0,0
163132,-111.731843575419,4,1,0,60,0,0
163351,-111.111111111111,4,1,0,60,0,0
163570,-111.111111111111,4,1,0,65,0,0
164008,-109.967086850906,4,1,0,65,0,0
164227,-108.846380748994,4,1,0,65,0,0
164446,-107.748403168665,4,1,0,65,0,0
164665,-106.672242069185,4,1,0,65,0,0
164884,-105.617365184714,4,1,0,65,0,0
164994,-105.097767197936,4,1,0,65,0,0
165103,-104.583147262484,4,1,0,65,0,0
165322,-103.568987302442,4,1,0,65,0,0
165541,-102.574412607626,4,1,0,65,0,0
165760,-101.59865483381,4,1,0,65,0,0
165979,-100.641286276152,4,1,0,65,0,0
166198,-99.7017919403065,4,1,0,65,0,0
166417,-98.7796758841275,4,1,0,65,0,0
166636,-97.8744603446943,4,1,0,65,0,0
166745,-97.4280931958168,4,1,0,65,0,0
166855,-96.9857789752289,4,1,0,65,0,0
167074,-96.112998129641,4,1,0,65,0,0
167183,-95.2557855982778,4,1,0,70,0,0
167512,-94.4137285114354,4,1,0,70,0,0
167731,-93.5864284704889,4,1,0,70,0,0
167950,-92.77358698869,4,1,0,70,0,0
168169,-91.9746591419132,4,1,0,70,0,0
168388,-91.18937388464,4,1,0,70,0,0
168497,-90.8017797148824,4,1,0,70,0,0
168607,-90.4173847313971,4,1,0,70,0,0
168826,-89.6583568312944,4,1,0,70,0,0
169045,-88.9120455371933,4,1,0,70,0,0
169154,-88.1779784316665,4,1,0,80,0,0
169483,-87.4559331416882,4,1,0,80,0,0
169702,-86.7456167439859,4,1,0,80,0,0
169921,-86.0467457550989,4,1,0,80,0,0
170140,-85.3591186158848,4,1,0,80,0,0
170359,-84.6823227344938,4,1,0,80,0,0
170578,-84.0161747939713,4,1,0,80,0,0
170797,-83.3604254716116,4,1,0,80,0,0
171015,-90.9090909090909,4,1,0,50,0,0
174081,-111.111111111111,4,1,0,50,0,0
175833,-121.212121212121,4,1,0,50,0,0
177585,-133.333333333333,4,1,0,50,0,0
188369,-50,4,1,0,100,0,0
189410,-66.6666666666667,4,1,0,40,0,0
190067,-66.6666666666667,4,1,0,50,0,0
190505,-66.6666666666667,4,1,0,60,0,0
190942,-66.6666666666667,4,1,0,70,0,0
191490,-117.647058823529,4,1,0,50,0,0
192037,-116.366886173403,4,1,0,50,0,0
192256,-115.114406452853,4,1,0,50,0,0
192475,-113.888471297827,4,1,0,50,0,0
192694,-112.688372701016,4,1,0,50,0,0
192913,-111.513426774151,4,1,0,50,0,0
193132,-110.362607382817,4,1,0,50,0,0
193351,-109.235298294291,4,1,0,50,0,0
193570,-108.1309032715,4,1,0,50,0,0
193789,-107.048501535076,4,1,0,50,0,0
193899,-106.515443141524,4,1,0,50,0,0
194008,-105.987667275036,4,1,0,50,0,0
194227,-104.947541971146,4,1,0,50,0,0
194446,-103.927633110512,4,1,0,50,0,0
194665,-102.927462899796,4,1,0,50,0,0
194775,-102.434457312489,4,1,0,50,0,0
194884,-101.946255972776,4,1,0,50,0,0
194994,-101.462686082566,4,1,0,50,0,0
195103,-100.983580069881,4,1,0,50,0,0
195213,-100.509078482514,4,1,0,50,0,0
195267,-100,4,1,0,60,0,0
209118,-90.9090909090909,4,1,0,70,0,0
221490,-92.5925925925926,4,1,0,65,0,0
221818,-94.3396226415094,4,1,0,65,0,0
222037,-96.1538461538461,4,1,0,65,0,0
222256,-98.0392156862745,4,1,0,65,0,0
222366,-100,4,1,0,60,0,0
222694,-102.564102564103,4,1,0,60,0,0
222913,-105.263157894737,4,1,0,60,0,0
223132,-108.108108108108,4,1,0,60,0,0
223242,-111.111111111111,4,1,0,50,0,0
249410,-108.695652173913,4,1,0,55,0,0
250067,-106.382978723404,4,1,0,55,0,0
250505,-104.166666666667,4,1,0,55,0,0
250724,-103.092783505155,4,1,0,55,0,0
250833,-102.564102564103,4,1,0,55,0,0
250942,-102.040816326531,4,1,0,55,0,0
251161,-101.010101010101,4,1,0,55,0,0
251271,-100,4,1,0,70,0,0
254775,-100,4,1,0,73,0,0
258278,-100,4,1,0,76,0,0
261782,-100,4,1,0,78,0,0
263534,-100,4,1,0,80,0,0
263972,-98.1688563230069,4,1,0,80,0,0
264300,-96.4035684744906,4,1,0,80,0,0
264519,-95.261593097726,4,1,0,80,0,0
264738,-94.1463561594312,4,1,0,80,0,0
264848,-93.5984290439669,4,1,0,80,0,0
264957,-93.0569294377221,4,1,0,80,0,0
265067,-92.5215737179517,4,1,0,80,0,0
265176,-91.9923425574055,4,1,0,80,0,0
265286,-91.9923425574055,4,1,0,95,0,0
265395,-90.9519209955233,4,1,0,95,0,1
293315,-86.9565217391304,4,1,0,95,0,1
318168,-86.6034680937844,4,1,0,95,0,1
318387,-86.2532697338052,4,1,0,95,0,1
318606,-85.9058921609494,4,1,0,95,0,1
318715,-85.7340372815201,4,1,0,95,0,1
318825,-85.561301430499,4,1,0,95,0,1
319044,-85.2194641402041,4,1,0,95,0,1
319153,-85.0503419856409,4,1,0,95,0,1
319263,-84.8803474194897,4,1,0,95,0,1
319372,-84.7125672489875,4,1,0,95,0,1
319482,-84.5439189189189,4,1,0,95,0,1
319591,-84.3774648226532,4,1,0,95,0,1
319701,-84.2101467999063,4,1,0,95,0,1
319920,-83.8789997246729,4,1,0,95,0,1
320029,-83.7151510444979,4,1,0,95,0,1
320139,-83.5504468464386,4,1,0,95,0,1
320358,-83.2244577998432,4,1,0,95,0,1
320467,-83.0631538393148,4,1,0,95,0,1
320577,-82.901002691591,4,1,0,95,0,1
320686,-82.7409489171764,4,1,0,95,0,1
320796,-82.580052091313,4,1,0,95,0,1
320905,-82.421234024784,4,1,0,95,0,1
321014,-82.2630256639038,4,1,0,95,0,1
321124,-82.1039804084694,4,1,0,95,0,1
321233,-81.9469864864075,4,1,0,95,0,1
321452,-81.6333663424011,4,1,0,95,0,1
321671,-81.3221375640497,4,1,0,95,0,1
321781,-81.166706244172,4,1,0,95,0,1
321890,-81.0132729038524,4,1,0,95,0,1
322109,-80.7067455266901,4,1,0,95,0,1
322328,-80.402529002054,4,1,0,95,0,1
322438,-80.2505898252285,4,1,0,95,0,1
322547,-80.1005972964477,4,1,0,95,0,1
322657,-79.9497960464386,4,1,0,95,0,1
322766,-79.8009247659613,4,1,0,95,0,1
322876,-79.6512487069602,4,1,0,95,0,1
322985,-79.5034861490109,4,1,0,95,0,1
323095,-79.3549227345568,4,1,0,95,0,1
323204,-79.2082565592395,4,1,0,95,0,1
323423,-78.9152114785762,4,1,0,95,0,1
323533,-78.7688364537724,4,1,0,95,0,1
323642,-78.6243267504488,4,1,0,95,0,1
323861,-78.3355785731454,4,1,0,95,0,1
323971,-78.1913439381343,4,1,0,95,0,1
324080,-78.0489434933223,4,1,0,95,0,1
324299,-77.7643983996537,4,1,0,95,0,1
324409,-77.622257548147,4,1,0,95,0,1
324518,-77.4819205166199,4,1,0,95,0,1
324737,-77.20148739843,4,1,0,95,0,1
324847,-77.0613950674988,4,1,0,95,0,1
324957,437.956204379562,5,1,0,95,1,1
324957,-76.9230769230769,4,1,0,95,0,1
325066,-76.9230769230769,4,1,0,40,0,1
325175,-66.6666666666667,5,1,0,40,0,0
327037,-66.6666666666667,5,1,0,95,0,0
327146,-76.9230769230769,5,1,0,95,0,1
327364,-78.4313725490196,5,1,0,95,0,1
327474,-79.2115019441179,5,1,0,95,0,1
327583,-80,5,1,0,95,0,1
327802,-81.6326530612245,5,1,0,95,0,1
328021,-83.3333333333333,5,1,0,95,0,1
328240,-85.1063829787234,5,1,0,95,0,1
328350,-86.0257291564372,5,1,0,95,0,1
328459,-86.9565217391304,5,1,0,95,0,1
328569,-87.9164993978322,5,1,0,95,0,1
328678,-88.8888888888889,5,1,0,95,0,1
328898,437.956204379562,4,1,0,95,1,0
328898,-90.9090909090909,5,1,0,95,0,0
357146,-90.8235516368221,5,1,0,40,0,0
357803,-90.8235516368221,5,1,0,50,0,0
358241,-90.8235516368221,5,1,0,60,0,0
358679,-105.263157894737,5,1,0,70,0,0
359117,-105.263157894737,4,1,0,20,0,0
360430,437.956204379562,4,1,0,20,1,8
360759,437.956204379562,4,1,0,20,1,0
360759,-117.647058823529,4,1,0,20,0,0
362510,-125,4,1,0,20,0,0
364262,-133.333333333333,4,1,0,20,0,0
380248,-132.505088195387,4,1,0,20,0,0
380467,-131.687242798354,4,1,0,20,0,0
380686,-130.879431250344,4,1,0,20,0,0
380904,-130.081300813008,4,1,0,20,0,0
381123,-129.292845709676,4,1,0,20,0,0
381342,-128.5140562249,4,1,0,20,0,0
381561,-127.744592571396,4,1,0,20,0,0
381780,-126.984126984127,4,1,0,20,0,0
381999,-126.232821290933,4,1,0,20,0,0
382109,-125.860413250081,4,1,0,20,0,0
382218,-125.490196078431,4,1,0,20,0,0
382437,-124.756413103416,4,1,0,20,0,0
382656,-124.031007751938,4,1,0,20,0,0
382875,-123.31398947885,4,1,0,20,0,0
382985,-122.958731360993,4,1,0,20,0,0
383094,-122.605363984674,4,1,0,20,0,0
383204,-122.254021851684,4,1,0,20,0,0
383313,-121.904836208662,4,1,0,20,0,0
383423,-121.212121212121,4,1,0,30,0,0
390430,-117.647058823529,4,1,0,40,0,0
394481,-115.114406452853,4,1,0,40,0,0
394700,-113.888471297827,4,1,0,40,0,0
394919,-112.688372701016,4,1,0,40,0,0
395138,-111.513426774151,4,1,0,40,0,0
395357,-110.362607382817,4,1,0,40,0,0
395576,-109.235298294291,4,1,0,40,0,0
395795,-108.1309032715,4,1,0,40,0,0
396014,-107.048501535076,4,1,0,40,0,0
396233,-105.987667275036,4,1,0,40,0,0
396452,-104.947541971146,4,1,0,40,0,0
396671,-103.927633110512,4,1,0,40,0,0
396890,-102.927462899796,4,1,0,40,0,0
397109,-101.946255972776,4,1,0,40,0,0
397328,-100.983580069881,4,1,0,40,0,0
397437,-100,4,1,0,50,0,0

[HitObjects]
260,192,7001,5,0,0:0:0:0:
256,192,7658,1,0,0:0:0:0:
256,196,7877,1,8,0:0:0:0:
256,196,8534,1,0,0:0:0:0:
256,196,8753,1,8,0:0:0:0:
256,196,9191,1,8,0:0:0:0:
256,196,9410,1,0,0:0:0:0:
256,196,9629,1,8,0:0:0:0:
256,196,9848,1,0,0:0:0:0:
256,196,10067,1,8,0:0:0:0:
256,196,10286,1,8,0:0:0:0:
256,196,10505,1,0,0:0:0:0:
256,196,11380,1,0,0:0:0:0:
256,196,12037,1,0,0:0:0:0:
256,196,12256,1,8,0:0:0:0:
256,196,12694,1,8,0:0:0:0:
256,196,12913,1,0,0:0:0:0:
256,196,13132,1,8,0:0:0:0:
256,196,13570,1,0,0:0:0:0:
256,196,13789,1,8,0:0:0:0:
256,196,14008,1,8,0:0:0:0:
256,196,14227,1,0,0:0:0:0:
256,196,14337,1,0,0:0:0:0:
256,196,14446,1,8,0:0:0:0:
256,196,14665,1,8,0:0:0:0:
256,196,14775,1,0,0:0:0:0:
256,196,14884,1,8,0:0:0:0:
256,196,15322,1,0,0:0:0:0:
256,196,15541,1,0,0:0:0:0:
256,196,15760,1,8,0:0:0:0:
256,196,16198,1,0,0:0:0:0:
256,196,16417,1,0,0:0:0:0:
256,196,16636,1,8,0:0:0:0:
256,196,16855,1,0,0:0:0:0:
256,196,17074,1,0,0:0:0:0:
256,196,17293,1,8,0:0:0:0:
256,196,17512,1,8,0:0:0:0:
256,196,17731,1,0,0:0:0:0:
256,196,17840,1,0,0:0:0:0:
256,196,17950,1,8,0:0:0:0:
256,196,18169,1,8,0:0:0:0:
256,196,18278,1,0,0:0:0:0:
256,196,18388,1,8,0:0:0:0:
256,196,18607,1,8,0:0:0:0:
256,196,18826,1,8,0:0:0:0:
256,196,19045,1,8,0:0:0:0:
256,196,19264,1,0,0:0:0:0:
256,196,19483,1,8,0:0:0:0:
256,196,19702,1,8,0:0:0:0:
256,196,19921,1,0,0:0:0:0:
256,196,20140,1,8,0:0:0:0:
256,196,20359,1,8,0:0:0:0:
256,196,20578,1,8,0:0:0:0:
256,196,20797,1,0,0:0:0:0:
256,196,21015,1,8,0:0:0:0:
256,196,21234,1,8,0:0:0:0:
256,196,21453,1,0,0:0:0:0:
256,196,21672,1,0,0:0:0:0:
256,196,21891,1,0,0:0:0:0:
256,196,22110,1,8,0:0:0:0:
256,196,22220,1,0,0:0:0:0:
256,196,22329,1,0,0:0:0:0:
256,196,22548,1,0,0:0:0:0:
256,196,22767,1,8,0:0:0:0:
256,196,22986,1,8,0:0:0:0:
256,196,23096,1,8,0:0:0:0:
256,196,23205,1,0,0:0:0:0:
256,196,23315,1,0,0:0:0:0:
256,196,23424,1,0,0:0:0:0:
256,196,23643,1,8,0:0:0:0:
256,196,24081,1,0,0:0:0:0:
256,196,24300,1,0,0:0:0:0:
256,196,24519,1,8,0:0:0:0:
256,196,24957,1,0,0:0:0:0:
256,196,25176,1,8,0:0:0:0:
256,196,25395,1,8,0:0:0:0:
256,196,25833,1,0,0:0:0:0:
256,196,26271,1,8,0:0:0:0:
256,196,26928,1,0,0:0:0:0:
256,196,27147,1,0,0:0:0:0:
256,196,27585,1,0,0:0:0:0:
256,196,27804,1,0,0:0:0:0:
256,196,28023,1,8,0:0:0:0:
256,196,28242,1,8,0:0:0:0:
256,196,28351,1,8,0:0:0:0:
256,196,28461,1,0,0:0:0:0:
256,196,28680,1,8,0:0:0:0:
256,196,28899,1,0,0:0:0:0:
256,196,29118,1,0,0:0:0:0:
256,196,29337,1,8,0:0:0:0:
256,196,29556,1,8,0:0:0:0:
256,196,29775,1,0,0:0:0:0:
256,196,30651,1,0,0:0:0:0:
256,196,31088,1,0,0:0:0:0:
256,196,31307,1,0,0:0:0:0:
356,228,31526,1,8,0:0:0:0:
256,196,31964,1,0,0:0:0:0:
256,196,32183,1,8,0:0:0:0:
256,196,32402,1,8,0:0:0:0:
256,196,32840,1,0,0:0:0:0:
256,196,33278,1,8,0:0:0:0:
256,196,33935,1,0,0:0:0:0:
256,196,34154,1,8,0:0:0:0:
256,196,34592,1,8,0:0:0:0:
256,196,34811,1,8,0:0:0:0:
256,196,35030,1,0,0:0:0:0:
256,196,35249,1,0,0:0:0:0:
256,196,35468,1,8,0:0:0:0:
256,196,35687,1,8,0:0:0:0:
256,196,35906,1,8,0:0:0:0:
256,196,36125,1,0,0:0:0:0:
256,196,36344,1,0,0:0:0:0:
256,196,36563,1,8,0:0:0:0:
256,196,36782,1,8,0:0:0:0:
256,196,37001,1,0,0:0:0:0:
256,196,37220,1,8,0:0:0:0:
256,196,37439,1,8,0:0:0:0:
256,196,37658,1,4,0:0:0:0:
256,196,51234,5,0,0:0:0:0:
256,196,51453,1,0,0:0:0:0:
256,196,51672,1,12,0:0:0:0:
256,196,52548,1,0,0:0:0:0:
256,196,52877,1,8,0:0:0:0:
256,196,53205,1,8,0:0:0:0:
256,196,53424,1,0,0:0:0:0:
256,196,54081,1,8,0:0:0:0:
256,196,54738,1,0,0:0:0:0:
256,196,55176,1,8,0:0:0:0:
256,196,55833,1,8,0:0:0:0:
256,196,56271,1,0,0:0:0:0:
256,196,56490,1,8,0:0:0:0:
256,196,56928,1,8,0:0:0:0:
256,196,57366,1,0,0:0:0:0:
256,196,57804,1,0,0:0:0:0:
256,196,58242,1,8,0:0:0:0:
256,196,58461,1,8,0:0:0:0:
256,196,58570,1,8,0:0:0:0:
256,196,58680,1,0,0:0:0:0:
256,196,59556,1,0,0:0:0:0:
256,196,59884,1,8,0:0:0:0:
256,196,60213,1,8,0:0:0:0:
256,196,60432,1,0,0:0:0:0:
256,196,61088,1,0,0:0:0:0:
256,196,61745,1,8,0:0:0:0:
256,196,61964,1,0,0:0:0:0:
256,196,62183,1,8,0:0:0:0:
256,196,62621,1,0,0:0:0:0:
256,196,62840,1,0,0:0:0:0:
256,196,63497,1,8,0:0:0:0:
256,196,63935,1,8,0:0:0:0:
256,196,64373,1,0,0:0:0:0:
256,196,64811,1,0,0:0:0:0:
256,196,65249,1,8,0:0:0:0:
256,196,65468,1,8,0:0:0:0:
256,196,65578,1,8,0:0:0:0:
256,196,65687,1,0,0:0:0:0:
256,196,66125,1,8,0:0:0:0:
256,196,66344,1,0,0:0:0:0:
256,196,66563,1,0,0:0:0:0:
256,196,66891,1,0,0:0:0:0:
256,196,67220,1,8,0:0:0:0:
256,196,67439,1,0,0:0:0:0:
256,196,67658,1,8,0:0:0:0:
256,196,67877,1,8,0:0:0:0:
256,196,68315,1,8,0:0:0:0:
256,196,68643,1,0,0:0:0:0:
256,196,68972,1,0,0:0:0:0:
256,196,69191,1,8,0:0:0:0:
256,196,69629,1,8,0:0:0:0:
256,196,69848,1,0,0:0:0:0:
256,196,70067,1,0,0:0:0:0:
256,196,70395,1,8,0:0:0:0:
256,196,70724,1,8,0:0:0:0:
256,196,70942,1,0,0:0:0:0:
256,196,71271,1,8,0:0:0:0:
256,196,71599,1,0,0:0:0:0:
256,196,71818,1,0,0:0:0:0:
256,196,72256,1,8,0:0:0:0:
256,196,72475,1,0,0:0:0:0:
256,196,72694,1,8,0:0:0:0:
256,196,73132,1,0,0:0:0:0:
256,196,73570,1,8,0:0:0:0:
256,196,74008,1,8,0:0:0:0:
256,196,74227,1,0,0:0:0:0:
256,196,74446,1,0,0:0:0:0:
256,196,74884,1,0,0:0:0:0:
256,196,75322,1,8,0:0:0:0:
256,196,75541,1,0,0:0:0:0:
256,196,75760,1,8,0:0:0:0:
256,196,75979,1,0,0:0:0:0:
256,196,76088,1,0,0:0:0:0:
256,196,76198,1,8,0:0:0:0:
256,196,76417,1,0,0:0:0:0:
256,196,76636,1,0,0:0:0:0:
256,196,77074,1,8,0:0:0:0:
256,196,77293,1,8,0:0:0:0:
256,196,77512,1,0,0:0:0:0:
256,196,77950,1,0,0:0:0:0:
256,196,78388,1,0,0:0:0:0:
256,196,78826,1,8,0:0:0:0:
256,196,79045,1,0,0:0:0:0:
256,196,79154,1,0,0:0:0:0:
256,196,79264,1,8,0:0:0:0:
256,196,79483,1,0,0:0:0:0:
256,196,79702,1,4,0:0:0:0:
256,196,80030,1,8,0:0:0:0:
256,196,80140,1,0,0:0:0:0:
256,196,80359,1,8,0:0:0:0:
256,196,80578,1,0,0:0:0:0:
256,196,80687,1,8,0:0:0:0:
256,196,80797,1,0,0:0:0:0:
256,196,81015,1,8,0:0:0:0:
256,196,81234,1,8,0:0:0:0:
256,196,81453,1,0,0:0:0:0:
256,196,81782,1,8,0:0:0:0:
256,196,81891,1,0,0:0:0:0:
256,196,82110,1,0,0:0:0:0:
256,196,82329,1,8,0:0:0:0:
256,196,82439,1,0,0:0:0:0:
256,196,82548,1,0,0:0:0:0:
256,196,82767,1,8,0:0:0:0:
256,196,82986,1,0,0:0:0:0:
256,196,83205,1,8,0:0:0:0:
256,196,83643,1,8,0:0:0:0:
256,196,83862,1,0,0:0:0:0:
256,196,84081,1,8,0:0:0:0:
256,196,84410,1,0,0:0:0:0:
256,196,84519,1,8,0:0:0:0:
256,196,84738,1,8,0:0:0:0:
256,196,84957,1,0,0:0:0:0:
256,196,85176,1,0,0:0:0:0:
256,196,85286,1,8,0:0:0:0:
256,196,85395,1,0,0:0:0:0:
256,196,85614,1,8,0:0:0:0:
256,196,85833,1,0,0:0:0:0:
256,196,86052,1,0,0:0:0:0:
256,196,86161,1,0,0:0:0:0:
256,196,86271,1,8,0:0:0:0:
256,196,86490,1,8,0:0:0:0:
256,196,86709,1,0,0:0:0:0:
256,196,87037,1,8,0:0:0:0:
256,196,87147,1,0,0:0:0:0:
256,196,87366,1,8,0:0:0:0:
256,196,87585,1,0,0:0:0:0:
256,196,87694,1,8,0:0:0:0:
256,196,87804,1,0,0:0:0:0:
256,196,88023,1,8,0:0:0:0:
256,196,88242,1,8,0:0:0:0:
256,196,88461,1,0,0:0:0:0:
256,196,88789,1,8,0:0:0:0:
256,196,88899,1,0,0:0:0:0:
256,196,89118,1,0,0:0:0:0:
256,196,89337,1,8,0:0:0:0:
256,196,89556,1,0,0:0:0:0:
256,196,89665,1,0,0:0:0:0:
256,196,89775,1,8,0:0:0:0:
256,196,89994,1,0,0:0:0:0:
256,196,90213,1,8,0:0:0:0:
256,196,90432,1,8,0:0:0:0:
256,196,90651,1,0,0:0:0:0:
256,196,90760,1,8,0:0:0:0:
256,196,90869,1,0,0:0:0:0:
256,196,91088,1,8,0:0:0:0:
256,196,91307,1,0,0:0:0:0:
256,196,91417,1,8,0:0:0:0:
256,196,91636,1,8,0:0:0:0:
256,196,91745,1,0,0:0:0:0:
256,196,91964,1,8,0:0:0:0:
256,196,92293,1,0,0:0:0:0:
256,196,92621,1,0,0:0:0:0:
256,196,92840,1,8,0:0:0:0:
256,192,93059,5,8,0:0:0:0:
256,192,93169,1,2,0:0:0:0:
256,192,93278,1,2,0:0:0:0:
256,192,93388,1,2,0:0:0:0:
256,192,93497,1,0,0:0:0:0:
256,196,93716,5,12,0:0:0:0:
256,196,93935,1,0,0:0:0:0:
256,196,94045,1,0,0:0:0:0:
256,196,94154,1,8,0:0:0:0:
256,196,94373,1,0,0:0:0:0:
256,196,94592,1,8,0:0:0:0:
256,196,94811,1,8,0:0:0:0:
256,196,94921,1,8,0:0:0:0:
256,196,95030,1,0,0:0:0:0:
256,196,95140,1,0,0:0:0:0:
256,196,95249,1,0,0:0:0:0:
256,196,95359,1,0,0:0:0:0:
256,196,95468,1,8,0:0:0:0:
256,196,95687,1,0,0:0:0:0:
256,196,95906,1,8,0:0:0:0:
256,196,96125,1,0,0:0:0:0:
256,196,96344,1,8,0:0:0:0:
256,196,96563,1,8,0:0:0:0:
256,196,96672,1,0,0:0:0:0:
256,196,96782,1,0,0:0:0:0:
256,196,96891,1,8,0:0:0:0:
256,196,97001,1,8,0:0:0:0:
256,196,97110,1,0,0:0:0:0:
256,196,97220,1,8,0:0:0:0:
256,196,97439,1,0,0:0:0:0:
256,196,97548,1,0,0:0:0:0:
256,196,97658,1,8,0:0:0:0:
256,196,97877,1,0,0:0:0:0:
256,196,98096,1,8,0:0:0:0:
256,196,98315,1,8,0:0:0:0:
256,196,98424,1,8,0:0:0:0:
256,196,98534,1,0,0:0:0:0:
256,196,98643,1,8,0:0:0:0:
256,196,98753,1,0,0:0:0:0:
256,196,98862,1,0,0:0:0:0:
256,196,98972,1,8,0:0:0:0:
256,196,99191,1,0,0:0:0:0:
256,196,99410,1,8,0:0:0:0:
256,196,99629,1,8,0:0:0:0:
256,196,99848,1,0,0:0:0:0:
252,192,100067,1,8,0:0:0:0:
252,196,100176,1,0,0:0:0:0:
256,196,100286,1,0,0:0:0:0:
256,196,100395,1,8,0:0:0:0:
256,200,100505,1,0,0:0:0:0:
256,200,100614,1,0,0:0:0:0:
256,196,100724,1,8,0:0:0:0:
252,192,100942,1,0,0:0:0:0:
252,192,101161,1,8,0:0:0:0:
256,196,101380,1,8,0:0:0:0:
256,200,101599,1,8,0:0:0:0:
252,192,101818,1,0,0:0:0:0:
252,192,101928,1,0,0:0:0:0:
252,192,102037,1,8,0:0:0:0:
256,196,102256,1,8,0:0:0:0:
256,196,102366,1,8,0:0:0:0:
256,200,102475,1,8,0:0:0:0:
252,192,102694,1,0,0:0:0:0:
252,192,102913,1,8,0:0:0:0:
252,192,103132,1,8,0:0:0:0:
256,196,103351,1,0,0:0:0:0:
256,200,103570,1,0,0:0:0:0:
252,192,103680,1,0,0:0:0:0:
252,192,103789,1,8,0:0:0:0:
252,192,103899,1,8,0:0:0:0:
252,192,104008,1,0,0:0:0:0:
252,192,104118,1,0,0:0:0:0:
256,196,104227,1,8,0:0:0:0:
256,200,104446,1,0,0:0:0:0:
256,200,104556,1,0,0:0:0:0:
252,192,104665,1,8,0:0:0:0:
252,192,104884,1,8,0:0:0:0:
252,192,105103,1,0,0:0:0:0:
256,196,105322,1,8,0:0:0:0:
256,200,105432,1,8,0:0:0:0:
256,200,105541,1,8,0:0:0:0:
252,192,105760,1,8,0:0:0:0:
252,192,105869,1,8,0:0:0:0:
252,192,105979,1,0,0:0:0:0:
256,196,106198,1,8,0:0:0:0:
256,200,106417,1,8,0:0:0:0:
252,192,106636,1,0,0:0:0:0:
252,192,106855,1,8,0:0:0:0:
256,196,107074,1,8,0:0:0:0:
256,196,107183,1,8,0:0:0:0:
256,200,107293,1,8,0:0:0:0:
256,200,107402,1,8,0:0:0:0:
252,192,107512,1,0,0:0:0:0:
252,192,107731,1,12,0:0:0:0:
256,196,107950,1,0,0:0:0:0:
256,196,108169,1,8,0:0:0:0:
256,200,108388,1,8,0:0:0:0:
252,192,108607,1,8,0:0:0:0:
256,196,108826,1,0,0:0:0:0:
256,196,108935,1,0,0:0:0:0:
256,196,109045,1,8,0:0:0:0:
256,200,109264,1,0,0:0:0:0:
252,192,109483,1,8,0:0:0:0:
252,192,109592,1,8,0:0:0:0:
256,196,109702,1,8,0:0:0:0:
256,196,109921,1,8,0:0:0:0:
256,200,110140,1,0,0:0:0:0:
252,192,110359,1,8,0:0:0:0:
252,192,110578,1,8,0:0:0:0:
256,196,110687,1,8,0:0:0:0:
256,196,110797,1,0,0:0:0:0:
256,196,110906,1,0,0:0:0:0:
256,200,111015,1,8,0:0:0:0:
256,200,111125,1,8,0:0:0:0:
252,192,111234,1,0,0:0:0:0:
252,192,111453,1,8,0:0:0:0:
252,192,111563,1,8,0:0:0:0:
256,196,111672,1,8,0:0:0:0:
256,196,111891,1,0,0:0:0:0:
256,200,112110,1,8,0:0:0:0:
252,192,112220,1,8,0:0:0:0:
252,192,112329,1,0,0:0:0:0:
252,192,112439,1,0,0:0:0:0:
252,192,112548,1,8,0:0:0:0:
256,196,112767,1,8,0:0:0:0:
256,200,112986,1,0,0:0:0:0:
252,192,113205,1,8,0:0:0:0:
252,192,113315,1,8,0:0:0:0:
252,192,113424,1,0,0:0:0:0:
252,192,113534,1,0,0:0:0:0:
256,196,113643,1,8,0:0:0:0:
256,196,113753,1,8,0:0:0:0:
256,200,113862,1,8,0:0:0:0:
252,192,114081,1,0,0:0:0:0:
252,192,114191,1,0,0:0:0:0:
252,192,114300,1,8,0:0:0:0:
252,192,114410,1,8,0:0:0:0:
252,192,114519,1,8,0:0:0:0:
256,196,114629,1,8,0:0:0:0:
256,196,114738,1,0,0:0:0:0:
252,192,114957,1,8,0:0:0:0:
252,192,115067,1,8,0:0:0:0:
252,192,115176,1,0,0:0:0:0:
252,192,115395,1,8,0:0:0:0:
256,196,115614,1,0,0:0:0:0:
252,192,115833,1,0,0:0:0:0:
252,192,116052,1,8,0:0:0:0:
252,192,116161,1,8,0:0:0:0:
252,192,116271,1,0,0:0:0:0:
256,196,116490,1,8,0:0:0:0:
252,192,116709,1,0,0:0:0:0:
252,192,116928,1,8,0:0:0:0:
252,192,117147,1,8,0:0:0:0:
256,196,117366,1,0,0:0:0:0:
252,192,117585,1,8,0:0:0:0:
252,192,117694,1,8,0:0:0:0:
252,192,117804,1,8,0:0:0:0:
252,192,117913,1,8,0:0:0:0:
252,192,118023,1,0,0:0:0:0:
252,192,118132,1,0,0:0:0:0:
256,196,118242,1,8,0:0:0:0:
256,196,118461,1,0,0:0:0:0:
252,192,118570,1,0,0:0:0:0:
252,192,118680,1,8,0:0:0:0:
252,192,118899,1,0,0:0:0:0:
252,192,119118,1,8,0:0:0:0:
256,196,119337,1,8,0:0:0:0:
256,196,119446,1,8,0:0:0:0:
252,192,119556,1,0,0:0:0:0:
252,192,119665,1,0,0:0:0:0:
252,192,119775,1,8,0:0:0:0:
252,192,119884,1,8,0:0:0:0:
252,192,119994,1,8,0:0:0:0:
256,196,120213,1,0,0:0:0:0:
256,196,120322,1,0,0:0:0:0:
256,196,120432,1,8,0:0:0:0:
252,192,120651,1,8,0:0:0:0:
252,192,120869,1,0,0:0:0:0:
256,196,121088,1,8,0:0:0:0:
256,196,121198,1,8,0:0:0:0:
256,196,121307,1,0,0:0:0:0:
256,196,121417,1,0,0:0:0:0:
252,192,121526,1,8,0:0:0:0:
252,192,121745,1,4,0:0:0:0:
256,196,121964,1,0,0:0:0:0:
256,196,122183,1,8,0:0:0:0:
256,196,122402,1,0,0:0:0:0:
252,192,122512,1,0,0:0:0:0:
252,192,122621,1,8,0:0:0:0:
256,196,122950,1,0,0:0:0:0:
256,196,123059,1,8,0:0:0:0:
252,192,123278,1,8,0:0:0:0:
256,196,123497,1,0,0:0:0:0:
256,196,123716,1,8,0:0:0:0:
256,196,123826,1,8,0:0:0:0:
256,196,123935,1,8,0:0:0:0:
252,192,124154,1,0,0:0:0:0:
256,196,124373,1,8,0:0:0:0:
256,196,124702,1,8,0:0:0:0:
256,196,124811,1,0,0:0:0:0:
252,192,125030,1,8,0:0:0:0:
256,196,125249,1,0,0:0:0:0:
256,196,125468,1,0,0:0:0:0:
256,196,125687,1,8,0:0:0:0:
252,192,125906,1,0,0:0:0:0:
252,192,126015,1,0,0:0:0:0:
256,196,126125,1,8,0:0:0:0:
256,196,126453,1,0,0:0:0:0:
256,196,126563,1,8,0:0:0:0:
256,196,126782,1,0,0:0:0:0:
256,196,127001,1,0,0:0:0:0:
256,196,127220,1,8,0:0:0:0:
256,196,127329,1,8,0:0:0:0:
256,196,127439,1,0,0:0:0:0:
256,196,127548,1,0,0:0:0:0:
256,196,127658,1,8,0:0:0:0:
256,196,127877,1,0,0:0:0:0:
256,196,128205,1,0,0:0:0:0:
256,196,128315,1,8,0:0:0:0:
256,196,128534,1,0,0:0:0:0:
256,196,128753,1,8,0:0:0:0:
256,196,128972,1,0,0:0:0:0:
256,196,129191,1,8,0:0:0:0:
256,196,129410,1,8,0:0:0:0:
256,196,129519,1,8,0:0:0:0:
256,196,129629,1,0,0:0:0:0:
256,196,129957,1,0,0:0:0:0:
256,196,130067,1,8,0:0:0:0:
256,196,130286,1,8,0:0:0:0:
256,196,130505,1,0,0:0:0:0:
256,196,130724,1,8,0:0:0:0:
256,196,130833,1,8,0:0:0:0:
256,196,130942,1,0,0:0:0:0:
256,196,131161,1,0,0:0:0:0:
256,196,131380,1,8,0:0:0:0:
256,196,131709,1,8,0:0:0:0:
256,196,131818,1,0,0:0:0:0:
256,196,132037,1,0,0:0:0:0:
256,196,132147,1,0,0:0:0:0:
256,196,132256,1,8,0:0:0:0:
256,196,132475,1,0,0:0:0:0:
256,196,132694,1,8,0:0:0:0:
256,196,132913,1,8,0:0:0:0:
256,196,133132,1,0,0:0:0:0:
256,196,133351,1,0,0:0:0:0:
256,196,133461,1,0,0:0:0:0:
256,196,133570,1,8,0:0:0:0:
256,196,133680,1,8,0:0:0:0:
256,196,133789,1,8,0:0:0:0:
256,196,134227,1,0,0:0:0:0:
256,196,134446,1,0,0:0:0:0:
256,196,134884,1,8,0:0:0:0:
256,196,135213,1,8,0:0:0:0:
256,196,135541,1,0,0:0:0:0:
256,196,135760,1,8,0:0:0:0:
256,196,138388,1,0,0:0:0:0:
256,196,141891,1,0,0:0:0:0:
256,196,142767,1,8,0:0:0:0:
256,196,143643,1,8,0:0:0:0:
256,196,144081,1,8,0:0:0:0:
256,196,144519,1,0,0:0:0:0:
256,196,144957,1,8,0:0:0:0:
256,196,145176,1,8,0:0:0:0:
256,196,145614,1,0,0:0:0:0:
256,196,145833,1,0,0:0:0:0:
256,196,146052,1,0,0:0:0:0:
256,196,146271,1,8,0:0:0:0:
256,196,146599,1,8,0:0:0:0:
256,196,149775,1,0,0:0:0:0:
256,196,150651,1,0,0:0:0:0:
256,196,151088,1,8,0:0:0:0:
256,196,151526,1,8,0:0:0:0:
256,196,151964,1,8,0:0:0:0:
256,196,152183,1,8,0:0:0:0:
256,196,152621,1,0,0:0:0:0:
256,196,152840,1,0,0:0:0:0:
256,196,153059,1,0,0:0:0:0:
256,196,153278,1,8,0:0:0:0:
256,196,153607,1,8,0:0:0:0:
256,196,156125,1,8,0:0:0:0:
256,196,156344,1,8,0:0:0:0:
256,196,156563,1,8,0:0:0:0:
256,196,156782,1,0,0:0:0:0:
256,196,157001,1,0,0:0:0:0:
256,196,157110,1,0,0:0:0:0:
256,196,157220,1,0,0:0:0:0:
256,196,157439,1,0,0:0:0:0:
256,196,157658,1,8,0:0:0:0:
256,196,157877,1,0,0:0:0:0:
256,196,157986,1,8,0:0:0:0:
256,196,158096,1,0,0:0:0:0:
256,196,158315,1,8,0:0:0:0:
256,196,158534,1,0,0:0:0:0:
256,196,158753,1,8,0:0:0:0:
256,196,158972,1,0,0:0:0:0:
256,196,159191,1,0,0:0:0:0:
256,196,159410,1,8,0:0:0:0:
256,196,159629,1,0,0:0:0:0:
256,196,159738,1,0,0:0:0:0:
256,196,159848,1,8,0:0:0:0:
256,196,160067,1,8,0:0:0:0:
256,196,160286,1,0,0:0:0:0:
256,196,160505,1,8,0:0:0:0:
256,196,160724,1,8,0:0:0:0:
256,196,160942,1,0,0:0:0:0:
256,196,161161,1,8,0:0:0:0:
256,196,161380,1,0,0:0:0:0:
256,196,161490,1,0,0:0:0:0:
256,196,161599,1,8,0:0:0:0:
256,196,161818,1,8,0:0:0:0:
256,196,162037,1,8,0:0:0:0:
256,196,162256,1,8,0:0:0:0:
256,196,162366,1,0,0:0:0:0:
256,196,162475,1,8,0:0:0:0:
256,196,162694,1,0,0:0:0:0:
256,196,162913,1,0,0:0:0:0:
256,196,163132,1,8,0:0:0:0:
256,196,163351,1,8,0:0:0:0:
256,196,163789,1,0,0:0:0:0:
256,196,164008,1,8,0:0:0:0:
256,196,164227,1,8,0:0:0:0:
256,196,164446,1,0,0:0:0:0:
256,196,164665,1,8,0:0:0:0:
256,196,164884,1,0,0:0:0:0:
256,196,164994,1,8,0:0:0:0:
256,196,165103,1,0,0:0:0:0:
256,196,165322,1,8,0:0:0:0:
256,196,165541,1,0,0:0:0:0:
256,196,165760,1,8,0:0:0:0:
256,196,165979,1,8,0:0:0:0:
256,196,166198,1,0,0:0:0:0:
256,196,166417,1,8,0:0:0:0:
256,196,166636,1,8,0:0:0:0:
256,196,166745,1,0,0:0:0:0:
256,196,166855,1,8,0:0:0:0:
256,196,167074,1,8,0:0:0:0:
256,196,167293,1,0,0:0:0:0:
256,196,167512,1,8,0:0:0:0:
256,196,167731,1,8,0:0:0:0:
256,196,167950,1,0,0:0:0:0:
256,196,168169,1,8,0:0:0:0:
256,196,168388,1,8,0:0:0:0:
256,196,168497,1,0,0:0:0:0:
256,196,168607,1,0,0:0:0:0:
256,196,168826,1,8,0:0:0:0:
256,196,169045,1,0,0:0:0:0:
256,196,169264,1,8,0:0:0:0:
256,196,169483,1,8,0:0:0:0:
256,196,169702,1,0,0:0:0:0:
256,196,169921,1,8,0:0:0:0:
256,196,170140,1,8,0:0:0:0:
256,196,170359,1,8,0:0:0:0:
256,196,170578,1,8,0:0:0:0:
256,196,170797,1,8,0:0:0:0:
256,196,178680,5,0,0:0:0:0:
256,196,179337,5,0,0:0:0:0:
256,196,179556,1,8,0:0:0:0:
256,196,180213,1,0,0:0:0:0:
256,196,180432,1,8,0:0:0:0:
256,196,180869,1,8,0:0:0:0:
256,196,181088,1,0,0:0:0:0:
256,196,181307,1,8,0:0:0:0:
256,196,181526,1,0,0:0:0:0:
256,196,181745,1,8,0:0:0:0:
256,196,181964,1,8,0:0:0:0:
256,196,182183,1,0,0:0:0:0:
256,196,183059,1,8,0:0:0:0:
256,196,183716,1,0,0:0:0:0:
256,196,183935,1,8,0:0:0:0:
256,196,184373,1,8,0:0:0:0:
256,196,184592,1,0,0:0:0:0:
256,196,184811,1,8,0:0:0:0:
256,196,185030,1,0,0:0:0:0:
256,196,185249,1,0,0:0:0:0:
256,196,185468,1,8,0:0:0:0:
256,196,185687,1,8,0:0:0:0:
256,196,186563,1,8,0:0:0:0:
256,196,187001,1,8,0:0:0:0:
256,196,187439,1,8,0:0:0:0:
256,196,187877,1,0,0:0:0:0:
256,196,188096,1,0,0:0:0:0:
256,196,188315,1,0,0:0:0:0:
256,196,188424,1,12,0:0:0:0:
256,192,189629,12,0,191380,0:0:0:0:
256,192,191599,5,0,0:0:0:0:
256,192,191818,1,8,0:0:0:0:
256,192,192037,1,8,0:0:0:0:
256,192,192256,1,0,0:0:0:0:
256,192,192475,1,0,0:0:0:0:
256,192,192694,1,8,0:0:0:0:
256,192,192913,1,0,0:0:0:0:
256,192,193132,1,8,0:0:0:0:
256,192,193351,1,0,0:0:0:0:
256,192,193570,1,0,0:0:0:0:
256,192,193789,1,8,0:0:0:0:
256,192,193899,1,8,0:0:0:0:
256,192,194008,1,0,0:0:0:0:
256,192,194227,1,0,0:0:0:0:
256,192,194446,1,8,0:0:0:0:
256,192,194665,1,8,0:0:0:0:
256,192,194775,1,0,0:0:0:0:
256,192,194884,1,8,0:0:0:0:
256,192,194994,1,8,0:0:0:0:
256,192,195103,1,0,0:0:0:0:
256,192,195213,1,0,0:0:0:0:
256,192,195322,1,8,0:0:0:0:
256,192,195760,1,0,0:0:0:0:
256,192,195979,1,0,0:0:0:0:
256,192,196198,1,8,0:0:0:0:
256,192,196636,1,0,0:0:0:0:
256,192,196855,1,8,0:0:0:0:
256,192,197074,1,8,0:0:0:0:
256,192,197512,1,0,0:0:0:0:
256,192,197950,1,8,0:0:0:0:
256,192,198607,1,0,0:0:0:0:
256,192,198826,1,8,0:0:0:0:
256,192,199264,1,0,0:0:0:0:
256,192,199483,1,0,0:0:0:0:
256,192,199702,1,8,0:0:0:0:
256,192,199921,1,8,0:0:0:0:
256,192,200030,1,8,0:0:0:0:
256,192,200140,1,0,0:0:0:0:
256,192,200359,1,0,0:0:0:0:
256,192,200578,1,8,0:0:0:0:
256,192,200797,1,0,0:0:0:0:
256,192,201015,1,8,0:0:0:0:
256,192,201234,1,8,0:0:0:0:
256,192,201453,1,0,0:0:0:0:
256,192,201891,1,8,0:0:0:0:
256,192,202329,1,0,0:0:0:0:
256,192,202767,1,0,0:0:0:0:
256,192,202986,1,0,0:0:0:0:
256,192,203205,1,8,0:0:0:0:
256,192,203643,1,0,0:0:0:0:
256,192,203862,1,8,0:0:0:0:
256,192,204081,1,8,0:0:0:0:
256,192,204519,1,0,0:0:0:0:
256,192,204957,1,8,0:0:0:0:
256,192,205395,1,8,0:0:0:0:
256,192,205614,1,0,0:0:0:0:
256,192,205833,1,8,0:0:0:0:
256,192,206271,1,0,0:0:0:0:
256,192,206490,1,0,0:0:0:0:
256,192,206709,1,8,0:0:0:0:
256,192,206928,1,0,0:0:0:0:
256,192,207147,1,8,0:0:0:0:
256,192,207366,1,8,0:0:0:0:
256,192,207585,1,8,0:0:0:0:
256,192,207804,1,0,0:0:0:0:
256,192,208023,1,0,0:0:0:0:
256,192,208242,1,8,0:0:0:0:
256,192,208461,1,8,0:0:0:0:
256,192,209337,1,0,0:0:0:0:
256,192,209556,1,0,0:0:0:0:
256,192,209775,1,8,0:0:0:0:
256,192,209994,1,8,0:0:0:0:
256,192,210213,1,0,0:0:0:0:
256,192,210432,1,8,0:0:0:0:
256,192,210651,1,0,0:0:0:0:
256,192,210869,1,0,0:0:0:0:
256,192,211088,1,8,0:0:0:0:
256,192,211307,1,0,0:0:0:0:
256,192,211526,1,8,0:0:0:0:
256,192,211745,1,8,0:0:0:0:
256,192,211964,1,0,0:0:0:0:
256,192,212183,1,8,0:0:0:0:
256,192,212402,1,8,0:0:0:0:
256,192,212621,1,0,0:0:0:0:
256,192,212840,1,0,0:0:0:0:
256,192,213059,1,8,0:0:0:0:
256,192,213278,1,8,0:0:0:0:
256,192,213497,1,0,0:0:0:0:
256,192,213716,1,8,0:0:0:0:
256,192,213935,1,0,0:0:0:0:
256,192,214154,1,8,0:0:0:0:
256,192,214373,1,8,0:0:0:0:
256,192,214592,1,8,0:0:0:0:
256,192,214811,1,0,0:0:0:0:
256,192,215030,1,8,0:0:0:0:
256,192,215249,1,8,0:0:0:0:
256,192,215468,1,0,0:0:0:0:
256,192,215687,1,0,0:0:0:0:
256,192,215906,1,8,0:0:0:0:
256,192,216125,1,0,0:0:0:0:
256,192,216344,1,0,0:0:0:0:
256,192,216563,1,0,0:0:0:0:
256,192,216782,1,8,0:0:0:0:
256,192,217001,1,8,0:0:0:0:
256,192,217220,1,0,0:0:0:0:
256,192,217439,1,8,0:0:0:0:
256,192,217658,1,0,0:0:0:0:
256,192,217877,1,0,0:0:0:0:
256,192,218096,1,8,0:0:0:0:
256,192,218315,1,0,0:0:0:0:
256,192,218534,1,8,0:0:0:0:
256,192,218753,1,8,0:0:0:0:
256,192,218972,1,0,0:0:0:0:
256,192,219191,1,8,0:0:0:0:
256,192,219410,1,8,0:0:0:0:
256,192,219629,1,0,0:0:0:0:
256,192,219848,1,0,0:0:0:0:
256,192,220067,1,8,0:0:0:0:
256,192,220286,1,8,0:0:0:0:
256,192,220505,1,0,0:0:0:0:
256,192,220724,1,8,0:0:0:0:
256,192,220942,1,0,0:0:0:0:
256,192,221161,1,8,0:0:0:0:
256,192,221380,1,8,0:0:0:0:
256,192,221599,1,8,0:0:0:0:
256,192,221818,1,0,0:0:0:0:
256,192,222037,1,8,0:0:0:0:
256,192,222256,1,0,0:0:0:0:
256,192,222475,1,8,0:0:0:0:
256,192,222694,1,8,0:0:0:0:
256,192,222913,1,0,0:0:0:0:
256,192,223132,1,0,0:0:0:0:
256,196,223351,5,12,0:0:0:0:
256,196,224008,1,0,0:0:0:0:
256,196,224227,1,8,0:0:0:0:
256,196,224556,1,8,0:0:0:0:
256,196,224884,1,8,0:0:0:0:
256,196,225103,1,0,0:0:0:0:
256,196,225760,1,0,0:0:0:0:
256,196,226417,1,8,0:0:0:0:
256,196,226855,1,0,0:0:0:0:
256,196,227512,1,0,0:0:0:0:
256,196,228169,1,8,0:0:0:0:
256,196,228607,1,8,0:0:0:0:
256,196,229045,1,0,0:0:0:0:
256,196,229483,1,8,0:0:0:0:
256,196,229811,1,0,0:0:0:0:
256,196,229921,1,8,0:0:0:0:
256,196,230140,1,0,0:0:0:0:
256,196,230249,1,0,0:0:0:0:
256,196,230359,1,8,0:0:0:0:
256,196,231015,1,0,0:0:0:0:
256,196,231234,1,8,0:0:0:0:
256,196,231563,1,0,0:0:0:0:
256,196,231891,1,8,0:0:0:0:
256,196,232110,1,0,0:0:0:0:
256,196,232767,1,8,0:0:0:0:
256,196,233424,1,8,0:0:0:0:
256,196,233862,1,0,0:0:0:0:
256,196,234300,1,8,0:0:0:0:
256,196,234519,1,0,0:0:0:0:
256,196,234957,1,0,0:0:0:0:
256,196,235176,1,8,0:0:0:0:
256,196,235614,1,0,0:0:0:0:
256,196,236052,1,0,0:0:0:0:
256,196,236490,1,8,0:0:0:0:
256,196,236709,1,0,0:0:0:0:
256,196,236818,1,0,0:0:0:0:
256,196,236928,1,8,0:0:0:0:
256,196,237147,1,8,0:0:0:0:
256,196,237256,1,0,0:0:0:0:
256,196,237366,1,8,0:0:0:0:
256,196,237804,1,8,0:0:0:0:
256,196,238023,1,0,0:0:0:0:
256,196,238242,1,8,0:0:0:0:
256,196,238570,1,8,0:0:0:0:
256,196,238899,1,0,0:0:0:0:
256,196,239118,1,8,0:0:0:0:
256,196,239337,1,8,0:0:0:0:
256,196,239556,1,8,0:0:0:0:
256,196,239775,1,0,0:0:0:0:
256,196,239994,1,8,0:0:0:0:
256,196,240322,1,0,0:0:0:0:
256,196,240651,1,0,0:0:0:0:
256,196,240869,1,8,0:0:0:0:
256,196,241307,1,8,0:0:0:0:
256,196,241526,1,0,0:0:0:0:
256,196,241745,1,8,0:0:0:0:
256,196,242074,1,8,0:0:0:0:
256,196,242402,1,8,0:0:0:0:
256,196,242621,1,0,0:0:0:0:
256,196,242950,1,0,0:0:0:0:
256,196,243278,1,8,0:0:0:0:
256,196,243497,1,8,0:0:0:0:
256,196,243826,1,0,0:0:0:0:
256,196,243935,1,8,0:0:0:0:
256,196,244154,1,0,0:0:0:0:
256,196,244264,1,0,0:0:0:0:
256,196,244373,1,8,0:0:0:0:
256,196,244811,1,0,0:0:0:0:
256,196,245030,1,0,0:0:0:0:
256,196,245249,1,8,0:0:0:0:
256,196,245687,1,8,0:0:0:0:
256,196,245906,1,0,0:0:0:0:
256,196,246125,1,8,0:0:0:0:
256,196,246563,1,0,0:0:0:0:
256,196,246782,1,0,0:0:0:0:
256,196,247001,1,8,0:0:0:0:
256,196,247220,1,0,0:0:0:0:
256,196,247439,1,8,0:0:0:0:
256,196,247877,1,0,0:0:0:0:
256,196,248096,1,0,0:0:0:0:
256,196,248753,1,8,0:0:0:0:
256,196,248972,1,8,0:0:0:0:
256,196,249629,1,0,0:0:0:0:
256,196,250067,1,0,0:0:0:0:
256,196,250505,1,8,0:0:0:0:
256,196,250724,1,0,0:0:0:0:
256,196,250833,1,0,0:0:0:0:
256,196,250942,1,8,0:0:0:0:
256,196,251161,1,8,0:0:0:0:
256,196,251380,1,4,0:0:0:0:
256,196,251709,1,0,0:0:0:0:
256,196,252037,1,8,0:0:0:0:
256,196,252256,1,0,0:0:0:0:
256,196,252475,1,8,0:0:0:0:
256,196,252585,1,8,0:0:0:0:
256,196,252694,1,0,0:0:0:0:
256,196,252913,1,8,0:0:0:0:
256,196,253132,1,0,0:0:0:0:
256,196,253461,1,0,0:0:0:0:
256,196,253789,1,8,0:0:0:0:
256,196,254008,1,0,0:0:0:0:
256,196,254118,1,8,0:0:0:0:
256,196,254227,1,0,0:0:0:0:
256,196,254446,1,8,0:0:0:0:
256,196,254665,1,8,0:0:0:0:
256,196,254884,1,0,0:0:0:0:
256,196,255322,1,8,0:0:0:0:
256,196,255760,1,0,0:0:0:0:
256,196,256088,1,0,0:0:0:0:
256,196,256198,1,8,0:0:0:0:
256,196,256417,1,0,0:0:0:0:
256,196,256636,1,8,0:0:0:0:
256,196,256855,1,8,0:0:0:0:
256,196,257074,1,0,0:0:0:0:
256,196,257293,1,8,0:0:0:0:
256,196,257402,1,8,0:0:0:0:
256,196,257512,1,0,0:0:0:0:
256,196,257731,1,8,0:0:0:0:
256,196,257840,1,0,0:0:0:0:
256,196,258059,1,0,0:0:0:0:
256,196,258169,1,8,0:0:0:0:
256,196,258388,1,0,0:0:0:0:
256,196,258716,1,8,0:0:0:0:
256,196,259045,1,0,0:0:0:0:
256,196,259264,1,8,0:0:0:0:
256,196,259483,1,0,0:0:0:0:
256,196,259592,1,0,0:0:0:0:
256,196,259702,1,8,0:0:0:0:
256,196,259921,1,8,0:0:0:0:
256,196,260140,1,0,0:0:0:0:
256,196,260578,1,8,0:0:0:0:
256,196,260797,1,0,0:0:0:0:
256,196,261015,1,8,0:0:0:0:
256,196,261125,1,8,0:0:0:0:
256,196,261234,1,0,0:0:0:0:
256,196,261344,1,0,0:0:0:0:
256,196,261453,1,8,0:0:0:0:
256,196,261672,1,8,0:0:0:0:
256,196,261891,1,0,0:0:0:0:
256,196,262110,1,8,0:0:0:0:
256,196,262329,1,0,0:0:0:0:
256,196,262548,1,0,0:0:0:0:
256,196,262767,1,8,0:0:0:0:
256,196,262986,1,0,0:0:0:0:
256,196,263096,1,8,0:0:0:0:
256,196,263205,1,0,0:0:0:0:
256,196,263424,1,8,0:0:0:0:
256,196,263643,1,4,0:0:0:0:
256,196,263972,1,4,0:0:0:0:
256,196,264300,1,12,0:0:0:0:
256,196,264519,1,12,0:0:0:0:
256,196,264738,1,8,0:0:0:0:
256,196,264848,1,8,0:0:0:0:
256,196,264957,1,0,0:0:0:0:
256,196,265067,1,0,0:0:0:0:
256,196,265176,1,8,0:0:0:0:
256,196,265395,1,4,0:0:0:0:
256,196,265614,1,0,0:0:0:0:
256,196,265724,1,0,0:0:0:0:
256,196,265833,1,8,0:0:0:0:
256,196,266052,1,0,0:0:0:0:
256,196,266271,1,8,0:0:0:0:
256,196,266490,1,0,0:0:0:0:
256,196,266599,1,0,0:0:0:0:
256,196,266709,1,8,0:0:0:0:
256,196,266818,1,0,0:0:0:0:
256,196,266928,1,0,0:0:0:0:
256,196,267037,1,0,0:0:0:0:
256,196,267147,1,8,0:0:0:0:
256,196,267366,1,0,0:0:0:0:
256,196,267475,1,0,0:0:0:0:
256,196,267585,1,8,0:0:0:0:
256,196,267804,1,0,0:0:0:0:
256,196,268023,1,8,0:0:0:0:
256,196,268242,1,0,0:0:0:0:
256,196,268351,1,0,0:0:0:0:
256,196,268461,1,8,0:0:0:0:
256,196,268570,1,0,0:0:0:0:
256,196,268680,1,8,0:0:0:0:
256,196,268789,1,8,0:0:0:0:
256,196,268899,1,0,0:0:0:0:
256,196,269118,1,0,0:0:0:0:
256,196,269227,1,0,0:0:0:0:
256,196,269337,1,8,0:0:0:0:
256,196,269556,1,0,0:0:0:0:
256,196,269775,1,8,0:0:0:0:
256,196,269884,1,0,0:0:0:0:
256,196,269994,1,8,0:0:0:0:
256,196,270103,1,8,0:0:0:0:
256,196,270213,1,0,0:0:0:0:
256,196,270432,1,0,0:0:0:0:
256,196,270651,1,8,0:0:0:0:
256,196,270869,1,8,0:0:0:0:
256,196,270979,1,0,0:0:0:0:
256,196,271088,1,8,0:0:0:0:
256,196,271307,1,8,0:0:0:0:
256,196,271417,1,8,0:0:0:0:
256,196,271526,1,0,0:0:0:0:
256,196,271745,1,0,0:0:0:0:
256,196,271855,1,8,0:0:0:0:
256,196,271964,1,0,0:0:0:0:
256,196,272074,1,0,0:0:0:0:
256,196,272183,1,8,0:0:0:0:
256,196,272293,1,8,0:0:0:0:
256,196,272402,1,0,0:0:0:0:
256,196,272621,1,0,0:0:0:0:
256,196,272731,1,0,0:0:0:0:
256,196,272840,1,0,0:0:0:0:
256,196,273059,1,0,0:0:0:0:
256,196,273278,1,8,0:0:0:0:
256,196,273497,1,0,0:0:0:0:
256,196,273607,1,0,0:0:0:0:
256,196,273716,1,8,0:0:0:0:
256,196,273935,1,0,0:0:0:0:
256,196,274154,1,8,0:0:0:0:
256,196,274373,1,0,0:0:0:0:
256,196,274483,1,0,0:0:0:0:
256,196,274592,1,0,0:0:0:0:
256,196,274811,1,0,0:0:0:0:
256,196,275030,1,8,0:0:0:0:
256,196,275140,1,0,0:0:0:0:
256,196,275249,1,0,0:0:0:0:
256,196,275359,1,0,0:0:0:0:
256,196,275468,1,8,0:0:0:0:
256,196,275687,1,8,0:0:0:0:
256,196,275906,1,0,0:0:0:0:
256,196,276125,1,0,0:0:0:0:
256,196,276234,1,0,0:0:0:0:
256,196,276344,1,8,0:0:0:0:
256,196,276563,1,8,0:0:0:0:
256,196,276672,1,8,0:0:0:0:
256,196,276782,1,0,0:0:0:0:
256,196,277001,1,0,0:0:0:0:
256,196,277110,1,0,0:0:0:0:
256,196,277220,1,8,0:0:0:0:
256,196,277439,1,8,0:0:0:0:
256,196,277658,1,8,0:0:0:0:
256,196,277877,1,0,0:0:0:0:
256,196,277986,1,0,0:0:0:0:
256,196,278096,1,0,0:0:0:0:
256,196,278315,1,0,0:0:0:0:
256,196,278534,1,8,0:0:0:0:
256,196,278753,1,0,0:0:0:0:
256,196,278862,1,0,0:0:0:0:
256,196,278972,1,8,0:0:0:0:
256,196,279081,1,0,0:0:0:0:
256,196,279191,1,8,0:0:0:0:
256,196,279410,1,4,0:0:0:0:
256,196,279738,1,0,0:0:0:0:
256,196,279848,1,8,0:0:0:0:
256,196,280067,1,0,0:0:0:0:
256,196,280176,1,0,0:0:0:0:
256,196,280286,1,8,0:0:0:0:
256,196,280505,1,0,0:0:0:0:
256,196,280614,1,8,0:0:0:0:
256,196,280724,1,0,0:0:0:0:
256,196,280833,1,0,0:0:0:0:
256,196,280942,1,8,0:0:0:0:
256,196,281052,1,0,0:0:0:0:
256,196,281161,1,8,0:0:0:0:
256,196,281380,1,0,0:0:0:0:
256,196,281490,1,0,0:0:0:0:
256,196,281599,1,8,0:0:0:0:
256,196,281818,1,0,0:0:0:0:
256,196,282037,1,8,0:0:0:0:
256,196,282256,1,0,0:0:0:0:
256,196,282366,1,8,0:0:0:0:
256,196,282475,1,0,0:0:0:0:
256,196,282585,1,0,0:0:0:0:
256,196,282694,1,8,0:0:0:0:
256,196,282804,1,8,0:0:0:0:
256,196,282913,1,0,0:0:0:0:
256,196,283132,1,0,0:0:0:0:
256,196,283242,1,0,0:0:0:0:
256,196,283351,1,8,0:0:0:0:
256,196,283570,1,0,0:0:0:0:
256,196,283789,1,8,0:0:0:0:
256,196,284008,1,8,0:0:0:0:
256,196,284118,1,8,0:0:0:0:
256,196,284227,1,0,0:0:0:0:
256,196,284446,1,8,0:0:0:0:
256,196,284665,1,0,0:0:0:0:
256,196,284884,1,8,0:0:0:0:
256,196,284994,1,0,0:0:0:0:
256,196,285103,1,8,0:0:0:0:
256,196,285322,1,8,0:0:0:0:
256,196,285432,1,8,0:0:0:0:
256,196,285541,1,0,0:0:0:0:
256,196,285760,1,0,0:0:0:0:
256,196,285869,1,0,0:0:0:0:
256,196,285979,1,8,0:0:0:0:
256,196,286088,1,8,0:0:0:0:
256,196,286198,1,8,0:0:0:0:
256,196,286307,1,8,0:0:0:0:
256,196,286417,1,0,0:0:0:0:
256,196,286636,1,0,0:0:0:0:
256,196,286745,1,0,0:0:0:0:
256,196,286855,1,8,0:0:0:0:
256,196,287074,1,0,0:0:0:0:
256,196,287293,1,8,0:0:0:0:
256,196,287512,1,0,0:0:0:0:
256,196,287621,1,8,0:0:0:0:
256,196,287731,1,0,0:0:0:0:
256,196,287950,1,0,0:0:0:0:
256,196,288169,1,8,0:0:0:0:
256,196,288388,1,8,0:0:0:0:
256,196,288497,1,8,0:0:0:0:
256,196,288607,1,0,0:0:0:0:
256,196,288826,1,0,0:0:0:0:
256,196,289045,1,8,0:0:0:0:
256,196,289264,1,0,0:0:0:0:
256,196,289373,1,8,0:0:0:0:
256,196,289483,1,0,0:0:0:0:
256,196,289592,1,0,0:0:0:0:
256,196,289702,1,8,0:0:0:0:
256,196,289921,1,0,0:0:0:0:
256,196,290140,1,8,0:0:0:0:
256,196,290249,1,0,0:0:0:0:
256,196,290359,1,8,0:0:0:0:
256,196,290578,1,8,0:0:0:0:
256,196,290797,1,0,0:0:0:0:
256,196,291015,1,0,0:0:0:0:
256,196,291125,1,8,0:0:0:0:
256,196,291234,1,0,0:0:0:0:
256,196,291453,1,0,0:0:0:0:
256,196,291672,1,8,0:0:0:0:
256,196,291891,1,0,0:0:0:0:
256,196,292001,1,0,0:0:0:0:
256,196,292110,1,8,0:0:0:0:
256,196,292329,1,0,0:0:0:0:
256,196,292548,1,8,0:0:0:0:
256,196,292767,1,8,0:0:0:0:
256,196,292877,1,0,0:0:0:0:
256,196,292986,1,8,0:0:0:0:
256,196,293096,1,8,0:0:0:0:
256,196,293205,1,8,0:0:0:0:
256,196,293424,5,4,0:0:0:0:
256,196,293643,1,8,0:0:0:0:
256,196,293753,1,8,0:0:0:0:
256,196,293862,1,8,0:0:0:0:
256,196,294081,1,0,0:0:0:0:
256,196,294300,1,8,0:0:0:0:
256,196,294519,1,8,0:0:0:0:
256,196,294629,1,8,0:0:0:0:
256,196,294738,1,0,0:0:0:0:
256,196,294848,1,0,0:0:0:0:
256,196,294957,1,8,0:0:0:0:
256,196,295067,1,8,0:0:0:0:
256,196,295176,1,8,0:0:0:0:
256,196,295395,1,0,0:0:0:0:
256,196,295614,1,8,0:0:0:0:
256,196,295833,1,0,0:0:0:0:
256,196,295942,1,0,0:0:0:0:
256,196,296052,1,8,0:0:0:0:
256,196,296271,1,0,0:0:0:0:
256,196,296380,1,0,0:0:0:0:
256,196,296490,1,8,0:0:0:0:
256,196,296599,1,0,0:0:0:0:
256,196,296709,1,8,0:0:0:0:
256,196,296818,1,8,0:0:0:0:
256,196,296928,1,0,0:0:0:0:
256,196,297147,1,0,0:0:0:0:
256,196,297366,1,8,0:0:0:0:
256,196,297585,1,0,0:0:0:0:
256,196,297804,1,8,0:0:0:0:
256,196,298023,1,8,0:0:0:0:
256,196,298132,1,8,0:0:0:0:
256,196,298242,1,0,0:0:0:0:
256,196,298351,1,0,0:0:0:0:
256,196,298461,1,8,0:0:0:0:
256,196,298680,1,0,0:0:0:0:
256,196,298899,1,0,0:0:0:0:
256,196,299118,1,8,0:0:0:0:
256,196,299337,1,8,0:0:0:0:
256,196,299556,1,0,0:0:0:0:
256,196,299775,1,8,0:0:0:0:
256,196,299884,1,8,0:0:0:0:
256,196,299994,1,0,0:0:0:0:
256,196,300103,1,0,0:0:0:0:
256,196,300213,1,8,0:0:0:0:
256,196,300322,1,0,0:0:0:0:
256,196,300432,1,8,0:0:0:0:
256,196,300651,1,0,0:0:0:0:
256,196,300760,1,0,0:0:0:0:
256,196,300869,1,8,0:0:0:0:
256,196,301088,1,8,0:0:0:0:
256,196,301307,1,0,0:0:0:0:
256,196,301526,1,8,0:0:0:0:
256,196,301636,1,8,0:0:0:0:
256,196,301745,1,8,0:0:0:0:
256,196,301964,1,8,0:0:0:0:
256,196,302074,1,8,0:0:0:0:
256,196,302183,1,0,0:0:0:0:
256,196,302402,1,0,0:0:0:0:
256,196,302621,1,8,0:0:0:0:
256,196,302840,1,0,0:0:0:0:
256,196,303059,1,8,0:0:0:0:
256,196,303278,1,0,0:0:0:0:
256,196,303388,1,0,0:0:0:0:
256,196,303497,1,8,0:0:0:0:
256,196,303607,1,8,0:0:0:0:
256,196,303716,1,0,0:0:0:0:
256,196,303935,1,8,0:0:0:0:
256,196,304154,1,0,0:0:0:0:
256,196,304264,1,0,0:0:0:0:
256,196,304373,1,8,0:0:0:0:
256,196,304592,1,8,0:0:0:0:
256,196,304811,1,0,0:0:0:0:
256,196,305030,1,8,0:0:0:0:
256,196,305140,1,8,0:0:0:0:
256,196,305249,1,0,0:0:0:0:
256,196,305359,1,8,0:0:0:0:
256,196,305468,1,0,0:0:0:0:
256,196,305578,1,0,0:0:0:0:
256,196,305687,1,8,0:0:0:0:
256,196,305906,1,8,0:0:0:0:
256,196,306015,1,8,0:0:0:0:
256,196,306125,1,8,0:0:0:0:
256,196,306344,1,0,0:0:0:0:
256,196,306563,1,8,0:0:0:0:
256,196,306782,1,8,0:0:0:0:
256,196,306891,1,8,0:0:0:0:
256,196,307001,1,8,0:0:0:0:
256,196,307110,1,8,0:0:0:0:
256,196,307220,1,0,0:0:0:0:
256,196,307439,1,12,0:0:0:0:
256,196,307658,1,0,0:0:0:0:
256,196,307767,1,0,0:0:0:0:
256,196,307877,1,8,0:0:0:0:
256,196,308096,1,8,0:0:0:0:
256,196,308205,1,8,0:0:0:0:
256,196,308315,1,0,0:0:0:0:
256,196,308534,1,0,0:0:0:0:
256,196,308753,1,8,0:0:0:0:
256,196,308862,1,8,0:0:0:0:
256,196,308972,1,8,0:0:0:0:
256,196,309191,1,0,0:0:0:0:
256,196,309410,1,8,0:0:0:0:
256,196,309629,1,8,0:0:0:0:
256,196,309848,1,0,0:0:0:0:
256,196,309957,1,0,0:0:0:0:
256,196,310067,1,8,0:0:0:0:
256,196,310286,1,8,0:0:0:0:
256,196,310395,1,8,0:0:0:0:
256,196,310505,1,0,0:0:0:0:
256,196,310614,1,0,0:0:0:0:
256,196,310724,1,8,0:0:0:0:
256,196,310833,1,8,0:0:0:0:
256,196,310942,1,0,0:0:0:0:
256,196,311161,1,8,0:0:0:0:
256,196,311271,1,8,0:0:0:0:
256,196,311380,1,8,0:0:0:0:
256,196,311599,1,8,0:0:0:0:
256,196,311818,1,0,0:0:0:0:
256,196,312037,1,8,0:0:0:0:
256,196,312147,1,8,0:0:0:0:
256,196,312256,1,0,0:0:0:0:
256,196,312366,1,0,0:0:0:0:
256,196,312475,1,8,0:0:0:0:
256,196,312694,1,0,0:0:0:0:
256,196,312913,1,8,0:0:0:0:
256,196,313132,1,8,0:0:0:0:
256,196,313351,1,0,0:0:0:0:
256,196,313461,1,0,0:0:0:0:
256,196,313570,1,8,0:0:0:0:
256,196,313680,1,8,0:0:0:0:
256,196,313789,1,0,0:0:0:0:
256,196,313899,1,8,0:0:0:0:
256,196,314008,1,0,0:0:0:0:
256,196,314118,1,0,0:0:0:0:
256,196,314227,1,8,0:0:0:0:
256,196,314337,1,8,0:0:0:0:
256,196,314446,1,0,0:0:0:0:
256,196,314665,1,8,0:0:0:0:
256,196,314775,1,8,0:0:0:0:
256,196,314884,1,0,0:0:0:0:
256,196,315103,1,8,0:0:0:0:
256,196,315322,1,0,0:0:0:0:
256,196,315541,1,8,0:0:0:0:
256,196,315651,1,8,0:0:0:0:
256,196,315760,1,0,0:0:0:0:
256,196,315869,1,0,0:0:0:0:
256,196,315979,1,8,0:0:0:0:
256,196,316198,1,8,0:0:0:0:
256,196,316417,1,0,0:0:0:0:
256,196,316526,1,0,0:0:0:0:
256,196,316636,1,8,0:0:0:0:
256,196,316855,1,0,0:0:0:0:
256,196,317074,1,8,0:0:0:0:
256,196,317293,1,0,0:0:0:0:
256,196,317402,1,0,0:0:0:0:
256,196,317512,1,8,0:0:0:0:
256,196,317621,1,8,0:0:0:0:
256,196,317731,1,0,0:0:0:0:
256,196,317840,1,0,0:0:0:0:
256,196,317950,1,8,0:0:0:0:
256,196,318169,1,8,0:0:0:0:
256,196,318388,1,0,0:0:0:0:
256,196,318607,1,8,0:0:0:0:
256,196,318716,1,8,0:0:0:0:
256,196,318826,1,0,0:0:0:0:
256,196,319045,1,0,0:0:0:0:
256,196,319154,1,0,0:0:0:0:
256,196,319264,1,8,0:0:0:0:
256,196,319373,1,0,0:0:0:0:
256,196,319483,1,8,0:0:0:0:
256,196,319592,1,8,0:0:0:0:
256,196,319702,1,0,0:0:0:0:
256,196,319921,1,8,0:0:0:0:
256,196,320030,1,8,0:0:0:0:
256,196,320140,1,8,0:0:0:0:
256,196,320359,1,0,0:0:0:0:
256,196,320468,1,0,0:0:0:0:
256,196,320578,1,8,0:0:0:0:
256,196,320687,1,0,0:0:0:0:
256,196,320797,1,8,0:0:0:0:
256,196,320906,1,8,0:0:0:0:
256,196,321015,1,0,0:0:0:0:
256,196,321125,1,0,0:0:0:0:
256,196,321234,1,8,0:0:0:0:
256,196,321453,1,0,0:0:0:0:
256,196,321672,1,8,0:0:0:0:
256,196,321782,1,8,0:0:0:0:
256,196,321891,1,8,0:0:0:0:
256,196,322110,1,0,0:0:0:0:
256,196,322329,1,8,0:0:0:0:
256,196,322439,1,8,0:0:0:0:
256,196,322548,1,0,0:0:0:0:
256,196,322658,1,0,0:0:0:0:
256,196,322767,1,8,0:0:0:0:
256,196,322877,1,0,0:0:0:0:
256,196,322986,1,8,0:0:0:0:
256,196,323096,1,8,0:0:0:0:
256,196,323205,1,0,0:0:0:0:
256,196,323424,1,8,0:0:0:0:
256,196,323534,1,8,0:0:0:0:
256,196,323643,1,0,0:0:0:0:
256,196,323862,1,8,0:0:0:0:
256,196,323972,1,8,0:0:0:0:
256,196,324081,1,0,0:0:0:0:
256,196,324300,1,8,0:0:0:0:
256,196,324410,1,8,0:0:0:0:
256,196,324519,1,0,0:0:0:0:
256,196,324738,1,8,0:0:0:0:
256,196,324848,1,8,0:0:0:0:
256,196,324957,1,0,0:0:0:0:
256,32,325175,2,4,L|313:29,16,52.5000020027161
256,196,327146,1,0,0:0:0:0:
256,196,327365,1,8,0:0:0:0:
256,196,327475,1,0,0:0:0:0:
256,196,327584,1,8,0:0:0:0:
256,196,327803,1,8,0:0:0:0:
256,196,328022,1,0,0:0:0:0:
256,196,328241,1,8,0:0:0:0:
256,196,328351,1,8,0:0:0:0:
256,196,328460,1,8,0:0:0:0:
256,196,328570,1,8,0:0:0:0:
256,196,328679,1,8,0:0:0:0:
256,196,328898,1,4,0:0:0:0:
256,196,329116,1,0,0:0:0:0:
256,196,329335,1,8,0:0:0:0:
256,196,329554,1,8,0:0:0:0:
256,196,329773,1,0,0:0:0:0:
256,196,329992,1,0,0:0:0:0:
256,196,330102,1,8,0:0:0:0:
256,196,330211,1,0,0:0:0:0:
256,196,330430,1,8,0:0:0:0:
256,196,330540,1,0,0:0:0:0:
256,196,330649,1,0,0:0:0:0:
256,196,330868,1,0,0:0:0:0:
256,196,331087,1,8,0:0:0:0:
256,196,331306,1,0,0:0:0:0:
256,196,331525,1,8,0:0:0:0:
256,196,331744,1,0,0:0:0:0:
256,196,331854,1,8,0:0:0:0:
256,196,331963,1,0,0:0:0:0:
256,196,332073,1,8,0:0:0:0:
256,196,332182,1,8,0:0:0:0:
256,196,332292,1,8,0:0:0:0:
256,196,332401,1,0,0:0:0:0:
256,196,332620,1,0,0:0:0:0:
256,196,332839,1,8,0:0:0:0:
256,196,333058,1,0,0:0:0:0:
256,196,333277,1,8,0:0:0:0:
256,196,333496,1,0,0:0:0:0:
256,196,333606,1,8,0:0:0:0:
256,196,333715,1,8,0:0:0:0:
256,196,333825,1,8,0:0:0:0:
256,196,333934,1,0,0:0:0:0:
256,196,334043,1,0,0:0:0:0:
256,196,334153,1,8,0:0:0:0:
256,196,334372,1,0,0:0:0:0:
256,196,334591,1,8,0:0:0:0:
256,196,334810,1,8,0:0:0:0:
256,196,335029,1,8,0:0:0:0:
256,196,335248,1,0,0:0:0:0:
256,196,335357,1,8,0:0:0:0:
256,196,335467,1,0,0:0:0:0:
256,196,335576,1,0,0:0:0:0:
256,196,335686,1,8,0:0:0:0:
256,196,335795,1,8,0:0:0:0:
256,196,335905,1,0,0:0:0:0:
256,196,336124,1,0,0:0:0:0:
256,196,336233,1,0,0:0:0:0:
256,196,336343,1,8,0:0:0:0:
256,196,336562,1,8,0:0:0:0:
256,196,336781,1,0,0:0:0:0:
256,196,337000,1,8,0:0:0:0:
256,196,337109,1,0,0:0:0:0:
256,196,337219,1,8,0:0:0:0:
256,196,337438,1,0,0:0:0:0:
256,196,337657,1,8,0:0:0:0:
256,196,337876,1,0,0:0:0:0:
256,196,337985,1,0,0:0:0:0:
256,196,338095,1,8,0:0:0:0:
256,196,338314,1,8,0:0:0:0:
256,196,338533,1,0,0:0:0:0:
256,196,338752,1,0,0:0:0:0:
256,196,338970,1,8,0:0:0:0:
256,196,339080,1,0,0:0:0:0:
256,196,339189,1,8,0:0:0:0:
256,196,339299,1,8,0:0:0:0:
256,196,339408,1,0,0:0:0:0:
256,196,339627,1,8,0:0:0:0:
256,196,339737,1,8,0:0:0:0:
256,196,339846,1,0,0:0:0:0:
256,196,340065,1,0,0:0:0:0:
256,196,340175,1,0,0:0:0:0:
256,196,340284,1,8,0:0:0:0:
256,196,340503,1,0,0:0:0:0:
256,196,340722,1,8,0:0:0:0:
256,196,340832,1,8,0:0:0:0:
256,196,340941,1,0,0:0:0:0:
256,196,341051,1,8,0:0:0:0:
256,196,341160,1,0,0:0:0:0:
256,196,341379,1,0,0:0:0:0:
256,196,341489,1,0,0:0:0:0:
256,196,341598,1,8,0:0:0:0:
256,196,341817,1,8,0:0:0:0:
256,196,342036,1,0,0:0:0:0:
256,196,342255,1,0,0:0:0:0:
256,196,342365,1,8,0:0:0:0:
256,196,342474,1,8,0:0:0:0:
256,196,342584,1,0,0:0:0:0:
256,196,342693,1,8,0:0:0:0:
256,196,342803,1,8,0:0:0:0:
256,196,342912,1,0,0:0:0:0:
256,196,343131,1,0,0:0:0:0:
256,196,343241,1,0,0:0:0:0:
256,196,343350,1,8,0:0:0:0:
256,196,343569,1,0,0:0:0:0:
256,196,343788,1,8,0:0:0:0:
256,196,344007,1,0,0:0:0:0:
256,196,344116,1,8,0:0:0:0:
256,196,344335,1,0,0:0:0:0:
256,196,344445,1,8,0:0:0:0:
256,196,344664,1,8,0:0:0:0:
256,196,344883,1,0,0:0:0:0:
256,196,344992,1,0,0:0:0:0:
256,196,345102,1,8,0:0:0:0:
256,196,345321,1,0,0:0:0:0:
256,196,345540,1,8,0:0:0:0:
256,196,345759,1,0,0:0:0:0:
256,196,345868,1,8,0:0:0:0:
256,196,345978,1,0,0:0:0:0:
256,196,346197,1,8,0:0:0:0:
256,196,346416,1,0,0:0:0:0:
256,196,346635,1,0,0:0:0:0:
256,196,346744,1,0,0:0:0:0:
256,196,346854,1,8,0:0:0:0:
256,196,347073,1,0,0:0:0:0:
256,196,347292,1,8,0:0:0:0:
256,196,347511,1,0,0:0:0:0:
256,196,347620,1,8,0:0:0:0:
256,196,347839,1,0,0:0:0:0:
256,196,347949,1,8,0:0:0:0:
256,196,348168,1,0,0:0:0:0:
256,196,348387,1,8,0:0:0:0:
256,196,348606,1,8,0:0:0:0:
256,196,348825,1,0,0:0:0:0:
256,196,349043,1,8,0:0:0:0:
256,196,349262,1,0,0:0:0:0:
256,196,349372,1,8,0:0:0:0:
256,196,349481,1,8,0:0:0:0:
256,196,349700,1,8,0:0:0:0:
256,196,349810,1,0,0:0:0:0:
256,196,349919,1,8,0:0:0:0:
256,196,350138,1,0,0:0:0:0:
256,196,350357,1,8,0:0:0:0:
256,196,350576,1,0,0:0:0:0:
256,196,350795,1,8,0:0:0:0:
256,196,351014,1,0,0:0:0:0:
256,196,351124,1,8,0:0:0:0:
256,196,351343,1,0,0:0:0:0:
256,196,351452,1,8,0:0:0:0:
256,196,351671,1,0,0:0:0:0:
256,196,351890,1,0,0:0:0:0:
256,196,352000,1,0,0:0:0:0:
256,196,352109,1,8,0:0:0:0:
256,196,352328,1,0,0:0:0:0:
256,196,352547,1,8,0:0:0:0:
256,196,352766,1,0,0:0:0:0:
256,196,352876,1,8,0:0:0:0:
256,196,352985,1,0,0:0:0:0:
256,196,353204,1,8,0:0:0:0:
256,196,353423,1,8,0:0:0:0:
256,196,353642,1,0,0:0:0:0:
256,196,353752,1,0,0:0:0:0:
256,196,353861,1,8,0:0:0:0:
256,196,354080,1,8,0:0:0:0:
256,196,354299,1,0,0:0:0:0:
256,196,354518,1,0,0:0:0:0:
256,196,354627,1,0,0:0:0:0:
256,196,354737,1,8,0:0:0:0:
256,196,354956,1,8,0:0:0:0:
256,196,355175,1,0,0:0:0:0:
256,196,355394,1,8,0:0:0:0:
256,196,355503,1,8,0:0:0:0:
256,196,355613,1,8,0:0:0:0:
256,196,355832,1,0,0:0:0:0:
256,196,356051,1,8,0:0:0:0:
256,196,356270,1,0,0:0:0:0:
256,196,356379,1,0,0:0:0:0:
256,196,356489,1,8,0:0:0:0:
256,196,356598,1,8,0:0:0:0:
256,196,356708,1,8,0:0:0:0:
256,196,356817,1,8,0:0:0:0:
256,192,357365,12,0,358898,0:0:0:0:
256,192,365138,5,0,0:0:0:0:
256,192,365795,5,0,0:0:0:0:
256,192,366014,1,8,0:0:0:0:
256,192,366671,1,0,0:0:0:0:
256,192,366890,1,8,0:0:0:0:
256,192,367328,1,8,0:0:0:0:
256,192,367547,1,0,0:0:0:0:
256,192,367766,1,8,0:0:0:0:
256,192,367985,1,0,0:0:0:0:
256,192,368204,1,8,0:0:0:0:
256,192,368423,1,8,0:0:0:0:
256,192,368642,1,0,0:0:0:0:
256,192,369518,1,8,0:0:0:0:
256,192,370175,1,0,0:0:0:0:
256,192,370394,1,8,0:0:0:0:
256,192,370831,1,8,0:0:0:0:
256,192,371050,1,0,0:0:0:0:
256,192,371269,1,8,0:0:0:0:
256,192,371488,1,8,0:0:0:0:
256,192,371707,1,0,0:0:0:0:
256,192,371926,1,0,0:0:0:0:
256,192,372145,1,8,0:0:0:0:
256,192,372364,1,0,0:0:0:0:
256,192,372474,1,0,0:0:0:0:
256,192,372583,1,8,0:0:0:0:
256,192,372802,1,8,0:0:0:0:
256,192,372912,1,0,0:0:0:0:
256,192,373021,1,8,0:0:0:0:
256,192,373459,1,8,0:0:0:0:
256,192,373678,1,8,0:0:0:0:
256,192,373897,1,8,0:0:0:0:
256,192,374335,1,0,0:0:0:0:
256,192,374554,1,0,0:0:0:0:
256,192,374773,1,8,0:0:0:0:
256,192,374992,1,0,0:0:0:0:
256,192,375211,1,0,0:0:0:0:
256,192,375430,1,0,0:0:0:0:
256,192,375649,1,8,0:0:0:0:
256,192,375868,1,0,0:0:0:0:
256,192,375977,1,0,0:0:0:0:
256,192,376087,1,8,0:0:0:0:
256,192,376306,1,8,0:0:0:0:
256,196,379810,5,0,0:0:0:0:
256,196,380029,1,0,0:0:0:0:
256,196,380248,1,8,0:0:0:0:
256,196,380467,1,8,0:0:0:0:
256,196,380686,1,0,0:0:0:0:
256,196,380904,1,8,0:0:0:0:
256,196,381123,1,0,0:0:0:0:
256,196,381342,1,0,0:0:0:0:
256,196,381561,1,8,0:0:0:0:
256,196,381780,1,8,0:0:0:0:
256,196,381999,1,8,0:0:0:0:
256,196,382109,1,8,0:0:0:0:
256,196,382218,1,0,0:0:0:0:
256,196,382437,1,0,0:0:0:0:
256,196,382656,1,8,0:0:0:0:
256,196,382875,1,8,0:0:0:0:
256,196,382985,1,8,0:0:0:0:
256,196,383094,1,8,0:0:0:0:
256,196,383204,1,8,0:0:0:0:
256,196,383313,1,0,0:0:0:0:
256,196,383532,1,8,0:0:0:0:
256,196,383970,1,0,0:0:0:0:
256,196,384189,1,0,0:0:0:0:
256,196,384408,1,8,0:0:0:0:
256,196,384846,1,0,0:0:0:0:
256,196,385065,1,8,0:0:0:0:
256,196,385284,1,8,0:0:0:0:
256,196,385722,1,0,0:0:0:0:
256,196,386160,1,8,0:0:0:0:
256,196,386817,1,8,0:0:0:0:
256,196,387036,1,8,0:0:0:0:
256,196,387474,1,8,0:0:0:0:
256,196,387693,1,0,0:0:0:0:
256,196,387912,1,8,0:0:0:0:
256,196,388131,1,8,0:0:0:0:
256,196,388240,1,8,0:0:0:0:
256,196,388350,1,0,0:0:0:0:
256,196,388569,1,8,0:0:0:0:
256,196,388788,1,0,0:0:0:0:
256,196,389007,1,8,0:0:0:0:
256,196,389226,1,8,0:0:0:0:
256,196,389445,1,8,0:0:0:0:
256,196,389664,1,0,0:0:0:0:
256,196,390540,1,0,0:0:0:0:
256,196,390977,1,0,0:0:0:0:
256,196,391196,1,0,0:0:0:0:
256,196,391415,1,8,0:0:0:0:
256,196,391853,1,0,0:0:0:0:
256,196,392072,1,8,0:0:0:0:
256,196,392291,1,8,0:0:0:0:
256,196,392729,1,0,0:0:0:0:
256,196,393167,1,8,0:0:0:0:
256,196,393605,1,0,0:0:0:0:
256,196,393824,1,8,0:0:0:0:
256,196,394043,1,0,0:0:0:0:
256,196,394481,1,8,0:0:0:0:
256,196,394700,1,8,0:0:0:0:
256,196,394919,1,0,0:0:0:0:
256,196,395138,1,0,0:0:0:0:
256,196,395357,1,8,0:0:0:0:
256,196,395576,1,0,0:0:0:0:
256,196,395795,1,8,0:0:0:0:
256,196,396014,1,0,0:0:0:0:
256,196,396233,1,8,0:0:0:0:
256,196,396452,1,8,0:0:0:0:
256,196,396671,1,8,0:0:0:0:
256,196,396890,1,0,0:0:0:0:
256,196,397109,1,8,0:0:0:0:
256,196,397328,1,8,0:0:0:0:
256,196,397547,1,4,0:0:0:0:
